osu file format v13

[General]
AudioFilename: Freedom Dive.mp3
AudioLeadIn: 0
PreviewTime: 107972
Countdown: 0
SampleSet: Normal
StackLeniency: 0.7
Mode: 3
LetterboxInBreaks: 0
SpecialStyle: 0
WidescreenStoryboard: 1

[Editor]
Bookmarks: 164134,200854
DistanceSpacing: 0.8
BeatDivisor: 4
GridSize: 8
TimelineZoom: 2.999999

[Metadata]
Title:FREEDOM DiVE
TitleUnicode:FREEDOM DiVE
Artist:xi
ArtistUnicode:xi
Creator:razlteh
Version:Tear's 7K Hyper
Source:Cytus
Tags:bms blocko fullerene- tear dainesl
BeatmapID:420779
BeatmapSetID:173612

[Difficulty]
HPDrainRate:7
CircleSize:7
OverallDifficulty:8
ApproachRate:5
SliderMultiplier:1.4
SliderTickRate:1

[Events]
//Background and Video events
0,0,"background desuuu.jpg",0,0
//Break Periods
//Storyboard Layer 0 (Background)
//Storyboard Layer 1 (Fail)
//Storyboard Layer 2 (Pass)
//Storyboard Layer 3 (Foreground)
//Storyboard Sound Samples
//Background Colour Transformations
3,100,163,162,255

[TimingPoints]
2133,270.002700027,4,1,0,30,1,0
10772,-100,4,1,0,30,0,0
28052,-100,4,1,0,30,0,0
47492,-100,4,1,0,30,0,0
64772,-100,4,1,0,30,0,1
82052,-111.111111111111,4,1,0,30,0,0
98252,-109.89010989011,4,1,0,30,0,0
98253,-109.89010989011,4,1,0,5,0,0
99332,-108.695652173913,4,1,0,5,0,0
99333,-108.695652173913,4,1,0,10,0,0
100412,-106.382978723404,4,1,0,10,0,0
100413,-106.382978723404,4,1,0,15,0,0
101492,-105.263157894737,4,1,0,15,0,0
101493,-105.263157894737,4,1,0,20,0,0
102572,-104.166666666667,4,1,0,20,0,0
102574,-104.166666666667,4,1,0,25,0,0
103652,-102.040816326531,4,1,0,25,0,0
103654,-102.040816326531,4,1,0,30,0,0
104732,-101.010101010101,4,1,0,30,0,0
104734,-101.010101010101,4,1,0,40,0,0
105812,-100,4,1,0,40,0,0
105814,-100,4,1,0,50,0,0
106084,-100,4,1,0,60,0,0
106354,-100,4,1,0,70,0,0
106624,-100,4,1,0,85,0,0
106894,-100,4,1,0,100,0,0
107704,-100,4,1,0,30,0,0
107974,-100,4,1,0,30,0,1
146853,-100,4,1,0,30,0,0
218135,-100,4,1,0,30,0,1
257015,-100,4,1,0,30,0,0

[HitObjects]
402,192,1322,128,0,2132:0:0:0:0:
36,192,2132,1,4,0:0:0:0:
256,192,2132,1,0,0:0:0:0:
475,192,2132,1,0,0:0:0:0:
182,192,2268,1,0,0:0:0:0:
109,192,2335,1,2,0:0:0:0:
329,192,2335,1,0,0:0:0:0:
182,192,2538,1,2,0:0:0:0:
402,192,2538,1,0,0:0:0:0:
329,192,2808,1,2,0:0:0:0:
109,192,2808,1,0,0:0:0:0:
256,192,2943,1,2,0:0:0:0:
182,192,3078,1,2,0:0:0:0:
402,192,3078,1,0,0:0:0:0:
36,192,3213,1,4,0:0:0:0:
256,192,3348,1,0,0:0:0:0:
475,192,3348,1,0,0:0:0:0:
109,192,3415,1,2,0:0:0:0:
182,192,3618,1,2,0:0:0:0:
402,192,3618,1,0,0:0:0:0:
256,192,3753,1,0,0:0:0:0:
36,192,3888,1,2,0:0:0:0:
475,192,3888,1,0,0:0:0:0:
256,192,4023,1,0,0:0:0:0:
109,192,4158,1,0,0:0:0:0:
402,192,4158,1,0,0:0:0:0:
36,192,4293,1,4,0:0:0:0:
256,192,4293,1,0,0:0:0:0:
475,192,4293,1,0,0:0:0:0:
182,192,4428,1,0,0:0:0:0:
402,192,4428,1,0,0:0:0:0:
329,192,4495,1,2,0:0:0:0:
36,192,4698,1,2,0:0:0:0:
256,192,4698,1,0,0:0:0:0:
256,192,4968,1,2,0:0:0:0:
475,192,4968,1,0,0:0:0:0:
109,192,5103,1,2,0:0:0:0:
182,192,5238,1,2,0:0:0:0:
402,192,5238,1,0,0:0:0:0:
36,192,5373,1,4,0:0:0:0:
109,192,5508,1,0,0:0:0:0:
402,192,5508,1,0,0:0:0:0:
329,192,5575,1,2,0:0:0:0:
475,192,5778,1,2,0:0:0:0:
182,192,5778,1,0,0:0:0:0:
329,192,5913,1,4,0:0:0:0:
402,192,5980,1,0,0:0:0:0:
36,192,6048,1,2,0:0:0:0:
109,192,6093,1,0,0:0:0:0:
182,192,6138,1,0,0:0:0:0:
256,192,6183,1,2,0:0:0:0:
475,192,6183,1,0,0:0:0:0:
402,192,6318,1,2,0:0:0:0:
256,192,6453,1,4,0:0:0:0:
36,192,6453,1,0,0:0:0:0:
329,192,6453,1,0,0:0:0:0:
182,192,6588,1,0,0:0:0:0:
475,192,6588,1,0,0:0:0:0:
109,192,6655,1,2,0:0:0:0:
402,192,6858,1,2,0:0:0:0:
256,192,6858,1,0,0:0:0:0:
182,192,7128,1,2,0:0:0:0:
329,192,7128,1,0,0:0:0:0:
475,192,7263,1,2,0:0:0:0:
256,192,7398,1,2,0:0:0:0:
109,192,7398,1,0,0:0:0:0:
36,192,7533,1,4,0:0:0:0:
182,192,7668,1,0,0:0:0:0:
402,192,7668,1,0,0:0:0:0:
329,192,7735,1,2,0:0:0:0:
256,192,7938,1,2,0:0:0:0:
475,192,7938,1,0,0:0:0:0:
182,192,8073,1,0,0:0:0:0:
109,192,8208,1,2,0:0:0:0:
402,192,8208,1,0,0:0:0:0:
329,192,8343,1,0,0:0:0:0:
109,192,8478,1,0,0:0:0:0:
402,192,8478,1,0,0:0:0:0:
182,192,8613,1,4,0:0:0:0:
36,192,8613,1,0,0:0:0:0:
475,192,8613,1,0,0:0:0:0:
329,192,8748,1,0,0:0:0:0:
109,192,8748,1,0,0:0:0:0:
256,192,8815,1,2,0:0:0:0:
109,192,9018,1,2,0:0:0:0:
402,192,9018,1,0,0:0:0:0:
36,192,9153,1,4,0:0:0:0:
475,192,9153,1,0,0:0:0:0:
402,192,9288,1,2,0:0:0:0:
256,192,9423,1,2,0:0:0:0:
109,192,9558,1,2,0:0:0:0:
36,192,9693,1,4,0:0:0:0:
475,192,9693,1,0,0:0:0:0:
109,192,9828,1,2,0:0:0:0:
182,192,9895,1,0,0:0:0:0:
36,192,9963,1,4,0:0:0:0:
402,192,9963,1,0,0:0:0:0:
182,192,10098,1,2,0:0:0:0:
256,192,10165,1,0,0:0:0:0:
475,192,10233,1,6,0:0:0:0:
36,192,10233,1,0,0:0:0:0:
256,192,10368,1,6,0:0:0:0:
329,192,10435,1,0,0:0:0:0:
36,192,10503,1,6,0:0:0:0:
402,192,10503,1,0,0:0:0:0:
182,192,10570,1,0,0:0:0:0:
329,192,10638,1,2,0:0:0:0:
402,192,10705,1,0,0:0:0:0:
475,192,10773,1,4,0:0:0:0:
36,192,10773,1,0,0:0:0:0:
329,192,10908,128,0,11043:0:0:0:0:
109,192,11043,1,8,0:0:0:0:
402,192,11043,1,0,0:0:0:0:
182,192,11178,128,0,11313:0:0:0:0:
256,192,11313,1,0,0:0:0:0:
329,192,11448,128,0,11583:0:0:0:0:
36,192,11583,1,8,0:0:0:0:
402,192,11583,1,0,0:0:0:0:
109,192,11718,128,0,11853:0:0:0:0:
256,192,11853,1,0,0:0:0:0:
475,192,11853,1,0,0:0:0:0:
402,192,11988,128,0,12123:0:0:0:0:
182,192,12123,1,8,0:0:0:0:
36,192,12123,1,0,0:0:0:0:
109,192,12258,128,0,12393:0:0:0:0:
256,192,12393,1,0,0:0:0:0:
475,192,12393,1,0,0:0:0:0:
402,192,12528,128,0,12663:0:0:0:0:
329,192,12663,1,8,0:0:0:0:
36,192,12663,1,0,0:0:0:0:
182,192,12798,128,0,12933:0:0:0:0:
256,192,12933,1,4,0:0:0:0:
402,192,12933,1,0,0:0:0:0:
36,192,12933,1,0,0:0:0:0:
329,192,13068,128,0,13203:0:0:0:0:
475,192,13203,1,8,0:0:0:0:
109,192,13203,1,0,0:0:0:0:
182,192,13338,128,0,13473:0:0:0:0:
402,192,13473,1,0,0:0:0:0:
329,192,13608,128,0,13743:0:0:0:0:
109,192,13743,1,8,0:0:0:0:
475,192,13743,1,0,0:0:0:0:
36,192,13878,128,0,14013:0:0:0:0:
256,192,14013,1,0,0:0:0:0:
475,192,14148,128,0,14283:0:0:0:0:
329,192,14283,1,12,0:0:0:0:
182,192,14283,1,0,0:0:0:0:
36,192,14418,128,0,14553:0:0:0:0:
109,192,14553,1,12,0:0:0:0:
402,192,14553,1,0,0:0:0:0:
256,192,14553,1,0,0:0:0:0:
182,192,14755,1,12,0:0:0:0:
329,192,14755,1,0,0:0:0:0:
256,192,14755,1,0,0:0:0:0:
109,192,14958,1,12,0:0:0:0:
402,192,14958,1,0,0:0:0:0:
256,192,14958,1,0,0:0:0:0:
36,192,15093,1,4,0:0:0:0:
475,192,15093,1,0,0:0:0:0:
329,192,15093,1,0,0:0:0:0:
182,192,15093,1,0,0:0:0:0:
109,192,15228,128,0,15363:0:0:0:0:
182,192,15363,1,8,0:0:0:0:
402,192,15363,1,0,0:0:0:0:
329,192,15498,128,0,15633:0:0:0:0:
36,192,15633,1,0,0:0:0:0:
182,192,15768,128,0,15903:0:0:0:0:
109,192,15903,1,12,0:0:0:0:
329,192,15903,1,0,0:0:0:0:
475,192,15903,1,0,0:0:0:0:
36,192,16038,1,4,0:0:0:0:
402,192,16038,1,0,0:0:0:0:
256,192,16038,1,0,0:0:0:0:
182,192,16173,1,0,0:0:0:0:
256,192,16308,1,4,0:0:0:0:
402,192,16308,1,0,0:0:0:0:
182,192,16375,1,0,0:0:0:0:
109,192,16443,1,12,0:0:0:0:
475,192,16443,1,0,0:0:0:0:
36,192,16443,1,0,0:0:0:0:
329,192,16578,1,0,0:0:0:0:
256,192,16645,1,0,0:0:0:0:
182,192,16713,1,4,0:0:0:0:
36,192,16713,1,0,0:0:0:0:
402,192,16713,1,0,0:0:0:0:
256,192,16848,1,4,0:0:0:0:
329,192,16915,1,0,0:0:0:0:
402,192,16983,1,12,0:0:0:0:
475,192,16983,1,0,0:0:0:0:
109,192,16983,1,0,0:0:0:0:
182,192,17050,1,0,0:0:0:0:
256,192,17118,1,0,0:0:0:0:
329,192,17185,1,0,0:0:0:0:
36,192,17253,1,4,0:0:0:0:
182,192,17253,1,0,0:0:0:0:
402,192,17253,1,0,0:0:0:0:
329,192,17388,128,0,17523:0:0:0:0:
109,192,17523,1,8,0:0:0:0:
475,192,17523,1,0,0:0:0:0:
182,192,17658,128,0,17793:0:0:0:0:
36,192,17793,1,4,0:0:0:0:
256,192,17793,1,0,0:0:0:0:
329,192,17793,1,0,0:0:0:0:
402,192,17928,128,0,18063:0:0:0:0:
182,192,18063,1,8,0:0:0:0:
475,192,18063,1,0,0:0:0:0:
109,192,18198,128,0,18333:0:0:0:0:
36,192,18333,1,12,0:0:0:0:
182,192,18333,1,0,0:0:0:0:
329,192,18333,1,0,0:0:0:0:
475,192,18333,1,0,0:0:0:0:
329,192,18468,1,0,0:0:0:0:
256,192,18535,1,0,0:0:0:0:
109,192,18603,1,12,0:0:0:0:
475,192,18603,1,0,0:0:0:0:
182,192,18603,1,0,0:0:0:0:
256,192,18738,1,0,0:0:0:0:
329,192,18805,1,0,0:0:0:0:
402,192,18873,1,12,0:0:0:0:
36,192,18873,1,0,0:0:0:0:
475,192,18873,1,0,0:0:0:0:
329,192,18940,1,0,0:0:0:0:
256,192,19008,1,0,0:0:0:0:
182,192,19075,1,0,0:0:0:0:
109,192,19143,1,12,0:0:0:0:
402,192,19143,1,0,0:0:0:0:
182,192,19210,1,0,0:0:0:0:
256,192,19278,1,0,0:0:0:0:
329,192,19345,1,0,0:0:0:0:
402,192,19413,1,4,0:0:0:0:
36,192,19413,1,0,0:0:0:0:
182,192,19413,1,0,0:0:0:0:
475,192,19413,1,0,0:0:0:0:
256,192,19548,128,0,19683:0:0:0:0:
109,192,19548,1,0,0:0:0:0:
182,192,19683,1,8,0:0:0:0:
402,192,19683,1,0,0:0:0:0:
36,192,19818,128,0,19953:0:0:0:0:
329,192,19818,1,0,0:0:0:0:
182,192,19953,1,0,0:0:0:0:
329,192,20088,128,0,20223:0:0:0:0:
256,192,20088,1,0,0:0:0:0:
475,192,20223,1,8,0:0:0:0:
36,192,20223,1,0,0:0:0:0:
109,192,20358,128,0,20493:0:0:0:0:
402,192,20358,1,0,0:0:0:0:
182,192,20493,1,0,0:0:0:0:
402,192,20628,128,0,20763:0:0:0:0:
256,192,20628,1,0,0:0:0:0:
475,192,20763,1,8,0:0:0:0:
109,192,20763,1,0,0:0:0:0:
182,192,20898,128,0,21033:0:0:0:0:
329,192,20898,1,0,0:0:0:0:
36,192,21033,1,0,0:0:0:0:
475,192,21168,128,0,21303:0:0:0:0:
256,192,21168,1,0,0:0:0:0:
329,192,21303,1,8,0:0:0:0:
109,192,21303,1,0,0:0:0:0:
256,192,21438,128,0,21573:0:0:0:0:
182,192,21438,1,0,0:0:0:0:
36,192,21573,1,4,0:0:0:0:
329,192,21573,1,0,0:0:0:0:
475,192,21573,1,0,0:0:0:0:
109,192,21708,128,0,21843:0:0:0:0:
182,192,21708,1,0,0:0:0:0:
402,192,21843,1,8,0:0:0:0:
256,192,21843,1,0,0:0:0:0:
329,192,21978,128,0,22113:0:0:0:0:
36,192,21978,1,0,0:0:0:0:
109,192,22113,1,0,0:0:0:0:
182,192,22248,128,0,22383:0:0:0:0:
256,192,22248,1,0,0:0:0:0:
329,192,22383,1,8,0:0:0:0:
475,192,22383,1,0,0:0:0:0:
402,192,22518,128,0,22653:0:0:0:0:
109,192,22518,1,0,0:0:0:0:
182,192,22653,1,0,0:0:0:0:
36,192,22788,128,0,22923:0:0:0:0:
256,192,22788,1,0,0:0:0:0:
402,192,22923,1,12,0:0:0:0:
475,192,22923,1,0,0:0:0:0:
182,192,22923,1,0,0:0:0:0:
329,192,23058,128,0,23193:0:0:0:0:
109,192,23058,1,0,0:0:0:0:
36,192,23193,1,12,0:0:0:0:
182,192,23193,1,0,0:0:0:0:
475,192,23193,1,0,0:0:0:0:
109,192,23395,1,12,0:0:0:0:
256,192,23395,1,0,0:0:0:0:
402,192,23395,1,0,0:0:0:0:
36,192,23598,1,12,0:0:0:0:
329,192,23598,1,0,0:0:0:0:
182,192,23598,1,0,0:0:0:0:
475,192,23733,1,4,0:0:0:0:
329,192,23733,1,0,0:0:0:0:
109,192,23733,1,0,0:0:0:0:
182,192,23868,128,0,24003:0:0:0:0:
256,192,23868,1,0,0:0:0:0:
36,192,24003,1,8,0:0:0:0:
402,192,24003,1,0,0:0:0:0:
109,192,24138,128,0,24273:0:0:0:0:
329,192,24138,1,0,0:0:0:0:
182,192,24273,1,0,0:0:0:0:
329,192,24408,128,0,24543:0:0:0:0:
256,192,24408,1,0,0:0:0:0:
475,192,24543,1,12,0:0:0:0:
36,192,24543,1,0,0:0:0:0:
182,192,24543,1,0,0:0:0:0:
109,192,24543,1,0,0:0:0:0:
109,192,24678,1,4,0:0:0:0:
402,192,24678,1,0,0:0:0:0:
329,192,24678,1,0,0:0:0:0:
182,192,24948,1,4,0:0:0:0:
109,192,25015,1,0,0:0:0:0:
36,192,25083,1,12,0:0:0:0:
256,192,25083,1,0,0:0:0:0:
402,192,25083,1,0,0:0:0:0:
329,192,25218,1,0,0:0:0:0:
256,192,25285,1,0,0:0:0:0:
182,192,25353,1,4,0:0:0:0:
475,192,25353,1,0,0:0:0:0:
36,192,25353,1,0,0:0:0:0:
256,192,25420,1,0,0:0:0:0:
329,192,25488,1,4,0:0:0:0:
402,192,25555,1,0,0:0:0:0:
475,192,25623,1,12,0:0:0:0:
36,192,25623,1,0,0:0:0:0:
256,192,25623,1,0,0:0:0:0:
109,192,25690,1,0,0:0:0:0:
182,192,25758,1,0,0:0:0:0:
256,192,25825,1,0,0:0:0:0:
329,192,25893,1,4,0:0:0:0:
109,192,25893,1,0,0:0:0:0:
475,192,25893,1,0,0:0:0:0:
36,192,26028,1,0,0:0:0:0:
256,192,26028,1,0,0:0:0:0:
182,192,26163,1,8,0:0:0:0:
329,192,26163,1,0,0:0:0:0:
109,192,26298,1,0,0:0:0:0:
329,192,26298,1,0,0:0:0:0:
256,192,26433,1,4,0:0:0:0:
402,192,26433,1,0,0:0:0:0:
182,192,26568,1,0,0:0:0:0:
402,192,26568,1,0,0:0:0:0:
329,192,26703,1,8,0:0:0:0:
475,192,26703,1,0,0:0:0:0:
256,192,26838,1,0,0:0:0:0:
475,192,26838,1,0,0:0:0:0:
182,192,26973,1,4,0:0:0:0:
36,192,26973,1,0,0:0:0:0:
329,192,27108,1,0,0:0:0:0:
36,192,27108,1,0,0:0:0:0:
256,192,27243,1,12,0:0:0:0:
109,192,27243,1,0,0:0:0:0:
402,192,27378,1,0,0:0:0:0:
109,192,27378,1,0,0:0:0:0:
329,192,27513,1,4,0:0:0:0:
182,192,27513,1,0,0:0:0:0:
475,192,27648,1,0,0:0:0:0:
182,192,27648,1,0,0:0:0:0:
402,192,27783,1,12,0:0:0:0:
256,192,27783,1,0,0:0:0:0:
256,192,27918,1,0,0:0:0:0:
109,192,27918,1,0,0:0:0:0:
475,192,28053,128,4,29133:0:0:0:0:
329,192,28053,1,0,0:0:0:0:
36,192,28053,1,0,0:0:0:0:
329,192,28255,1,0,0:0:0:0:
329,192,28458,1,0,0:0:0:0:
256,192,28660,1,0,0:0:0:0:
256,192,28863,1,0,0:0:0:0:
256,192,28998,1,0,0:0:0:0:
182,192,29133,1,0,0:0:0:0:
182,192,29335,1,0,0:0:0:0:
182,192,29538,1,0,0:0:0:0:
36,192,29740,1,0,0:0:0:0:
36,192,29943,1,0,0:0:0:0:
36,192,30078,1,0,0:0:0:0:
182,192,30213,1,0,0:0:0:0:
402,192,30213,1,0,0:0:0:0:
182,192,30415,1,0,0:0:0:0:
182,192,30618,1,0,0:0:0:0:
109,192,30820,1,0,0:0:0:0:
109,192,31023,1,0,0:0:0:0:
109,192,31158,1,0,0:0:0:0:
36,192,31293,1,0,0:0:0:0:
475,192,31293,1,0,0:0:0:0:
36,192,31495,1,0,0:0:0:0:
109,192,31698,1,0,0:0:0:0:
182,192,31833,1,0,0:0:0:0:
402,192,31833,1,0,0:0:0:0:
256,192,31968,1,0,0:0:0:0:
329,192,32103,1,0,0:0:0:0:
402,192,32238,1,0,0:0:0:0:
475,192,32373,1,0,0:0:0:0:
109,192,32373,1,0,0:0:0:0:
475,192,32575,1,0,0:0:0:0:
475,192,32778,1,0,0:0:0:0:
329,192,32913,1,0,0:0:0:0:
329,192,33048,1,0,0:0:0:0:
402,192,33183,1,0,0:0:0:0:
402,192,33318,1,0,0:0:0:0:
475,192,33453,1,0,0:0:0:0:
182,192,33453,1,0,0:0:0:0:
475,192,33588,1,0,0:0:0:0:
402,192,33723,1,0,0:0:0:0:
402,192,33858,1,0,0:0:0:0:
329,192,33993,1,0,0:0:0:0:
109,192,33993,1,0,0:0:0:0:
329,192,34128,1,0,0:0:0:0:
256,192,34263,1,0,0:0:0:0:
256,192,34398,1,0,0:0:0:0:
182,192,34533,1,0,0:0:0:0:
36,192,34533,1,0,0:0:0:0:
182,192,34668,1,0,0:0:0:0:
109,192,34803,1,0,0:0:0:0:
109,192,34938,1,0,0:0:0:0:
36,192,35073,1,0,0:0:0:0:
36,192,35208,1,0,0:0:0:0:
256,192,35343,1,0,0:0:0:0:
256,192,35478,1,0,0:0:0:0:
182,192,35613,1,0,0:0:0:0:
475,192,35613,1,0,0:0:0:0:
182,192,35815,1,0,0:0:0:0:
182,192,36018,1,0,0:0:0:0:
36,192,36220,1,0,0:0:0:0:
36,192,36423,1,0,0:0:0:0:
36,192,36558,1,0,0:0:0:0:
402,192,36558,1,0,0:0:0:0:
329,192,36625,1,0,0:0:0:0:
109,192,36693,1,4,0:0:0:0:
256,192,36693,1,0,0:0:0:0:
475,192,36693,1,0,0:0:0:0:
109,192,36828,1,0,0:0:0:0:
182,192,36963,1,0,0:0:0:0:
182,192,37098,1,0,0:0:0:0:
256,192,37233,1,0,0:0:0:0:
256,192,37368,1,0,0:0:0:0:
475,192,37503,1,0,0:0:0:0:
475,192,37638,1,0,0:0:0:0:
402,192,37773,1,0,0:0:0:0:
182,192,37773,1,0,0:0:0:0:
475,192,37863,1,0,0:0:0:0:
402,192,37953,1,0,0:0:0:0:
329,192,38043,1,0,0:0:0:0:
329,192,38178,1,0,0:0:0:0:
256,192,38313,1,0,0:0:0:0:
109,192,38313,1,0,0:0:0:0:
256,192,38515,1,0,0:0:0:0:
182,192,38718,1,0,0:0:0:0:
109,192,38853,1,4,0:0:0:0:
475,192,38853,1,0,0:0:0:0:
329,192,38853,1,0,0:0:0:0:
109,192,38988,1,0,0:0:0:0:
182,192,39123,1,0,0:0:0:0:
182,192,39258,1,0,0:0:0:0:
329,192,39393,1,0,0:0:0:0:
109,192,39393,1,0,0:0:0:0:
329,192,39528,1,0,0:0:0:0:
475,192,39663,1,0,0:0:0:0:
475,192,39798,1,0,0:0:0:0:
402,192,39933,1,0,0:0:0:0:
182,192,39933,1,0,0:0:0:0:
402,192,40068,1,0,0:0:0:0:
329,192,40203,1,0,0:0:0:0:
329,192,40338,1,0,0:0:0:0:
256,192,40473,1,0,0:0:0:0:
109,192,40473,1,0,0:0:0:0:
256,192,40608,1,0,0:0:0:0:
329,192,40743,1,0,0:0:0:0:
329,192,40878,1,0,0:0:0:0:
402,192,41013,1,4,0:0:0:0:
36,192,41013,1,0,0:0:0:0:
182,192,41013,1,0,0:0:0:0:
402,192,41215,1,0,0:0:0:0:
402,192,41418,1,0,0:0:0:0:
109,192,41553,1,0,0:0:0:0:
109,192,41755,1,0,0:0:0:0:
329,192,41958,1,0,0:0:0:0:
36,192,41958,1,0,0:0:0:0:
109,192,42025,1,0,0:0:0:0:
402,192,42093,1,4,0:0:0:0:
182,192,42093,1,0,0:0:0:0:
475,192,42093,1,0,0:0:0:0:
402,192,42228,1,0,0:0:0:0:
109,192,42363,1,0,0:0:0:0:
109,192,42498,1,0,0:0:0:0:
402,192,42633,1,4,0:0:0:0:
182,192,42633,1,0,0:0:0:0:
36,192,42633,1,0,0:0:0:0:
475,192,42835,1,0,0:0:0:0:
475,192,43038,1,0,0:0:0:0:
402,192,43173,1,4,0:0:0:0:
182,192,43173,1,0,0:0:0:0:
36,192,43173,1,0,0:0:0:0:
402,192,43375,1,0,0:0:0:0:
402,192,43578,1,0,0:0:0:0:
182,192,43713,1,4,0:0:0:0:
36,192,43713,1,0,0:0:0:0:
256,192,43713,1,0,0:0:0:0:
182,192,43915,1,0,0:0:0:0:
256,192,43983,1,4,0:0:0:0:
36,192,43983,1,0,0:0:0:0:
182,192,44118,1,0,0:0:0:0:
475,192,44253,1,4,0:0:0:0:
402,192,44253,1,0,0:0:0:0:
109,192,44388,1,0,0:0:0:0:
36,192,44388,1,0,0:0:0:0:
329,192,44523,1,4,0:0:0:0:
256,192,44523,1,0,0:0:0:0:
402,192,44658,1,0,0:0:0:0:
475,192,44658,1,0,0:0:0:0:
182,192,44793,1,4,0:0:0:0:
256,192,44793,1,0,0:0:0:0:
109,192,44928,1,0,0:0:0:0:
36,192,44928,1,0,0:0:0:0:
329,192,45063,1,4,0:0:0:0:
256,192,45063,1,0,0:0:0:0:
256,192,45198,1,0,0:0:0:0:
402,192,45198,1,0,0:0:0:0:
475,192,45198,1,0,0:0:0:0:
182,192,45265,1,0,0:0:0:0:
109,192,45333,128,4,45468:0:0:0:0:
329,192,45333,1,0,0:0:0:0:
36,192,45333,1,0,0:0:0:0:
256,192,45468,1,0,0:0:0:0:
182,192,45603,128,0,45738:0:0:0:0:
402,192,45603,1,0,0:0:0:0:
36,192,45603,1,0,0:0:0:0:
329,192,45738,1,0,0:0:0:0:
256,192,45873,128,4,46008:0:0:0:0:
475,192,45873,1,0,0:0:0:0:
109,192,45873,1,0,0:0:0:0:
402,192,46008,1,0,0:0:0:0:
329,192,46143,128,0,46278:0:0:0:0:
109,192,46143,1,0,0:0:0:0:
475,192,46143,1,0,0:0:0:0:
36,192,46278,1,0,0:0:0:0:
182,192,46413,128,4,46548:0:0:0:0:
402,192,46413,1,0,0:0:0:0:
256,192,46413,1,0,0:0:0:0:
36,192,46548,1,0,0:0:0:0:
256,192,46683,128,4,46818:0:0:0:0:
475,192,46683,1,0,0:0:0:0:
329,192,46683,1,0,0:0:0:0:
109,192,46818,1,0,0:0:0:0:
329,192,46953,128,4,47088:0:0:0:0:
475,192,46953,1,0,0:0:0:0:
402,192,46953,1,0,0:0:0:0:
256,192,47088,1,0,0:0:0:0:
182,192,47133,1,0,0:0:0:0:
109,192,47178,1,0,0:0:0:0:
402,192,47223,128,4,47358:0:0:0:0:
36,192,47223,1,0,0:0:0:0:
475,192,47223,1,0,0:0:0:0:
109,192,47290,1,0,0:0:0:0:
182,192,47358,1,0,0:0:0:0:
256,192,47425,1,0,0:0:0:0:
36,192,47493,1,4,0:0:0:0:
329,192,47493,1,0,0:0:0:0:
475,192,47493,1,0,0:0:0:0:
109,192,47628,1,0,0:0:0:0:
36,192,47763,1,8,0:0:0:0:
256,192,47763,1,0,0:0:0:0:
329,192,47763,1,0,0:0:0:0:
402,192,47898,1,0,0:0:0:0:
182,192,48033,1,0,0:0:0:0:
475,192,48033,1,0,0:0:0:0:
256,192,48168,1,0,0:0:0:0:
329,192,48303,1,8,0:0:0:0:
36,192,48303,1,0,0:0:0:0:
109,192,48303,1,0,0:0:0:0:
182,192,48438,1,0,0:0:0:0:
109,192,48573,1,0,0:0:0:0:
402,192,48573,1,0,0:0:0:0:
329,192,48708,1,0,0:0:0:0:
256,192,48843,1,8,0:0:0:0:
36,192,48843,1,0,0:0:0:0:
475,192,48843,1,0,0:0:0:0:
109,192,48978,1,0,0:0:0:0:
182,192,49113,1,0,0:0:0:0:
402,192,49113,1,0,0:0:0:0:
329,192,49248,1,0,0:0:0:0:
256,192,49383,1,8,0:0:0:0:
36,192,49383,1,0,0:0:0:0:
109,192,49383,1,0,0:0:0:0:
182,192,49518,1,0,0:0:0:0:
109,192,49653,1,0,0:0:0:0:
329,192,49653,1,0,0:0:0:0:
402,192,49788,1,0,0:0:0:0:
475,192,49923,1,8,0:0:0:0:
256,192,49923,1,0,0:0:0:0:
109,192,49923,1,0,0:0:0:0:
182,192,50058,1,0,0:0:0:0:
36,192,50193,1,0,0:0:0:0:
329,192,50193,1,0,0:0:0:0:
256,192,50328,1,0,0:0:0:0:
109,192,50463,1,8,0:0:0:0:
475,192,50463,1,0,0:0:0:0:
329,192,50463,1,0,0:0:0:0:
36,192,50598,1,0,0:0:0:0:
182,192,50733,1,0,0:0:0:0:
402,192,50733,1,0,0:0:0:0:
329,192,50868,1,0,0:0:0:0:
256,192,51003,1,8,0:0:0:0:
36,192,51003,1,0,0:0:0:0:
402,192,51003,1,0,0:0:0:0:
182,192,51138,1,0,0:0:0:0:
109,192,51273,1,0,0:0:0:0:
329,192,51273,1,0,0:0:0:0:
182,192,51408,1,0,0:0:0:0:
256,192,51543,1,8,0:0:0:0:
36,192,51543,1,0,0:0:0:0:
402,192,51543,1,0,0:0:0:0:
329,192,51678,1,0,0:0:0:0:
109,192,51813,1,0,0:0:0:0:
475,192,51813,1,0,0:0:0:0:
182,192,51948,1,0,0:0:0:0:
402,192,52083,1,8,0:0:0:0:
109,192,52083,1,0,0:0:0:0:
36,192,52083,1,0,0:0:0:0:
329,192,52218,1,0,0:0:0:0:
256,192,52353,1,0,0:0:0:0:
36,192,52353,1,0,0:0:0:0:
109,192,52488,1,0,0:0:0:0:
475,192,52623,1,8,0:0:0:0:
329,192,52623,1,0,0:0:0:0:
182,192,52623,1,0,0:0:0:0:
402,192,52758,1,0,0:0:0:0:
256,192,52893,1,0,0:0:0:0:
36,192,52893,1,0,0:0:0:0:
109,192,53028,1,0,0:0:0:0:
402,192,53163,1,8,0:0:0:0:
329,192,53163,1,0,0:0:0:0:
36,192,53163,1,0,0:0:0:0:
182,192,53298,1,0,0:0:0:0:
256,192,53433,1,0,0:0:0:0:
475,192,53433,1,0,0:0:0:0:
402,192,53568,1,0,0:0:0:0:
36,192,53703,1,8,0:0:0:0:
109,192,53703,1,0,0:0:0:0:
329,192,53703,1,0,0:0:0:0:
182,192,53838,1,0,0:0:0:0:
109,192,53973,1,0,0:0:0:0:
402,192,53973,1,0,0:0:0:0:
256,192,54108,1,0,0:0:0:0:
182,192,54243,1,8,0:0:0:0:
329,192,54243,1,0,0:0:0:0:
109,192,54378,1,0,0:0:0:0:
402,192,54378,1,0,0:0:0:0:
475,192,54513,1,0,0:0:0:0:
36,192,54513,1,0,0:0:0:0:
256,192,54648,1,0,0:0:0:0:
182,192,54783,1,8,0:0:0:0:
329,192,54783,1,0,0:0:0:0:
402,192,54918,1,0,0:0:0:0:
109,192,54918,1,0,0:0:0:0:
36,192,55053,1,0,0:0:0:0:
475,192,55053,1,0,0:0:0:0:
329,192,55188,1,0,0:0:0:0:
36,192,55323,1,12,0:0:0:0:
182,192,55323,1,0,0:0:0:0:
329,192,55323,1,0,0:0:0:0:
109,192,55458,1,0,0:0:0:0:
109,192,55593,1,12,0:0:0:0:
256,192,55593,1,0,0:0:0:0:
402,192,55593,1,0,0:0:0:0:
329,192,55728,1,0,0:0:0:0:
329,192,55863,1,12,0:0:0:0:
182,192,55863,1,0,0:0:0:0:
475,192,55863,1,0,0:0:0:0:
109,192,55931,1,0,0:0:0:0:
36,192,55998,1,0,0:0:0:0:
109,192,56066,1,0,0:0:0:0:
402,192,56133,1,4,0:0:0:0:
329,192,56133,128,0,56268:0:0:0:0:
182,192,56133,1,0,0:0:0:0:
36,192,56268,1,0,0:0:0:0:
329,192,56403,128,8,56538:0:0:0:0:
109,192,56403,1,0,0:0:0:0:
475,192,56403,1,0,0:0:0:0:
182,192,56538,1,0,0:0:0:0:
402,192,56673,128,0,56808:0:0:0:0:
36,192,56673,1,0,0:0:0:0:
256,192,56808,1,0,0:0:0:0:
329,192,56943,128,8,57078:0:0:0:0:
109,192,56943,1,0,0:0:0:0:
475,192,56943,1,0,0:0:0:0:
182,192,57078,1,0,0:0:0:0:
256,192,57213,128,0,57348:0:0:0:0:
402,192,57213,1,0,0:0:0:0:
36,192,57348,1,0,0:0:0:0:
182,192,57483,128,8,57618:0:0:0:0:
475,192,57483,1,0,0:0:0:0:
329,192,57483,1,0,0:0:0:0:
402,192,57618,1,0,0:0:0:0:
109,192,57753,128,0,57888:0:0:0:0:
329,192,57753,1,0,0:0:0:0:
256,192,57888,1,0,0:0:0:0:
36,192,58023,128,8,58158:0:0:0:0:
182,192,58023,1,0,0:0:0:0:
475,192,58023,1,0,0:0:0:0:
256,192,58158,1,0,0:0:0:0:
109,192,58293,128,0,58428:0:0:0:0:
329,192,58293,1,0,0:0:0:0:
402,192,58428,1,0,0:0:0:0:
256,192,58563,128,8,58698:0:0:0:0:
475,192,58563,1,0,0:0:0:0:
36,192,58563,1,0,0:0:0:0:
109,192,58698,1,0,0:0:0:0:
402,192,58833,128,0,58968:0:0:0:0:
182,192,58833,1,0,0:0:0:0:
109,192,58968,1,0,0:0:0:0:
402,192,59103,128,8,59238:0:0:0:0:
256,192,59103,1,0,0:0:0:0:
36,192,59103,1,0,0:0:0:0:
182,192,59238,1,0,0:0:0:0:
475,192,59373,128,0,59508:0:0:0:0:
329,192,59373,1,0,0:0:0:0:
109,192,59508,1,0,0:0:0:0:
402,192,59643,128,8,59778:0:0:0:0:
256,192,59643,1,0,0:0:0:0:
36,192,59643,1,0,0:0:0:0:
182,192,59778,1,0,0:0:0:0:
329,192,59913,128,0,60048:0:0:0:0:
475,192,59913,1,0,0:0:0:0:
109,192,59913,1,0,0:0:0:0:
256,192,60048,1,0,0:0:0:0:
182,192,60183,128,8,60318:0:0:0:0:
402,192,60183,1,0,0:0:0:0:
36,192,60183,1,0,0:0:0:0:
329,192,60318,1,0,0:0:0:0:
256,192,60453,128,0,60588:0:0:0:0:
109,192,60453,1,0,0:0:0:0:
402,192,60588,1,0,0:0:0:0:
329,192,60723,128,8,60858:0:0:0:0:
109,192,60723,1,0,0:0:0:0:
475,192,60723,1,0,0:0:0:0:
182,192,60858,1,0,0:0:0:0:
402,192,60993,128,0,61128:0:0:0:0:
256,192,60993,1,0,0:0:0:0:
36,192,61128,1,0,0:0:0:0:
256,192,61263,128,8,61398:0:0:0:0:
109,192,61263,1,0,0:0:0:0:
475,192,61263,1,0,0:0:0:0:
402,192,61398,1,0,0:0:0:0:
182,192,61533,128,0,61668:0:0:0:0:
329,192,61533,1,0,0:0:0:0:
256,192,61668,1,0,0:0:0:0:
475,192,61803,128,8,61938:0:0:0:0:
36,192,61803,1,0,0:0:0:0:
329,192,61803,1,0,0:0:0:0:
109,192,61938,1,0,0:0:0:0:
402,192,62073,128,0,62208:0:0:0:0:
182,192,62073,1,0,0:0:0:0:
329,192,62208,1,0,0:0:0:0:
182,192,62343,128,8,62478:0:0:0:0:
36,192,62343,1,0,0:0:0:0:
475,192,62343,1,0,0:0:0:0:
329,192,62478,1,0,0:0:0:0:
36,192,62613,1,0,0:0:0:0:
182,192,62613,1,0,0:0:0:0:
402,192,62613,1,0,0:0:0:0:
109,192,62748,1,0,0:0:0:0:
256,192,62748,1,0,0:0:0:0:
182,192,62883,1,8,0:0:0:0:
329,192,62883,1,0,0:0:0:0:
36,192,62883,1,0,0:0:0:0:
256,192,63018,1,0,0:0:0:0:
402,192,63018,1,0,0:0:0:0:
329,192,63153,1,0,0:0:0:0:
475,192,63153,1,0,0:0:0:0:
109,192,63153,1,0,0:0:0:0:
36,192,63288,1,0,0:0:0:0:
182,192,63288,1,0,0:0:0:0:
109,192,63423,1,8,0:0:0:0:
256,192,63423,1,0,0:0:0:0:
475,192,63423,1,0,0:0:0:0:
182,192,63558,1,0,0:0:0:0:
329,192,63558,1,0,0:0:0:0:
256,192,63693,1,8,0:0:0:0:
402,192,63693,1,0,0:0:0:0:
36,192,63693,1,0,0:0:0:0:
256,192,63828,1,0,0:0:0:0:
109,192,63828,1,0,0:0:0:0:
329,192,63963,1,12,0:0:0:0:
182,192,63963,1,0,0:0:0:0:
36,192,63963,1,0,0:0:0:0:
475,192,63963,1,0,0:0:0:0:
402,192,64031,1,0,0:0:0:0:
329,192,64098,1,0,0:0:0:0:
256,192,64166,1,0,0:0:0:0:
182,192,64233,1,4,0:0:0:0:
402,192,64233,1,0,0:0:0:0:
329,192,64301,1,0,0:0:0:0:
256,192,64368,1,0,0:0:0:0:
182,192,64436,1,0,0:0:0:0:
329,192,64503,1,12,0:0:0:0:
109,192,64503,1,0,0:0:0:0:
256,192,64571,1,0,0:0:0:0:
182,192,64638,1,0,0:0:0:0:
109,192,64706,1,0,0:0:0:0:
36,192,64773,1,6,0:0:0:0:
329,192,64773,1,0,0:0:0:0:
475,192,64773,1,0,0:0:0:0:
109,192,64908,1,0,0:0:0:0:
329,192,64976,1,2,0:0:0:0:
182,192,65043,1,8,0:0:0:0:
402,192,65043,1,0,0:0:0:0:
329,192,65178,1,2,0:0:0:0:
109,192,65178,1,0,0:0:0:0:
36,192,65313,1,0,0:0:0:0:
402,192,65313,1,0,0:0:0:0:
256,192,65381,1,2,0:0:0:0:
182,192,65448,1,0,0:0:0:0:
256,192,65583,1,10,0:0:0:0:
109,192,65583,1,0,0:0:0:0:
475,192,65583,1,0,0:0:0:0:
402,192,65718,1,2,0:0:0:0:
182,192,65853,1,2,0:0:0:0:
329,192,65853,1,0,0:0:0:0:
36,192,65853,1,0,0:0:0:0:
109,192,65988,1,0,0:0:0:0:
182,192,66056,1,2,0:0:0:0:
475,192,66123,1,8,0:0:0:0:
256,192,66123,1,0,0:0:0:0:
182,192,66258,1,2,0:0:0:0:
402,192,66258,1,0,0:0:0:0:
329,192,66393,1,0,0:0:0:0:
109,192,66393,1,0,0:0:0:0:
36,192,66461,1,2,0:0:0:0:
182,192,66528,1,0,0:0:0:0:
36,192,66663,1,10,0:0:0:0:
256,192,66663,1,0,0:0:0:0:
475,192,66663,1,0,0:0:0:0:
402,192,66798,1,2,0:0:0:0:
182,192,66933,1,2,0:0:0:0:
329,192,66933,1,0,0:0:0:0:
109,192,66933,1,0,0:0:0:0:
256,192,67068,1,0,0:0:0:0:
182,192,67136,1,2,0:0:0:0:
36,192,67203,1,8,0:0:0:0:
475,192,67203,1,0,0:0:0:0:
182,192,67338,1,2,0:0:0:0:
402,192,67338,1,0,0:0:0:0:
36,192,67473,1,0,0:0:0:0:
256,192,67473,1,0,0:0:0:0:
109,192,67541,1,2,0:0:0:0:
475,192,67608,1,0,0:0:0:0:
109,192,67743,1,10,0:0:0:0:
182,192,67743,1,0,0:0:0:0:
402,192,67743,1,0,0:0:0:0:
329,192,67878,1,2,0:0:0:0:
36,192,68013,1,2,0:0:0:0:
256,192,68013,1,0,0:0:0:0:
475,192,68013,1,0,0:0:0:0:
182,192,68148,1,2,0:0:0:0:
36,192,68216,1,0,0:0:0:0:
256,192,68216,1,0,0:0:0:0:
329,192,68283,1,8,0:0:0:0:
475,192,68283,1,0,0:0:0:0:
109,192,68418,1,2,0:0:0:0:
402,192,68418,1,0,0:0:0:0:
182,192,68553,1,0,0:0:0:0:
329,192,68553,1,0,0:0:0:0:
256,192,68688,1,2,0:0:0:0:
36,192,68688,1,0,0:0:0:0:
329,192,68823,1,8,0:0:0:0:
182,192,68823,1,0,0:0:0:0:
402,192,68958,1,2,0:0:0:0:
109,192,68958,1,0,0:0:0:0:
256,192,69093,1,2,0:0:0:0:
36,192,69093,1,0,0:0:0:0:
475,192,69093,1,0,0:0:0:0:
109,192,69228,1,0,0:0:0:0:
256,192,69296,1,2,0:0:0:0:
182,192,69363,1,8,0:0:0:0:
402,192,69363,1,0,0:0:0:0:
256,192,69498,1,2,0:0:0:0:
36,192,69498,1,0,0:0:0:0:
329,192,69633,1,2,0:0:0:0:
109,192,69633,1,0,0:0:0:0:
475,192,69633,1,0,0:0:0:0:
182,192,69768,1,0,0:0:0:0:
402,192,69903,1,10,0:0:0:0:
256,192,69903,1,0,0:0:0:0:
36,192,69903,1,0,0:0:0:0:
109,192,70038,1,0,0:0:0:0:
475,192,70173,1,2,0:0:0:0:
256,192,70308,1,0,0:0:0:0:
402,192,70443,1,10,0:0:0:0:
109,192,70443,1,0,0:0:0:0:
329,192,70443,1,0,0:0:0:0:
182,192,70578,1,0,0:0:0:0:
329,192,70713,1,2,0:0:0:0:
36,192,70713,1,0,0:0:0:0:
475,192,70713,1,0,0:0:0:0:
109,192,70848,1,0,0:0:0:0:
256,192,70983,1,10,0:0:0:0:
182,192,70983,1,0,0:0:0:0:
402,192,70983,1,0,0:0:0:0:
36,192,71118,1,0,0:0:0:0:
329,192,71253,1,2,0:0:0:0:
109,192,71253,1,0,0:0:0:0:
475,192,71253,1,0,0:0:0:0:
182,192,71388,1,0,0:0:0:0:
256,192,71523,1,10,0:0:0:0:
402,192,71523,1,0,0:0:0:0:
36,192,71523,1,0,0:0:0:0:
109,192,71658,1,0,0:0:0:0:
182,192,71793,1,2,0:0:0:0:
402,192,71793,1,0,0:0:0:0:
475,192,71793,1,0,0:0:0:0:
36,192,71928,1,0,0:0:0:0:
329,192,72063,1,10,0:0:0:0:
109,192,72063,1,0,0:0:0:0:
475,192,72063,1,0,0:0:0:0:
36,192,72198,1,0,0:0:0:0:
182,192,72266,1,2,0:0:0:0:
256,192,72333,1,2,0:0:0:0:
109,192,72333,1,0,0:0:0:0:
402,192,72333,1,0,0:0:0:0:
36,192,72468,1,0,0:0:0:0:
182,192,72603,1,12,0:0:0:0:
329,192,72603,1,0,0:0:0:0:
475,192,72603,1,0,0:0:0:0:
109,192,72671,1,0,0:0:0:0:
256,192,72738,1,2,0:0:0:0:
402,192,72806,1,0,0:0:0:0:
329,192,72873,1,12,0:0:0:0:
182,192,72873,1,0,0:0:0:0:
36,192,72873,1,0,0:0:0:0:
475,192,72941,1,2,0:0:0:0:
402,192,73008,1,0,0:0:0:0:
329,192,73076,1,0,0:0:0:0:
36,192,73143,1,14,0:0:0:0:
475,192,73143,1,0,0:0:0:0:
256,192,73143,1,0,0:0:0:0:
182,192,73211,1,0,0:0:0:0:
109,192,73278,1,0,0:0:0:0:
36,192,73346,1,0,0:0:0:0:
109,192,73413,1,6,0:0:0:0:
256,192,73413,1,0,0:0:0:0:
402,192,73413,1,0,0:0:0:0:
329,192,73548,1,0,0:0:0:0:
182,192,73683,1,10,0:0:0:0:
256,192,73683,1,0,0:0:0:0:
475,192,73683,1,0,0:0:0:0:
402,192,73818,1,0,0:0:0:0:
256,192,73953,1,2,0:0:0:0:
329,192,73953,1,0,0:0:0:0:
36,192,73953,1,0,0:0:0:0:
109,192,74088,1,0,0:0:0:0:
402,192,74223,1,10,0:0:0:0:
182,192,74223,1,0,0:0:0:0:
36,192,74223,1,0,0:0:0:0:
256,192,74358,1,0,0:0:0:0:
329,192,74493,1,2,0:0:0:0:
109,192,74493,1,0,0:0:0:0:
402,192,74583,1,0,0:0:0:0:
36,192,74628,1,0,0:0:0:0:
329,192,74673,1,0,0:0:0:0:
256,192,74763,1,10,0:0:0:0:
109,192,74763,1,0,0:0:0:0:
475,192,74763,1,0,0:0:0:0:
402,192,74898,1,0,0:0:0:0:
182,192,75033,1,2,0:0:0:0:
329,192,75033,1,0,0:0:0:0:
36,192,75033,1,0,0:0:0:0:
109,192,75168,1,0,0:0:0:0:
182,192,75236,1,2,0:0:0:0:
256,192,75303,1,8,0:0:0:0:
475,192,75303,1,0,0:0:0:0:
109,192,75438,1,2,0:0:0:0:
402,192,75438,1,0,0:0:0:0:
36,192,75573,1,2,0:0:0:0:
182,192,75573,1,0,0:0:0:0:
475,192,75573,1,0,0:0:0:0:
256,192,75708,1,0,0:0:0:0:
182,192,75843,1,10,0:0:0:0:
109,192,75843,1,0,0:0:0:0:
402,192,75843,1,0,0:0:0:0:
475,192,75978,1,0,0:0:0:0:
329,192,76113,1,0,0:0:0:0:
36,192,76113,1,0,0:0:0:0:
256,192,76113,1,0,0:0:0:0:
109,192,76248,1,0,0:0:0:0:
475,192,76383,1,10,0:0:0:0:
256,192,76383,1,0,0:0:0:0:
36,192,76383,1,0,0:0:0:0:
182,192,76518,1,0,0:0:0:0:
402,192,76653,1,2,0:0:0:0:
256,192,76653,1,0,0:0:0:0:
109,192,76653,1,0,0:0:0:0:
182,192,76788,1,0,0:0:0:0:
329,192,76923,1,10,0:0:0:0:
475,192,76923,1,0,0:0:0:0:
109,192,76923,1,0,0:0:0:0:
36,192,77058,1,0,0:0:0:0:
256,192,77193,1,2,0:0:0:0:
182,192,77193,1,0,0:0:0:0:
402,192,77193,1,0,0:0:0:0:
109,192,77328,1,0,0:0:0:0:
329,192,77463,1,10,0:0:0:0:
475,192,77463,1,0,0:0:0:0:
36,192,77463,1,0,0:0:0:0:
109,192,77598,1,0,0:0:0:0:
402,192,77733,1,2,0:0:0:0:
182,192,77733,1,0,0:0:0:0:
36,192,77733,1,0,0:0:0:0:
109,192,77868,1,0,0:0:0:0:
402,192,77936,1,2,0:0:0:0:
182,192,78003,1,8,0:0:0:0:
475,192,78003,1,0,0:0:0:0:
402,192,78138,1,2,0:0:0:0:
36,192,78138,1,0,0:0:0:0:
109,192,78273,1,2,0:0:0:0:
329,192,78273,1,0,0:0:0:0:
256,192,78341,1,0,0:0:0:0:
475,192,78408,1,0,0:0:0:0:
256,192,78543,1,8,0:0:0:0:
402,192,78543,1,0,0:0:0:0:
182,192,78543,1,0,0:0:0:0:
329,192,78678,1,2,0:0:0:0:
36,192,78678,1,0,0:0:0:0:
402,192,78813,1,2,0:0:0:0:
109,192,78813,1,0,0:0:0:0:
475,192,78813,1,0,0:0:0:0:
182,192,78948,1,0,0:0:0:0:
256,192,79083,1,10,0:0:0:0:
475,192,79083,1,0,0:0:0:0:
36,192,79083,1,0,0:0:0:0:
109,192,79218,1,0,0:0:0:0:
402,192,79353,1,2,0:0:0:0:
329,192,79353,1,0,0:0:0:0:
36,192,79353,1,0,0:0:0:0:
182,192,79488,1,0,0:0:0:0:
475,192,79556,1,2,0:0:0:0:
329,192,79623,1,8,0:0:0:0:
109,192,79623,1,0,0:0:0:0:
475,192,79758,1,2,0:0:0:0:
256,192,79758,1,0,0:0:0:0:
402,192,79893,1,2,0:0:0:0:
182,192,79893,1,0,0:0:0:0:
36,192,79893,1,0,0:0:0:0:
256,192,80028,1,0,0:0:0:0:
402,192,80096,1,2,0:0:0:0:
182,192,80096,1,0,0:0:0:0:
109,192,80163,1,8,0:0:0:0:
329,192,80163,1,0,0:0:0:0:
402,192,80298,1,2,0:0:0:0:
36,192,80298,1,0,0:0:0:0:
109,192,80366,1,0,0:0:0:0:
182,192,80433,1,2,0:0:0:0:
475,192,80433,1,0,0:0:0:0:
329,192,80501,1,0,0:0:0:0:
256,192,80568,1,2,0:0:0:0:
182,192,80636,1,0,0:0:0:0:
402,192,80703,1,10,0:0:0:0:
109,192,80703,1,0,0:0:0:0:
329,192,80838,1,0,0:0:0:0:
182,192,80838,1,0,0:0:0:0:
475,192,80973,1,14,0:0:0:0:
256,192,80973,1,0,0:0:0:0:
36,192,80973,1,0,0:0:0:0:
182,192,81041,1,0,0:0:0:0:
109,192,81108,1,0,0:0:0:0:
36,192,81176,1,0,0:0:0:0:
402,192,81243,1,14,0:0:0:0:
256,192,81243,1,0,0:0:0:0:
182,192,81311,1,0,0:0:0:0:
109,192,81378,1,0,0:0:0:0:
36,192,81446,1,0,0:0:0:0:
329,192,81513,1,14,0:0:0:0:
475,192,81513,1,0,0:0:0:0:
182,192,81581,1,0,0:0:0:0:
109,192,81648,1,0,0:0:0:0:
36,192,81716,1,0,0:0:0:0:
256,192,81783,1,14,0:0:0:0:
475,192,81783,1,0,0:0:0:0:
402,192,81851,1,0,0:0:0:0:
109,192,81918,1,0,0:0:0:0:
36,192,81986,1,0,0:0:0:0:
182,192,82053,128,14,84213:0:0:0:0:
329,192,82053,1,0,0:0:0:0:
475,192,82053,1,0,0:0:0:0:
109,192,82188,1,0,0:0:0:0:
256,192,82323,1,0,0:0:0:0:
329,192,82458,1,0,0:0:0:0:
402,192,82593,1,0,0:0:0:0:
36,192,82593,1,0,0:0:0:0:
256,192,82728,1,0,0:0:0:0:
329,192,82863,1,0,0:0:0:0:
109,192,82998,1,0,0:0:0:0:
329,192,83133,1,0,0:0:0:0:
36,192,83133,1,0,0:0:0:0:
256,192,83268,1,0,0:0:0:0:
329,192,83403,1,0,0:0:0:0:
475,192,83538,1,0,0:0:0:0:
402,192,83673,1,0,0:0:0:0:
109,192,83673,1,0,0:0:0:0:
475,192,83808,1,0,0:0:0:0:
402,192,83943,1,0,0:0:0:0:
109,192,84078,1,0,0:0:0:0:
256,192,84213,1,0,0:0:0:0:
36,192,84213,1,0,0:0:0:0:
182,192,84348,1,0,0:0:0:0:
109,192,84483,1,0,0:0:0:0:
182,192,84618,1,0,0:0:0:0:
256,192,84753,1,0,0:0:0:0:
36,192,84753,1,0,0:0:0:0:
182,192,84888,1,0,0:0:0:0:
256,192,85023,1,0,0:0:0:0:
402,192,85158,1,0,0:0:0:0:
182,192,85293,1,0,0:0:0:0:
36,192,85293,1,0,0:0:0:0:
256,192,85428,1,0,0:0:0:0:
329,192,85563,1,0,0:0:0:0:
109,192,85563,1,0,0:0:0:0:
402,192,85698,1,0,0:0:0:0:
475,192,85833,1,0,0:0:0:0:
182,192,85833,1,0,0:0:0:0:
402,192,85968,1,0,0:0:0:0:
329,192,86103,1,0,0:0:0:0:
109,192,86103,1,0,0:0:0:0:
182,192,86238,1,0,0:0:0:0:
36,192,86373,1,0,0:0:0:0:
256,192,86373,1,0,0:0:0:0:
109,192,86508,1,0,0:0:0:0:
182,192,86643,1,0,0:0:0:0:
256,192,86778,1,0,0:0:0:0:
329,192,86913,1,0,0:0:0:0:
36,192,86913,1,0,0:0:0:0:
256,192,87048,1,0,0:0:0:0:
329,192,87183,1,0,0:0:0:0:
182,192,87318,1,0,0:0:0:0:
329,192,87453,1,0,0:0:0:0:
36,192,87453,1,0,0:0:0:0:
256,192,87588,1,0,0:0:0:0:
329,192,87723,1,0,0:0:0:0:
402,192,87858,1,0,0:0:0:0:
329,192,87993,1,0,0:0:0:0:
109,192,87993,1,0,0:0:0:0:
402,192,88128,1,0,0:0:0:0:
329,192,88263,1,0,0:0:0:0:
256,192,88398,1,0,0:0:0:0:
182,192,88533,1,0,0:0:0:0:
36,192,88533,1,0,0:0:0:0:
109,192,88668,1,0,0:0:0:0:
36,192,88803,1,0,0:0:0:0:
109,192,88938,1,0,0:0:0:0:
182,192,89073,1,0,0:0:0:0:
402,192,89073,1,0,0:0:0:0:
256,192,89208,1,0,0:0:0:0:
329,192,89343,1,0,0:0:0:0:
402,192,89478,1,0,0:0:0:0:
475,192,89613,1,0,0:0:0:0:
109,192,89613,1,0,0:0:0:0:
329,192,89748,1,0,0:0:0:0:
182,192,89883,1,0,0:0:0:0:
36,192,89883,1,0,0:0:0:0:
329,192,90018,1,0,0:0:0:0:
256,192,90153,1,0,0:0:0:0:
109,192,90153,1,0,0:0:0:0:
475,192,90153,128,0,90693:0:0:0:0:
182,192,90423,1,0,0:0:0:0:
36,192,90423,1,0,0:0:0:0:
256,192,90558,1,0,0:0:0:0:
256,192,90693,1,4,0:0:0:0:
36,192,90693,1,0,0:0:0:0:
109,192,90828,1,0,0:0:0:0:
402,192,90828,1,0,0:0:0:0:
182,192,90963,1,0,0:0:0:0:
256,192,91098,1,0,0:0:0:0:
36,192,91098,1,0,0:0:0:0:
329,192,91233,1,0,0:0:0:0:
256,192,91368,1,0,0:0:0:0:
475,192,91368,1,0,0:0:0:0:
329,192,91503,1,0,0:0:0:0:
182,192,91638,1,0,0:0:0:0:
36,192,91638,1,0,0:0:0:0:
402,192,91773,1,0,0:0:0:0:
256,192,91908,1,0,0:0:0:0:
36,192,91908,1,0,0:0:0:0:
402,192,92043,1,0,0:0:0:0:
475,192,92178,1,0,0:0:0:0:
182,192,92178,1,0,0:0:0:0:
402,192,92313,1,0,0:0:0:0:
475,192,92448,1,0,0:0:0:0:
109,192,92448,1,0,0:0:0:0:
402,192,92583,1,0,0:0:0:0:
182,192,92718,1,0,0:0:0:0:
36,192,92718,1,0,0:0:0:0:
256,192,92853,1,4,0:0:0:0:
109,192,92853,1,0,0:0:0:0:
402,192,92853,1,0,0:0:0:0:
182,192,92988,1,0,0:0:0:0:
475,192,92988,1,0,0:0:0:0:
109,192,93123,1,0,0:0:0:0:
182,192,93258,1,0,0:0:0:0:
402,192,93258,1,0,0:0:0:0:
256,192,93393,1,0,0:0:0:0:
182,192,93528,1,0,0:0:0:0:
475,192,93528,1,0,0:0:0:0:
256,192,93663,1,0,0:0:0:0:
402,192,93798,1,0,0:0:0:0:
36,192,93798,1,0,0:0:0:0:
182,192,93933,1,0,0:0:0:0:
256,192,94068,1,0,0:0:0:0:
475,192,94068,1,0,0:0:0:0:
329,192,94203,1,0,0:0:0:0:
402,192,94338,1,0,0:0:0:0:
109,192,94338,1,0,0:0:0:0:
475,192,94473,1,0,0:0:0:0:
402,192,94608,1,0,0:0:0:0:
36,192,94608,1,0,0:0:0:0:
329,192,94743,1,0,0:0:0:0:
109,192,94743,128,0,95013:0:0:0:0:
256,192,94878,1,0,0:0:0:0:
475,192,94878,1,0,0:0:0:0:
182,192,95013,1,4,0:0:0:0:
329,192,95013,1,0,0:0:0:0:
402,192,95013,1,0,0:0:0:0:
36,192,95148,1,0,0:0:0:0:
182,192,95283,1,0,0:0:0:0:
475,192,95283,1,0,0:0:0:0:
256,192,95418,1,0,0:0:0:0:
329,192,95553,1,0,0:0:0:0:
109,192,95553,1,0,0:0:0:0:
256,192,95688,1,0,0:0:0:0:
329,192,95823,1,0,0:0:0:0:
36,192,95823,1,0,0:0:0:0:
182,192,95958,1,0,0:0:0:0:
402,192,96093,1,4,0:0:0:0:
475,192,96093,1,0,0:0:0:0:
36,192,96093,1,0,0:0:0:0:
329,192,96228,1,0,0:0:0:0:
402,192,96363,1,0,0:0:0:0:
109,192,96363,1,0,0:0:0:0:
475,192,96498,1,0,0:0:0:0:
402,192,96633,1,4,0:0:0:0:
36,192,96633,1,0,0:0:0:0:
182,192,96633,1,0,0:0:0:0:
475,192,96768,1,0,0:0:0:0:
402,192,96903,1,0,0:0:0:0:
182,192,96903,1,0,0:0:0:0:
329,192,97038,1,0,0:0:0:0:
109,192,97038,1,0,0:0:0:0:
182,192,97106,1,0,0:0:0:0:
256,192,97173,1,4,0:0:0:0:
36,192,97173,1,0,0:0:0:0:
402,192,97173,1,0,0:0:0:0:
182,192,97308,1,0,0:0:0:0:
109,192,97443,1,4,0:0:0:0:
329,192,97443,1,0,0:0:0:0:
475,192,97443,1,0,0:0:0:0:
182,192,97578,1,0,0:0:0:0:
256,192,97713,1,4,0:0:0:0:
475,192,97713,1,0,0:0:0:0:
109,192,97713,1,0,0:0:0:0:
329,192,97848,1,0,0:0:0:0:
402,192,97983,1,4,0:0:0:0:
36,192,97983,1,0,0:0:0:0:
256,192,97983,1,0,0:0:0:0:
109,192,98051,1,0,0:0:0:0:
475,192,98118,1,0,0:0:0:0:
182,192,98118,1,0,0:0:0:0:
256,192,98186,1,0,0:0:0:0:
329,192,98253,1,4,0:0:0:0:
109,192,98253,128,0,99333:0:0:0:0:
475,192,98253,1,0,0:0:0:0:
256,192,98523,1,0,0:0:0:0:
402,192,98523,1,0,0:0:0:0:
329,192,98793,1,0,0:0:0:0:
475,192,98793,1,0,0:0:0:0:
256,192,99063,1,0,0:0:0:0:
402,192,99063,1,0,0:0:0:0:
256,192,99333,128,0,100413:0:0:0:0:
182,192,99333,1,0,0:0:0:0:
475,192,99333,1,0,0:0:0:0:
329,192,99603,1,0,0:0:0:0:
36,192,99603,1,0,0:0:0:0:
182,192,99873,1,0,0:0:0:0:
475,192,99873,1,0,0:0:0:0:
329,192,100143,1,0,0:0:0:0:
36,192,100143,1,0,0:0:0:0:
402,192,100413,128,0,101493:0:0:0:0:
109,192,100413,1,0,0:0:0:0:
475,192,100413,1,0,0:0:0:0:
329,192,100683,1,0,0:0:0:0:
36,192,100683,1,0,0:0:0:0:
109,192,100953,1,0,0:0:0:0:
475,192,100953,1,0,0:0:0:0:
329,192,101223,1,0,0:0:0:0:
36,192,101223,1,0,0:0:0:0:
475,192,101493,128,0,102574:0:0:0:0:
109,192,101493,1,0,0:0:0:0:
256,192,101493,1,0,0:0:0:0:
36,192,101763,1,0,0:0:0:0:
329,192,101763,1,0,0:0:0:0:
256,192,102033,1,0,0:0:0:0:
109,192,102033,1,0,0:0:0:0:
36,192,102304,1,0,0:0:0:0:
329,192,102304,1,0,0:0:0:0:
109,192,102439,1,0,0:0:0:0:
256,192,102439,1,0,0:0:0:0:
36,192,102574,128,0,103654:0:0:0:0:
182,192,102574,1,0,0:0:0:0:
402,192,102574,1,0,0:0:0:0:
109,192,102844,1,0,0:0:0:0:
329,192,102844,1,0,0:0:0:0:
402,192,103114,1,0,0:0:0:0:
182,192,103114,1,0,0:0:0:0:
109,192,103384,1,0,0:0:0:0:
329,192,103384,1,0,0:0:0:0:
182,192,103654,128,0,104734:0:0:0:0:
329,192,103654,1,0,0:0:0:0:
475,192,103654,1,0,0:0:0:0:
256,192,103924,1,0,0:0:0:0:
36,192,103924,1,0,0:0:0:0:
475,192,104194,1,0,0:0:0:0:
329,192,104194,1,0,0:0:0:0:
256,192,104464,1,0,0:0:0:0:
36,192,104464,1,0,0:0:0:0:
329,192,104734,128,0,105814:0:0:0:0:
109,192,104734,1,0,0:0:0:0:
402,192,104734,1,0,0:0:0:0:
475,192,105004,1,0,0:0:0:0:
36,192,105004,1,0,0:0:0:0:
256,192,105139,1,0,0:0:0:0:
182,192,105206,1,0,0:0:0:0:
109,192,105274,1,0,0:0:0:0:
402,192,105274,1,0,0:0:0:0:
182,192,105409,1,0,0:0:0:0:
256,192,105476,1,0,0:0:0:0:
36,192,105544,1,0,0:0:0:0:
475,192,105544,1,0,0:0:0:0:
182,192,105679,1,0,0:0:0:0:
256,192,105746,1,0,0:0:0:0:
109,192,105814,128,0,106354:0:0:0:0:
475,192,105814,1,0,0:0:0:0:
182,192,105814,1,0,0:0:0:0:
402,192,105881,1,0,0:0:0:0:
329,192,105949,1,0,0:0:0:0:
256,192,106016,1,0,0:0:0:0:
36,192,106084,1,0,0:0:0:0:
182,192,106084,1,0,0:0:0:0:
256,192,106151,1,0,0:0:0:0:
329,192,106219,1,0,0:0:0:0:
402,192,106286,1,0,0:0:0:0:
256,192,106354,128,0,106894:0:0:0:0:
182,192,106354,1,0,0:0:0:0:
475,192,106354,1,0,0:0:0:0:
402,192,106421,1,0,0:0:0:0:
329,192,106489,1,0,0:0:0:0:
109,192,106556,1,0,0:0:0:0:
36,192,106624,1,0,0:0:0:0:
402,192,106624,1,0,0:0:0:0:
109,192,106691,1,0,0:0:0:0:
182,192,106759,1,0,0:0:0:0:
329,192,106826,1,0,0:0:0:0:
402,192,106894,128,0,107974:0:0:0:0:
109,192,106894,128,0,107704:0:0:0:0:
36,192,106894,1,0,0:0:0:0:
475,192,106894,1,0,0:0:0:0:
36,192,107704,1,0,0:0:0:0:
475,192,107704,1,0,0:0:0:0:
182,192,107771,1,0,0:0:0:0:
256,192,107839,1,0,0:0:0:0:
329,192,107906,1,0,0:0:0:0:
36,192,107974,1,2,0:0:0:0:
182,192,107974,1,0,0:0:0:0:
475,192,107974,1,0,0:0:0:0:
109,192,108109,1,0,0:0:0:0:
402,192,108176,1,0,0:0:0:0:
256,192,108244,1,0,0:0:0:0:
36,192,108244,1,0,0:0:0:0:
402,192,108379,1,0,0:0:0:0:
182,192,108379,1,0,0:0:0:0:
109,192,108514,1,0,0:0:0:0:
475,192,108514,1,0,0:0:0:0:
329,192,108581,1,0,0:0:0:0:
182,192,108649,1,0,0:0:0:0:
329,192,108784,1,0,0:0:0:0:
36,192,108784,1,0,0:0:0:0:
402,192,108784,1,0,0:0:0:0:
109,192,108919,1,0,0:0:0:0:
256,192,109054,1,0,0:0:0:0:
182,192,109054,1,0,0:0:0:0:
475,192,109054,1,0,0:0:0:0:
402,192,109189,1,0,0:0:0:0:
256,192,109256,1,0,0:0:0:0:
36,192,109324,1,0,0:0:0:0:
329,192,109324,1,0,0:0:0:0:
256,192,109459,1,0,0:0:0:0:
109,192,109459,1,0,0:0:0:0:
182,192,109594,1,0,0:0:0:0:
402,192,109594,1,0,0:0:0:0:
36,192,109661,1,0,0:0:0:0:
329,192,109729,1,0,0:0:0:0:
36,192,109864,1,0,0:0:0:0:
256,192,109864,1,0,0:0:0:0:
475,192,109864,1,0,0:0:0:0:
402,192,109999,1,0,0:0:0:0:
182,192,110134,1,0,0:0:0:0:
329,192,110134,1,0,0:0:0:0:
109,192,110134,1,0,0:0:0:0:
256,192,110269,1,0,0:0:0:0:
182,192,110336,1,0,0:0:0:0:
475,192,110404,1,0,0:0:0:0:
329,192,110404,1,0,0:0:0:0:
182,192,110539,1,0,0:0:0:0:
36,192,110539,1,0,0:0:0:0:
256,192,110674,1,0,0:0:0:0:
402,192,110674,1,0,0:0:0:0:
109,192,110741,1,0,0:0:0:0:
329,192,110809,1,0,0:0:0:0:
109,192,110944,1,0,0:0:0:0:
256,192,110944,1,0,0:0:0:0:
475,192,110944,1,0,0:0:0:0:
402,192,111079,1,0,0:0:0:0:
36,192,111214,1,0,0:0:0:0:
182,192,111214,1,0,0:0:0:0:
475,192,111214,1,0,0:0:0:0:
256,192,111349,1,0,0:0:0:0:
36,192,111416,1,0,0:0:0:0:
329,192,111416,1,0,0:0:0:0:
182,192,111484,1,0,0:0:0:0:
402,192,111484,1,0,0:0:0:0:
109,192,111619,1,0,0:0:0:0:
329,192,111619,1,0,0:0:0:0:
182,192,111754,1,0,0:0:0:0:
36,192,111754,1,0,0:0:0:0:
402,192,111754,1,0,0:0:0:0:
256,192,111889,1,0,0:0:0:0:
109,192,111889,1,0,0:0:0:0:
329,192,112024,1,0,0:0:0:0:
475,192,112024,1,0,0:0:0:0:
36,192,112024,1,0,0:0:0:0:
402,192,112159,1,0,0:0:0:0:
182,192,112159,1,0,0:0:0:0:
475,192,112294,1,0,0:0:0:0:
36,192,112294,1,0,0:0:0:0:
256,192,112294,1,0,0:0:0:0:
109,192,112429,1,0,0:0:0:0:
256,192,112496,1,0,0:0:0:0:
182,192,112564,1,0,0:0:0:0:
402,192,112564,1,0,0:0:0:0:
36,192,112699,1,0,0:0:0:0:
256,192,112699,1,0,0:0:0:0:
329,192,112834,1,0,0:0:0:0:
475,192,112834,1,0,0:0:0:0:
109,192,112834,1,0,0:0:0:0:
256,192,112969,1,0,0:0:0:0:
402,192,113104,1,0,0:0:0:0:
36,192,113104,1,0,0:0:0:0:
182,192,113104,1,0,0:0:0:0:
329,192,113239,1,0,0:0:0:0:
475,192,113374,1,0,0:0:0:0:
36,192,113509,1,0,0:0:0:0:
402,192,113644,1,0,0:0:0:0:
109,192,113644,1,0,0:0:0:0:
329,192,113644,1,0,0:0:0:0:
182,192,113779,1,0,0:0:0:0:
329,192,113914,1,0,0:0:0:0:
475,192,113914,1,0,0:0:0:0:
109,192,113914,1,0,0:0:0:0:
182,192,114049,1,0,0:0:0:0:
256,192,114184,1,0,0:0:0:0:
36,192,114184,1,0,0:0:0:0:
402,192,114184,1,0,0:0:0:0:
182,192,114319,1,0,0:0:0:0:
256,192,114454,1,0,0:0:0:0:
109,192,114454,1,0,0:0:0:0:
475,192,114454,1,0,0:0:0:0:
402,192,114589,1,0,0:0:0:0:
182,192,114724,1,0,0:0:0:0:
256,192,114724,1,0,0:0:0:0:
36,192,114724,1,0,0:0:0:0:
475,192,114859,1,0,0:0:0:0:
109,192,114994,1,0,0:0:0:0:
402,192,114994,1,0,0:0:0:0:
256,192,114994,1,0,0:0:0:0:
182,192,115129,1,0,0:0:0:0:
256,192,115264,1,0,0:0:0:0:
109,192,115264,1,0,0:0:0:0:
475,192,115264,1,0,0:0:0:0:
402,192,115399,1,0,0:0:0:0:
329,192,115466,1,0,0:0:0:0:
182,192,115534,1,0,0:0:0:0:
256,192,115534,1,0,0:0:0:0:
36,192,115534,1,0,0:0:0:0:
109,192,115669,1,0,0:0:0:0:
182,192,115736,1,0,0:0:0:0:
256,192,115804,1,0,0:0:0:0:
475,192,115804,1,0,0:0:0:0:
329,192,115871,1,0,0:0:0:0:
402,192,115939,1,0,0:0:0:0:
475,192,116006,1,0,0:0:0:0:
36,192,116074,1,0,0:0:0:0:
329,192,116074,1,0,0:0:0:0:
256,192,116141,1,0,0:0:0:0:
182,192,116209,1,0,0:0:0:0:
109,192,116276,1,0,0:0:0:0:
256,192,116344,1,0,0:0:0:0:
475,192,116344,1,0,0:0:0:0:
329,192,116411,1,0,0:0:0:0:
402,192,116479,1,0,0:0:0:0:
475,192,116546,1,0,0:0:0:0:
109,192,116614,1,0,0:0:0:0:
329,192,116614,1,0,0:0:0:0:
36,192,116614,1,0,0:0:0:0:
256,192,116749,1,0,0:0:0:0:
182,192,116884,1,0,0:0:0:0:
36,192,116884,1,0,0:0:0:0:
402,192,116884,1,0,0:0:0:0:
475,192,117019,1,0,0:0:0:0:
256,192,117154,1,0,0:0:0:0:
402,192,117154,1,0,0:0:0:0:
109,192,117154,1,0,0:0:0:0:
329,192,117289,1,0,0:0:0:0:
475,192,117424,1,0,0:0:0:0:
182,192,117424,1,0,0:0:0:0:
36,192,117424,1,0,0:0:0:0:
256,192,117559,1,0,0:0:0:0:
402,192,117694,1,0,0:0:0:0:
36,192,117694,1,0,0:0:0:0:
182,192,117694,1,0,0:0:0:0:
475,192,117784,1,0,0:0:0:0:
109,192,117829,1,0,0:0:0:0:
402,192,117874,1,0,0:0:0:0:
329,192,117964,1,0,0:0:0:0:
36,192,117964,1,0,0:0:0:0:
256,192,117964,1,0,0:0:0:0:
475,192,118099,1,0,0:0:0:0:
256,192,118234,1,0,0:0:0:0:
402,192,118234,1,0,0:0:0:0:
109,192,118234,1,0,0:0:0:0:
182,192,118369,1,0,0:0:0:0:
256,192,118436,1,0,0:0:0:0:
329,192,118504,1,0,0:0:0:0:
36,192,118504,1,0,0:0:0:0:
182,192,118639,1,0,0:0:0:0:
475,192,118639,1,0,0:0:0:0:
109,192,118774,1,0,0:0:0:0:
402,192,118774,1,0,0:0:0:0:
256,192,118774,1,0,0:0:0:0:
329,192,118909,1,0,0:0:0:0:
256,192,119044,1,0,0:0:0:0:
475,192,119044,1,0,0:0:0:0:
109,192,119044,1,0,0:0:0:0:
36,192,119179,1,0,0:0:0:0:
402,192,119314,1,0,0:0:0:0:
109,192,119314,1,0,0:0:0:0:
329,192,119314,1,0,0:0:0:0:
256,192,119449,1,0,0:0:0:0:
475,192,119584,1,0,0:0:0:0:
182,192,119584,1,0,0:0:0:0:
36,192,119584,1,0,0:0:0:0:
109,192,119719,1,0,0:0:0:0:
402,192,119854,1,0,0:0:0:0:
182,192,119854,1,0,0:0:0:0:
256,192,119854,1,0,0:0:0:0:
36,192,119989,1,0,0:0:0:0:
329,192,120124,1,0,0:0:0:0:
109,192,120124,1,0,0:0:0:0:
475,192,120124,1,0,0:0:0:0:
402,192,120259,1,0,0:0:0:0:
256,192,120394,1,0,0:0:0:0:
475,192,120394,1,0,0:0:0:0:
36,192,120394,1,0,0:0:0:0:
182,192,120529,1,0,0:0:0:0:
329,192,120664,1,0,0:0:0:0:
109,192,120664,1,0,0:0:0:0:
256,192,120664,1,0,0:0:0:0:
182,192,120799,1,0,0:0:0:0:
402,192,120934,1,0,0:0:0:0:
36,192,120934,1,0,0:0:0:0:
256,192,120934,1,0,0:0:0:0:
182,192,121069,1,0,0:0:0:0:
402,192,121136,1,0,0:0:0:0:
109,192,121204,1,0,0:0:0:0:
256,192,121204,1,0,0:0:0:0:
402,192,121339,1,0,0:0:0:0:
36,192,121339,1,0,0:0:0:0:
475,192,121474,1,0,0:0:0:0:
109,192,121474,1,0,0:0:0:0:
256,192,121541,1,0,0:0:0:0:
402,192,121609,1,0,0:0:0:0:
256,192,121744,1,0,0:0:0:0:
109,192,121744,1,0,0:0:0:0:
475,192,121744,1,0,0:0:0:0:
329,192,121879,1,0,0:0:0:0:
36,192,121879,1,0,0:0:0:0:
402,192,122014,1,0,0:0:0:0:
109,192,122014,1,0,0:0:0:0:
256,192,122014,1,0,0:0:0:0:
182,192,122149,1,0,0:0:0:0:
256,192,122284,1,0,0:0:0:0:
36,192,122284,1,0,0:0:0:0:
329,192,122284,1,0,0:0:0:0:
109,192,122419,1,0,0:0:0:0:
402,192,122554,1,0,0:0:0:0:
182,192,122554,1,0,0:0:0:0:
475,192,122554,1,0,0:0:0:0:
329,192,122689,1,0,0:0:0:0:
475,192,122756,1,0,0:0:0:0:
109,192,122824,1,0,0:0:0:0:
256,192,122824,1,0,0:0:0:0:
475,192,122959,1,0,0:0:0:0:
36,192,122959,1,0,0:0:0:0:
402,192,123094,1,0,0:0:0:0:
109,192,123094,1,0,0:0:0:0:
329,192,123094,1,0,0:0:0:0:
256,192,123229,1,0,0:0:0:0:
182,192,123296,1,0,0:0:0:0:
402,192,123364,1,0,0:0:0:0:
109,192,123364,1,0,0:0:0:0:
36,192,123364,1,0,0:0:0:0:
182,192,123499,1,0,0:0:0:0:
109,192,123566,1,0,0:0:0:0:
256,192,123634,1,0,0:0:0:0:
36,192,123634,1,0,0:0:0:0:
475,192,123634,1,0,0:0:0:0:
402,192,123769,1,0,0:0:0:0:
329,192,123836,1,0,0:0:0:0:
256,192,123904,1,0,0:0:0:0:
109,192,123904,1,0,0:0:0:0:
329,192,124039,1,0,0:0:0:0:
475,192,124174,1,0,0:0:0:0:
182,192,124174,1,0,0:0:0:0:
402,192,124241,1,0,0:0:0:0:
329,192,124309,1,0,0:0:0:0:
256,192,124376,1,0,0:0:0:0:
402,192,124444,1,0,0:0:0:0:
109,192,124444,1,0,0:0:0:0:
329,192,124511,1,0,0:0:0:0:
256,192,124579,1,0,0:0:0:0:
182,192,124646,1,0,0:0:0:0:
329,192,124714,1,0,0:0:0:0:
475,192,124714,1,0,0:0:0:0:
256,192,124781,1,0,0:0:0:0:
182,192,124849,1,0,0:0:0:0:
109,192,124916,1,0,0:0:0:0:
256,192,124984,1,0,0:0:0:0:
402,192,124984,1,0,0:0:0:0:
182,192,125051,1,0,0:0:0:0:
109,192,125119,1,0,0:0:0:0:
36,192,125186,1,0,0:0:0:0:
402,192,125254,128,0,125861:0:0:0:0:
182,192,125254,1,0,0:0:0:0:
475,192,125254,1,0,0:0:0:0:
256,192,125389,1,0,0:0:0:0:
329,192,125524,1,0,0:0:0:0:
36,192,125524,1,0,0:0:0:0:
109,192,125659,1,0,0:0:0:0:
182,192,125794,1,0,0:0:0:0:
475,192,125794,1,0,0:0:0:0:
329,192,125861,128,0,126334:0:0:0:0:
36,192,125929,1,0,0:0:0:0:
109,192,126064,1,0,0:0:0:0:
402,192,126064,1,0,0:0:0:0:
182,192,126199,1,0,0:0:0:0:
256,192,126334,128,0,126941:0:0:0:0:
36,192,126334,1,0,0:0:0:0:
475,192,126334,1,0,0:0:0:0:
402,192,126469,1,0,0:0:0:0:
36,192,126604,1,0,0:0:0:0:
329,192,126604,1,0,0:0:0:0:
109,192,126739,1,0,0:0:0:0:
182,192,126874,1,0,0:0:0:0:
475,192,126874,1,0,0:0:0:0:
36,192,126941,128,0,127414:0:0:0:0:
402,192,127009,1,0,0:0:0:0:
182,192,127144,1,0,0:0:0:0:
475,192,127144,1,0,0:0:0:0:
329,192,127279,1,0,0:0:0:0:
182,192,127414,128,0,128021:0:0:0:0:
256,192,127414,1,0,0:0:0:0:
402,192,127414,1,0,0:0:0:0:
109,192,127549,1,0,0:0:0:0:
36,192,127684,1,0,0:0:0:0:
329,192,127684,1,0,0:0:0:0:
256,192,127819,1,0,0:0:0:0:
475,192,127954,1,0,0:0:0:0:
329,192,127954,1,0,0:0:0:0:
109,192,128021,128,0,128494:0:0:0:0:
402,192,128089,1,0,0:0:0:0:
329,192,128224,1,0,0:0:0:0:
36,192,128224,1,0,0:0:0:0:
256,192,128359,1,0,0:0:0:0:
36,192,128494,128,0,128899:0:0:0:0:
182,192,128494,1,0,0:0:0:0:
475,192,128494,1,0,0:0:0:0:
402,192,128629,1,0,0:0:0:0:
256,192,128764,1,0,0:0:0:0:
329,192,128764,1,0,0:0:0:0:
109,192,128899,1,0,0:0:0:0:
402,192,128899,1,0,0:0:0:0:
182,192,129034,1,0,0:0:0:0:
475,192,129034,1,0,0:0:0:0:
256,192,129169,1,0,0:0:0:0:
36,192,129169,1,0,0:0:0:0:
329,192,129304,1,0,0:0:0:0:
109,192,129304,1,0,0:0:0:0:
402,192,129439,1,0,0:0:0:0:
182,192,129439,1,0,0:0:0:0:
256,192,129574,128,0,130114:0:0:0:0:
36,192,129574,1,0,0:0:0:0:
475,192,129574,1,0,0:0:0:0:
109,192,129709,1,0,0:0:0:0:
182,192,129844,1,0,0:0:0:0:
402,192,129844,1,0,0:0:0:0:
36,192,129979,1,0,0:0:0:0:
329,192,130114,128,0,130384:0:0:0:0:
109,192,130114,1,0,0:0:0:0:
475,192,130114,1,0,0:0:0:0:
182,192,130249,1,0,0:0:0:0:
402,192,130384,128,0,130654:0:0:0:0:
256,192,130384,1,0,0:0:0:0:
36,192,130384,1,0,0:0:0:0:
109,192,130519,1,0,0:0:0:0:
475,192,130654,128,0,130924:0:0:0:0:
256,192,130789,1,0,0:0:0:0:
402,192,130924,128,0,131194:0:0:0:0:
182,192,130924,1,0,0:0:0:0:
36,192,130924,1,0,0:0:0:0:
109,192,131059,1,0,0:0:0:0:
329,192,131194,128,0,131464:0:0:0:0:
36,192,131194,1,0,0:0:0:0:
182,192,131194,1,0,0:0:0:0:
109,192,131329,1,0,0:0:0:0:
256,192,131464,128,0,131734:0:0:0:0:
402,192,131464,1,0,0:0:0:0:
36,192,131464,1,0,0:0:0:0:
475,192,131599,1,0,0:0:0:0:
329,192,131734,128,0,132004:0:0:0:0:
402,192,131734,1,0,0:0:0:0:
109,192,131734,1,0,0:0:0:0:
182,192,131869,1,0,0:0:0:0:
256,192,132004,128,0,132274:0:0:0:0:
36,192,132004,1,0,0:0:0:0:
475,192,132004,1,0,0:0:0:0:
402,192,132139,1,0,0:0:0:0:
182,192,132274,128,0,132544:0:0:0:0:
109,192,132274,1,0,0:0:0:0:
475,192,132274,1,0,0:0:0:0:
36,192,132409,1,0,0:0:0:0:
329,192,132544,128,0,132814:0:0:0:0:
109,192,132544,1,0,0:0:0:0:
402,192,132544,1,0,0:0:0:0:
36,192,132679,1,0,0:0:0:0:
109,192,132746,1,0,0:0:0:0:
256,192,132814,128,0,133354:0:0:0:0:
182,192,132814,1,0,0:0:0:0:
475,192,132814,1,0,0:0:0:0:
109,192,132949,1,0,0:0:0:0:
36,192,133084,1,0,0:0:0:0:
402,192,133084,1,0,0:0:0:0:
329,192,133084,1,0,0:0:0:0:
182,192,133219,1,0,0:0:0:0:
109,192,133286,1,0,0:0:0:0:
36,192,133354,128,0,133894:0:0:0:0:
475,192,133354,1,0,0:0:0:0:
402,192,133421,1,0,0:0:0:0:
329,192,133489,1,0,0:0:0:0:
256,192,133556,1,0,0:0:0:0:
402,192,133624,1,0,0:0:0:0:
109,192,133624,1,0,0:0:0:0:
329,192,133691,1,0,0:0:0:0:
256,192,133759,1,0,0:0:0:0:
182,192,133826,1,0,0:0:0:0:
109,192,133894,128,0,134164:0:0:0:0:
402,192,133894,1,0,0:0:0:0:
256,192,134029,1,0,0:0:0:0:
182,192,134164,128,0,134434:0:0:0:0:
329,192,134164,1,0,0:0:0:0:
475,192,134164,1,0,0:0:0:0:
402,192,134299,1,0,0:0:0:0:
256,192,134434,128,0,134704:0:0:0:0:
36,192,134434,1,0,0:0:0:0:
329,192,134434,1,0,0:0:0:0:
109,192,134569,1,0,0:0:0:0:
475,192,134704,128,0,134974:0:0:0:0:
402,192,134704,1,0,0:0:0:0:
36,192,134704,1,0,0:0:0:0:
109,192,134839,1,0,0:0:0:0:
329,192,134974,1,0,0:0:0:0:
36,192,134974,1,0,0:0:0:0:
402,192,135064,1,0,0:0:0:0:
109,192,135109,1,0,0:0:0:0:
329,192,135154,1,0,0:0:0:0:
256,192,135244,128,0,135514:0:0:0:0:
182,192,135244,1,0,0:0:0:0:
475,192,135244,1,0,0:0:0:0:
402,192,135379,1,0,0:0:0:0:
182,192,135514,128,0,135919:0:0:0:0:
36,192,135514,1,0,0:0:0:0:
329,192,135514,1,0,0:0:0:0:
475,192,135649,1,0,0:0:0:0:
402,192,135784,1,0,0:0:0:0:
36,192,135784,1,0,0:0:0:0:
109,192,135919,128,0,136054:0:0:0:0:
256,192,135919,1,0,0:0:0:0:
36,192,136054,128,0,136324:0:0:0:0:
329,192,136054,1,0,0:0:0:0:
475,192,136054,1,0,0:0:0:0:
256,192,136189,1,0,0:0:0:0:
182,192,136324,128,0,136594:0:0:0:0:
402,192,136324,1,0,0:0:0:0:
109,192,136324,1,0,0:0:0:0:
256,192,136459,1,0,0:0:0:0:
329,192,136594,128,0,136864:0:0:0:0:
36,192,136594,1,0,0:0:0:0:
475,192,136594,1,0,0:0:0:0:
109,192,136729,1,0,0:0:0:0:
475,192,136864,128,0,137134:0:0:0:0:
256,192,136864,1,0,0:0:0:0:
182,192,136864,1,0,0:0:0:0:
109,192,136999,1,0,0:0:0:0:
402,192,137134,128,0,137404:0:0:0:0:
36,192,137134,1,0,0:0:0:0:
256,192,137134,1,0,0:0:0:0:
109,192,137269,1,0,0:0:0:0:
329,192,137404,128,0,137674:0:0:0:0:
36,192,137404,1,0,0:0:0:0:
182,192,137404,1,0,0:0:0:0:
475,192,137539,1,0,0:0:0:0:
256,192,137674,128,0,137944:0:0:0:0:
402,192,137674,1,0,0:0:0:0:
109,192,137674,1,0,0:0:0:0:
36,192,137809,1,0,0:0:0:0:
329,192,137944,128,0,138214:0:0:0:0:
475,192,137944,1,0,0:0:0:0:
109,192,137944,1,0,0:0:0:0:
182,192,138079,1,0,0:0:0:0:
402,192,138214,128,0,138754:0:0:0:0:
36,192,138214,1,0,0:0:0:0:
256,192,138214,1,0,0:0:0:0:
109,192,138349,1,0,0:0:0:0:
182,192,138484,1,0,0:0:0:0:
475,192,138484,1,0,0:0:0:0:
329,192,138619,1,0,0:0:0:0:
256,192,138754,128,0,139159:0:0:0:0:
36,192,138754,1,0,0:0:0:0:
182,192,138754,1,0,0:0:0:0:
109,192,138889,1,0,0:0:0:0:
475,192,139024,1,0,0:0:0:0:
36,192,139024,1,0,0:0:0:0:
329,192,139159,128,0,139294:0:0:0:0:
109,192,139159,1,0,0:0:0:0:
402,192,139294,128,0,139564:0:0:0:0:
182,192,139294,1,0,0:0:0:0:
36,192,139294,1,0,0:0:0:0:
256,192,139429,1,0,0:0:0:0:
182,192,139564,128,0,139834:0:0:0:0:
109,192,139564,1,0,0:0:0:0:
475,192,139564,1,0,0:0:0:0:
329,192,139699,1,0,0:0:0:0:
402,192,139834,128,0,140036:0:0:0:0:
256,192,139834,1,0,0:0:0:0:
36,192,139834,1,0,0:0:0:0:
109,192,139969,1,0,0:0:0:0:
475,192,140036,128,0,140374:0:0:0:0:
182,192,140104,1,0,0:0:0:0:
329,192,140104,1,0,0:0:0:0:
109,192,140239,1,0,0:0:0:0:
329,192,140374,128,0,140914:0:0:0:0:
36,192,140374,1,0,0:0:0:0:
182,192,140509,1,0,0:0:0:0:
402,192,140644,1,0,0:0:0:0:
109,192,140779,1,0,0:0:0:0:
256,192,140914,128,0,141454:0:0:0:0:
475,192,140914,1,0,0:0:0:0:
329,192,141049,1,0,0:0:0:0:
182,192,141184,1,0,0:0:0:0:
36,192,141319,1,0,0:0:0:0:
402,192,141454,128,0,141724:0:0:0:0:
475,192,141454,1,0,0:0:0:0:
109,192,141454,1,0,0:0:0:0:
36,192,141589,1,0,0:0:0:0:
109,192,141656,1,0,0:0:0:0:
329,192,141724,128,0,141994:0:0:0:0:
182,192,141724,1,0,0:0:0:0:
475,192,141724,1,0,0:0:0:0:
36,192,141859,1,0,0:0:0:0:
109,192,141926,1,0,0:0:0:0:
182,192,141994,128,0,142264:0:0:0:0:
475,192,141994,1,0,0:0:0:0:
402,192,142061,1,0,0:0:0:0:
329,192,142129,1,0,0:0:0:0:
256,192,142196,1,0,0:0:0:0:
109,192,142264,128,0,142534:0:0:0:0:
402,192,142264,1,0,0:0:0:0:
329,192,142331,1,0,0:0:0:0:
256,192,142399,1,0,0:0:0:0:
182,192,142466,1,0,0:0:0:0:
402,192,142534,1,0,0:0:0:0:
329,192,142669,1,0,0:0:0:0:
182,192,142669,1,0,0:0:0:0:
36,192,142804,1,0,0:0:0:0:
475,192,142804,1,0,0:0:0:0:
329,192,142939,1,0,0:0:0:0:
182,192,142939,1,0,0:0:0:0:
109,192,143074,1,0,0:0:0:0:
402,192,143074,1,0,0:0:0:0:
182,192,143209,1,0,0:0:0:0:
329,192,143209,1,0,0:0:0:0:
109,192,143344,1,0,0:0:0:0:
402,192,143344,1,0,0:0:0:0:
36,192,143479,1,0,0:0:0:0:
475,192,143479,1,0,0:0:0:0:
109,192,143614,1,0,0:0:0:0:
329,192,143614,1,0,0:0:0:0:
36,192,143749,1,0,0:0:0:0:
256,192,143749,1,0,0:0:0:0:
182,192,143884,1,0,0:0:0:0:
402,192,143884,1,0,0:0:0:0:
109,192,144019,1,0,0:0:0:0:
329,192,144019,1,0,0:0:0:0:
256,192,144154,1,0,0:0:0:0:
475,192,144154,1,0,0:0:0:0:
182,192,144289,1,0,0:0:0:0:
402,192,144289,1,0,0:0:0:0:
36,192,144424,1,0,0:0:0:0:
256,192,144424,1,0,0:0:0:0:
109,192,144559,1,0,0:0:0:0:
329,192,144559,1,0,0:0:0:0:
182,192,144694,1,0,0:0:0:0:
402,192,144694,1,0,0:0:0:0:
256,192,144761,1,0,0:0:0:0:
329,192,144829,1,0,0:0:0:0:
402,192,144896,1,0,0:0:0:0:
475,192,144964,1,0,0:0:0:0:
182,192,144964,1,0,0:0:0:0:
402,192,145031,1,0,0:0:0:0:
329,192,145099,1,0,0:0:0:0:
256,192,145166,1,0,0:0:0:0:
109,192,145234,1,0,0:0:0:0:
402,192,145234,1,0,0:0:0:0:
182,192,145301,1,0,0:0:0:0:
256,192,145369,1,0,0:0:0:0:
329,192,145436,1,0,0:0:0:0:
402,192,145504,1,0,0:0:0:0:
109,192,145504,1,0,0:0:0:0:
329,192,145571,1,0,0:0:0:0:
256,192,145639,1,0,0:0:0:0:
182,192,145706,1,0,0:0:0:0:
109,192,145774,1,0,0:0:0:0:
402,192,145774,1,0,0:0:0:0:
182,192,145841,1,0,0:0:0:0:
256,192,145909,1,0,0:0:0:0:
329,192,145976,1,0,0:0:0:0:
182,192,146044,1,0,0:0:0:0:
36,192,146044,1,0,0:0:0:0:
256,192,146111,1,0,0:0:0:0:
329,192,146179,1,0,0:0:0:0:
402,192,146246,1,0,0:0:0:0:
475,192,146314,1,0,0:0:0:0:
109,192,146314,1,0,0:0:0:0:
329,192,146381,1,0,0:0:0:0:
182,192,146449,1,0,0:0:0:0:
36,192,146516,1,0,0:0:0:0:
475,192,146584,1,0,0:0:0:0:
256,192,146584,1,0,0:0:0:0:
329,192,146651,1,0,0:0:0:0:
182,192,146719,1,0,0:0:0:0:
36,192,146786,1,0,0:0:0:0:
402,192,146854,128,0,149014:0:0:0:0:
109,192,146854,128,0,149014:0:0:0:0:
256,192,146854,1,0,0:0:0:0:
475,192,146989,1,0,0:0:0:0:
182,192,147124,1,0,0:0:0:0:
329,192,147124,1,0,0:0:0:0:
36,192,147259,1,0,0:0:0:0:
256,192,147394,1,0,0:0:0:0:
182,192,147529,1,0,0:0:0:0:
36,192,147664,1,0,0:0:0:0:
475,192,147664,1,0,0:0:0:0:
329,192,147799,1,0,0:0:0:0:
182,192,147934,1,0,0:0:0:0:
36,192,148069,1,0,0:0:0:0:
256,192,148204,1,0,0:0:0:0:
475,192,148204,1,0,0:0:0:0:
182,192,148339,1,0,0:0:0:0:
329,192,148474,1,0,0:0:0:0:
475,192,148609,1,0,0:0:0:0:
256,192,148744,1,0,0:0:0:0:
36,192,148744,1,0,0:0:0:0:
329,192,148879,1,0,0:0:0:0:
36,192,149014,1,0,0:0:0:0:
256,192,149014,1,0,0:0:0:0:
475,192,149014,1,0,0:0:0:0:
182,192,149149,1,0,0:0:0:0:
109,192,149284,1,0,0:0:0:0:
402,192,149284,1,0,0:0:0:0:
329,192,149419,1,0,0:0:0:0:
182,192,149554,1,0,0:0:0:0:
475,192,149554,1,0,0:0:0:0:
402,192,149689,1,0,0:0:0:0:
36,192,149824,1,0,0:0:0:0:
256,192,149824,1,0,0:0:0:0:
182,192,149959,1,0,0:0:0:0:
109,192,150094,1,0,0:0:0:0:
402,192,150094,1,0,0:0:0:0:
256,192,150229,1,0,0:0:0:0:
36,192,150364,1,0,0:0:0:0:
329,192,150364,1,0,0:0:0:0:
475,192,150364,1,0,0:0:0:0:
109,192,150499,1,0,0:0:0:0:
256,192,150634,1,0,0:0:0:0:
402,192,150634,1,0,0:0:0:0:
475,192,150634,1,0,0:0:0:0:
182,192,150836,1,0,0:0:0:0:
329,192,150836,1,0,0:0:0:0:
402,192,150836,1,0,0:0:0:0:
256,192,151039,1,0,0:0:0:0:
109,192,151039,1,0,0:0:0:0:
329,192,151039,1,0,0:0:0:0:
36,192,151174,1,0,0:0:0:0:
182,192,151174,1,0,0:0:0:0:
475,192,151174,1,0,0:0:0:0:
402,192,151309,1,0,0:0:0:0:
109,192,151444,1,0,0:0:0:0:
329,192,151444,1,0,0:0:0:0:
182,192,151579,1,0,0:0:0:0:
256,192,151714,1,0,0:0:0:0:
475,192,151714,1,0,0:0:0:0:
109,192,151849,1,0,0:0:0:0:
36,192,151984,1,0,0:0:0:0:
329,192,151984,1,0,0:0:0:0:
182,192,151984,1,0,0:0:0:0:
475,192,152119,1,0,0:0:0:0:
256,192,152119,1,0,0:0:0:0:
109,192,152119,1,0,0:0:0:0:
402,192,152254,1,0,0:0:0:0:
182,192,152389,1,0,0:0:0:0:
109,192,152457,1,0,0:0:0:0:
36,192,152524,1,0,0:0:0:0:
475,192,152524,1,0,0:0:0:0:
329,192,152524,1,0,0:0:0:0:
402,192,152659,1,0,0:0:0:0:
329,192,152727,1,0,0:0:0:0:
256,192,152794,1,0,0:0:0:0:
475,192,152794,1,0,0:0:0:0:
109,192,152794,1,0,0:0:0:0:
36,192,152929,1,0,0:0:0:0:
109,192,152997,1,0,0:0:0:0:
182,192,153064,1,0,0:0:0:0:
402,192,153064,1,0,0:0:0:0:
329,192,153064,1,0,0:0:0:0:
256,192,153199,1,0,0:0:0:0:
329,192,153267,1,0,0:0:0:0:
402,192,153334,1,0,0:0:0:0:
36,192,153334,1,0,0:0:0:0:
182,192,153334,1,0,0:0:0:0:
256,192,153469,1,0,0:0:0:0:
109,192,153604,1,0,0:0:0:0:
402,192,153604,1,0,0:0:0:0:
329,192,153739,1,0,0:0:0:0:
256,192,153874,1,0,0:0:0:0:
36,192,153874,1,0,0:0:0:0:
475,192,153874,1,0,0:0:0:0:
109,192,154009,1,0,0:0:0:0:
182,192,154144,1,0,0:0:0:0:
329,192,154144,1,0,0:0:0:0:
402,192,154279,1,0,0:0:0:0:
329,192,154347,1,0,0:0:0:0:
256,192,154414,1,0,0:0:0:0:
36,192,154414,1,0,0:0:0:0:
475,192,154414,1,0,0:0:0:0:
182,192,154549,1,0,0:0:0:0:
109,192,154684,1,0,0:0:0:0:
256,192,154684,1,0,0:0:0:0:
402,192,154684,1,0,0:0:0:0:
475,192,154819,1,0,0:0:0:0:
329,192,154954,1,0,0:0:0:0:
256,192,154954,1,0,0:0:0:0:
182,192,154954,1,0,0:0:0:0:
36,192,155089,1,0,0:0:0:0:
109,192,155224,1,0,0:0:0:0:
256,192,155224,1,0,0:0:0:0:
402,192,155224,1,0,0:0:0:0:
182,192,155292,1,0,0:0:0:0:
329,192,155359,1,0,0:0:0:0:
402,192,155427,1,0,0:0:0:0:
256,192,155494,1,0,0:0:0:0:
36,192,155494,1,0,0:0:0:0:
475,192,155494,1,0,0:0:0:0:
109,192,155629,1,0,0:0:0:0:
182,192,155764,1,0,0:0:0:0:
402,192,155764,1,0,0:0:0:0:
475,192,155899,1,0,0:0:0:0:
329,192,156034,1,0,0:0:0:0:
36,192,156034,1,0,0:0:0:0:
256,192,156169,1,0,0:0:0:0:
109,192,156304,1,0,0:0:0:0:
402,192,156304,1,0,0:0:0:0:
329,192,156439,1,0,0:0:0:0:
36,192,156574,1,0,0:0:0:0:
256,192,156574,1,0,0:0:0:0:
329,192,156709,1,0,0:0:0:0:
182,192,156844,1,0,0:0:0:0:
402,192,156844,1,0,0:0:0:0:
109,192,156979,1,0,0:0:0:0:
256,192,157114,1,0,0:0:0:0:
475,192,157114,1,0,0:0:0:0:
182,192,157249,1,0,0:0:0:0:
402,192,157384,1,0,0:0:0:0:
36,192,157384,1,0,0:0:0:0:
256,192,157519,1,0,0:0:0:0:
109,192,157654,1,0,0:0:0:0:
329,192,157654,1,0,0:0:0:0:
475,192,157654,1,0,0:0:0:0:
36,192,157789,1,0,0:0:0:0:
109,192,157924,1,0,0:0:0:0:
402,192,157924,1,0,0:0:0:0:
256,192,158059,1,0,0:0:0:0:
182,192,158194,1,0,0:0:0:0:
475,192,158194,1,0,0:0:0:0:
36,192,158329,1,0,0:0:0:0:
109,192,158464,1,0,0:0:0:0:
329,192,158464,1,0,0:0:0:0:
402,192,158599,1,0,0:0:0:0:
256,192,158734,1,0,0:0:0:0:
475,192,158734,1,0,0:0:0:0:
109,192,158869,1,0,0:0:0:0:
182,192,159004,1,0,0:0:0:0:
329,192,159004,1,0,0:0:0:0:
36,192,159004,1,0,0:0:0:0:
256,192,159139,1,0,0:0:0:0:
182,192,159274,1,0,0:0:0:0:
329,192,159274,1,0,0:0:0:0:
475,192,159274,1,0,0:0:0:0:
402,192,159477,1,0,0:0:0:0:
256,192,159477,1,0,0:0:0:0:
109,192,159477,1,0,0:0:0:0:
329,192,159679,1,0,0:0:0:0:
182,192,159679,1,0,0:0:0:0:
36,192,159679,1,0,0:0:0:0:
109,192,159814,1,0,0:0:0:0:
256,192,159814,1,0,0:0:0:0:
475,192,159814,1,0,0:0:0:0:
402,192,159949,1,0,0:0:0:0:
182,192,160084,1,0,0:0:0:0:
36,192,160084,1,0,0:0:0:0:
329,192,160219,1,0,0:0:0:0:
109,192,160354,1,0,0:0:0:0:
475,192,160354,1,0,0:0:0:0:
256,192,160489,1,0,0:0:0:0:
36,192,160624,1,0,0:0:0:0:
109,192,160624,1,0,0:0:0:0:
329,192,160624,1,0,0:0:0:0:
475,192,160759,1,0,0:0:0:0:
402,192,160759,1,0,0:0:0:0:
182,192,160759,1,0,0:0:0:0:
256,192,161029,1,0,0:0:0:0:
182,192,161097,1,0,0:0:0:0:
109,192,161164,1,0,0:0:0:0:
329,192,161164,1,0,0:0:0:0:
475,192,161164,1,0,0:0:0:0:
182,192,161299,1,0,0:0:0:0:
36,192,161434,1,0,0:0:0:0:
109,192,161434,1,0,0:0:0:0:
329,192,161434,1,0,0:0:0:0:
402,192,161569,1,0,0:0:0:0:
182,192,161704,1,0,0:0:0:0:
475,192,161704,1,0,0:0:0:0:
109,192,161704,1,0,0:0:0:0:
256,192,161839,1,0,0:0:0:0:
182,192,161907,1,0,0:0:0:0:
402,192,161974,1,0,0:0:0:0:
329,192,161974,1,0,0:0:0:0:
109,192,161974,1,0,0:0:0:0:
256,192,162109,1,0,0:0:0:0:
182,192,162244,1,0,0:0:0:0:
329,192,162244,1,0,0:0:0:0:
256,192,162379,1,0,0:0:0:0:
36,192,162514,1,0,0:0:0:0:
329,192,162514,1,0,0:0:0:0:
475,192,162514,1,0,0:0:0:0:
402,192,162649,1,0,0:0:0:0:
182,192,162784,1,0,0:0:0:0:
329,192,162784,1,0,0:0:0:0:
109,192,162919,1,0,0:0:0:0:
36,192,163054,1,0,0:0:0:0:
475,192,163054,1,0,0:0:0:0:
329,192,163054,1,0,0:0:0:0:
109,192,163189,1,0,0:0:0:0:
36,192,163324,1,0,0:0:0:0:
256,192,163324,1,0,0:0:0:0:
402,192,163324,1,0,0:0:0:0:
109,192,163459,1,0,0:0:0:0:
36,192,163594,1,0,0:0:0:0:
182,192,163594,1,0,0:0:0:0:
329,192,163594,1,0,0:0:0:0:
109,192,163729,1,0,0:0:0:0:
182,192,163864,1,0,0:0:0:0:
36,192,163864,1,0,0:0:0:0:
256,192,163932,1,0,0:0:0:0:
329,192,163999,1,0,0:0:0:0:
402,192,164067,1,0,0:0:0:0:
475,192,164134,1,0,0:0:0:0:
36,192,164134,1,0,0:0:0:0:
182,192,164134,1,0,0:0:0:0:
182,192,164404,1,0,0:0:0:0:
402,192,164404,1,0,0:0:0:0:
109,192,164472,1,0,0:0:0:0:
36,192,164539,1,0,0:0:0:0:
109,192,164607,1,0,0:0:0:0:
256,192,164674,1,0,0:0:0:0:
475,192,164674,1,0,0:0:0:0:
182,192,164742,1,0,0:0:0:0:
109,192,164809,1,0,0:0:0:0:
182,192,164877,1,0,0:0:0:0:
329,192,164944,1,0,0:0:0:0:
36,192,164944,1,0,0:0:0:0:
256,192,165012,1,0,0:0:0:0:
182,192,165079,1,0,0:0:0:0:
256,192,165147,1,0,0:0:0:0:
402,192,165147,1,0,0:0:0:0:
36,192,165214,1,0,0:0:0:0:
475,192,165282,1,0,0:0:0:0:
329,192,165282,1,0,0:0:0:0:
256,192,165484,1,0,0:0:0:0:
402,192,165484,1,0,0:0:0:0:
36,192,165484,1,0,0:0:0:0:
329,192,165687,1,0,0:0:0:0:
182,192,165687,1,0,0:0:0:0:
36,192,165754,1,0,0:0:0:0:
256,192,165889,1,0,0:0:0:0:
109,192,165889,1,0,0:0:0:0:
475,192,166024,1,0,0:0:0:0:
36,192,166092,1,0,0:0:0:0:
182,192,166092,1,0,0:0:0:0:
329,192,166294,1,0,0:0:0:0:
475,192,166294,1,0,0:0:0:0:
182,192,166362,1,0,0:0:0:0:
36,192,166429,1,0,0:0:0:0:
109,192,166497,1,0,0:0:0:0:
402,192,166564,1,0,0:0:0:0:
475,192,166564,1,0,0:0:0:0:
256,192,166632,1,0,0:0:0:0:
109,192,166699,1,0,0:0:0:0:
182,192,166767,1,0,0:0:0:0:
475,192,166834,1,0,0:0:0:0:
36,192,166834,1,0,0:0:0:0:
329,192,166902,1,0,0:0:0:0:
182,192,166969,1,0,0:0:0:0:
256,192,167037,1,0,0:0:0:0:
329,192,167104,1,0,0:0:0:0:
36,192,167104,1,0,0:0:0:0:
402,192,167307,1,0,0:0:0:0:
36,192,167374,1,0,0:0:0:0:
475,192,167509,1,0,0:0:0:0:
329,192,167509,1,0,0:0:0:0:
36,192,167644,1,0,0:0:0:0:
402,192,167712,1,0,0:0:0:0:
256,192,167712,1,0,0:0:0:0:
182,192,167914,1,0,0:0:0:0:
329,192,167914,1,0,0:0:0:0:
36,192,167914,1,0,0:0:0:0:
36,192,168117,1,0,0:0:0:0:
182,192,168117,1,0,0:0:0:0:
475,192,168184,1,0,0:0:0:0:
182,192,168319,1,0,0:0:0:0:
36,192,168319,1,0,0:0:0:0:
109,192,168454,1,0,0:0:0:0:
256,192,168454,1,0,0:0:0:0:
475,192,168454,1,0,0:0:0:0:
109,192,168724,1,0,0:0:0:0:
475,192,168724,1,0,0:0:0:0:
182,192,168792,1,0,0:0:0:0:
256,192,168859,1,0,0:0:0:0:
402,192,168859,1,0,0:0:0:0:
109,192,168994,1,0,0:0:0:0:
36,192,169129,1,0,0:0:0:0:
109,192,169197,1,0,0:0:0:0:
256,192,169264,1,0,0:0:0:0:
182,192,169264,1,0,0:0:0:0:
329,192,169332,1,0,0:0:0:0:
475,192,169399,1,0,0:0:0:0:
402,192,169467,1,0,0:0:0:0:
182,192,169534,1,0,0:0:0:0:
36,192,169534,1,0,0:0:0:0:
256,192,169602,1,0,0:0:0:0:
402,192,169669,1,0,0:0:0:0:
329,192,169737,1,0,0:0:0:0:
109,192,169804,1,0,0:0:0:0:
36,192,169804,1,0,0:0:0:0:
182,192,169872,1,0,0:0:0:0:
329,192,169939,1,0,0:0:0:0:
256,192,170007,1,0,0:0:0:0:
36,192,170074,1,0,0:0:0:0:
475,192,170074,1,0,0:0:0:0:
109,192,170142,1,0,0:0:0:0:
182,192,170209,1,0,0:0:0:0:
256,192,170277,1,0,0:0:0:0:
109,192,170344,1,0,0:0:0:0:
475,192,170344,1,0,0:0:0:0:
182,192,170412,1,0,0:0:0:0:
256,192,170479,1,0,0:0:0:0:
329,192,170547,1,0,0:0:0:0:
475,192,170614,1,0,0:0:0:0:
36,192,170614,1,0,0:0:0:0:
329,192,170682,1,0,0:0:0:0:
182,192,170749,1,0,0:0:0:0:
36,192,170817,1,0,0:0:0:0:
402,192,170884,1,0,0:0:0:0:
109,192,170884,1,0,0:0:0:0:
329,192,170952,1,0,0:0:0:0:
256,192,171019,1,0,0:0:0:0:
182,192,171087,1,0,0:0:0:0:
256,192,171154,1,0,0:0:0:0:
402,192,171154,1,0,0:0:0:0:
36,192,171154,1,0,0:0:0:0:
329,192,171357,1,0,0:0:0:0:
475,192,171357,1,0,0:0:0:0:
36,192,171424,1,0,0:0:0:0:
256,192,171559,1,0,0:0:0:0:
109,192,171559,1,0,0:0:0:0:
36,192,171694,1,0,0:0:0:0:
329,192,171762,1,0,0:0:0:0:
475,192,171762,1,0,0:0:0:0:
256,192,171964,1,0,0:0:0:0:
402,192,171964,1,0,0:0:0:0:
36,192,171964,1,0,0:0:0:0:
109,192,171964,1,0,0:0:0:0:
329,192,172167,1,0,0:0:0:0:
182,192,172167,1,0,0:0:0:0:
402,192,172234,1,0,0:0:0:0:
475,192,172234,1,0,0:0:0:0:
109,192,172369,1,0,0:0:0:0:
256,192,172369,1,0,0:0:0:0:
475,192,172504,1,0,0:0:0:0:
402,192,172504,1,0,0:0:0:0:
182,192,172572,1,0,0:0:0:0:
36,192,172572,1,0,0:0:0:0:
182,192,172774,1,0,0:0:0:0:
475,192,172774,1,0,0:0:0:0:
402,192,172774,1,0,0:0:0:0:
109,192,172842,1,0,0:0:0:0:
36,192,172909,1,0,0:0:0:0:
109,192,172977,1,0,0:0:0:0:
256,192,173044,1,0,0:0:0:0:
475,192,173044,1,0,0:0:0:0:
329,192,173112,1,0,0:0:0:0:
402,192,173179,1,0,0:0:0:0:
475,192,173247,1,0,0:0:0:0:
109,192,173314,1,0,0:0:0:0:
329,192,173314,1,0,0:0:0:0:
36,192,173382,1,0,0:0:0:0:
109,192,173449,1,0,0:0:0:0:
182,192,173517,1,0,0:0:0:0:
256,192,173584,1,0,0:0:0:0:
402,192,173584,1,0,0:0:0:0:
36,192,173584,1,0,0:0:0:0:
329,192,173719,1,0,0:0:0:0:
475,192,173719,1,0,0:0:0:0:
36,192,173854,1,0,0:0:0:0:
109,192,173989,1,0,0:0:0:0:
182,192,174124,1,0,0:0:0:0:
475,192,174124,1,0,0:0:0:0:
36,192,174259,1,0,0:0:0:0:
109,192,174394,1,0,0:0:0:0:
475,192,174394,1,0,0:0:0:0:
182,192,174462,1,0,0:0:0:0:
256,192,174529,1,0,0:0:0:0:
329,192,174597,1,0,0:0:0:0:
475,192,174664,1,0,0:0:0:0:
36,192,174664,1,0,0:0:0:0:
329,192,174732,1,0,0:0:0:0:
182,192,174799,1,0,0:0:0:0:
36,192,174867,1,0,0:0:0:0:
109,192,174934,1,0,0:0:0:0:
402,192,174934,1,0,0:0:0:0:
256,192,175002,1,0,0:0:0:0:
475,192,175069,1,0,0:0:0:0:
329,192,175137,1,0,0:0:0:0:
36,192,175204,1,0,0:0:0:0:
256,192,175204,1,0,0:0:0:0:
182,192,175272,1,0,0:0:0:0:
402,192,175339,1,0,0:0:0:0:
256,192,175407,1,0,0:0:0:0:
109,192,175474,1,0,0:0:0:0:
475,192,175474,1,0,0:0:0:0:
329,192,175542,1,0,0:0:0:0:
182,192,175609,1,0,0:0:0:0:
402,192,175677,1,0,0:0:0:0:
109,192,175744,1,0,0:0:0:0:
256,192,175744,1,0,0:0:0:0:
475,192,175744,1,0,0:0:0:0:
182,192,175879,1,0,0:0:0:0:
329,192,175879,1,0,0:0:0:0:
36,192,176014,1,0,0:0:0:0:
109,192,176149,1,0,0:0:0:0:
182,192,176284,1,0,0:0:0:0:
475,192,176284,1,0,0:0:0:0:
256,192,176419,1,0,0:0:0:0:
329,192,176554,1,0,0:0:0:0:
475,192,176554,1,0,0:0:0:0:
109,192,176622,1,0,0:0:0:0:
256,192,176689,1,0,0:0:0:0:
36,192,176757,1,0,0:0:0:0:
475,192,176824,1,0,0:0:0:0:
182,192,176824,1,0,0:0:0:0:
402,192,176892,1,0,0:0:0:0:
329,192,176959,1,0,0:0:0:0:
256,192,177027,1,0,0:0:0:0:
402,192,177094,1,0,0:0:0:0:
36,192,177094,1,0,0:0:0:0:
329,192,177162,1,0,0:0:0:0:
256,192,177229,1,0,0:0:0:0:
182,192,177297,1,0,0:0:0:0:
36,192,177364,1,0,0:0:0:0:
402,192,177364,1,0,0:0:0:0:
109,192,177432,1,0,0:0:0:0:
475,192,177499,1,0,0:0:0:0:
402,192,177567,1,0,0:0:0:0:
329,192,177634,1,0,0:0:0:0:
36,192,177634,1,0,0:0:0:0:
256,192,177702,1,0,0:0:0:0:
109,192,177769,1,0,0:0:0:0:
182,192,177837,1,0,0:0:0:0:
402,192,177904,1,0,0:0:0:0:
36,192,177904,1,0,0:0:0:0:
329,192,177972,1,0,0:0:0:0:
256,192,178039,1,0,0:0:0:0:
182,192,178107,1,0,0:0:0:0:
36,192,178174,1,0,0:0:0:0:
475,192,178174,1,0,0:0:0:0:
109,192,178242,1,0,0:0:0:0:
329,192,178309,1,0,0:0:0:0:
256,192,178377,1,0,0:0:0:0:
475,192,178444,1,0,0:0:0:0:
36,192,178444,1,0,0:0:0:0:
402,192,178512,1,0,0:0:0:0:
329,192,178579,1,0,0:0:0:0:
256,192,178647,1,0,0:0:0:0:
402,192,178714,1,0,0:0:0:0:
36,192,178714,1,0,0:0:0:0:
329,192,178782,1,0,0:0:0:0:
256,192,178849,1,0,0:0:0:0:
182,192,178917,1,0,0:0:0:0:
256,192,178984,1,0,0:0:0:0:
402,192,178984,1,0,0:0:0:0:
36,192,178984,1,0,0:0:0:0:
329,192,179119,1,0,0:0:0:0:
182,192,179119,1,0,0:0:0:0:
256,192,179254,1,0,0:0:0:0:
109,192,179254,1,0,0:0:0:0:
36,192,179254,1,0,0:0:0:0:
256,192,179524,1,0,0:0:0:0:
475,192,179524,1,0,0:0:0:0:
182,192,179592,1,0,0:0:0:0:
109,192,179659,1,0,0:0:0:0:
36,192,179727,1,0,0:0:0:0:
329,192,179794,1,0,0:0:0:0:
475,192,179794,1,0,0:0:0:0:
256,192,179862,1,0,0:0:0:0:
182,192,179929,1,0,0:0:0:0:
109,192,179997,1,0,0:0:0:0:
402,192,180064,1,0,0:0:0:0:
475,192,180064,1,0,0:0:0:0:
329,192,180132,1,0,0:0:0:0:
256,192,180199,1,0,0:0:0:0:
182,192,180267,1,0,0:0:0:0:
36,192,180334,1,0,0:0:0:0:
475,192,180334,1,0,0:0:0:0:
402,192,180334,1,0,0:0:0:0:
109,192,180402,1,0,0:0:0:0:
256,192,180469,1,0,0:0:0:0:
329,192,180537,1,0,0:0:0:0:
109,192,180604,1,0,0:0:0:0:
475,192,180604,1,0,0:0:0:0:
402,192,180604,1,0,0:0:0:0:
182,192,180672,1,0,0:0:0:0:
329,192,180739,1,0,0:0:0:0:
402,192,180807,1,0,0:0:0:0:
475,192,180874,1,0,0:0:0:0:
36,192,180874,1,0,0:0:0:0:
109,192,180874,1,0,0:0:0:0:
402,192,180942,1,0,0:0:0:0:
256,192,181009,1,0,0:0:0:0:
182,192,181077,1,0,0:0:0:0:
402,192,181144,1,0,0:0:0:0:
36,192,181144,1,0,0:0:0:0:
109,192,181144,1,0,0:0:0:0:
329,192,181212,1,0,0:0:0:0:
182,192,181279,1,0,0:0:0:0:
109,192,181347,1,0,0:0:0:0:
36,192,181414,1,0,0:0:0:0:
475,192,181414,1,0,0:0:0:0:
329,192,181414,1,0,0:0:0:0:
109,192,181482,1,0,0:0:0:0:
182,192,181549,1,0,0:0:0:0:
256,192,181617,1,0,0:0:0:0:
329,192,181684,1,0,0:0:0:0:
475,192,181684,1,0,0:0:0:0:
36,192,181819,1,0,0:0:0:0:
109,192,181887,1,0,0:0:0:0:
182,192,181954,1,0,0:0:0:0:
475,192,181954,1,0,0:0:0:0:
256,192,182022,1,0,0:0:0:0:
329,192,182089,1,0,0:0:0:0:
402,192,182089,1,0,0:0:0:0:
36,192,182224,1,0,0:0:0:0:
329,192,182359,1,0,0:0:0:0:
475,192,182359,1,0,0:0:0:0:
109,192,182494,1,0,0:0:0:0:
36,192,182494,1,0,0:0:0:0:
182,192,182562,1,0,0:0:0:0:
256,192,182629,1,0,0:0:0:0:
329,192,182697,1,0,0:0:0:0:
36,192,182764,1,0,0:0:0:0:
475,192,182764,1,0,0:0:0:0:
182,192,182832,1,0,0:0:0:0:
329,192,182899,1,0,0:0:0:0:
475,192,182967,1,0,0:0:0:0:
402,192,183034,1,0,0:0:0:0:
36,192,183034,1,0,0:0:0:0:
329,192,183102,1,0,0:0:0:0:
256,192,183169,1,0,0:0:0:0:
182,192,183237,1,0,0:0:0:0:
329,192,183304,1,0,0:0:0:0:
36,192,183304,1,0,0:0:0:0:
256,192,183372,1,0,0:0:0:0:
182,192,183439,1,0,0:0:0:0:
109,192,183507,1,0,0:0:0:0:
36,192,183574,1,0,0:0:0:0:
475,192,183574,1,0,0:0:0:0:
109,192,183642,1,0,0:0:0:0:
182,192,183709,1,0,0:0:0:0:
256,192,183777,1,0,0:0:0:0:
329,192,183844,1,0,0:0:0:0:
402,192,183844,1,0,0:0:0:0:
475,192,183844,1,0,0:0:0:0:
36,192,183979,1,0,0:0:0:0:
109,192,184047,1,0,0:0:0:0:
182,192,184114,1,0,0:0:0:0:
475,192,184114,1,0,0:0:0:0:
256,192,184249,1,0,0:0:0:0:
402,192,184249,1,0,0:0:0:0:
36,192,184384,1,0,0:0:0:0:
475,192,184519,1,0,0:0:0:0:
329,192,184519,1,0,0:0:0:0:
36,192,184654,1,0,0:0:0:0:
402,192,184654,1,0,0:0:0:0:
109,192,184722,1,0,0:0:0:0:
256,192,184789,1,0,0:0:0:0:
329,192,184857,1,0,0:0:0:0:
182,192,184924,1,0,0:0:0:0:
36,192,184924,1,0,0:0:0:0:
256,192,184992,1,0,0:0:0:0:
402,192,185059,1,0,0:0:0:0:
475,192,185127,1,0,0:0:0:0:
402,192,185194,1,0,0:0:0:0:
36,192,185194,1,0,0:0:0:0:
329,192,185262,1,0,0:0:0:0:
256,192,185329,1,0,0:0:0:0:
182,192,185397,1,0,0:0:0:0:
329,192,185464,1,0,0:0:0:0:
475,192,185464,1,0,0:0:0:0:
256,192,185532,1,0,0:0:0:0:
182,192,185599,1,0,0:0:0:0:
109,192,185667,1,0,0:0:0:0:
36,192,185734,1,0,0:0:0:0:
475,192,185734,1,0,0:0:0:0:
109,192,185802,1,0,0:0:0:0:
182,192,185869,1,0,0:0:0:0:
256,192,185937,1,0,0:0:0:0:
329,192,186004,1,0,0:0:0:0:
475,192,186004,1,0,0:0:0:0:
36,192,186274,1,0,0:0:0:0:
475,192,186274,1,0,0:0:0:0:
109,192,186477,1,0,0:0:0:0:
475,192,186544,1,0,0:0:0:0:
182,192,186679,1,0,0:0:0:0:
36,192,186814,1,0,0:0:0:0:
256,192,186882,1,0,0:0:0:0:
329,192,187084,1,0,0:0:0:0:
36,192,187084,1,0,0:0:0:0:
402,192,187287,1,0,0:0:0:0:
36,192,187354,1,0,0:0:0:0:
475,192,187489,1,0,0:0:0:0:
329,192,187624,1,0,0:0:0:0:
36,192,187624,1,0,0:0:0:0:
256,192,187692,1,0,0:0:0:0:
329,192,187759,1,0,0:0:0:0:
402,192,187827,1,0,0:0:0:0:
475,192,187894,1,0,0:0:0:0:
36,192,187894,1,0,0:0:0:0:
329,192,187962,1,0,0:0:0:0:
182,192,188029,1,0,0:0:0:0:
36,192,188097,1,0,0:0:0:0:
475,192,188164,1,0,0:0:0:0:
109,192,188164,1,0,0:0:0:0:
329,192,188232,1,0,0:0:0:0:
182,192,188299,1,0,0:0:0:0:
36,192,188367,1,0,0:0:0:0:
402,192,188434,1,0,0:0:0:0:
475,192,188434,1,0,0:0:0:0:
329,192,188502,1,0,0:0:0:0:
182,192,188569,1,0,0:0:0:0:
109,192,188637,1,0,0:0:0:0:
402,192,188704,1,0,0:0:0:0:
36,192,188704,1,0,0:0:0:0:
329,192,188772,1,0,0:0:0:0:
182,192,188839,1,0,0:0:0:0:
109,192,188907,1,0,0:0:0:0:
36,192,188974,1,0,0:0:0:0:
402,192,189042,1,0,0:0:0:0:
329,192,189109,1,0,0:0:0:0:
475,192,189109,1,0,0:0:0:0:
329,192,189244,1,0,0:0:0:0:
36,192,189244,1,0,0:0:0:0:
109,192,189244,1,0,0:0:0:0:
256,192,189312,1,0,0:0:0:0:
402,192,189312,1,0,0:0:0:0:
256,192,189447,1,0,0:0:0:0:
182,192,189514,1,0,0:0:0:0:
329,192,189514,1,0,0:0:0:0:
402,192,189514,1,0,0:0:0:0:
475,192,189514,1,0,0:0:0:0:
182,192,189649,1,0,0:0:0:0:
109,192,189717,1,0,0:0:0:0:
256,192,189717,1,0,0:0:0:0:
402,192,189784,1,0,0:0:0:0:
475,192,189784,1,0,0:0:0:0:
109,192,189852,1,0,0:0:0:0:
36,192,189919,1,0,0:0:0:0:
182,192,189919,1,0,0:0:0:0:
402,192,190054,1,0,0:0:0:0:
475,192,190054,1,0,0:0:0:0:
329,192,190054,1,0,0:0:0:0:
256,192,190122,1,0,0:0:0:0:
182,192,190189,1,0,0:0:0:0:
109,192,190257,1,0,0:0:0:0:
36,192,190324,1,0,0:0:0:0:
475,192,190324,1,0,0:0:0:0:
109,192,190392,1,0,0:0:0:0:
182,192,190459,1,0,0:0:0:0:
256,192,190527,1,0,0:0:0:0:
402,192,190594,1,0,0:0:0:0:
36,192,190594,1,0,0:0:0:0:
329,192,190662,1,0,0:0:0:0:
256,192,190729,1,0,0:0:0:0:
329,192,190797,1,0,0:0:0:0:
36,192,190864,1,0,0:0:0:0:
475,192,190864,1,0,0:0:0:0:
182,192,190932,1,0,0:0:0:0:
329,192,190999,1,0,0:0:0:0:
475,192,191067,1,0,0:0:0:0:
402,192,191134,1,0,0:0:0:0:
36,192,191134,1,0,0:0:0:0:
329,192,191202,1,0,0:0:0:0:
256,192,191269,1,0,0:0:0:0:
329,192,191337,1,0,0:0:0:0:
402,192,191404,1,0,0:0:0:0:
36,192,191404,1,0,0:0:0:0:
329,192,191472,1,0,0:0:0:0:
256,192,191539,1,0,0:0:0:0:
329,192,191607,1,0,0:0:0:0:
402,192,191674,1,0,0:0:0:0:
36,192,191674,1,0,0:0:0:0:
329,192,191742,1,0,0:0:0:0:
256,192,191809,1,0,0:0:0:0:
329,192,191877,1,0,0:0:0:0:
402,192,191944,1,0,0:0:0:0:
36,192,191944,1,0,0:0:0:0:
475,192,191944,1,0,0:0:0:0:
182,192,192012,1,0,0:0:0:0:
329,192,192079,1,0,0:0:0:0:
475,192,192147,1,0,0:0:0:0:
36,192,192214,1,0,0:0:0:0:
256,192,192349,1,0,0:0:0:0:
402,192,192349,1,0,0:0:0:0:
329,192,192484,1,0,0:0:0:0:
182,192,192484,1,0,0:0:0:0:
36,192,192484,1,0,0:0:0:0:
109,192,192754,1,0,0:0:0:0:
256,192,192754,1,0,0:0:0:0:
36,192,192754,1,0,0:0:0:0:
182,192,192957,1,0,0:0:0:0:
329,192,192957,1,0,0:0:0:0:
475,192,193024,1,0,0:0:0:0:
36,192,193159,1,0,0:0:0:0:
475,192,193294,1,0,0:0:0:0:
109,192,193294,1,0,0:0:0:0:
402,192,193362,1,0,0:0:0:0:
329,192,193429,1,0,0:0:0:0:
256,192,193497,1,0,0:0:0:0:
402,192,193564,1,0,0:0:0:0:
36,192,193564,1,0,0:0:0:0:
329,192,193632,1,0,0:0:0:0:
256,192,193699,1,0,0:0:0:0:
182,192,193767,1,0,0:0:0:0:
329,192,193834,1,0,0:0:0:0:
36,192,193834,1,0,0:0:0:0:
256,192,193902,1,0,0:0:0:0:
182,192,193969,1,0,0:0:0:0:
109,192,194037,1,0,0:0:0:0:
402,192,194104,1,0,0:0:0:0:
36,192,194104,1,0,0:0:0:0:
329,192,194172,1,0,0:0:0:0:
256,192,194239,1,0,0:0:0:0:
182,192,194307,1,0,0:0:0:0:
109,192,194374,1,0,0:0:0:0:
475,192,194374,1,0,0:0:0:0:
182,192,194442,1,0,0:0:0:0:
329,192,194509,1,0,0:0:0:0:
402,192,194577,1,0,0:0:0:0:
329,192,194644,1,0,0:0:0:0:
182,192,194644,1,0,0:0:0:0:
36,192,194644,1,0,0:0:0:0:
109,192,194779,1,0,0:0:0:0:
182,192,194847,1,0,0:0:0:0:
329,192,194914,1,0,0:0:0:0:
36,192,194914,1,0,0:0:0:0:
402,192,194982,1,0,0:0:0:0:
329,192,195049,1,0,0:0:0:0:
182,192,195049,1,0,0:0:0:0:
475,192,195184,1,0,0:0:0:0:
36,192,195252,1,0,0:0:0:0:
109,192,195319,1,0,0:0:0:0:
182,192,195387,1,0,0:0:0:0:
36,192,195454,1,0,0:0:0:0:
475,192,195454,1,0,0:0:0:0:
402,192,195454,1,0,0:0:0:0:
109,192,195522,1,0,0:0:0:0:
182,192,195589,1,0,0:0:0:0:
256,192,195657,1,0,0:0:0:0:
182,192,195724,1,0,0:0:0:0:
475,192,195724,1,0,0:0:0:0:
256,192,195792,1,0,0:0:0:0:
329,192,195859,1,0,0:0:0:0:
402,192,195927,1,0,0:0:0:0:
256,192,195994,1,0,0:0:0:0:
36,192,195994,1,0,0:0:0:0:
475,192,195994,1,0,0:0:0:0:
109,192,196062,1,0,0:0:0:0:
182,192,196129,1,0,0:0:0:0:
256,192,196197,1,0,0:0:0:0:
402,192,196264,1,0,0:0:0:0:
36,192,196264,1,0,0:0:0:0:
329,192,196332,1,0,0:0:0:0:
402,192,196399,1,0,0:0:0:0:
475,192,196467,1,0,0:0:0:0:
36,192,196534,1,0,0:0:0:0:
329,192,196534,1,0,0:0:0:0:
256,192,196534,1,0,0:0:0:0:
109,192,196602,1,0,0:0:0:0:
182,192,196669,1,0,0:0:0:0:
256,192,196737,1,0,0:0:0:0:
36,192,196804,1,0,0:0:0:0:
475,192,196804,1,0,0:0:0:0:
109,192,196872,1,0,0:0:0:0:
182,192,196939,1,0,0:0:0:0:
256,192,197007,1,0,0:0:0:0:
109,192,197074,1,0,0:0:0:0:
475,192,197074,1,0,0:0:0:0:
402,192,197074,1,0,0:0:0:0:
182,192,197142,1,0,0:0:0:0:
256,192,197209,1,0,0:0:0:0:
329,192,197277,1,0,0:0:0:0:
109,192,197344,1,0,0:0:0:0:
475,192,197344,1,0,0:0:0:0:
182,192,197412,1,0,0:0:0:0:
256,192,197479,1,0,0:0:0:0:
329,192,197547,1,0,0:0:0:0:
36,192,197614,1,0,0:0:0:0:
475,192,197614,1,0,0:0:0:0:
402,192,197614,1,0,0:0:0:0:
109,192,197682,1,0,0:0:0:0:
256,192,197749,1,0,0:0:0:0:
329,192,197817,1,0,0:0:0:0:
109,192,197884,1,0,0:0:0:0:
475,192,197884,1,0,0:0:0:0:
182,192,197952,1,0,0:0:0:0:
329,192,198019,1,0,0:0:0:0:
402,192,198087,1,0,0:0:0:0:
475,192,198154,1,0,0:0:0:0:
256,192,198154,1,0,0:0:0:0:
36,192,198154,1,0,0:0:0:0:
109,192,198154,1,0,0:0:0:0:
182,192,198289,1,0,0:0:0:0:
329,192,198424,1,0,0:0:0:0:
36,192,198424,1,0,0:0:0:0:
182,192,198492,1,0,0:0:0:0:
329,192,198559,1,0,0:0:0:0:
402,192,198627,1,0,0:0:0:0:
109,192,198694,1,0,0:0:0:0:
36,192,198694,1,0,0:0:0:0:
475,192,198694,1,0,0:0:0:0:
182,192,198762,1,0,0:0:0:0:
256,192,198829,1,0,0:0:0:0:
329,192,198897,1,0,0:0:0:0:
109,192,198964,1,0,0:0:0:0:
36,192,198964,1,0,0:0:0:0:
182,192,199032,1,0,0:0:0:0:
256,192,199099,1,0,0:0:0:0:
329,192,199167,1,0,0:0:0:0:
182,192,199234,1,0,0:0:0:0:
36,192,199234,1,0,0:0:0:0:
475,192,199234,1,0,0:0:0:0:
256,192,199302,1,0,0:0:0:0:
329,192,199369,1,0,0:0:0:0:
402,192,199437,1,0,0:0:0:0:
182,192,199504,1,0,0:0:0:0:
36,192,199504,1,0,0:0:0:0:
256,192,199572,1,0,0:0:0:0:
329,192,199639,1,0,0:0:0:0:
402,192,199707,1,0,0:0:0:0:
256,192,199774,1,0,0:0:0:0:
36,192,199774,1,0,0:0:0:0:
109,192,199774,1,0,0:0:0:0:
329,192,199842,1,0,0:0:0:0:
182,192,199909,1,0,0:0:0:0:
256,192,199977,1,0,0:0:0:0:
109,192,200044,1,0,0:0:0:0:
475,192,200044,1,0,0:0:0:0:
182,192,200112,1,0,0:0:0:0:
36,192,200179,1,0,0:0:0:0:
109,192,200247,1,0,0:0:0:0:
182,192,200314,1,0,0:0:0:0:
402,192,200314,1,0,0:0:0:0:
475,192,200314,1,0,0:0:0:0:
329,192,200314,1,0,0:0:0:0:
256,192,200449,1,0,0:0:0:0:
329,192,200517,1,0,0:0:0:0:
402,192,200584,1,0,0:0:0:0:
36,192,200584,1,0,0:0:0:0:
475,192,200584,1,0,0:0:0:0:
182,192,200652,1,0,0:0:0:0:
109,192,200652,1,0,0:0:0:0:
329,192,200719,1,0,0:0:0:0:
256,192,200719,1,0,0:0:0:0:
109,192,200787,1,0,0:0:0:0:
36,192,200787,1,0,0:0:0:0:
475,192,200854,1,0,0:0:0:0:
182,192,200854,1,0,0:0:0:0:
256,192,200989,128,0,201124:0:0:0:0:
475,192,201057,1,0,0:0:0:0:
475,192,201259,1,0,0:0:0:0:
182,192,201259,128,0,201394:0:0:0:0:
402,192,201462,1,0,0:0:0:0:
109,192,201529,128,0,201664:0:0:0:0:
402,192,201664,1,0,0:0:0:0:
402,192,201799,1,0,0:0:0:0:
182,192,201799,128,0,201934:0:0:0:0:
329,192,201934,1,0,0:0:0:0:
36,192,202069,128,0,202205:0:0:0:0:
329,192,202137,1,0,0:0:0:0:
329,192,202340,1,0,0:0:0:0:
182,192,202340,128,0,202475:0:0:0:0:
109,192,202542,1,0,0:0:0:0:
402,192,202610,128,0,202745:0:0:0:0:
109,192,202745,1,0,0:0:0:0:
109,192,202880,1,0,0:0:0:0:
475,192,202880,128,0,203015:0:0:0:0:
256,192,203015,1,0,0:0:0:0:
36,192,203150,128,0,203285:0:0:0:0:
256,192,203217,1,0,0:0:0:0:
402,192,203420,128,0,203555:0:0:0:0:
256,192,203420,1,0,0:0:0:0:
182,192,203622,1,0,0:0:0:0:
329,192,203690,128,0,203825:0:0:0:0:
182,192,203825,1,0,0:0:0:0:
475,192,203960,128,0,204095:0:0:0:0:
182,192,203960,1,0,0:0:0:0:
109,192,204095,1,0,0:0:0:0:
329,192,204230,128,0,204365:0:0:0:0:
109,192,204297,1,0,0:0:0:0:
402,192,204500,128,0,204635:0:0:0:0:
182,192,204500,1,0,0:0:0:0:
256,192,204635,1,0,0:0:0:0:
36,192,204770,128,0,204905:0:0:0:0:
329,192,204770,1,0,0:0:0:0:
402,192,204905,1,0,0:0:0:0:
109,192,205040,128,0,205175:0:0:0:0:
475,192,205040,1,0,0:0:0:0:
256,192,205175,1,0,0:0:0:0:
36,192,205310,128,0,205445:0:0:0:0:
256,192,205377,1,0,0:0:0:0:
256,192,205580,1,0,0:0:0:0:
109,192,205580,128,0,205715:0:0:0:0:
329,192,205715,1,0,0:0:0:0:
329,192,205850,1,0,0:0:0:0:
182,192,205850,128,0,205985:0:0:0:0:
402,192,205985,1,0,0:0:0:0:
402,192,206120,1,0,0:0:0:0:
36,192,206120,128,0,206255:0:0:0:0:
475,192,206255,1,0,0:0:0:0:
475,192,206390,1,0,0:0:0:0:
256,192,206390,128,0,206525:0:0:0:0:
402,192,206525,1,0,0:0:0:0:
402,192,206660,1,0,0:0:0:0:
182,192,206660,128,0,206795:0:0:0:0:
329,192,206795,1,0,0:0:0:0:
329,192,206930,1,0,0:0:0:0:
109,192,206930,128,0,207065:0:0:0:0:
256,192,207065,1,0,0:0:0:0:
256,192,207200,1,0,0:0:0:0:
36,192,207200,128,0,207335:0:0:0:0:
329,192,207335,1,0,0:0:0:0:
329,192,207470,1,0,0:0:0:0:
109,192,207470,128,0,207605:0:0:0:0:
256,192,207605,1,0,0:0:0:0:
256,192,207740,1,0,0:0:0:0:
402,192,207740,128,0,207875:0:0:0:0:
182,192,207875,1,0,0:0:0:0:
182,192,208010,1,0,0:0:0:0:
475,192,208010,128,0,208145:0:0:0:0:
329,192,208145,1,0,0:0:0:0:
329,192,208280,1,0,0:0:0:0:
109,192,208280,128,0,208415:0:0:0:0:
256,192,208415,1,0,0:0:0:0:
36,192,208550,128,0,208685:0:0:0:0:
256,192,208617,1,0,0:0:0:0:
256,192,208820,1,0,0:0:0:0:
402,192,208820,128,0,208955:0:0:0:0:
109,192,209022,1,0,0:0:0:0:
329,192,209090,128,0,209225:0:0:0:0:
109,192,209225,1,0,0:0:0:0:
109,192,209360,1,0,0:0:0:0:
475,192,209360,128,0,209495:0:0:0:0:
402,192,209360,1,0,0:0:0:0:
329,192,209427,1,0,0:0:0:0:
182,192,209495,1,0,0:0:0:0:
256,192,209495,1,0,0:0:0:0:
182,192,209630,1,0,0:0:0:0:
36,192,209630,1,0,0:0:0:0:
256,192,209765,1,0,0:0:0:0:
256,192,209900,1,0,0:0:0:0:
109,192,209900,1,0,0:0:0:0:
329,192,210035,1,0,0:0:0:0:
329,192,210170,1,0,0:0:0:0:
182,192,210170,1,0,0:0:0:0:
475,192,210305,1,0,0:0:0:0:
475,192,210440,1,0,0:0:0:0:
256,192,210440,1,0,0:0:0:0:
402,192,210575,1,0,0:0:0:0:
475,192,210665,1,0,0:0:0:0:
182,192,210710,1,0,0:0:0:0:
402,192,210755,1,0,0:0:0:0:
329,192,210845,1,0,0:0:0:0:
329,192,210980,1,0,0:0:0:0:
109,192,210980,1,0,0:0:0:0:
256,192,211115,1,0,0:0:0:0:
36,192,211250,1,0,0:0:0:0:
256,192,211317,1,0,0:0:0:0:
182,192,211520,1,0,0:0:0:0:
475,192,211520,1,0,0:0:0:0:
109,192,211655,1,0,0:0:0:0:
329,192,211655,1,0,0:0:0:0:
256,192,211655,1,0,0:0:0:0:
109,192,211790,1,0,0:0:0:0:
402,192,211790,1,0,0:0:0:0:
256,192,211925,1,0,0:0:0:0:
256,192,212060,1,0,0:0:0:0:
36,192,212060,1,0,0:0:0:0:
402,192,212195,1,0,0:0:0:0:
402,192,212330,1,0,0:0:0:0:
109,192,212330,1,0,0:0:0:0:
475,192,212465,1,0,0:0:0:0:
475,192,212600,1,0,0:0:0:0:
182,192,212600,1,0,0:0:0:0:
402,192,212735,1,0,0:0:0:0:
402,192,212870,1,0,0:0:0:0:
109,192,212870,1,0,0:0:0:0:
329,192,213005,1,0,0:0:0:0:
329,192,213140,1,0,0:0:0:0:
36,192,213140,1,0,0:0:0:0:
256,192,213275,1,0,0:0:0:0:
256,192,213410,1,0,0:0:0:0:
475,192,213410,1,0,0:0:0:0:
329,192,213545,1,0,0:0:0:0:
329,192,213680,1,0,0:0:0:0:
109,192,213680,1,0,0:0:0:0:
402,192,213815,1,0,0:0:0:0:
475,192,213815,1,0,0:0:0:0:
36,192,213815,1,0,0:0:0:0:
182,192,213950,1,0,0:0:0:0:
402,192,214017,1,0,0:0:0:0:
402,192,214220,1,0,0:0:0:0:
109,192,214220,1,0,0:0:0:0:
256,192,214422,1,0,0:0:0:0:
36,192,214490,1,0,0:0:0:0:
256,192,214625,1,0,0:0:0:0:
329,192,214760,1,0,0:0:0:0:
109,192,214760,1,0,0:0:0:0:
182,192,214827,1,0,0:0:0:0:
402,192,214895,1,0,0:0:0:0:
256,192,214895,1,0,0:0:0:0:
36,192,214895,1,0,0:0:0:0:
402,192,215030,1,0,0:0:0:0:
182,192,215030,1,0,0:0:0:0:
256,192,215165,1,0,0:0:0:0:
256,192,215300,1,0,0:0:0:0:
36,192,215300,1,0,0:0:0:0:
402,192,215435,1,0,0:0:0:0:
329,192,215435,1,0,0:0:0:0:
182,192,215435,1,0,0:0:0:0:
109,192,215570,1,0,0:0:0:0:
475,192,215637,1,0,0:0:0:0:
475,192,215840,1,0,0:0:0:0:
182,192,215840,1,0,0:0:0:0:
402,192,215975,1,0,0:0:0:0:
256,192,215975,1,0,0:0:0:0:
36,192,215975,1,0,0:0:0:0:
109,192,216110,1,0,0:0:0:0:
402,192,216177,1,0,0:0:0:0:
402,192,216380,1,0,0:0:0:0:
182,192,216380,1,0,0:0:0:0:
109,192,216515,1,0,0:0:0:0:
475,192,216515,1,0,0:0:0:0:
256,192,216582,1,0,0:0:0:0:
36,192,216650,1,0,0:0:0:0:
329,192,216785,1,0,0:0:0:0:
402,192,216785,1,0,0:0:0:0:
109,192,216785,1,0,0:0:0:0:
256,192,216920,1,0,0:0:0:0:
36,192,216920,1,0,0:0:0:0:
475,192,217055,1,0,0:0:0:0:
475,192,217190,1,0,0:0:0:0:
329,192,217325,1,0,0:0:0:0:
256,192,217325,1,0,0:0:0:0:
109,192,217325,1,0,0:0:0:0:
329,192,217460,1,0,0:0:0:0:
182,192,217595,1,0,0:0:0:0:
256,192,217595,1,0,0:0:0:0:
402,192,217595,1,0,0:0:0:0:
182,192,217730,1,0,0:0:0:0:
36,192,217865,1,0,0:0:0:0:
402,192,217865,1,0,0:0:0:0:
109,192,217865,1,0,0:0:0:0:
475,192,217865,1,0,0:0:0:0:
182,192,217932,1,0,0:0:0:0:
256,192,218000,1,0,0:0:0:0:
329,192,218067,1,0,0:0:0:0:
402,192,218135,128,0,218270:0:0:0:0:
36,192,218135,1,0,0:0:0:0:
182,192,218135,1,0,0:0:0:0:
109,192,218270,1,0,0:0:0:0:
402,192,218337,128,0,218472:0:0:0:0:
182,192,218405,1,0,0:0:0:0:
329,192,218405,1,0,0:0:0:0:
402,192,218540,128,0,218675:0:0:0:0:
109,192,218540,1,0,0:0:0:0:
36,192,218675,1,0,0:0:0:0:
256,192,218675,1,0,0:0:0:0:
329,192,218742,128,0,218877:0:0:0:0:
182,192,218810,1,0,0:0:0:0:
329,192,218945,128,0,219080:0:0:0:0:
475,192,218945,1,0,0:0:0:0:
109,192,218945,1,0,0:0:0:0:
36,192,219080,1,0,0:0:0:0:
256,192,219215,128,0,219350:0:0:0:0:
109,192,219215,1,0,0:0:0:0:
402,192,219215,1,0,0:0:0:0:
475,192,219350,1,0,0:0:0:0:
256,192,219417,128,0,219552:0:0:0:0:
329,192,219485,1,0,0:0:0:0:
36,192,219485,1,0,0:0:0:0:
256,192,219620,128,0,219755:0:0:0:0:
109,192,219620,1,0,0:0:0:0:
182,192,219755,1,0,0:0:0:0:
402,192,219755,1,0,0:0:0:0:
36,192,219822,128,0,219957:0:0:0:0:
329,192,219890,1,0,0:0:0:0:
36,192,220025,128,0,220160:0:0:0:0:
256,192,220025,1,0,0:0:0:0:
475,192,220025,1,0,0:0:0:0:
402,192,220160,1,0,0:0:0:0:
182,192,220295,128,0,220430:0:0:0:0:
329,192,220295,1,0,0:0:0:0:
109,192,220295,1,0,0:0:0:0:
402,192,220430,1,0,0:0:0:0:
182,192,220497,128,0,220632:0:0:0:0:
36,192,220565,1,0,0:0:0:0:
475,192,220565,1,0,0:0:0:0:
182,192,220700,128,0,220835:0:0:0:0:
329,192,220700,1,0,0:0:0:0:
256,192,220835,1,0,0:0:0:0:
475,192,220835,1,0,0:0:0:0:
109,192,220902,128,0,221037:0:0:0:0:
402,192,220970,1,0,0:0:0:0:
109,192,221105,128,0,221240:0:0:0:0:
36,192,221105,1,0,0:0:0:0:
329,192,221105,1,0,0:0:0:0:
256,192,221240,1,0,0:0:0:0:
36,192,221375,128,0,221510:0:0:0:0:
182,192,221375,1,0,0:0:0:0:
402,192,221375,1,0,0:0:0:0:
329,192,221510,1,0,0:0:0:0:
36,192,221577,128,0,221712:0:0:0:0:
256,192,221577,1,0,0:0:0:0:
182,192,221645,1,0,0:0:0:0:
475,192,221645,1,0,0:0:0:0:
109,192,221780,128,0,221915:0:0:0:0:
402,192,221780,1,0,0:0:0:0:
256,192,221780,1,0,0:0:0:0:
182,192,221915,128,0,222050:0:0:0:0:
329,192,221915,1,0,0:0:0:0:
475,192,221915,1,0,0:0:0:0:
256,192,222050,128,0,222185:0:0:0:0:
36,192,222050,1,0,0:0:0:0:
402,192,222050,1,0,0:0:0:0:
329,192,222185,128,0,222320:0:0:0:0:
109,192,222185,1,0,0:0:0:0:
475,192,222185,1,0,0:0:0:0:
402,192,222320,128,0,222455:0:0:0:0:
182,192,222320,1,0,0:0:0:0:
36,192,222320,1,0,0:0:0:0:
256,192,222455,1,0,0:0:0:0:
109,192,222455,1,0,0:0:0:0:
475,192,222455,128,0,222590:0:0:0:0:
182,192,222590,1,0,0:0:0:0:
475,192,222657,128,0,222792:0:0:0:0:
36,192,222725,1,0,0:0:0:0:
329,192,222725,1,0,0:0:0:0:
182,192,222860,1,0,0:0:0:0:
475,192,222860,128,0,222995:0:0:0:0:
329,192,222995,128,0,223130:0:0:0:0:
109,192,222995,1,0,0:0:0:0:
402,192,222995,1,0,0:0:0:0:
36,192,223130,1,0,0:0:0:0:
402,192,223265,128,0,223400:0:0:0:0:
109,192,223265,1,0,0:0:0:0:
256,192,223265,1,0,0:0:0:0:
182,192,223400,1,0,0:0:0:0:
475,192,223535,128,0,223670:0:0:0:0:
256,192,223670,1,0,0:0:0:0:
402,192,223805,128,0,223940:0:0:0:0:
182,192,223805,1,0,0:0:0:0:
109,192,223805,1,0,0:0:0:0:
36,192,223940,1,0,0:0:0:0:
329,192,224075,128,0,224210:0:0:0:0:
109,192,224075,1,0,0:0:0:0:
475,192,224075,1,0,0:0:0:0:
182,192,224210,1,0,0:0:0:0:
256,192,224345,128,0,224480:0:0:0:0:
109,192,224345,1,0,0:0:0:0:
402,192,224345,1,0,0:0:0:0:
329,192,224480,1,0,0:0:0:0:
256,192,224615,128,0,224750:0:0:0:0:
36,192,224615,1,0,0:0:0:0:
475,192,224615,1,0,0:0:0:0:
402,192,224750,1,0,0:0:0:0:
182,192,224885,128,0,225020:0:0:0:0:
36,192,224885,1,0,0:0:0:0:
329,192,224885,1,0,0:0:0:0:
256,192,225020,1,0,0:0:0:0:
109,192,225155,128,0,225290:0:0:0:0:
329,192,225155,1,0,0:0:0:0:
475,192,225155,1,0,0:0:0:0:
182,192,225290,1,0,0:0:0:0:
256,192,225425,128,0,225560:0:0:0:0:
402,192,225425,1,0,0:0:0:0:
109,192,225425,1,0,0:0:0:0:
36,192,225560,1,0,0:0:0:0:
109,192,225627,1,0,0:0:0:0:
182,192,225695,128,0,225965:0:0:0:0:
329,192,225695,1,0,0:0:0:0:
475,192,225695,1,0,0:0:0:0:
36,192,225830,1,0,0:0:0:0:
402,192,225830,1,0,0:0:0:0:
475,192,225897,1,0,0:0:0:0:
256,192,225965,1,0,0:0:0:0:
402,192,225965,1,0,0:0:0:0:
329,192,225965,1,0,0:0:0:0:
36,192,226032,1,0,0:0:0:0:
109,192,226100,1,0,0:0:0:0:
182,192,226167,1,0,0:0:0:0:
36,192,226235,128,0,226505:0:0:0:0:
475,192,226235,1,0,0:0:0:0:
256,192,226235,1,0,0:0:0:0:
329,192,226235,1,0,0:0:0:0:
402,192,226302,1,0,0:0:0:0:
329,192,226370,1,0,0:0:0:0:
256,192,226437,1,0,0:0:0:0:
402,192,226505,1,0,0:0:0:0:
182,192,226505,1,0,0:0:0:0:
475,192,226505,1,0,0:0:0:0:
256,192,226572,1,0,0:0:0:0:
329,192,226640,1,0,0:0:0:0:
402,192,226707,1,0,0:0:0:0:
109,192,226775,128,0,226910:0:0:0:0:
475,192,226775,1,0,0:0:0:0:
256,192,226775,1,0,0:0:0:0:
36,192,226775,1,0,0:0:0:0:
329,192,226910,1,0,0:0:0:0:
182,192,227045,128,0,227180:0:0:0:0:
256,192,227045,1,0,0:0:0:0:
402,192,227045,1,0,0:0:0:0:
109,192,227180,1,0,0:0:0:0:
256,192,227315,128,0,227450:0:0:0:0:
36,192,227315,1,0,0:0:0:0:
475,192,227315,1,0,0:0:0:0:
329,192,227450,1,0,0:0:0:0:
475,192,227585,128,0,227720:0:0:0:0:
36,192,227585,1,0,0:0:0:0:
182,192,227585,1,0,0:0:0:0:
256,192,227720,1,0,0:0:0:0:
402,192,227855,128,0,227945:0:0:0:0:
109,192,227855,1,0,0:0:0:0:
329,192,227855,1,0,0:0:0:0:
475,192,227945,128,0,228035:0:0:0:0:
182,192,227990,1,0,0:0:0:0:
402,192,228035,128,0,228125:0:0:0:0:
329,192,228125,128,0,228260:0:0:0:0:
36,192,228125,1,0,0:0:0:0:
256,192,228125,1,0,0:0:0:0:
109,192,228260,1,0,0:0:0:0:
256,192,228395,128,0,228530:0:0:0:0:
182,192,228395,1,0,0:0:0:0:
475,192,228395,1,0,0:0:0:0:
402,192,228530,1,0,0:0:0:0:
256,192,228597,128,0,228732:0:0:0:0:
329,192,228665,1,0,0:0:0:0:
36,192,228665,1,0,0:0:0:0:
182,192,228800,128,0,228935:0:0:0:0:
475,192,228800,1,0,0:0:0:0:
109,192,228935,128,0,229070:0:0:0:0:
256,192,228935,1,0,0:0:0:0:
402,192,228935,1,0,0:0:0:0:
329,192,229070,1,0,0:0:0:0:
256,192,229205,128,0,229340:0:0:0:0:
36,192,229205,1,0,0:0:0:0:
475,192,229205,1,0,0:0:0:0:
109,192,229340,1,0,0:0:0:0:
402,192,229475,128,0,229610:0:0:0:0:
182,192,229475,1,0,0:0:0:0:
329,192,229475,1,0,0:0:0:0:
36,192,229610,1,0,0:0:0:0:
475,192,229745,128,0,229880:0:0:0:0:
109,192,229745,1,0,0:0:0:0:
329,192,229745,1,0,0:0:0:0:
256,192,229880,1,0,0:0:0:0:
402,192,230015,128,0,230150:0:0:0:0:
182,192,230015,1,0,0:0:0:0:
36,192,230015,1,0,0:0:0:0:
109,192,230150,1,0,0:0:0:0:
329,192,230285,128,0,230420:0:0:0:0:
36,192,230285,1,0,0:0:0:0:
256,192,230285,1,0,0:0:0:0:
475,192,230420,1,0,0:0:0:0:
256,192,230555,128,0,230690:0:0:0:0:
402,192,230555,1,0,0:0:0:0:
109,192,230555,1,0,0:0:0:0:
182,192,230690,1,0,0:0:0:0:
329,192,230825,128,0,230960:0:0:0:0:
109,192,230825,1,0,0:0:0:0:
475,192,230825,1,0,0:0:0:0:
36,192,230960,1,0,0:0:0:0:
402,192,231095,128,0,231230:0:0:0:0:
256,192,231095,1,0,0:0:0:0:
109,192,231095,1,0,0:0:0:0:
182,192,231230,1,0,0:0:0:0:
402,192,231297,128,0,231432:0:0:0:0:
475,192,231365,1,0,0:0:0:0:
256,192,231365,1,0,0:0:0:0:
402,192,231500,128,0,231635:0:0:0:0:
109,192,231500,1,0,0:0:0:0:
36,192,231635,1,0,0:0:0:0:
329,192,231635,1,0,0:0:0:0:
256,192,231702,128,0,231837:0:0:0:0:
182,192,231770,1,0,0:0:0:0:
256,192,231905,128,0,232040:0:0:0:0:
109,192,231905,1,0,0:0:0:0:
402,192,231905,1,0,0:0:0:0:
329,192,232040,128,0,232175:0:0:0:0:
36,192,232040,1,0,0:0:0:0:
402,192,232175,128,0,232310:0:0:0:0:
182,192,232175,1,0,0:0:0:0:
475,192,232175,1,0,0:0:0:0:
109,192,232310,1,0,0:0:0:0:
182,192,232445,128,0,232580:0:0:0:0:
36,192,232445,1,0,0:0:0:0:
329,192,232445,1,0,0:0:0:0:
475,192,232580,1,0,0:0:0:0:
402,192,232715,128,0,232850:0:0:0:0:
256,192,232715,1,0,0:0:0:0:
109,192,232715,1,0,0:0:0:0:
36,192,232850,1,0,0:0:0:0:
475,192,232917,128,0,233052:0:0:0:0:
182,192,232985,1,0,0:0:0:0:
329,192,232985,1,0,0:0:0:0:
475,192,233120,128,0,233255:0:0:0:0:
109,192,233120,1,0,0:0:0:0:
329,192,233255,128,0,233525:0:0:0:0:
36,192,233255,1,0,0:0:0:0:
182,192,233255,1,0,0:0:0:0:
109,192,233390,1,0,0:0:0:0:
36,192,233457,1,0,0:0:0:0:
182,192,233525,1,0,0:0:0:0:
402,192,233525,1,0,0:0:0:0:
256,192,233660,1,0,0:0:0:0:
182,192,233795,128,0,234065:0:0:0:0:
36,192,233795,1,0,0:0:0:0:
475,192,233795,1,0,0:0:0:0:
256,192,233930,1,0,0:0:0:0:
329,192,233997,1,0,0:0:0:0:
109,192,234065,1,0,0:0:0:0:
402,192,234065,1,0,0:0:0:0:
256,192,234200,1,0,0:0:0:0:
182,192,234335,1,0,0:0:0:0:
402,192,234335,1,0,0:0:0:0:
109,192,234335,1,0,0:0:0:0:
329,192,234402,1,0,0:0:0:0:
256,192,234470,1,0,0:0:0:0:
182,192,234537,1,0,0:0:0:0:
36,192,234605,1,0,0:0:0:0:
256,192,234605,1,0,0:0:0:0:
329,192,234605,1,0,0:0:0:0:
109,192,234672,1,0,0:0:0:0:
182,192,234740,1,0,0:0:0:0:
256,192,234807,1,0,0:0:0:0:
475,192,234875,1,0,0:0:0:0:
182,192,234875,1,0,0:0:0:0:
109,192,234875,1,0,0:0:0:0:
402,192,234942,1,0,0:0:0:0:
329,192,235010,1,0,0:0:0:0:
256,192,235077,1,0,0:0:0:0:
109,192,235145,1,0,0:0:0:0:
329,192,235145,1,0,0:0:0:0:
402,192,235145,1,0,0:0:0:0:
182,192,235212,1,0,0:0:0:0:
256,192,235280,1,0,0:0:0:0:
329,192,235347,1,0,0:0:0:0:
182,192,235415,1,0,0:0:0:0:
256,192,235415,1,0,0:0:0:0:
475,192,235415,1,0,0:0:0:0:
36,192,235415,1,0,0:0:0:0:
402,192,235550,1,0,0:0:0:0:
256,192,235617,1,0,0:0:0:0:
329,192,235685,1,0,0:0:0:0:
109,192,235685,1,0,0:0:0:0:
256,192,235820,1,0,0:0:0:0:
475,192,235820,1,0,0:0:0:0:
36,192,235955,1,0,0:0:0:0:
182,192,235955,1,0,0:0:0:0:
329,192,236022,1,0,0:0:0:0:
109,192,236090,1,0,0:0:0:0:
329,192,236225,1,0,0:0:0:0:
182,192,236225,1,0,0:0:0:0:
475,192,236225,1,0,0:0:0:0:
402,192,236360,1,0,0:0:0:0:
109,192,236360,1,0,0:0:0:0:
256,192,236495,1,0,0:0:0:0:
36,192,236495,1,0,0:0:0:0:
329,192,236495,1,0,0:0:0:0:
109,192,236630,1,0,0:0:0:0:
256,192,236697,1,0,0:0:0:0:
182,192,236765,1,0,0:0:0:0:
402,192,236765,1,0,0:0:0:0:
256,192,236900,1,0,0:0:0:0:
475,192,236900,1,0,0:0:0:0:
109,192,237035,1,0,0:0:0:0:
402,192,237035,1,0,0:0:0:0:
36,192,237102,1,0,0:0:0:0:
329,192,237170,1,0,0:0:0:0:
36,192,237305,1,0,0:0:0:0:
256,192,237305,1,0,0:0:0:0:
475,192,237305,1,0,0:0:0:0:
109,192,237440,1,0,0:0:0:0:
329,192,237440,1,0,0:0:0:0:
182,192,237575,1,0,0:0:0:0:
402,192,237575,1,0,0:0:0:0:
36,192,237575,1,0,0:0:0:0:
329,192,237710,1,0,0:0:0:0:
182,192,237777,1,0,0:0:0:0:
109,192,237845,1,0,0:0:0:0:
402,192,237845,1,0,0:0:0:0:
182,192,237980,1,0,0:0:0:0:
475,192,237980,1,0,0:0:0:0:
329,192,238115,1,0,0:0:0:0:
36,192,238115,1,0,0:0:0:0:
109,192,238182,1,0,0:0:0:0:
256,192,238250,1,0,0:0:0:0:
109,192,238385,1,0,0:0:0:0:
329,192,238385,1,0,0:0:0:0:
402,192,238385,1,0,0:0:0:0:
182,192,238520,1,0,0:0:0:0:
475,192,238520,1,0,0:0:0:0:
36,192,238655,1,0,0:0:0:0:
256,192,238655,1,0,0:0:0:0:
402,192,238655,1,0,0:0:0:0:
182,192,238790,1,0,0:0:0:0:
36,192,238857,1,0,0:0:0:0:
329,192,238925,1,0,0:0:0:0:
475,192,238925,1,0,0:0:0:0:
109,192,239060,1,0,0:0:0:0:
256,192,239060,1,0,0:0:0:0:
182,192,239195,1,0,0:0:0:0:
402,192,239195,1,0,0:0:0:0:
36,192,239195,1,0,0:0:0:0:
256,192,239330,1,0,0:0:0:0:
475,192,239330,1,0,0:0:0:0:
109,192,239330,1,0,0:0:0:0:
329,192,239465,1,0,0:0:0:0:
36,192,239465,1,0,0:0:0:0:
109,192,239465,1,0,0:0:0:0:
402,192,239600,1,0,0:0:0:0:
182,192,239600,1,0,0:0:0:0:
256,192,239600,1,0,0:0:0:0:
256,192,239735,1,0,0:0:0:0:
109,192,239735,1,0,0:0:0:0:
475,192,239735,1,0,0:0:0:0:
329,192,239870,1,0,0:0:0:0:
256,192,239937,1,0,0:0:0:0:
36,192,240005,1,0,0:0:0:0:
182,192,240005,1,0,0:0:0:0:
256,192,240140,1,0,0:0:0:0:
475,192,240140,1,0,0:0:0:0:
329,192,240275,1,0,0:0:0:0:
36,192,240275,1,0,0:0:0:0:
109,192,240275,1,0,0:0:0:0:
256,192,240410,1,0,0:0:0:0:
475,192,240410,1,0,0:0:0:0:
402,192,240545,1,0,0:0:0:0:
36,192,240545,1,0,0:0:0:0:
182,192,240545,1,0,0:0:0:0:
329,192,240680,1,0,0:0:0:0:
109,192,240680,1,0,0:0:0:0:
475,192,240815,1,0,0:0:0:0:
329,192,240950,1,0,0:0:0:0:
182,192,240950,1,0,0:0:0:0:
402,192,241085,1,0,0:0:0:0:
36,192,241085,1,0,0:0:0:0:
109,192,241085,1,0,0:0:0:0:
256,192,241220,1,0,0:0:0:0:
475,192,241220,1,0,0:0:0:0:
329,192,241355,1,0,0:0:0:0:
36,192,241355,1,0,0:0:0:0:
402,192,241355,1,0,0:0:0:0:
182,192,241490,1,0,0:0:0:0:
475,192,241490,1,0,0:0:0:0:
256,192,241625,1,0,0:0:0:0:
402,192,241625,1,0,0:0:0:0:
109,192,241625,1,0,0:0:0:0:
329,192,241760,1,0,0:0:0:0:
36,192,241760,1,0,0:0:0:0:
256,192,241895,1,0,0:0:0:0:
182,192,241895,1,0,0:0:0:0:
475,192,241895,1,0,0:0:0:0:
109,192,242030,1,0,0:0:0:0:
402,192,242030,1,0,0:0:0:0:
182,192,242165,1,0,0:0:0:0:
329,192,242165,1,0,0:0:0:0:
475,192,242165,1,0,0:0:0:0:
36,192,242300,1,0,0:0:0:0:
256,192,242300,1,0,0:0:0:0:
109,192,242435,1,0,0:0:0:0:
329,192,242435,1,0,0:0:0:0:
402,192,242435,1,0,0:0:0:0:
182,192,242570,1,0,0:0:0:0:
475,192,242570,1,0,0:0:0:0:
256,192,242705,1,0,0:0:0:0:
402,192,242705,1,0,0:0:0:0:
36,192,242705,1,0,0:0:0:0:
109,192,242840,1,0,0:0:0:0:
329,192,242840,1,0,0:0:0:0:
256,192,242907,1,0,0:0:0:0:
182,192,242975,1,0,0:0:0:0:
402,192,242975,1,0,0:0:0:0:
475,192,242975,1,0,0:0:0:0:
109,192,243110,1,0,0:0:0:0:
256,192,243110,1,0,0:0:0:0:
329,192,243177,1,0,0:0:0:0:
182,192,243245,1,0,0:0:0:0:
36,192,243245,1,0,0:0:0:0:
402,192,243245,1,0,0:0:0:0:
329,192,243312,1,0,0:0:0:0:
109,192,243380,1,0,0:0:0:0:
36,192,243447,1,0,0:0:0:0:
256,192,243515,1,0,0:0:0:0:
329,192,243515,1,0,0:0:0:0:
402,192,243515,1,0,0:0:0:0:
182,192,243582,1,0,0:0:0:0:
475,192,243650,1,0,0:0:0:0:
402,192,243717,1,0,0:0:0:0:
182,192,243785,1,0,0:0:0:0:
256,192,243785,1,0,0:0:0:0:
36,192,243785,1,0,0:0:0:0:
109,192,243852,1,0,0:0:0:0:
329,192,243920,1,0,0:0:0:0:
256,192,243987,1,0,0:0:0:0:
182,192,244055,1,0,0:0:0:0:
475,192,244055,1,0,0:0:0:0:
36,192,244055,1,0,0:0:0:0:
402,192,244055,1,0,0:0:0:0:
329,192,244190,1,0,0:0:0:0:
109,192,244190,1,0,0:0:0:0:
256,192,244325,1,0,0:0:0:0:
36,192,244325,1,0,0:0:0:0:
402,192,244325,1,0,0:0:0:0:
182,192,244460,1,0,0:0:0:0:
475,192,244460,1,0,0:0:0:0:
329,192,244595,1,0,0:0:0:0:
36,192,244595,1,0,0:0:0:0:
109,192,244595,1,0,0:0:0:0:
475,192,244730,1,0,0:0:0:0:
256,192,244730,1,0,0:0:0:0:
402,192,244865,1,0,0:0:0:0:
182,192,244865,1,0,0:0:0:0:
36,192,244865,1,0,0:0:0:0:
256,192,245000,1,0,0:0:0:0:
109,192,245000,1,0,0:0:0:0:
329,192,245135,1,0,0:0:0:0:
475,192,245135,1,0,0:0:0:0:
36,192,245135,1,0,0:0:0:0:
402,192,245225,1,0,0:0:0:0:
109,192,245270,1,0,0:0:0:0:
329,192,245315,1,0,0:0:0:0:
256,192,245405,1,0,0:0:0:0:
182,192,245405,1,0,0:0:0:0:
475,192,245405,1,0,0:0:0:0:
109,192,245540,1,0,0:0:0:0:
402,192,245540,1,0,0:0:0:0:
182,192,245675,1,0,0:0:0:0:
329,192,245675,1,0,0:0:0:0:
36,192,245675,1,0,0:0:0:0:
475,192,245810,1,0,0:0:0:0:
182,192,245877,1,0,0:0:0:0:
402,192,245945,1,0,0:0:0:0:
109,192,245945,1,0,0:0:0:0:
182,192,246080,1,0,0:0:0:0:
329,192,246080,1,0,0:0:0:0:
109,192,246215,1,0,0:0:0:0:
402,192,246215,1,0,0:0:0:0:
36,192,246215,1,0,0:0:0:0:
182,192,246350,1,0,0:0:0:0:
329,192,246350,1,0,0:0:0:0:
256,192,246485,1,0,0:0:0:0:
36,192,246485,1,0,0:0:0:0:
475,192,246485,1,0,0:0:0:0:
329,192,246620,1,0,0:0:0:0:
109,192,246620,1,0,0:0:0:0:
402,192,246755,1,0,0:0:0:0:
182,192,246755,1,0,0:0:0:0:
36,192,246755,1,0,0:0:0:0:
329,192,246890,1,0,0:0:0:0:
109,192,246890,1,0,0:0:0:0:
475,192,247025,1,0,0:0:0:0:
36,192,247025,1,0,0:0:0:0:
182,192,247025,1,0,0:0:0:0:
329,192,247160,1,0,0:0:0:0:
109,192,247160,1,0,0:0:0:0:
402,192,247295,1,0,0:0:0:0:
182,192,247295,1,0,0:0:0:0:
475,192,247295,1,0,0:0:0:0:
256,192,247430,1,0,0:0:0:0:
109,192,247430,1,0,0:0:0:0:
329,192,247565,1,0,0:0:0:0:
402,192,247565,1,0,0:0:0:0:
36,192,247565,1,0,0:0:0:0:
182,192,247700,1,0,0:0:0:0:
475,192,247700,1,0,0:0:0:0:
256,192,247835,1,0,0:0:0:0:
402,192,247835,1,0,0:0:0:0:
36,192,247835,1,0,0:0:0:0:
109,192,247970,1,0,0:0:0:0:
475,192,247970,1,0,0:0:0:0:
182,192,247970,1,0,0:0:0:0:
329,192,248105,1,0,0:0:0:0:
36,192,248105,1,0,0:0:0:0:
402,192,248105,1,0,0:0:0:0:
182,192,248240,1,0,0:0:0:0:
256,192,248240,1,0,0:0:0:0:
402,192,248375,1,0,0:0:0:0:
36,192,248375,1,0,0:0:0:0:
475,192,248375,1,0,0:0:0:0:
182,192,248510,1,0,0:0:0:0:
402,192,248577,1,0,0:0:0:0:
109,192,248645,1,0,0:0:0:0:
256,192,248645,1,0,0:0:0:0:
402,192,248780,1,0,0:0:0:0:
36,192,248780,1,0,0:0:0:0:
109,192,248915,1,0,0:0:0:0:
475,192,248915,1,0,0:0:0:0:
256,192,248982,1,0,0:0:0:0:
402,192,249050,1,0,0:0:0:0:
256,192,249185,1,0,0:0:0:0:
109,192,249185,1,0,0:0:0:0:
475,192,249185,1,0,0:0:0:0:
329,192,249320,1,0,0:0:0:0:
182,192,249320,1,0,0:0:0:0:
402,192,249455,1,0,0:0:0:0:
36,192,249590,1,0,0:0:0:0:
329,192,249590,1,0,0:0:0:0:
182,192,249725,1,0,0:0:0:0:
256,192,249725,1,0,0:0:0:0:
475,192,249725,1,0,0:0:0:0:
36,192,249860,1,0,0:0:0:0:
402,192,249995,1,0,0:0:0:0:
109,192,249995,1,0,0:0:0:0:
256,192,249995,1,0,0:0:0:0:
182,192,250130,1,0,0:0:0:0:
475,192,250197,1,0,0:0:0:0:
36,192,250265,1,0,0:0:0:0:
256,192,250265,1,0,0:0:0:0:
475,192,250400,1,0,0:0:0:0:
182,192,250400,1,0,0:0:0:0:
402,192,250535,1,0,0:0:0:0:
36,192,250535,1,0,0:0:0:0:
182,192,250670,1,0,0:0:0:0:
402,192,250737,1,0,0:0:0:0:
109,192,250805,1,0,0:0:0:0:
402,192,250940,1,0,0:0:0:0:
182,192,250940,1,0,0:0:0:0:
329,192,251075,1,0,0:0:0:0:
36,192,251075,1,0,0:0:0:0:
182,192,251210,1,0,0:0:0:0:
402,192,251345,1,0,0:0:0:0:
109,192,251345,1,0,0:0:0:0:
329,192,251480,1,0,0:0:0:0:
182,192,251480,1,0,0:0:0:0:
256,192,251615,1,0,0:0:0:0:
109,192,251615,1,0,0:0:0:0:
36,192,251615,1,0,0:0:0:0:
329,192,251682,1,0,0:0:0:0:
402,192,251750,1,0,0:0:0:0:
475,192,251817,1,0,0:0:0:0:
329,192,251885,1,0,0:0:0:0:
109,192,251885,1,0,0:0:0:0:
36,192,251885,1,0,0:0:0:0:
182,192,251952,1,0,0:0:0:0:
256,192,252020,1,0,0:0:0:0:
329,192,252087,1,0,0:0:0:0:
182,192,252155,1,0,0:0:0:0:
402,192,252155,1,0,0:0:0:0:
475,192,252155,1,0,0:0:0:0:
329,192,252223,1,0,0:0:0:0:
256,192,252290,1,0,0:0:0:0:
182,192,252358,1,0,0:0:0:0:
36,192,252425,1,0,0:0:0:0:
329,192,252425,1,0,0:0:0:0:
475,192,252425,1,0,0:0:0:0:
256,192,252493,1,0,0:0:0:0:
182,192,252560,1,0,0:0:0:0:
109,192,252628,1,0,0:0:0:0:
36,192,252695,1,0,0:0:0:0:
402,192,252695,1,0,0:0:0:0:
109,192,252763,1,0,0:0:0:0:
182,192,252830,1,0,0:0:0:0:
475,192,252830,1,0,0:0:0:0:
256,192,252898,1,0,0:0:0:0:
36,192,252965,1,0,0:0:0:0:
402,192,252965,1,0,0:0:0:0:
109,192,253033,1,0,0:0:0:0:
182,192,253100,1,0,0:0:0:0:
475,192,253100,1,0,0:0:0:0:
256,192,253168,1,0,0:0:0:0:
109,192,253235,1,0,0:0:0:0:
402,192,253235,1,0,0:0:0:0:
182,192,253303,1,0,0:0:0:0:
256,192,253370,1,0,0:0:0:0:
475,192,253370,1,0,0:0:0:0:
329,192,253438,1,0,0:0:0:0:
109,192,253505,1,0,0:0:0:0:
402,192,253505,1,0,0:0:0:0:
182,192,253573,1,0,0:0:0:0:
256,192,253640,1,0,0:0:0:0:
475,192,253640,1,0,0:0:0:0:
329,192,253708,1,0,0:0:0:0:
182,192,253775,1,0,0:0:0:0:
36,192,253775,1,0,0:0:0:0:
256,192,253843,1,0,0:0:0:0:
329,192,253910,1,0,0:0:0:0:
109,192,253910,1,0,0:0:0:0:
402,192,253978,1,0,0:0:0:0:
182,192,254045,1,0,0:0:0:0:
36,192,254045,1,0,0:0:0:0:
256,192,254113,1,0,0:0:0:0:
329,192,254180,1,0,0:0:0:0:
109,192,254180,1,0,0:0:0:0:
402,192,254248,1,0,0:0:0:0:
256,192,254315,1,0,0:0:0:0:
36,192,254315,1,0,0:0:0:0:
329,192,254383,1,0,0:0:0:0:
402,192,254450,1,0,0:0:0:0:
109,192,254450,1,0,0:0:0:0:
475,192,254518,1,0,0:0:0:0:
256,192,254585,1,0,0:0:0:0:
36,192,254585,1,0,0:0:0:0:
329,192,254653,1,0,0:0:0:0:
402,192,254720,1,0,0:0:0:0:
109,192,254720,1,0,0:0:0:0:
475,192,254788,1,0,0:0:0:0:
256,192,254855,1,0,0:0:0:0:
402,192,254855,1,0,0:0:0:0:
182,192,254923,1,0,0:0:0:0:
109,192,254990,1,0,0:0:0:0:
475,192,254990,1,0,0:0:0:0:
36,192,255058,1,0,0:0:0:0:
256,192,255125,1,0,0:0:0:0:
402,192,255125,1,0,0:0:0:0:
182,192,255193,1,0,0:0:0:0:
109,192,255260,1,0,0:0:0:0:
475,192,255260,1,0,0:0:0:0:
36,192,255328,1,0,0:0:0:0:
329,192,255395,1,0,0:0:0:0:
402,192,255395,1,0,0:0:0:0:
256,192,255463,1,0,0:0:0:0:
182,192,255530,1,0,0:0:0:0:
475,192,255530,1,0,0:0:0:0:
109,192,255598,1,0,0:0:0:0:
329,192,255665,1,0,0:0:0:0:
402,192,255665,1,0,0:0:0:0:
256,192,255733,1,0,0:0:0:0:
182,192,255800,1,0,0:0:0:0:
475,192,255800,1,0,0:0:0:0:
109,192,255868,1,0,0:0:0:0:
402,192,255935,1,0,0:0:0:0:
36,192,255935,1,0,0:0:0:0:
329,192,256003,1,0,0:0:0:0:
256,192,256070,1,0,0:0:0:0:
109,192,256070,1,0,0:0:0:0:
182,192,256138,1,0,0:0:0:0:
402,192,256205,1,0,0:0:0:0:
36,192,256205,1,0,0:0:0:0:
329,192,256273,1,0,0:0:0:0:
256,192,256340,1,0,0:0:0:0:
109,192,256340,1,0,0:0:0:0:
182,192,256408,1,0,0:0:0:0:
475,192,256475,1,0,0:0:0:0:
36,192,256475,1,0,0:0:0:0:
402,192,256543,1,0,0:0:0:0:
329,192,256610,1,0,0:0:0:0:
109,192,256610,1,0,0:0:0:0:
256,192,256678,1,0,0:0:0:0:
475,192,256745,1,0,0:0:0:0:
36,192,256745,1,0,0:0:0:0:
402,192,256813,1,0,0:0:0:0:
329,192,256880,1,0,0:0:0:0:
109,192,256880,1,0,0:0:0:0:
256,192,256948,1,0,0:0:0:0:
402,192,257015,128,0,261335:0:0:0:0:
109,192,257015,128,0,261335:0:0:0:0:
