osu file format v13

[General]
AudioFilename: Freedom Dive.mp3
AudioLeadIn: 1500
PreviewTime: 107704
Countdown: 0
SampleSet: Normal
StackLeniency: 0.7
Mode: 3
LetterboxInBreaks: 0
SpecialStyle: 0
WidescreenStoryboard: 0

[Editor]
DistanceSpacing: 0.8
BeatDivisor: 4
GridSize: 16
TimelineZoom: 2.3

[Metadata]
Title:FREEDOM DiVE
TitleUnicode:FREEDOM DiVE
Artist:xi
ArtistUnicode:xi
Creator:razlteh
Version:Fullerene's 4K DIMENSIONS
Source:Cytus
Tags:bms blocko fullerene- tear dainesl
BeatmapID:473228
BeatmapSetID:173612

[Difficulty]
HPDrainRate:8.5
CircleSize:4
OverallDifficulty:9
ApproachRate:9
SliderMultiplier:1.4
SliderTickRate:1

[Events]
//Background and Video events
0,0,"background desuuu.jpg",0,0
//Break Periods
//Storyboard Layer 0 (Background)
//Storyboard Layer 1 (Fail)
//Storyboard Layer 2 (Pass)
//Storyboard Layer 3 (Foreground)
//Storyboard Sound Samples
//Background Colour Transformations
3,100,163,162,255

[TimingPoints]
2133,270.0027,4,1,0,30,1,0
2133,-100,4,1,0,30,0,0
64773,-100,4,1,0,30,0,1
82053,-100,4,1,0,30,0,0
98253,-100,4,1,0,5,0,0
99333,-100,4,1,0,10,0,0
100413,-100,4,1,0,15,0,0
101493,-100,4,1,0,20,0,0
102574,-100,4,1,0,25,0,0
103654,-100,4,1,0,30,0,0
104734,-100,4,1,0,40,0,0
105814,-100,4,1,0,50,0,0
106084,-100,4,1,0,60,0,0
106354,-100,4,1,0,70,0,0
106624,-100,4,1,0,85,0,0
106894,-100,4,1,0,100,0,0
107704,-100,4,1,0,30,0,0
125254,-100,4,1,0,30,0,1
146854,-100,4,1,0,30,0,0
235415,-100,4,1,0,30,0,1
257014,-100,4,1,0,30,0,0
257015,-100,4,1,0,30,0,1
261335,-100,4,1,0,30,0,0

[HitObjects]
64,192,2133,5,4,0:0:0:0:
320,192,2133,1,0,0:0:0:0:
448,192,2133,1,0,0:0:0:0:
192,192,2200,1,0,0:0:0:0:
320,192,2268,1,0,0:0:0:0:
192,192,2335,1,2,0:0:0:0:
448,192,2335,1,0,0:0:0:0:
320,192,2403,1,0,0:0:0:0:
192,192,2470,1,0,0:0:0:0:
64,192,2538,1,2,0:0:0:0:
448,192,2538,1,0,0:0:0:0:
320,192,2605,1,0,0:0:0:0:
192,192,2673,1,0,0:0:0:0:
320,192,2740,1,0,0:0:0:0:
64,192,2808,1,2,0:0:0:0:
192,192,2808,1,0,0:0:0:0:
320,192,2875,1,0,0:0:0:0:
64,192,2943,1,2,0:0:0:0:
448,192,2943,1,0,0:0:0:0:
192,192,3010,1,0,0:0:0:0:
320,192,3078,1,2,0:0:0:0:
448,192,3078,1,0,0:0:0:0:
192,192,3145,1,0,0:0:0:0:
64,192,3213,1,4,0:0:0:0:
320,192,3213,1,0,0:0:0:0:
448,192,3280,1,0,0:0:0:0:
64,192,3348,1,0,0:0:0:0:
192,192,3415,1,2,0:0:0:0:
448,192,3415,1,0,0:0:0:0:
320,192,3483,1,0,0:0:0:0:
192,192,3550,1,0,0:0:0:0:
320,192,3618,1,2,0:0:0:0:
448,192,3618,1,0,0:0:0:0:
192,192,3685,1,0,0:0:0:0:
64,192,3753,1,0,0:0:0:0:
448,192,3753,1,0,0:0:0:0:
320,192,3820,1,0,0:0:0:0:
64,192,3888,1,2,0:0:0:0:
192,192,3888,1,0,0:0:0:0:
320,192,3955,1,0,0:0:0:0:
192,192,4023,1,0,0:0:0:0:
448,192,4023,1,0,0:0:0:0:
64,192,4090,1,0,0:0:0:0:
320,192,4158,1,0,0:0:0:0:
192,192,4225,1,0,0:0:0:0:
64,192,4293,1,4,0:0:0:0:
320,192,4293,1,0,0:0:0:0:
448,192,4293,1,0,0:0:0:0:
192,192,4360,1,0,0:0:0:0:
320,192,4428,1,0,0:0:0:0:
192,192,4495,1,2,0:0:0:0:
448,192,4495,1,0,0:0:0:0:
320,192,4563,1,0,0:0:0:0:
192,192,4630,1,0,0:0:0:0:
64,192,4698,1,2,0:0:0:0:
448,192,4698,1,0,0:0:0:0:
320,192,4765,1,0,0:0:0:0:
192,192,4833,1,0,0:0:0:0:
320,192,4900,1,0,0:0:0:0:
64,192,4968,1,2,0:0:0:0:
192,192,4968,1,0,0:0:0:0:
320,192,5035,1,0,0:0:0:0:
64,192,5103,1,2,0:0:0:0:
448,192,5103,1,0,0:0:0:0:
192,192,5170,1,0,0:0:0:0:
320,192,5238,1,2,0:0:0:0:
448,192,5238,1,0,0:0:0:0:
192,192,5305,1,0,0:0:0:0:
64,192,5373,1,4,0:0:0:0:
320,192,5373,1,0,0:0:0:0:
448,192,5440,1,0,0:0:0:0:
64,192,5508,1,0,0:0:0:0:
192,192,5575,1,2,0:0:0:0:
448,192,5575,1,0,0:0:0:0:
320,192,5643,1,0,0:0:0:0:
192,192,5710,1,0,0:0:0:0:
320,192,5778,1,2,0:0:0:0:
448,192,5778,1,0,0:0:0:0:
192,192,5845,1,0,0:0:0:0:
64,192,5913,1,4,0:0:0:0:
448,192,5913,1,0,0:0:0:0:
320,192,5980,1,0,0:0:0:0:
192,192,6048,1,2,0:0:0:0:
64,192,6081,1,0,0:0:0:0:
448,192,6115,1,0,0:0:0:0:
320,192,6149,1,0,0:0:0:0:
192,192,6183,1,2,0:0:0:0:
64,192,6250,1,0,0:0:0:0:
320,192,6318,1,2,0:0:0:0:
192,192,6385,1,0,0:0:0:0:
64,192,6453,1,4,0:0:0:0:
320,192,6453,1,0,0:0:0:0:
448,192,6453,1,0,0:0:0:0:
192,192,6520,1,0,0:0:0:0:
320,192,6588,1,0,0:0:0:0:
192,192,6655,1,2,0:0:0:0:
448,192,6655,1,0,0:0:0:0:
320,192,6723,1,0,0:0:0:0:
192,192,6790,1,0,0:0:0:0:
64,192,6858,1,2,0:0:0:0:
448,192,6858,1,0,0:0:0:0:
320,192,6925,1,0,0:0:0:0:
192,192,6993,1,0,0:0:0:0:
320,192,7060,1,0,0:0:0:0:
64,192,7128,1,2,0:0:0:0:
192,192,7128,1,0,0:0:0:0:
320,192,7195,1,0,0:0:0:0:
64,192,7263,1,2,0:0:0:0:
448,192,7263,1,0,0:0:0:0:
192,192,7330,1,0,0:0:0:0:
320,192,7398,1,2,0:0:0:0:
448,192,7398,1,0,0:0:0:0:
192,192,7465,1,0,0:0:0:0:
64,192,7533,1,4,0:0:0:0:
320,192,7533,1,0,0:0:0:0:
448,192,7600,1,0,0:0:0:0:
64,192,7668,1,0,0:0:0:0:
192,192,7735,1,2,0:0:0:0:
448,192,7735,1,0,0:0:0:0:
320,192,7803,1,0,0:0:0:0:
192,192,7870,1,0,0:0:0:0:
320,192,7938,1,2,0:0:0:0:
448,192,7938,1,0,0:0:0:0:
192,192,8005,1,0,0:0:0:0:
64,192,8073,1,0,0:0:0:0:
448,192,8073,1,0,0:0:0:0:
320,192,8140,1,0,0:0:0:0:
64,192,8208,1,2,0:0:0:0:
192,192,8208,1,0,0:0:0:0:
320,192,8275,1,0,0:0:0:0:
192,192,8343,1,0,0:0:0:0:
448,192,8410,1,0,0:0:0:0:
64,192,8410,1,0,0:0:0:0:
320,192,8478,1,0,0:0:0:0:
192,192,8545,1,0,0:0:0:0:
64,192,8613,1,4,0:0:0:0:
320,192,8613,1,0,0:0:0:0:
448,192,8613,1,0,0:0:0:0:
192,192,8680,1,0,0:0:0:0:
320,192,8748,1,0,0:0:0:0:
192,192,8815,1,2,0:0:0:0:
448,192,8815,1,0,0:0:0:0:
320,192,8883,1,0,0:0:0:0:
192,192,8950,1,0,0:0:0:0:
64,192,9018,1,2,0:0:0:0:
448,192,9018,1,0,0:0:0:0:
320,192,9085,1,0,0:0:0:0:
64,192,9153,1,4,0:0:0:0:
192,192,9153,1,0,0:0:0:0:
448,192,9153,1,0,0:0:0:0:
320,192,9220,1,0,0:0:0:0:
64,192,9288,1,2,0:0:0:0:
192,192,9288,1,0,0:0:0:0:
320,192,9355,1,0,0:0:0:0:
64,192,9423,1,2,0:0:0:0:
448,192,9423,1,0,0:0:0:0:
192,192,9490,1,0,0:0:0:0:
320,192,9558,1,2,0:0:0:0:
448,192,9558,1,0,0:0:0:0:
192,192,9625,1,0,0:0:0:0:
64,192,9693,1,4,0:0:0:0:
320,192,9693,1,0,0:0:0:0:
448,192,9693,1,0,0:0:0:0:
192,192,9760,1,0,0:0:0:0:
64,192,9828,1,2,0:0:0:0:
448,192,9861,1,0,0:0:0:0:
320,192,9895,1,0,0:0:0:0:
192,192,9929,1,0,0:0:0:0:
64,192,9963,1,4,0:0:0:0:
448,192,9963,1,0,0:0:0:0:
320,192,10030,1,0,0:0:0:0:
192,192,10098,1,2,0:0:0:0:
64,192,10132,1,0,0:0:0:0:
448,192,10165,1,0,0:0:0:0:
320,192,10199,1,0,0:0:0:0:
64,192,10233,1,6,0:0:0:0:
192,192,10233,1,0,0:0:0:0:
320,192,10300,1,0,0:0:0:0:
448,192,10300,1,0,0:0:0:0:
64,192,10368,1,6,0:0:0:0:
192,192,10368,1,0,0:0:0:0:
320,192,10435,1,0,0:0:0:0:
448,192,10435,1,0,0:0:0:0:
64,192,10503,1,6,0:0:0:0:
192,192,10570,1,0,0:0:0:0:
320,192,10638,1,2,0:0:0:0:
448,192,10638,1,0,0:0:0:0:
64,192,10705,1,0,0:0:0:0:
192,192,10705,1,0,0:0:0:0:
320,192,10773,1,4,0:0:0:0:
448,192,10773,1,0,0:0:0:0:
192,192,10840,1,0,0:0:0:0:
64,192,10908,1,0,0:0:0:0:
320,192,10975,1,0,0:0:0:0:
64,192,11043,1,8,0:0:0:0:
192,192,11043,1,0,0:0:0:0:
448,192,11043,1,0,0:0:0:0:
320,192,11110,1,0,0:0:0:0:
192,192,11178,1,0,0:0:0:0:
320,192,11245,1,0,0:0:0:0:
64,192,11313,1,0,0:0:0:0:
448,192,11313,1,0,0:0:0:0:
192,192,11380,1,0,0:0:0:0:
320,192,11448,1,0,0:0:0:0:
192,192,11515,1,0,0:0:0:0:
64,192,11583,1,8,0:0:0:0:
320,192,11583,1,0,0:0:0:0:
448,192,11583,1,0,0:0:0:0:
192,192,11650,1,0,0:0:0:0:
448,192,11718,1,0,0:0:0:0:
320,192,11785,1,0,0:0:0:0:
64,192,11853,1,0,0:0:0:0:
192,192,11853,1,0,0:0:0:0:
320,192,11920,1,0,0:0:0:0:
448,192,11988,1,0,0:0:0:0:
192,192,12055,1,0,0:0:0:0:
64,192,12123,1,8,0:0:0:0:
320,192,12123,1,0,0:0:0:0:
448,192,12123,1,0,0:0:0:0:
192,192,12190,1,0,0:0:0:0:
320,192,12258,1,0,0:0:0:0:
192,192,12325,1,0,0:0:0:0:
64,192,12393,1,0,0:0:0:0:
448,192,12393,1,0,0:0:0:0:
320,192,12460,1,0,0:0:0:0:
192,192,12528,1,0,0:0:0:0:
448,192,12595,1,0,0:0:0:0:
64,192,12663,1,8,0:0:0:0:
192,192,12663,1,0,0:0:0:0:
320,192,12663,1,0,0:0:0:0:
448,192,12730,1,0,0:0:0:0:
64,192,12798,1,0,0:0:0:0:
192,192,12798,1,0,0:0:0:0:
320,192,12865,1,0,0:0:0:0:
64,192,12933,1,4,0:0:0:0:
192,192,12933,1,0,0:0:0:0:
448,192,12933,1,0,0:0:0:0:
320,192,13000,1,0,0:0:0:0:
64,192,13068,1,0,0:0:0:0:
192,192,13135,1,0,0:0:0:0:
64,192,13203,1,8,0:0:0:0:
320,192,13203,1,0,0:0:0:0:
448,192,13203,1,0,0:0:0:0:
192,192,13270,1,0,0:0:0:0:
448,192,13338,1,0,0:0:0:0:
320,192,13405,1,0,0:0:0:0:
64,192,13473,1,0,0:0:0:0:
192,192,13473,1,0,0:0:0:0:
320,192,13540,1,0,0:0:0:0:
192,192,13608,1,0,0:0:0:0:
320,192,13675,1,0,0:0:0:0:
64,192,13743,1,8,0:0:0:0:
192,192,13743,1,0,0:0:0:0:
448,192,13743,1,0,0:0:0:0:
320,192,13810,1,0,0:0:0:0:
64,192,13878,1,0,0:0:0:0:
192,192,13878,1,0,0:0:0:0:
320,192,13945,1,0,0:0:0:0:
64,192,14013,1,0,0:0:0:0:
448,192,14013,1,0,0:0:0:0:
192,192,14080,1,0,0:0:0:0:
320,192,14148,1,0,0:0:0:0:
192,192,14215,1,0,0:0:0:0:
64,192,14283,1,12,0:0:0:0:
320,192,14283,1,0,0:0:0:0:
448,192,14283,1,0,0:0:0:0:
192,192,14350,1,0,0:0:0:0:
320,192,14418,1,0,0:0:0:0:
448,192,14418,1,0,0:0:0:0:
192,192,14485,1,0,0:0:0:0:
64,192,14553,1,12,0:0:0:0:
320,192,14553,1,0,0:0:0:0:
448,192,14553,1,0,0:0:0:0:
192,192,14620,1,0,0:0:0:0:
320,192,14688,1,0,0:0:0:0:
448,192,14688,1,0,0:0:0:0:
64,192,14755,1,12,0:0:0:0:
192,192,14755,1,0,0:0:0:0:
320,192,14823,1,0,0:0:0:0:
64,192,14890,1,0,0:0:0:0:
192,192,14890,1,0,0:0:0:0:
320,192,14958,1,12,0:0:0:0:
448,192,14958,1,0,0:0:0:0:
192,192,15025,1,0,0:0:0:0:
64,192,15093,1,4,0:0:0:0:
320,192,15093,1,0,0:0:0:0:
448,192,15093,1,0,0:0:0:0:
192,192,15160,1,0,0:0:0:0:
448,192,15228,1,0,0:0:0:0:
320,192,15295,1,0,0:0:0:0:
64,192,15363,1,8,0:0:0:0:
192,192,15363,1,0,0:0:0:0:
448,192,15363,1,0,0:0:0:0:
320,192,15430,1,0,0:0:0:0:
64,192,15498,1,0,0:0:0:0:
192,192,15565,1,0,0:0:0:0:
320,192,15633,1,0,0:0:0:0:
448,192,15633,1,0,0:0:0:0:
64,192,15700,1,0,0:0:0:0:
320,192,15768,1,0,0:0:0:0:
192,192,15835,1,0,0:0:0:0:
64,192,15903,1,12,0:0:0:0:
320,192,15903,1,0,0:0:0:0:
448,192,15903,1,0,0:0:0:0:
192,192,15970,1,0,0:0:0:0:
320,192,16038,1,4,0:0:0:0:
448,192,16038,1,0,0:0:0:0:
64,192,16105,1,0,0:0:0:0:
192,192,16173,1,0,0:0:0:0:
320,192,16240,1,0,0:0:0:0:
64,192,16308,1,4,0:0:0:0:
448,192,16308,1,0,0:0:0:0:
192,192,16375,1,0,0:0:0:0:
320,192,16375,1,0,0:0:0:0:
64,192,16443,1,12,0:0:0:0:
448,192,16443,1,0,0:0:0:0:
192,192,16510,1,0,0:0:0:0:
320,192,16578,1,0,0:0:0:0:
448,192,16578,1,0,0:0:0:0:
192,192,16645,1,0,0:0:0:0:
64,192,16713,1,4,0:0:0:0:
448,192,16713,1,0,0:0:0:0:
320,192,16780,1,0,0:0:0:0:
64,192,16848,1,4,0:0:0:0:
192,192,16848,1,0,0:0:0:0:
320,192,16915,1,0,0:0:0:0:
448,192,16915,1,0,0:0:0:0:
64,192,16983,1,12,0:0:0:0:
192,192,16983,1,0,0:0:0:0:
320,192,17050,1,0,0:0:0:0:
64,192,17118,1,0,0:0:0:0:
448,192,17118,1,0,0:0:0:0:
192,192,17185,1,0,0:0:0:0:
320,192,17185,1,0,0:0:0:0:
64,192,17253,1,4,0:0:0:0:
448,192,17253,1,0,0:0:0:0:
192,192,17320,1,0,0:0:0:0:
320,192,17388,1,0,0:0:0:0:
192,192,17455,1,0,0:0:0:0:
64,192,17523,1,8,0:0:0:0:
320,192,17523,1,0,0:0:0:0:
448,192,17523,1,0,0:0:0:0:
192,192,17590,1,0,0:0:0:0:
320,192,17658,1,0,0:0:0:0:
448,192,17658,1,0,0:0:0:0:
64,192,17725,1,0,0:0:0:0:
192,192,17793,1,4,0:0:0:0:
320,192,17793,1,0,0:0:0:0:
448,192,17793,1,0,0:0:0:0:
64,192,17860,1,0,0:0:0:0:
320,192,17928,1,0,0:0:0:0:
192,192,17995,1,0,0:0:0:0:
64,192,18063,1,8,0:0:0:0:
320,192,18063,1,0,0:0:0:0:
448,192,18063,1,0,0:0:0:0:
192,192,18130,1,0,0:0:0:0:
64,192,18198,1,0,0:0:0:0:
320,192,18198,1,0,0:0:0:0:
192,192,18265,1,0,0:0:0:0:
448,192,18265,1,0,0:0:0:0:
64,192,18333,1,12,0:0:0:0:
320,192,18333,1,0,0:0:0:0:
448,192,18400,1,0,0:0:0:0:
64,192,18468,1,0,0:0:0:0:
192,192,18468,1,0,0:0:0:0:
320,192,18535,1,0,0:0:0:0:
448,192,18535,1,0,0:0:0:0:
64,192,18603,1,12,0:0:0:0:
192,192,18603,1,0,0:0:0:0:
320,192,18670,1,0,0:0:0:0:
192,192,18738,1,0,0:0:0:0:
448,192,18738,1,0,0:0:0:0:
64,192,18805,1,0,0:0:0:0:
320,192,18805,1,0,0:0:0:0:
192,192,18873,1,12,0:0:0:0:
448,192,18873,1,0,0:0:0:0:
320,192,18940,1,0,0:0:0:0:
192,192,19008,1,0,0:0:0:0:
64,192,19042,1,0,0:0:0:0:
448,192,19075,1,0,0:0:0:0:
320,192,19109,1,0,0:0:0:0:
64,192,19143,1,12,0:0:0:0:
192,192,19143,1,0,0:0:0:0:
320,192,19210,1,0,0:0:0:0:
448,192,19210,1,0,0:0:0:0:
64,192,19278,1,0,0:0:0:0:
192,192,19278,1,0,0:0:0:0:
320,192,19345,1,0,0:0:0:0:
448,192,19345,1,0,0:0:0:0:
64,192,19413,1,4,0:0:0:0:
192,192,19413,1,0,0:0:0:0:
320,192,19480,1,0,0:0:0:0:
448,192,19548,1,0,0:0:0:0:
192,192,19615,1,0,0:0:0:0:
64,192,19683,1,8,0:0:0:0:
320,192,19683,1,0,0:0:0:0:
448,192,19683,1,0,0:0:0:0:
192,192,19750,1,0,0:0:0:0:
320,192,19818,1,0,0:0:0:0:
192,192,19885,1,0,0:0:0:0:
64,192,19953,1,0,0:0:0:0:
448,192,19953,1,0,0:0:0:0:
320,192,20020,1,0,0:0:0:0:
192,192,20088,1,0,0:0:0:0:
320,192,20155,1,0,0:0:0:0:
64,192,20223,1,8,0:0:0:0:
192,192,20223,1,0,0:0:0:0:
448,192,20223,1,0,0:0:0:0:
320,192,20290,1,0,0:0:0:0:
64,192,20358,1,0,0:0:0:0:
192,192,20425,1,0,0:0:0:0:
320,192,20493,1,0,0:0:0:0:
448,192,20493,1,0,0:0:0:0:
192,192,20560,1,0,0:0:0:0:
64,192,20628,1,0,0:0:0:0:
320,192,20695,1,0,0:0:0:0:
64,192,20763,1,8,0:0:0:0:
192,192,20763,1,0,0:0:0:0:
448,192,20763,1,0,0:0:0:0:
320,192,20830,1,0,0:0:0:0:
192,192,20898,1,0,0:0:0:0:
320,192,20965,1,0,0:0:0:0:
64,192,21033,1,0,0:0:0:0:
448,192,21033,1,0,0:0:0:0:
192,192,21100,1,0,0:0:0:0:
320,192,21168,1,0,0:0:0:0:
64,192,21235,1,0,0:0:0:0:
192,192,21303,1,8,0:0:0:0:
320,192,21303,1,0,0:0:0:0:
448,192,21303,1,0,0:0:0:0:
64,192,21370,1,0,0:0:0:0:
320,192,21438,1,0,0:0:0:0:
448,192,21438,1,0,0:0:0:0:
192,192,21505,1,0,0:0:0:0:
64,192,21573,1,4,0:0:0:0:
320,192,21573,1,0,0:0:0:0:
448,192,21573,1,0,0:0:0:0:
192,192,21640,1,0,0:0:0:0:
448,192,21708,1,0,0:0:0:0:
320,192,21775,1,0,0:0:0:0:
64,192,21843,1,8,0:0:0:0:
192,192,21843,1,0,0:0:0:0:
448,192,21843,1,0,0:0:0:0:
320,192,21910,1,0,0:0:0:0:
64,192,21978,1,0,0:0:0:0:
192,192,22045,1,0,0:0:0:0:
320,192,22113,1,0,0:0:0:0:
448,192,22113,1,0,0:0:0:0:
192,192,22180,1,0,0:0:0:0:
320,192,22248,1,0,0:0:0:0:
192,192,22315,1,0,0:0:0:0:
64,192,22383,1,8,0:0:0:0:
320,192,22383,1,0,0:0:0:0:
448,192,22383,1,0,0:0:0:0:
192,192,22450,1,0,0:0:0:0:
320,192,22518,1,0,0:0:0:0:
448,192,22518,1,0,0:0:0:0:
192,192,22585,1,0,0:0:0:0:
64,192,22653,1,0,0:0:0:0:
448,192,22653,1,0,0:0:0:0:
320,192,22720,1,0,0:0:0:0:
192,192,22788,1,0,0:0:0:0:
320,192,22855,1,0,0:0:0:0:
64,192,22923,1,12,0:0:0:0:
192,192,22923,1,0,0:0:0:0:
448,192,22923,1,0,0:0:0:0:
320,192,22990,1,0,0:0:0:0:
64,192,23058,1,0,0:0:0:0:
192,192,23058,1,0,0:0:0:0:
320,192,23125,1,0,0:0:0:0:
64,192,23193,1,12,0:0:0:0:
192,192,23193,1,0,0:0:0:0:
448,192,23193,1,0,0:0:0:0:
320,192,23260,1,0,0:0:0:0:
64,192,23328,1,0,0:0:0:0:
192,192,23328,1,0,0:0:0:0:
320,192,23395,1,12,0:0:0:0:
448,192,23395,1,0,0:0:0:0:
192,192,23463,1,0,0:0:0:0:
320,192,23530,1,0,0:0:0:0:
448,192,23530,1,0,0:0:0:0:
64,192,23598,1,12,0:0:0:0:
192,192,23598,1,0,0:0:0:0:
320,192,23665,1,0,0:0:0:0:
64,192,23733,1,4,0:0:0:0:
192,192,23733,1,0,0:0:0:0:
448,192,23733,1,0,0:0:0:0:
320,192,23800,1,0,0:0:0:0:
64,192,23868,1,0,0:0:0:0:
192,192,23935,1,0,0:0:0:0:
64,192,24003,1,8,0:0:0:0:
320,192,24003,1,0,0:0:0:0:
448,192,24003,1,0,0:0:0:0:
192,192,24070,1,0,0:0:0:0:
448,192,24138,1,0,0:0:0:0:
320,192,24205,1,0,0:0:0:0:
64,192,24273,1,0,0:0:0:0:
192,192,24273,1,0,0:0:0:0:
448,192,24340,1,0,0:0:0:0:
192,192,24408,1,0,0:0:0:0:
320,192,24475,1,0,0:0:0:0:
64,192,24543,1,12,0:0:0:0:
192,192,24543,1,0,0:0:0:0:
448,192,24543,1,0,0:0:0:0:
320,192,24610,1,0,0:0:0:0:
64,192,24678,1,4,0:0:0:0:
192,192,24678,1,0,0:0:0:0:
448,192,24745,1,0,0:0:0:0:
320,192,24813,1,0,0:0:0:0:
192,192,24880,1,0,0:0:0:0:
64,192,24948,1,4,0:0:0:0:
448,192,24948,1,0,0:0:0:0:
192,192,25015,1,0,0:0:0:0:
320,192,25015,1,0,0:0:0:0:
64,192,25083,1,12,0:0:0:0:
448,192,25083,1,0,0:0:0:0:
320,192,25150,1,0,0:0:0:0:
64,192,25218,1,0,0:0:0:0:
192,192,25218,1,0,0:0:0:0:
320,192,25285,1,0,0:0:0:0:
64,192,25353,1,4,0:0:0:0:
448,192,25353,1,0,0:0:0:0:
192,192,25420,1,0,0:0:0:0:
320,192,25488,1,4,0:0:0:0:
448,192,25488,1,0,0:0:0:0:
64,192,25555,1,0,0:0:0:0:
192,192,25555,1,0,0:0:0:0:
320,192,25623,1,12,0:0:0:0:
448,192,25623,1,0,0:0:0:0:
192,192,25690,1,0,0:0:0:0:
64,192,25758,1,0,0:0:0:0:
448,192,25758,1,0,0:0:0:0:
192,192,25825,1,0,0:0:0:0:
320,192,25825,1,0,0:0:0:0:
64,192,25893,1,4,0:0:0:0:
448,192,25893,1,0,0:0:0:0:
320,192,25960,1,0,0:0:0:0:
192,192,26028,1,0,0:0:0:0:
320,192,26095,1,0,0:0:0:0:
64,192,26163,1,8,0:0:0:0:
192,192,26163,1,0,0:0:0:0:
448,192,26163,1,0,0:0:0:0:
320,192,26230,1,0,0:0:0:0:
64,192,26298,1,0,0:0:0:0:
192,192,26298,1,0,0:0:0:0:
320,192,26365,1,0,0:0:0:0:
448,192,26365,1,0,0:0:0:0:
64,192,26433,1,4,0:0:0:0:
192,192,26433,1,0,0:0:0:0:
320,192,26500,1,0,0:0:0:0:
64,192,26568,1,0,0:0:0:0:
448,192,26568,1,0,0:0:0:0:
192,192,26635,1,0,0:0:0:0:
320,192,26703,1,8,0:0:0:0:
448,192,26703,1,0,0:0:0:0:
192,192,26770,1,0,0:0:0:0:
64,192,26838,1,0,0:0:0:0:
448,192,26838,1,0,0:0:0:0:
192,192,26905,1,0,0:0:0:0:
320,192,26905,1,0,0:0:0:0:
64,192,26973,1,4,0:0:0:0:
448,192,26973,1,0,0:0:0:0:
320,192,27040,1,0,0:0:0:0:
64,192,27108,1,0,0:0:0:0:
192,192,27108,1,0,0:0:0:0:
320,192,27175,1,0,0:0:0:0:
64,192,27243,1,12,0:0:0:0:
448,192,27243,1,0,0:0:0:0:
192,192,27310,1,0,0:0:0:0:
320,192,27378,1,0,0:0:0:0:
448,192,27378,1,0,0:0:0:0:
192,192,27445,1,0,0:0:0:0:
64,192,27513,1,4,0:0:0:0:
448,192,27513,1,0,0:0:0:0:
320,192,27580,1,0,0:0:0:0:
64,192,27648,1,0,0:0:0:0:
192,192,27682,1,0,0:0:0:0:
320,192,27715,1,0,0:0:0:0:
448,192,27749,1,0,0:0:0:0:
64,192,27783,1,12,0:0:0:0:
192,192,27783,1,0,0:0:0:0:
320,192,27850,1,0,0:0:0:0:
448,192,27850,1,0,0:0:0:0:
64,192,27918,1,0,0:0:0:0:
192,192,27918,1,0,0:0:0:0:
320,192,27985,1,0,0:0:0:0:
448,192,27985,1,0,0:0:0:0:
64,192,28053,1,4,0:0:0:0:
192,192,28053,1,0,0:0:0:0:
320,192,28120,1,0,0:0:0:0:
192,192,28188,1,0,0:0:0:0:
448,192,28255,1,0,0:0:0:0:
320,192,28323,1,0,0:0:0:0:
192,192,28390,1,0,0:0:0:0:
448,192,28458,1,0,0:0:0:0:
320,192,28525,1,0,0:0:0:0:
192,192,28593,1,0,0:0:0:0:
448,192,28660,1,0,0:0:0:0:
320,192,28728,1,0,0:0:0:0:
64,192,28795,1,0,0:0:0:0:
448,192,28863,1,0,0:0:0:0:
320,192,28930,1,0,0:0:0:0:
448,192,28998,1,0,0:0:0:0:
320,192,29065,1,0,0:0:0:0:
448,192,29133,1,0,0:0:0:0:
192,192,29200,1,0,0:0:0:0:
64,192,29268,1,0,0:0:0:0:
448,192,29335,1,0,0:0:0:0:
192,192,29403,1,0,0:0:0:0:
64,192,29470,1,0,0:0:0:0:
448,192,29538,1,0,0:0:0:0:
192,192,29605,1,0,0:0:0:0:
64,192,29673,1,0,0:0:0:0:
320,192,29740,1,0,0:0:0:0:
192,192,29808,1,0,0:0:0:0:
64,192,29875,1,0,0:0:0:0:
320,192,29943,1,0,0:0:0:0:
192,192,30010,1,0,0:0:0:0:
320,192,30078,1,0,0:0:0:0:
192,192,30145,1,0,0:0:0:0:
64,192,30213,1,0,0:0:0:0:
448,192,30213,1,0,0:0:0:0:
320,192,30280,1,0,0:0:0:0:
64,192,30348,1,0,0:0:0:0:
448,192,30415,1,0,0:0:0:0:
320,192,30483,1,0,0:0:0:0:
64,192,30550,1,0,0:0:0:0:
448,192,30618,1,0,0:0:0:0:
320,192,30685,1,0,0:0:0:0:
64,192,30753,1,0,0:0:0:0:
320,192,30820,1,0,0:0:0:0:
192,192,30888,1,0,0:0:0:0:
64,192,30955,1,0,0:0:0:0:
320,192,31023,1,0,0:0:0:0:
192,192,31090,1,0,0:0:0:0:
320,192,31158,1,0,0:0:0:0:
192,192,31225,1,0,0:0:0:0:
64,192,31293,1,0,0:0:0:0:
448,192,31293,1,0,0:0:0:0:
320,192,31360,1,0,0:0:0:0:
64,192,31428,1,0,0:0:0:0:
448,192,31495,1,0,0:0:0:0:
192,192,31563,1,0,0:0:0:0:
64,192,31630,1,0,0:0:0:0:
320,192,31698,1,0,0:0:0:0:
192,192,31765,1,0,0:0:0:0:
64,192,31833,1,0,0:0:0:0:
448,192,31833,1,0,0:0:0:0:
320,192,31900,1,0,0:0:0:0:
64,192,31968,1,0,0:0:0:0:
448,192,32035,1,0,0:0:0:0:
192,192,32103,1,0,0:0:0:0:
64,192,32170,1,0,0:0:0:0:
320,192,32238,1,0,0:0:0:0:
192,192,32305,1,0,0:0:0:0:
320,192,32373,1,0,0:0:0:0:
448,192,32373,1,0,0:0:0:0:
192,192,32440,1,0,0:0:0:0:
64,192,32508,1,0,0:0:0:0:
448,192,32575,1,0,0:0:0:0:
192,192,32643,1,0,0:0:0:0:
64,192,32710,1,0,0:0:0:0:
448,192,32778,1,0,0:0:0:0:
192,192,32845,1,0,0:0:0:0:
64,192,32913,1,0,0:0:0:0:
448,192,32980,1,0,0:0:0:0:
320,192,33048,1,0,0:0:0:0:
64,192,33115,1,0,0:0:0:0:
320,192,33183,1,0,0:0:0:0:
192,192,33250,1,0,0:0:0:0:
320,192,33318,1,0,0:0:0:0:
192,192,33385,1,0,0:0:0:0:
64,192,33453,1,0,0:0:0:0:
448,192,33453,1,0,0:0:0:0:
320,192,33520,1,0,0:0:0:0:
448,192,33588,1,0,0:0:0:0:
320,192,33655,1,0,0:0:0:0:
192,192,33723,1,0,0:0:0:0:
64,192,33790,1,0,0:0:0:0:
192,192,33858,1,0,0:0:0:0:
64,192,33925,1,0,0:0:0:0:
320,192,33993,1,0,0:0:0:0:
448,192,33993,1,0,0:0:0:0:
192,192,34060,1,0,0:0:0:0:
320,192,34128,1,0,0:0:0:0:
192,192,34195,1,0,0:0:0:0:
448,192,34263,1,0,0:0:0:0:
192,192,34330,1,0,0:0:0:0:
448,192,34398,1,0,0:0:0:0:
192,192,34465,1,0,0:0:0:0:
320,192,34533,1,0,0:0:0:0:
448,192,34533,1,0,0:0:0:0:
192,192,34600,1,0,0:0:0:0:
448,192,34668,1,0,0:0:0:0:
192,192,34735,1,0,0:0:0:0:
320,192,34803,1,0,0:0:0:0:
64,192,34870,1,0,0:0:0:0:
320,192,34938,1,0,0:0:0:0:
64,192,35006,1,0,0:0:0:0:
192,192,35073,1,0,0:0:0:0:
64,192,35141,1,0,0:0:0:0:
192,192,35208,1,0,0:0:0:0:
64,192,35276,1,0,0:0:0:0:
448,192,35343,1,0,0:0:0:0:
192,192,35411,1,0,0:0:0:0:
448,192,35478,1,0,0:0:0:0:
192,192,35546,1,0,0:0:0:0:
64,192,35613,1,0,0:0:0:0:
448,192,35613,1,0,0:0:0:0:
320,192,35681,1,0,0:0:0:0:
64,192,35748,1,0,0:0:0:0:
448,192,35816,1,0,0:0:0:0:
320,192,35883,1,0,0:0:0:0:
64,192,35951,1,0,0:0:0:0:
448,192,36018,1,0,0:0:0:0:
320,192,36086,1,0,0:0:0:0:
64,192,36153,1,0,0:0:0:0:
320,192,36221,1,0,0:0:0:0:
192,192,36288,1,0,0:0:0:0:
64,192,36356,1,0,0:0:0:0:
320,192,36423,1,0,0:0:0:0:
192,192,36491,1,0,0:0:0:0:
320,192,36558,1,0,0:0:0:0:
448,192,36558,1,0,0:0:0:0:
64,192,36626,1,0,0:0:0:0:
192,192,36626,1,0,0:0:0:0:
320,192,36693,1,4,0:0:0:0:
448,192,36693,1,0,0:0:0:0:
192,192,36761,1,0,0:0:0:0:
320,192,36828,1,0,0:0:0:0:
192,192,36896,1,0,0:0:0:0:
448,192,36963,1,0,0:0:0:0:
320,192,37031,1,0,0:0:0:0:
448,192,37098,1,0,0:0:0:0:
320,192,37166,1,0,0:0:0:0:
448,192,37233,1,0,0:0:0:0:
192,192,37301,1,0,0:0:0:0:
448,192,37368,1,0,0:0:0:0:
192,192,37436,1,0,0:0:0:0:
448,192,37503,1,0,0:0:0:0:
64,192,37571,1,0,0:0:0:0:
448,192,37638,1,0,0:0:0:0:
64,192,37706,1,0,0:0:0:0:
192,192,37773,1,0,0:0:0:0:
320,192,37773,1,0,0:0:0:0:
448,192,37863,1,0,0:0:0:0:
320,192,37953,1,0,0:0:0:0:
192,192,38043,1,0,0:0:0:0:
64,192,38111,1,0,0:0:0:0:
320,192,38178,1,0,0:0:0:0:
64,192,38246,1,0,0:0:0:0:
192,192,38313,1,0,0:0:0:0:
448,192,38313,1,0,0:0:0:0:
320,192,38381,1,0,0:0:0:0:
64,192,38448,1,0,0:0:0:0:
448,192,38516,1,0,0:0:0:0:
320,192,38583,1,0,0:0:0:0:
64,192,38651,1,0,0:0:0:0:
320,192,38718,1,0,0:0:0:0:
192,192,38786,1,0,0:0:0:0:
64,192,38853,1,4,0:0:0:0:
320,192,38853,1,0,0:0:0:0:
448,192,38853,1,0,0:0:0:0:
192,192,38921,1,0,0:0:0:0:
320,192,38988,1,0,0:0:0:0:
192,192,39056,1,0,0:0:0:0:
448,192,39123,1,0,0:0:0:0:
320,192,39191,1,0,0:0:0:0:
448,192,39258,1,0,0:0:0:0:
320,192,39326,1,0,0:0:0:0:
448,192,39393,1,0,0:0:0:0:
64,192,39393,1,0,0:0:0:0:
192,192,39461,1,0,0:0:0:0:
448,192,39528,1,0,0:0:0:0:
192,192,39596,1,0,0:0:0:0:
320,192,39663,1,0,0:0:0:0:
192,192,39731,1,0,0:0:0:0:
320,192,39798,1,0,0:0:0:0:
192,192,39866,1,0,0:0:0:0:
64,192,39933,1,0,0:0:0:0:
448,192,39933,1,0,0:0:0:0:
320,192,40001,1,0,0:0:0:0:
448,192,40068,1,0,0:0:0:0:
320,192,40136,1,0,0:0:0:0:
448,192,40203,1,0,0:0:0:0:
192,192,40271,1,0,0:0:0:0:
448,192,40338,1,0,0:0:0:0:
192,192,40406,1,0,0:0:0:0:
320,192,40473,1,0,0:0:0:0:
448,192,40473,1,0,0:0:0:0:
64,192,40541,1,0,0:0:0:0:
320,192,40608,1,0,0:0:0:0:
64,192,40676,1,0,0:0:0:0:
448,192,40743,1,0,0:0:0:0:
192,192,40811,1,0,0:0:0:0:
448,192,40878,1,0,0:0:0:0:
192,192,40946,1,0,0:0:0:0:
64,192,41013,1,4,0:0:0:0:
320,192,41013,1,0,0:0:0:0:
448,192,41013,1,0,0:0:0:0:
192,192,41081,1,0,0:0:0:0:
64,192,41148,1,0,0:0:0:0:
320,192,41216,1,0,0:0:0:0:
192,192,41283,1,0,0:0:0:0:
64,192,41351,1,0,0:0:0:0:
320,192,41418,1,0,0:0:0:0:
192,192,41486,1,0,0:0:0:0:
64,192,41553,1,0,0:0:0:0:
192,192,41621,1,0,0:0:0:0:
64,192,41688,1,0,0:0:0:0:
448,192,41756,1,0,0:0:0:0:
320,192,41823,1,0,0:0:0:0:
64,192,41891,1,0,0:0:0:0:
320,192,41958,1,0,0:0:0:0:
448,192,41958,1,0,0:0:0:0:
64,192,42026,1,0,0:0:0:0:
192,192,42026,1,0,0:0:0:0:
320,192,42093,1,4,0:0:0:0:
448,192,42093,1,0,0:0:0:0:
64,192,42161,1,0,0:0:0:0:
448,192,42228,1,0,0:0:0:0:
64,192,42296,1,0,0:0:0:0:
192,192,42363,1,0,0:0:0:0:
64,192,42431,1,0,0:0:0:0:
192,192,42498,1,0,0:0:0:0:
64,192,42566,1,0,0:0:0:0:
320,192,42633,1,4,0:0:0:0:
448,192,42633,1,0,0:0:0:0:
192,192,42701,1,0,0:0:0:0:
64,192,42768,1,0,0:0:0:0:
448,192,42836,1,0,0:0:0:0:
320,192,42903,1,0,0:0:0:0:
64,192,42971,1,0,0:0:0:0:
320,192,43038,1,0,0:0:0:0:
192,192,43106,1,0,0:0:0:0:
64,192,43173,1,4,0:0:0:0:
320,192,43173,1,0,0:0:0:0:
448,192,43173,1,0,0:0:0:0:
192,192,43241,1,0,0:0:0:0:
320,192,43308,1,0,0:0:0:0:
192,192,43376,1,0,0:0:0:0:
320,192,43443,1,0,0:0:0:0:
192,192,43511,1,0,0:0:0:0:
320,192,43578,1,0,0:0:0:0:
192,192,43646,1,0,0:0:0:0:
320,192,43713,1,4,0:0:0:0:
448,192,43713,1,0,0:0:0:0:
192,192,43781,1,0,0:0:0:0:
320,192,43848,1,0,0:0:0:0:
192,192,43916,1,0,0:0:0:0:
64,192,43983,1,4,0:0:0:0:
320,192,43983,1,0,0:0:0:0:
192,192,44051,1,0,0:0:0:0:
320,192,44118,1,0,0:0:0:0:
192,192,44186,1,0,0:0:0:0:
448,192,44253,1,4,0:0:0:0:
320,192,44321,1,0,0:0:0:0:
192,192,44388,1,0,0:0:0:0:
448,192,44456,1,0,0:0:0:0:
192,192,44523,1,4,0:0:0:0:
320,192,44523,1,0,0:0:0:0:
64,192,44591,1,0,0:0:0:0:
448,192,44658,1,0,0:0:0:0:
192,192,44726,1,0,0:0:0:0:
64,192,44793,1,4,0:0:0:0:
448,192,44793,1,0,0:0:0:0:
320,192,44861,1,0,0:0:0:0:
192,192,44928,1,0,0:0:0:0:
64,192,44996,1,0,0:0:0:0:
320,192,45063,1,4,0:0:0:0:
448,192,45063,1,0,0:0:0:0:
192,192,45131,1,0,0:0:0:0:
64,192,45198,1,0,0:0:0:0:
448,192,45198,1,0,0:0:0:0:
192,192,45266,1,0,0:0:0:0:
320,192,45266,1,0,0:0:0:0:
64,192,45333,1,4,0:0:0:0:
448,192,45333,1,0,0:0:0:0:
320,192,45401,1,0,0:0:0:0:
64,192,45468,1,0,0:0:0:0:
192,192,45468,1,0,0:0:0:0:
320,192,45536,1,0,0:0:0:0:
64,192,45603,1,0,0:0:0:0:
448,192,45603,1,0,0:0:0:0:
192,192,45671,1,0,0:0:0:0:
320,192,45738,1,0,0:0:0:0:
448,192,45738,1,0,0:0:0:0:
64,192,45806,1,0,0:0:0:0:
192,192,45806,1,0,0:0:0:0:
320,192,45873,1,4,0:0:0:0:
448,192,45873,1,0,0:0:0:0:
192,192,45941,1,0,0:0:0:0:
64,192,46008,1,0,0:0:0:0:
448,192,46008,1,0,0:0:0:0:
320,192,46076,1,0,0:0:0:0:
64,192,46143,1,0,0:0:0:0:
192,192,46143,1,0,0:0:0:0:
320,192,46211,1,0,0:0:0:0:
64,192,46278,1,0,0:0:0:0:
448,192,46278,1,0,0:0:0:0:
192,192,46346,1,0,0:0:0:0:
320,192,46346,1,0,0:0:0:0:
64,192,46413,1,4,0:0:0:0:
448,192,46413,1,0,0:0:0:0:
192,192,46481,1,0,0:0:0:0:
320,192,46548,1,0,0:0:0:0:
448,192,46548,1,0,0:0:0:0:
64,192,46616,1,0,0:0:0:0:
192,192,46616,1,0,0:0:0:0:
320,192,46683,1,4,0:0:0:0:
448,192,46683,1,0,0:0:0:0:
192,192,46751,1,0,0:0:0:0:
64,192,46818,1,0,0:0:0:0:
448,192,46818,1,0,0:0:0:0:
192,192,46886,1,0,0:0:0:0:
320,192,46886,1,0,0:0:0:0:
64,192,46953,1,4,0:0:0:0:
448,192,46953,1,0,0:0:0:0:
320,192,47021,1,0,0:0:0:0:
192,192,47088,1,0,0:0:0:0:
64,192,47122,1,0,0:0:0:0:
448,192,47156,1,0,0:0:0:0:
320,192,47189,1,0,0:0:0:0:
64,192,47223,1,4,0:0:0:0:
192,192,47223,1,0,0:0:0:0:
320,192,47291,1,0,0:0:0:0:
448,192,47291,1,0,0:0:0:0:
64,192,47358,1,0,0:0:0:0:
192,192,47358,1,0,0:0:0:0:
320,192,47426,1,0,0:0:0:0:
448,192,47426,1,0,0:0:0:0:
64,192,47493,1,4,0:0:0:0:
192,192,47493,1,0,0:0:0:0:
448,192,47561,1,0,0:0:0:0:
320,192,47628,1,0,0:0:0:0:
192,192,47696,1,0,0:0:0:0:
64,192,47763,1,8,0:0:0:0:
320,192,47763,1,0,0:0:0:0:
448,192,47763,1,0,0:0:0:0:
192,192,47831,1,0,0:0:0:0:
448,192,47898,1,0,0:0:0:0:
64,192,47966,1,0,0:0:0:0:
192,192,48033,1,0,0:0:0:0:
320,192,48033,1,0,0:0:0:0:
448,192,48033,1,0,0:0:0:0:
64,192,48101,1,0,0:0:0:0:
320,192,48168,1,0,0:0:0:0:
192,192,48236,1,0,0:0:0:0:
64,192,48303,1,8,0:0:0:0:
320,192,48303,1,0,0:0:0:0:
448,192,48303,1,0,0:0:0:0:
192,192,48371,1,0,0:0:0:0:
320,192,48438,1,0,0:0:0:0:
448,192,48506,1,0,0:0:0:0:
64,192,48573,1,0,0:0:0:0:
192,192,48573,1,0,0:0:0:0:
320,192,48573,1,0,0:0:0:0:
448,192,48641,1,0,0:0:0:0:
192,192,48708,1,0,0:0:0:0:
64,192,48776,1,0,0:0:0:0:
192,192,48843,1,8,0:0:0:0:
320,192,48843,1,0,0:0:0:0:
448,192,48843,1,0,0:0:0:0:
64,192,48911,1,0,0:0:0:0:
320,192,48978,1,0,0:0:0:0:
192,192,49046,1,0,0:0:0:0:
64,192,49113,1,0,0:0:0:0:
320,192,49113,1,0,0:0:0:0:
448,192,49113,1,0,0:0:0:0:
192,192,49181,1,0,0:0:0:0:
448,192,49248,1,0,0:0:0:0:
64,192,49316,1,0,0:0:0:0:
192,192,49383,1,8,0:0:0:0:
320,192,49383,1,0,0:0:0:0:
448,192,49383,1,0,0:0:0:0:
64,192,49451,1,0,0:0:0:0:
320,192,49518,1,0,0:0:0:0:
448,192,49518,1,0,0:0:0:0:
192,192,49586,1,0,0:0:0:0:
64,192,49653,1,0,0:0:0:0:
320,192,49653,1,0,0:0:0:0:
448,192,49653,1,0,0:0:0:0:
192,192,49721,1,0,0:0:0:0:
448,192,49788,1,0,0:0:0:0:
320,192,49856,1,0,0:0:0:0:
64,192,49923,1,8,0:0:0:0:
192,192,49923,1,0,0:0:0:0:
448,192,49923,1,0,0:0:0:0:
320,192,49991,1,0,0:0:0:0:
64,192,50058,1,0,0:0:0:0:
448,192,50126,1,0,0:0:0:0:
64,192,50193,1,0,0:0:0:0:
192,192,50193,1,0,0:0:0:0:
320,192,50193,1,0,0:0:0:0:
448,192,50261,1,0,0:0:0:0:
192,192,50328,1,0,0:0:0:0:
320,192,50396,1,0,0:0:0:0:
64,192,50463,1,8,0:0:0:0:
192,192,50463,1,0,0:0:0:0:
448,192,50463,1,0,0:0:0:0:
320,192,50531,1,0,0:0:0:0:
192,192,50598,1,0,0:0:0:0:
64,192,50666,1,0,0:0:0:0:
192,192,50733,1,0,0:0:0:0:
320,192,50733,1,0,0:0:0:0:
448,192,50733,1,0,0:0:0:0:
64,192,50801,1,0,0:0:0:0:
320,192,50868,1,0,0:0:0:0:
448,192,50936,1,0,0:0:0:0:
64,192,51003,1,8,0:0:0:0:
192,192,51003,1,0,0:0:0:0:
320,192,51003,1,0,0:0:0:0:
448,192,51071,1,0,0:0:0:0:
192,192,51138,1,0,0:0:0:0:
320,192,51206,1,0,0:0:0:0:
64,192,51273,1,0,0:0:0:0:
192,192,51273,1,0,0:0:0:0:
448,192,51273,1,0,0:0:0:0:
320,192,51341,1,0,0:0:0:0:
64,192,51408,1,0,0:0:0:0:
448,192,51476,1,0,0:0:0:0:
64,192,51543,1,8,0:0:0:0:
192,192,51543,1,0,0:0:0:0:
320,192,51543,1,0,0:0:0:0:
448,192,51611,1,0,0:0:0:0:
64,192,51678,1,0,0:0:0:0:
192,192,51678,1,0,0:0:0:0:
320,192,51746,1,0,0:0:0:0:
64,192,51813,1,0,0:0:0:0:
192,192,51813,1,0,0:0:0:0:
448,192,51813,1,0,0:0:0:0:
320,192,51881,1,0,0:0:0:0:
64,192,51948,1,0,0:0:0:0:
448,192,52016,1,0,0:0:0:0:
64,192,52083,1,8,0:0:0:0:
192,192,52083,1,0,0:0:0:0:
320,192,52083,1,0,0:0:0:0:
448,192,52151,1,0,0:0:0:0:
320,192,52218,1,0,0:0:0:0:
192,192,52286,1,0,0:0:0:0:
64,192,52353,1,0,0:0:0:0:
320,192,52353,1,0,0:0:0:0:
448,192,52353,1,0,0:0:0:0:
192,192,52421,1,0,0:0:0:0:
64,192,52488,1,0,0:0:0:0:
448,192,52556,1,0,0:0:0:0:
64,192,52623,1,8,0:0:0:0:
192,192,52623,1,0,0:0:0:0:
320,192,52623,1,0,0:0:0:0:
448,192,52691,1,0,0:0:0:0:
64,192,52758,1,0,0:0:0:0:
320,192,52826,1,0,0:0:0:0:
64,192,52893,1,0,0:0:0:0:
192,192,52893,1,0,0:0:0:0:
448,192,52893,1,0,0:0:0:0:
320,192,52961,1,0,0:0:0:0:
448,192,53028,1,0,0:0:0:0:
192,192,53096,1,0,0:0:0:0:
64,192,53163,1,8,0:0:0:0:
320,192,53163,1,0,0:0:0:0:
448,192,53163,1,0,0:0:0:0:
192,192,53231,1,0,0:0:0:0:
64,192,53298,1,0,0:0:0:0:
448,192,53366,1,0,0:0:0:0:
64,192,53433,1,0,0:0:0:0:
192,192,53433,1,0,0:0:0:0:
320,192,53433,1,0,0:0:0:0:
448,192,53501,1,0,0:0:0:0:
192,192,53568,1,0,0:0:0:0:
320,192,53636,1,0,0:0:0:0:
64,192,53703,1,8,0:0:0:0:
192,192,53703,1,0,0:0:0:0:
448,192,53703,1,0,0:0:0:0:
320,192,53771,1,0,0:0:0:0:
64,192,53838,1,0,0:0:0:0:
192,192,53838,1,0,0:0:0:0:
448,192,53906,1,0,0:0:0:0:
64,192,53973,1,0,0:0:0:0:
192,192,53973,1,0,0:0:0:0:
320,192,53973,1,0,0:0:0:0:
448,192,54041,1,0,0:0:0:0:
320,192,54108,1,0,0:0:0:0:
64,192,54176,1,0,0:0:0:0:
192,192,54243,1,8,0:0:0:0:
320,192,54243,1,0,0:0:0:0:
448,192,54243,1,0,0:0:0:0:
64,192,54311,1,0,0:0:0:0:
320,192,54378,1,0,0:0:0:0:
448,192,54378,1,0,0:0:0:0:
192,192,54446,1,0,0:0:0:0:
64,192,54513,1,0,0:0:0:0:
320,192,54513,1,0,0:0:0:0:
448,192,54513,1,0,0:0:0:0:
192,192,54581,1,0,0:0:0:0:
448,192,54648,1,0,0:0:0:0:
320,192,54716,1,0,0:0:0:0:
64,192,54783,1,8,0:0:0:0:
192,192,54783,1,0,0:0:0:0:
448,192,54783,1,0,0:0:0:0:
320,192,54851,1,0,0:0:0:0:
64,192,54918,1,0,0:0:0:0:
192,192,54918,1,0,0:0:0:0:
448,192,54986,1,0,0:0:0:0:
64,192,55053,1,0,0:0:0:0:
192,192,55053,1,0,0:0:0:0:
320,192,55053,1,0,0:0:0:0:
448,192,55121,1,0,0:0:0:0:
64,192,55188,1,0,0:0:0:0:
192,192,55188,1,0,0:0:0:0:
320,192,55256,1,0,0:0:0:0:
64,192,55323,1,12,0:0:0:0:
192,192,55323,1,0,0:0:0:0:
448,192,55323,1,0,0:0:0:0:
320,192,55391,1,0,0:0:0:0:
64,192,55458,1,0,0:0:0:0:
192,192,55458,1,0,0:0:0:0:
448,192,55526,1,0,0:0:0:0:
64,192,55593,1,12,0:0:0:0:
192,192,55593,1,0,0:0:0:0:
320,192,55593,1,0,0:0:0:0:
448,192,55661,1,0,0:0:0:0:
64,192,55728,1,0,0:0:0:0:
192,192,55762,1,0,0:0:0:0:
320,192,55796,1,0,0:0:0:0:
448,192,55829,1,0,0:0:0:0:
64,192,55863,1,12,0:0:0:0:
192,192,55863,1,0,0:0:0:0:
320,192,55931,1,0,0:0:0:0:
448,192,55931,1,0,0:0:0:0:
64,192,55998,1,0,0:0:0:0:
192,192,55998,1,0,0:0:0:0:
320,192,56066,1,0,0:0:0:0:
448,192,56066,1,0,0:0:0:0:
64,192,56133,1,4,0:0:0:0:
192,192,56133,1,0,0:0:0:0:
320,192,56201,1,0,0:0:0:0:
448,192,56268,1,0,0:0:0:0:
64,192,56336,1,0,0:0:0:0:
192,192,56403,1,8,0:0:0:0:
320,192,56403,1,0,0:0:0:0:
448,192,56403,1,0,0:0:0:0:
64,192,56471,1,0,0:0:0:0:
320,192,56538,1,0,0:0:0:0:
192,192,56606,1,0,0:0:0:0:
64,192,56673,1,0,0:0:0:0:
320,192,56673,1,0,0:0:0:0:
448,192,56673,1,0,0:0:0:0:
192,192,56741,1,0,0:0:0:0:
448,192,56808,1,0,0:0:0:0:
64,192,56876,1,0,0:0:0:0:
192,192,56943,1,8,0:0:0:0:
320,192,56943,1,0,0:0:0:0:
448,192,56943,1,0,0:0:0:0:
64,192,57011,1,0,0:0:0:0:
448,192,57078,1,0,0:0:0:0:
320,192,57146,1,0,0:0:0:0:
64,192,57213,1,0,0:0:0:0:
192,192,57213,1,0,0:0:0:0:
448,192,57213,1,0,0:0:0:0:
320,192,57281,1,0,0:0:0:0:
64,192,57348,1,0,0:0:0:0:
192,192,57416,1,0,0:0:0:0:
64,192,57483,1,8,0:0:0:0:
320,192,57483,1,0,0:0:0:0:
448,192,57483,1,0,0:0:0:0:
192,192,57551,1,0,0:0:0:0:
448,192,57618,1,0,0:0:0:0:
64,192,57686,1,0,0:0:0:0:
192,192,57753,1,0,0:0:0:0:
320,192,57753,1,0,0:0:0:0:
448,192,57753,1,0,0:0:0:0:
64,192,57821,1,0,0:0:0:0:
320,192,57888,1,0,0:0:0:0:
192,192,57956,1,0,0:0:0:0:
64,192,58023,1,8,0:0:0:0:
320,192,58023,1,0,0:0:0:0:
448,192,58023,1,0,0:0:0:0:
192,192,58091,1,0,0:0:0:0:
320,192,58158,1,0,0:0:0:0:
448,192,58158,1,0,0:0:0:0:
64,192,58226,1,0,0:0:0:0:
192,192,58293,1,0,0:0:0:0:
320,192,58293,1,0,0:0:0:0:
448,192,58293,1,0,0:0:0:0:
64,192,58361,1,0,0:0:0:0:
320,192,58428,1,0,0:0:0:0:
448,192,58496,1,0,0:0:0:0:
64,192,58563,1,8,0:0:0:0:
192,192,58563,1,0,0:0:0:0:
320,192,58563,1,0,0:0:0:0:
448,192,58631,1,0,0:0:0:0:
192,192,58698,1,0,0:0:0:0:
320,192,58766,1,0,0:0:0:0:
64,192,58833,1,0,0:0:0:0:
192,192,58833,1,0,0:0:0:0:
448,192,58833,1,0,0:0:0:0:
320,192,58901,1,0,0:0:0:0:
64,192,58968,1,0,0:0:0:0:
448,192,59036,1,0,0:0:0:0:
64,192,59103,1,8,0:0:0:0:
192,192,59103,1,0,0:0:0:0:
320,192,59103,1,0,0:0:0:0:
448,192,59171,1,0,0:0:0:0:
64,192,59238,1,0,0:0:0:0:
192,192,59306,1,0,0:0:0:0:
64,192,59373,1,0,0:0:0:0:
320,192,59373,1,0,0:0:0:0:
448,192,59373,1,0,0:0:0:0:
192,192,59441,1,0,0:0:0:0:
448,192,59508,1,0,0:0:0:0:
320,192,59576,1,0,0:0:0:0:
64,192,59643,1,8,0:0:0:0:
192,192,59643,1,0,0:0:0:0:
448,192,59643,1,0,0:0:0:0:
320,192,59711,1,0,0:0:0:0:
64,192,59778,1,0,0:0:0:0:
448,192,59846,1,0,0:0:0:0:
64,192,59913,1,0,0:0:0:0:
192,192,59913,1,0,0:0:0:0:
320,192,59913,1,0,0:0:0:0:
448,192,59981,1,0,0:0:0:0:
192,192,60048,1,0,0:0:0:0:
320,192,60116,1,0,0:0:0:0:
64,192,60183,1,8,0:0:0:0:
192,192,60183,1,0,0:0:0:0:
448,192,60183,1,0,0:0:0:0:
320,192,60251,1,0,0:0:0:0:
64,192,60318,1,0,0:0:0:0:
192,192,60318,1,0,0:0:0:0:
448,192,60386,1,0,0:0:0:0:
64,192,60453,1,0,0:0:0:0:
192,192,60453,1,0,0:0:0:0:
320,192,60453,1,0,0:0:0:0:
448,192,60521,1,0,0:0:0:0:
192,192,60588,1,0,0:0:0:0:
320,192,60656,1,0,0:0:0:0:
64,192,60723,1,8,0:0:0:0:
192,192,60723,1,0,0:0:0:0:
448,192,60723,1,0,0:0:0:0:
320,192,60791,1,0,0:0:0:0:
448,192,60858,1,0,0:0:0:0:
64,192,60926,1,0,0:0:0:0:
192,192,60993,1,0,0:0:0:0:
320,192,60993,1,0,0:0:0:0:
448,192,60993,1,0,0:0:0:0:
64,192,61061,1,0,0:0:0:0:
192,192,61128,1,0,0:0:0:0:
320,192,61196,1,0,0:0:0:0:
64,192,61263,1,8,0:0:0:0:
192,192,61263,1,0,0:0:0:0:
448,192,61263,1,0,0:0:0:0:
320,192,61331,1,0,0:0:0:0:
192,192,61398,1,0,0:0:0:0:
448,192,61466,1,0,0:0:0:0:
64,192,61533,1,0,0:0:0:0:
192,192,61533,1,0,0:0:0:0:
320,192,61533,1,0,0:0:0:0:
448,192,61601,1,0,0:0:0:0:
320,192,61668,1,0,0:0:0:0:
64,192,61736,1,0,0:0:0:0:
192,192,61803,1,8,0:0:0:0:
320,192,61803,1,0,0:0:0:0:
448,192,61803,1,0,0:0:0:0:
64,192,61871,1,0,0:0:0:0:
192,192,61938,1,0,0:0:0:0:
320,192,62006,1,0,0:0:0:0:
64,192,62073,1,0,0:0:0:0:
192,192,62073,1,0,0:0:0:0:
448,192,62073,1,0,0:0:0:0:
320,192,62141,1,0,0:0:0:0:
64,192,62208,1,0,0:0:0:0:
448,192,62276,1,0,0:0:0:0:
64,192,62343,1,8,0:0:0:0:
192,192,62343,1,0,0:0:0:0:
320,192,62343,1,0,0:0:0:0:
448,192,62411,1,0,0:0:0:0:
64,192,62478,1,0,0:0:0:0:
192,192,62478,1,0,0:0:0:0:
320,192,62546,1,0,0:0:0:0:
64,192,62613,1,0,0:0:0:0:
192,192,62613,1,0,0:0:0:0:
448,192,62613,1,0,0:0:0:0:
320,192,62681,1,0,0:0:0:0:
64,192,62748,1,0,0:0:0:0:
448,192,62748,1,0,0:0:0:0:
192,192,62816,1,0,0:0:0:0:
64,192,62883,1,8,0:0:0:0:
320,192,62883,1,0,0:0:0:0:
448,192,62883,1,0,0:0:0:0:
192,192,62951,1,0,0:0:0:0:
320,192,63018,1,0,0:0:0:0:
448,192,63018,1,0,0:0:0:0:
64,192,63086,1,0,0:0:0:0:
192,192,63153,1,0,0:0:0:0:
320,192,63153,1,0,0:0:0:0:
448,192,63153,1,0,0:0:0:0:
64,192,63221,1,0,0:0:0:0:
192,192,63288,1,0,0:0:0:0:
320,192,63322,1,0,0:0:0:0:
448,192,63356,1,0,0:0:0:0:
64,192,63390,1,0,0:0:0:0:
192,192,63423,1,8,0:0:0:0:
320,192,63423,1,0,0:0:0:0:
448,192,63491,1,0,0:0:0:0:
64,192,63558,1,0,0:0:0:0:
192,192,63558,1,0,0:0:0:0:
320,192,63626,1,0,0:0:0:0:
448,192,63626,1,0,0:0:0:0:
64,192,63693,1,8,0:0:0:0:
192,192,63693,1,0,0:0:0:0:
320,192,63761,1,0,0:0:0:0:
64,192,63828,1,0,0:0:0:0:
448,192,63828,1,0,0:0:0:0:
192,192,63896,1,0,0:0:0:0:
320,192,63963,1,12,0:0:0:0:
448,192,63963,1,0,0:0:0:0:
64,192,64031,1,0,0:0:0:0:
192,192,64031,1,0,0:0:0:0:
320,192,64098,1,0,0:0:0:0:
448,192,64098,1,0,0:0:0:0:
64,192,64166,1,0,0:0:0:0:
192,192,64166,1,0,0:0:0:0:
320,192,64233,1,4,0:0:0:0:
448,192,64233,1,0,0:0:0:0:
64,192,64301,1,0,0:0:0:0:
192,192,64301,1,0,0:0:0:0:
448,192,64368,1,0,0:0:0:0:
320,192,64402,1,0,0:0:0:0:
192,192,64436,1,0,0:0:0:0:
64,192,64470,1,0,0:0:0:0:
320,192,64503,1,12,0:0:0:0:
448,192,64503,1,0,0:0:0:0:
64,192,64571,1,0,0:0:0:0:
192,192,64571,1,0,0:0:0:0:
320,192,64638,1,0,0:0:0:0:
448,192,64638,1,0,0:0:0:0:
64,192,64706,1,0,0:0:0:0:
192,192,64706,1,0,0:0:0:0:
320,192,64773,1,6,0:0:0:0:
448,192,64773,1,0,0:0:0:0:
192,192,64841,1,0,0:0:0:0:
64,192,64908,1,0,0:0:0:0:
320,192,64976,1,2,0:0:0:0:
448,192,64976,1,0,0:0:0:0:
64,192,65043,1,8,0:0:0:0:
192,192,65043,1,0,0:0:0:0:
448,192,65111,1,0,0:0:0:0:
192,192,65178,1,2,0:0:0:0:
320,192,65178,1,0,0:0:0:0:
64,192,65246,1,0,0:0:0:0:
320,192,65313,1,0,0:0:0:0:
448,192,65313,1,0,0:0:0:0:
64,192,65381,1,2,0:0:0:0:
192,192,65381,1,0,0:0:0:0:
448,192,65448,1,0,0:0:0:0:
320,192,65516,1,0,0:0:0:0:
64,192,65583,1,10,0:0:0:0:
192,192,65583,1,0,0:0:0:0:
320,192,65651,1,0,0:0:0:0:
64,192,65718,1,2,0:0:0:0:
192,192,65718,1,0,0:0:0:0:
320,192,65786,1,0,0:0:0:0:
64,192,65853,1,2,0:0:0:0:
192,192,65853,1,0,0:0:0:0:
320,192,65921,1,0,0:0:0:0:
448,192,65988,1,0,0:0:0:0:
64,192,66056,1,2,0:0:0:0:
192,192,66056,1,0,0:0:0:0:
320,192,66123,1,8,0:0:0:0:
448,192,66123,1,0,0:0:0:0:
64,192,66191,1,0,0:0:0:0:
192,192,66258,1,2,0:0:0:0:
320,192,66258,1,0,0:0:0:0:
448,192,66326,1,0,0:0:0:0:
64,192,66393,1,0,0:0:0:0:
192,192,66393,1,0,0:0:0:0:
320,192,66461,1,2,0:0:0:0:
448,192,66461,1,0,0:0:0:0:
64,192,66528,1,0,0:0:0:0:
192,192,66596,1,0,0:0:0:0:
320,192,66663,1,10,0:0:0:0:
448,192,66663,1,0,0:0:0:0:
192,192,66731,1,0,0:0:0:0:
320,192,66798,1,2,0:0:0:0:
448,192,66798,1,0,0:0:0:0:
192,192,66866,1,0,0:0:0:0:
64,192,66933,1,2,0:0:0:0:
320,192,66933,1,0,0:0:0:0:
448,192,67001,1,0,0:0:0:0:
192,192,67068,1,0,0:0:0:0:
64,192,67136,1,2,0:0:0:0:
320,192,67136,1,0,0:0:0:0:
192,192,67203,1,8,0:0:0:0:
448,192,67203,1,0,0:0:0:0:
320,192,67271,1,0,0:0:0:0:
64,192,67338,1,2,0:0:0:0:
448,192,67338,1,0,0:0:0:0:
192,192,67406,1,0,0:0:0:0:
64,192,67473,1,0,0:0:0:0:
320,192,67473,1,0,0:0:0:0:
192,192,67541,1,2,0:0:0:0:
448,192,67541,1,0,0:0:0:0:
320,192,67608,1,0,0:0:0:0:
64,192,67676,1,0,0:0:0:0:
192,192,67743,1,10,0:0:0:0:
448,192,67743,1,0,0:0:0:0:
64,192,67811,1,0,0:0:0:0:
320,192,67878,1,2,0:0:0:0:
448,192,67878,1,0,0:0:0:0:
64,192,67946,1,0,0:0:0:0:
192,192,68013,1,2,0:0:0:0:
448,192,68013,1,0,0:0:0:0:
64,192,68081,1,0,0:0:0:0:
320,192,68148,1,2,0:0:0:0:
448,192,68148,1,0,0:0:0:0:
64,192,68216,1,0,0:0:0:0:
192,192,68216,1,0,0:0:0:0:
320,192,68283,1,8,0:0:0:0:
448,192,68283,1,0,0:0:0:0:
192,192,68351,1,0,0:0:0:0:
64,192,68418,1,2,0:0:0:0:
448,192,68418,1,0,0:0:0:0:
320,192,68486,1,0,0:0:0:0:
64,192,68553,1,0,0:0:0:0:
192,192,68553,1,0,0:0:0:0:
320,192,68621,1,0,0:0:0:0:
64,192,68688,1,2,0:0:0:0:
448,192,68688,1,0,0:0:0:0:
192,192,68756,1,0,0:0:0:0:
320,192,68823,1,8,0:0:0:0:
448,192,68823,1,0,0:0:0:0:
192,192,68891,1,0,0:0:0:0:
64,192,68958,1,2,0:0:0:0:
448,192,68958,1,0,0:0:0:0:
320,192,69026,1,0,0:0:0:0:
64,192,69093,1,2,0:0:0:0:
192,192,69093,1,0,0:0:0:0:
448,192,69093,1,0,0:0:0:0:
320,192,69161,1,0,0:0:0:0:
192,192,69228,1,0,0:0:0:0:
64,192,69296,1,2,0:0:0:0:
320,192,69296,1,0,0:0:0:0:
192,192,69363,1,8,0:0:0:0:
448,192,69363,1,0,0:0:0:0:
320,192,69431,1,0,0:0:0:0:
64,192,69498,1,2,0:0:0:0:
192,192,69498,1,0,0:0:0:0:
320,192,69566,1,0,0:0:0:0:
64,192,69633,1,2,0:0:0:0:
192,192,69633,1,0,0:0:0:0:
448,192,69633,1,0,0:0:0:0:
320,192,69701,1,0,0:0:0:0:
64,192,69768,1,0,0:0:0:0:
192,192,69836,1,0,0:0:0:0:
64,192,69903,1,10,0:0:0:0:
320,192,69903,1,0,0:0:0:0:
448,192,69903,1,0,0:0:0:0:
192,192,69971,1,0,0:0:0:0:
64,192,70038,1,0,0:0:0:0:
448,192,70038,1,0,0:0:0:0:
320,192,70106,1,0,0:0:0:0:
64,192,70173,1,2,0:0:0:0:
192,192,70173,1,0,0:0:0:0:
448,192,70173,1,0,0:0:0:0:
320,192,70241,1,0,0:0:0:0:
192,192,70308,1,0,0:0:0:0:
448,192,70308,1,0,0:0:0:0:
64,192,70376,1,0,0:0:0:0:
192,192,70443,1,10,0:0:0:0:
320,192,70443,1,0,0:0:0:0:
448,192,70443,1,0,0:0:0:0:
64,192,70511,1,0,0:0:0:0:
320,192,70578,1,0,0:0:0:0:
448,192,70646,1,0,0:0:0:0:
64,192,70713,1,2,0:0:0:0:
192,192,70713,1,0,0:0:0:0:
320,192,70713,1,0,0:0:0:0:
448,192,70781,1,0,0:0:0:0:
64,192,70848,1,0,0:0:0:0:
192,192,70848,1,0,0:0:0:0:
320,192,70916,1,0,0:0:0:0:
64,192,70983,1,10,0:0:0:0:
192,192,70983,1,0,0:0:0:0:
448,192,70983,1,0,0:0:0:0:
320,192,71051,1,0,0:0:0:0:
192,192,71118,1,0,0:0:0:0:
64,192,71186,1,0,0:0:0:0:
192,192,71253,1,2,0:0:0:0:
320,192,71253,1,0,0:0:0:0:
448,192,71253,1,0,0:0:0:0:
64,192,71321,1,0,0:0:0:0:
448,192,71388,1,0,0:0:0:0:
320,192,71456,1,0,0:0:0:0:
64,192,71523,1,10,0:0:0:0:
192,192,71523,1,0,0:0:0:0:
448,192,71523,1,0,0:0:0:0:
320,192,71591,1,0,0:0:0:0:
192,192,71658,1,0,0:0:0:0:
320,192,71726,1,0,0:0:0:0:
64,192,71793,1,2,0:0:0:0:
192,192,71793,1,0,0:0:0:0:
448,192,71793,1,0,0:0:0:0:
320,192,71861,1,0,0:0:0:0:
64,192,71928,1,0,0:0:0:0:
192,192,71996,1,0,0:0:0:0:
64,192,72063,1,10,0:0:0:0:
320,192,72063,1,0,0:0:0:0:
448,192,72063,1,0,0:0:0:0:
192,192,72131,1,0,0:0:0:0:
320,192,72198,1,0,0:0:0:0:
448,192,72198,1,0,0:0:0:0:
64,192,72266,1,2,0:0:0:0:
192,192,72266,1,0,0:0:0:0:
320,192,72333,1,2,0:0:0:0:
448,192,72333,1,0,0:0:0:0:
192,192,72401,1,0,0:0:0:0:
64,192,72468,1,0,0:0:0:0:
320,192,72536,1,2,0:0:0:0:
64,192,72603,1,12,0:0:0:0:
192,192,72603,1,0,0:0:0:0:
448,192,72603,1,0,0:0:0:0:
320,192,72671,1,0,0:0:0:0:
64,192,72738,1,2,0:0:0:0:
192,192,72738,1,0,0:0:0:0:
320,192,72806,1,0,0:0:0:0:
448,192,72806,1,0,0:0:0:0:
64,192,72873,1,12,0:0:0:0:
192,192,72873,1,0,0:0:0:0:
320,192,72941,1,2,0:0:0:0:
448,192,72941,1,0,0:0:0:0:
64,192,73008,1,0,0:0:0:0:
192,192,73042,1,0,0:0:0:0:
320,192,73076,1,0,0:0:0:0:
448,192,73110,1,0,0:0:0:0:
64,192,73143,1,14,0:0:0:0:
192,192,73143,1,0,0:0:0:0:
320,192,73211,1,0,0:0:0:0:
448,192,73211,1,0,0:0:0:0:
64,192,73278,1,0,0:0:0:0:
192,192,73278,1,0,0:0:0:0:
320,192,73346,1,0,0:0:0:0:
448,192,73346,1,0,0:0:0:0:
64,192,73413,1,6,0:0:0:0:
192,192,73413,1,0,0:0:0:0:
320,192,73481,1,0,0:0:0:0:
64,192,73548,1,0,0:0:0:0:
192,192,73548,1,0,0:0:0:0:
320,192,73616,1,0,0:0:0:0:
64,192,73683,1,10,0:0:0:0:
448,192,73683,1,0,0:0:0:0:
192,192,73751,1,0,0:0:0:0:
64,192,73818,1,0,0:0:0:0:
448,192,73818,1,0,0:0:0:0:
320,192,73886,1,0,0:0:0:0:
192,192,73953,1,2,0:0:0:0:
448,192,73953,1,0,0:0:0:0:
64,192,74021,1,0,0:0:0:0:
192,192,74088,1,0,0:0:0:0:
448,192,74088,1,0,0:0:0:0:
320,192,74156,1,0,0:0:0:0:
64,192,74223,1,10,0:0:0:0:
192,192,74223,1,0,0:0:0:0:
448,192,74291,1,0,0:0:0:0:
64,192,74358,1,0,0:0:0:0:
192,192,74358,1,0,0:0:0:0:
448,192,74426,1,0,0:0:0:0:
64,192,74493,1,2,0:0:0:0:
192,192,74493,1,0,0:0:0:0:
448,192,74561,1,0,0:0:0:0:
320,192,74583,1,2,0:0:0:0:
192,192,74628,1,0,0:0:0:0:
64,192,74673,1,2,0:0:0:0:
448,192,74696,1,0,0:0:0:0:
192,192,74763,1,10,0:0:0:0:
320,192,74763,1,0,0:0:0:0:
64,192,74831,1,0,0:0:0:0:
448,192,74898,1,0,0:0:0:0:
320,192,74966,1,0,0:0:0:0:
64,192,75033,1,2,0:0:0:0:
192,192,75033,1,0,0:0:0:0:
320,192,75101,1,0,0:0:0:0:
448,192,75168,1,0,0:0:0:0:
64,192,75236,1,2,0:0:0:0:
192,192,75236,1,0,0:0:0:0:
320,192,75303,1,8,0:0:0:0:
448,192,75303,1,0,0:0:0:0:
192,192,75371,1,0,0:0:0:0:
320,192,75438,1,2,0:0:0:0:
448,192,75438,1,0,0:0:0:0:
192,192,75506,1,0,0:0:0:0:
64,192,75573,1,2,0:0:0:0:
448,192,75573,1,0,0:0:0:0:
320,192,75641,1,0,0:0:0:0:
64,192,75708,1,0,0:0:0:0:
192,192,75776,1,0,0:0:0:0:
320,192,75843,1,10,0:0:0:0:
448,192,75843,1,0,0:0:0:0:
192,192,75911,1,0,0:0:0:0:
64,192,75978,1,0,0:0:0:0:
320,192,76046,1,0,0:0:0:0:
64,192,76113,1,0,0:0:0:0:
448,192,76113,1,0,0:0:0:0:
192,192,76181,1,0,0:0:0:0:
320,192,76248,1,0,0:0:0:0:
192,192,76316,1,0,0:0:0:0:
320,192,76383,1,10,0:0:0:0:
448,192,76383,1,0,0:0:0:0:
64,192,76451,1,0,0:0:0:0:
192,192,76518,1,0,0:0:0:0:
320,192,76586,1,0,0:0:0:0:
64,192,76653,1,2,0:0:0:0:
192,192,76653,1,0,0:0:0:0:
448,192,76653,1,0,0:0:0:0:
320,192,76721,1,0,0:0:0:0:
64,192,76788,1,0,0:0:0:0:
192,192,76856,1,0,0:0:0:0:
320,192,76923,1,0,0:0:0:0:
448,192,76923,1,0,0:0:0:0:
64,192,76923,1,10,0:0:0:0:
192,192,76991,1,0,0:0:0:0:
448,192,77058,1,0,0:0:0:0:
320,192,77126,1,0,0:0:0:0:
64,192,77193,1,2,0:0:0:0:
192,192,77193,1,0,0:0:0:0:
448,192,77193,1,0,0:0:0:0:
320,192,77261,1,0,0:0:0:0:
64,192,77328,1,0,0:0:0:0:
192,192,77328,1,0,0:0:0:0:
448,192,77396,1,0,0:0:0:0:
64,192,77463,1,10,0:0:0:0:
192,192,77463,1,0,0:0:0:0:
320,192,77463,1,0,0:0:0:0:
448,192,77531,1,0,0:0:0:0:
192,192,77598,1,0,0:0:0:0:
320,192,77666,1,0,0:0:0:0:
64,192,77733,1,2,0:0:0:0:
192,192,77733,1,0,0:0:0:0:
448,192,77733,1,0,0:0:0:0:
320,192,77801,1,0,0:0:0:0:
192,192,77868,1,0,0:0:0:0:
64,192,77936,1,2,0:0:0:0:
320,192,77936,1,0,0:0:0:0:
192,192,78003,1,8,0:0:0:0:
448,192,78003,1,0,0:0:0:0:
320,192,78071,1,0,0:0:0:0:
64,192,78138,1,2,0:0:0:0:
192,192,78138,1,0,0:0:0:0:
448,192,78138,1,0,0:0:0:0:
320,192,78206,1,0,0:0:0:0:
64,192,78273,1,2,0:0:0:0:
192,192,78273,1,0,0:0:0:0:
448,192,78341,1,0,0:0:0:0:
320,192,78408,1,0,0:0:0:0:
192,192,78476,1,2,0:0:0:0:
64,192,78543,1,8,0:0:0:0:
448,192,78543,1,0,0:0:0:0:
192,192,78611,1,0,0:0:0:0:
320,192,78678,1,2,0:0:0:0:
448,192,78678,1,0,0:0:0:0:
192,192,78746,1,0,0:0:0:0:
64,192,78813,1,2,0:0:0:0:
320,192,78813,1,0,0:0:0:0:
448,192,78813,1,0,0:0:0:0:
192,192,78881,1,0,0:0:0:0:
64,192,78948,1,0,0:0:0:0:
320,192,78948,1,0,0:0:0:0:
448,192,79016,1,0,0:0:0:0:
64,192,79083,1,10,0:0:0:0:
192,192,79083,1,0,0:0:0:0:
320,192,79083,1,0,0:0:0:0:
448,192,79151,1,0,0:0:0:0:
192,192,79218,1,0,0:0:0:0:
64,192,79286,1,0,0:0:0:0:
192,192,79353,1,2,0:0:0:0:
320,192,79353,1,0,0:0:0:0:
448,192,79353,1,0,0:0:0:0:
64,192,79421,1,0,0:0:0:0:
320,192,79488,1,0,0:0:0:0:
448,192,79488,1,0,0:0:0:0:
64,192,79556,1,2,0:0:0:0:
192,192,79556,1,0,0:0:0:0:
320,192,79623,1,8,0:0:0:0:
448,192,79623,1,0,0:0:0:0:
192,192,79691,1,0,0:0:0:0:
448,192,79758,1,2,0:0:0:0:
320,192,79826,1,0,0:0:0:0:
64,192,79893,1,2,0:0:0:0:
192,192,79893,1,0,0:0:0:0:
448,192,79893,1,0,0:0:0:0:
320,192,79961,1,0,0:0:0:0:
64,192,80028,1,0,0:0:0:0:
192,192,80096,1,2,0:0:0:0:
320,192,80096,1,0,0:0:0:0:
64,192,80163,1,8,0:0:0:0:
448,192,80163,1,0,0:0:0:0:
320,192,80231,1,0,0:0:0:0:
192,192,80298,1,2,0:0:0:0:
448,192,80298,1,0,0:0:0:0:
64,192,80366,1,0,0:0:0:0:
192,192,80433,1,2,0:0:0:0:
320,192,80433,1,0,0:0:0:0:
64,192,80501,1,0,0:0:0:0:
448,192,80501,1,0,0:0:0:0:
320,192,80568,1,2,0:0:0:0:
448,192,80636,1,0,0:0:0:0:
64,192,80703,1,10,0:0:0:0:
192,192,80703,1,0,0:0:0:0:
320,192,80771,1,0,0:0:0:0:
64,192,80838,1,0,0:0:0:0:
448,192,80838,1,0,0:0:0:0:
192,192,80906,1,0,0:0:0:0:
64,192,80973,1,14,0:0:0:0:
320,192,80973,1,0,0:0:0:0:
448,192,80973,1,0,0:0:0:0:
192,192,81041,1,0,0:0:0:0:
320,192,81108,1,0,0:0:0:0:
448,192,81108,1,0,0:0:0:0:
64,192,81176,1,0,0:0:0:0:
192,192,81176,1,0,0:0:0:0:
320,192,81243,1,14,0:0:0:0:
448,192,81243,1,0,0:0:0:0:
192,192,81311,1,0,0:0:0:0:
320,192,81378,1,0,0:0:0:0:
448,192,81378,1,0,0:0:0:0:
64,192,81446,1,0,0:0:0:0:
192,192,81446,1,0,0:0:0:0:
320,192,81513,1,14,0:0:0:0:
448,192,81513,1,0,0:0:0:0:
64,192,81581,1,0,0:0:0:0:
192,192,81581,1,0,0:0:0:0:
448,192,81648,1,0,0:0:0:0:
320,192,81682,1,0,0:0:0:0:
192,192,81716,1,0,0:0:0:0:
64,192,81750,1,0,0:0:0:0:
320,192,81783,1,14,0:0:0:0:
448,192,81783,1,0,0:0:0:0:
64,192,81851,1,0,0:0:0:0:
192,192,81851,1,0,0:0:0:0:
320,192,81918,1,0,0:0:0:0:
448,192,81918,1,0,0:0:0:0:
64,192,81986,1,0,0:0:0:0:
192,192,81986,1,0,0:0:0:0:
320,192,82053,1,14,0:0:0:0:
448,192,82053,1,0,0:0:0:0:
64,192,82188,1,0,0:0:0:0:
192,192,82323,1,0,0:0:0:0:
320,192,82458,1,0,0:0:0:0:
64,192,82593,1,0,0:0:0:0:
448,192,82593,1,0,0:0:0:0:
320,192,82728,1,0,0:0:0:0:
448,192,82863,1,0,0:0:0:0:
192,192,82998,1,0,0:0:0:0:
320,192,83133,1,0,0:0:0:0:
448,192,83133,1,0,0:0:0:0:
64,192,83268,1,0,0:0:0:0:
192,192,83403,1,0,0:0:0:0:
448,192,83538,1,0,0:0:0:0:
64,192,83673,1,0,0:0:0:0:
192,192,83673,1,0,0:0:0:0:
448,192,83808,1,0,0:0:0:0:
320,192,83943,1,0,0:0:0:0:
64,192,84078,1,0,0:0:0:0:
320,192,84213,1,0,0:0:0:0:
448,192,84213,1,0,0:0:0:0:
192,192,84348,1,0,0:0:0:0:
64,192,84483,1,0,0:0:0:0:
192,192,84619,1,0,0:0:0:0:
64,192,84754,1,0,0:0:0:0:
320,192,84754,1,0,0:0:0:0:
192,192,84889,1,0,0:0:0:0:
320,192,85024,1,0,0:0:0:0:
448,192,85159,1,0,0:0:0:0:
64,192,85294,1,0,0:0:0:0:
320,192,85294,1,0,0:0:0:0:
448,192,85429,1,0,0:0:0:0:
64,192,85564,1,0,0:0:0:0:
192,192,85564,1,0,0:0:0:0:
320,192,85699,1,0,0:0:0:0:
64,192,85834,1,0,0:0:0:0:
448,192,85834,1,0,0:0:0:0:
320,192,85969,1,0,0:0:0:0:
192,192,86104,1,0,0:0:0:0:
448,192,86104,1,0,0:0:0:0:
64,192,86239,1,0,0:0:0:0:
64,192,86374,1,0,0:0:0:0:
320,192,86374,1,0,0:0:0:0:
448,192,86374,1,0,0:0:0:0:
192,192,86509,1,0,0:0:0:0:
64,192,86644,1,0,0:0:0:0:
320,192,86779,1,0,0:0:0:0:
64,192,86914,1,0,0:0:0:0:
448,192,86914,1,0,0:0:0:0:
320,192,87049,1,0,0:0:0:0:
448,192,87184,1,0,0:0:0:0:
192,192,87319,1,0,0:0:0:0:
320,192,87454,1,0,0:0:0:0:
448,192,87454,1,0,0:0:0:0:
64,192,87589,1,0,0:0:0:0:
192,192,87724,1,0,0:0:0:0:
448,192,87859,1,0,0:0:0:0:
64,192,87994,1,0,0:0:0:0:
192,192,87994,1,0,0:0:0:0:
448,192,88129,1,0,0:0:0:0:
320,192,88264,1,0,0:0:0:0:
64,192,88399,1,0,0:0:0:0:
320,192,88534,1,0,0:0:0:0:
448,192,88534,1,0,0:0:0:0:
192,192,88669,1,0,0:0:0:0:
64,192,88804,1,0,0:0:0:0:
192,192,88939,1,0,0:0:0:0:
320,192,89074,1,0,0:0:0:0:
448,192,89074,1,0,0:0:0:0:
192,192,89209,1,0,0:0:0:0:
320,192,89344,1,0,0:0:0:0:
448,192,89479,1,0,0:0:0:0:
64,192,89614,1,0,0:0:0:0:
320,192,89614,1,0,0:0:0:0:
192,192,89749,1,0,0:0:0:0:
64,192,89884,1,0,0:0:0:0:
320,192,89884,1,0,0:0:0:0:
448,192,90019,1,0,0:0:0:0:
64,192,90154,1,0,0:0:0:0:
320,192,90154,1,0,0:0:0:0:
192,192,90424,1,0,0:0:0:0:
320,192,90559,1,0,0:0:0:0:
192,192,90626,1,0,0:0:0:0:
64,192,90694,1,4,0:0:0:0:
320,192,90694,1,0,0:0:0:0:
448,192,90694,1,0,0:0:0:0:
64,192,90829,1,0,0:0:0:0:
448,192,90829,1,0,0:0:0:0:
192,192,90964,1,0,0:0:0:0:
64,192,91099,1,0,0:0:0:0:
320,192,91099,1,0,0:0:0:0:
448,192,91234,1,0,0:0:0:0:
192,192,91369,1,0,0:0:0:0:
320,192,91369,1,0,0:0:0:0:
448,192,91504,1,0,0:0:0:0:
64,192,91639,1,0,0:0:0:0:
192,192,91639,1,0,0:0:0:0:
192,192,91774,1,0,0:0:0:0:
320,192,91774,1,0,0:0:0:0:
64,192,91909,1,0,0:0:0:0:
448,192,91909,1,0,0:0:0:0:
192,192,92044,1,0,0:0:0:0:
320,192,92179,1,0,0:0:0:0:
448,192,92179,1,0,0:0:0:0:
192,192,92314,1,0,0:0:0:0:
64,192,92449,1,0,0:0:0:0:
448,192,92449,1,0,0:0:0:0:
320,192,92584,1,0,0:0:0:0:
64,192,92719,1,0,0:0:0:0:
448,192,92719,1,0,0:0:0:0:
192,192,92786,1,0,0:0:0:0:
64,192,92854,1,4,0:0:0:0:
320,192,92854,1,0,0:0:0:0:
448,192,92854,1,0,0:0:0:0:
192,192,92989,1,0,0:0:0:0:
320,192,92989,1,0,0:0:0:0:
64,192,93124,1,0,0:0:0:0:
192,192,93259,1,0,0:0:0:0:
448,192,93259,1,0,0:0:0:0:
320,192,93394,1,0,0:0:0:0:
64,192,93529,1,0,0:0:0:0:
192,192,93529,1,0,0:0:0:0:
320,192,93664,1,0,0:0:0:0:
192,192,93799,1,0,0:0:0:0:
448,192,93799,1,0,0:0:0:0:
64,192,93934,1,0,0:0:0:0:
320,192,94069,1,0,0:0:0:0:
448,192,94069,1,0,0:0:0:0:
192,192,94204,1,0,0:0:0:0:
64,192,94339,1,0,0:0:0:0:
320,192,94339,1,0,0:0:0:0:
448,192,94474,1,0,0:0:0:0:
64,192,94609,1,0,0:0:0:0:
320,192,94609,1,0,0:0:0:0:
192,192,94744,1,0,0:0:0:0:
64,192,94879,1,0,0:0:0:0:
448,192,94879,1,0,0:0:0:0:
64,192,95014,1,4,0:0:0:0:
192,192,95014,1,0,0:0:0:0:
448,192,95014,1,0,0:0:0:0:
320,192,95081,1,0,0:0:0:0:
192,192,95149,1,0,0:0:0:0:
64,192,95216,1,0,0:0:0:0:
320,192,95284,1,0,0:0:0:0:
192,192,95351,1,0,0:0:0:0:
448,192,95419,1,0,0:0:0:0:
64,192,95486,1,0,0:0:0:0:
192,192,95554,1,0,0:0:0:0:
320,192,95621,1,0,0:0:0:0:
64,192,95689,1,0,0:0:0:0:
448,192,95756,1,0,0:0:0:0:
320,192,95824,1,0,0:0:0:0:
192,192,95891,1,0,0:0:0:0:
64,192,95959,1,0,0:0:0:0:
320,192,96026,1,0,0:0:0:0:
64,192,96094,1,4,0:0:0:0:
192,192,96094,1,0,0:0:0:0:
448,192,96094,1,0,0:0:0:0:
320,192,96161,1,0,0:0:0:0:
192,192,96229,1,0,0:0:0:0:
64,192,96296,1,0,0:0:0:0:
320,192,96364,1,0,0:0:0:0:
192,192,96431,1,0,0:0:0:0:
448,192,96499,1,0,0:0:0:0:
64,192,96566,1,0,0:0:0:0:
192,192,96634,1,4,0:0:0:0:
320,192,96634,1,0,0:0:0:0:
448,192,96634,1,0,0:0:0:0:
64,192,96701,1,0,0:0:0:0:
320,192,96769,1,0,0:0:0:0:
192,192,96836,1,0,0:0:0:0:
448,192,96904,1,0,0:0:0:0:
320,192,96971,1,0,0:0:0:0:
64,192,97039,1,0,0:0:0:0:
192,192,97039,1,0,0:0:0:0:
320,192,97106,1,0,0:0:0:0:
448,192,97106,1,0,0:0:0:0:
64,192,97174,1,4,0:0:0:0:
192,192,97174,1,0,0:0:0:0:
448,192,97241,1,0,0:0:0:0:
320,192,97309,1,0,0:0:0:0:
192,192,97376,1,0,0:0:0:0:
64,192,97444,1,4,0:0:0:0:
448,192,97444,1,0,0:0:0:0:
320,192,97511,1,0,0:0:0:0:
192,192,97579,1,0,0:0:0:0:
448,192,97646,1,0,0:0:0:0:
64,192,97714,1,4,0:0:0:0:
192,192,97714,1,0,0:0:0:0:
320,192,97714,1,0,0:0:0:0:
448,192,97781,1,0,0:0:0:0:
64,192,97849,1,0,0:0:0:0:
192,192,97916,1,0,0:0:0:0:
448,192,97984,1,4,0:0:0:0:
64,192,98017,1,0,0:0:0:0:
320,192,98051,1,0,0:0:0:0:
192,192,98085,1,0,0:0:0:0:
448,192,98119,1,0,0:0:0:0:
64,192,98152,1,0,0:0:0:0:
320,192,98186,1,0,0:0:0:0:
192,192,98220,1,0,0:0:0:0:
64,192,98254,1,4,0:0:0:0:
448,192,98254,1,0,0:0:0:0:
320,192,98321,1,0,0:0:0:0:
192,192,98389,1,0,0:0:0:0:
320,192,98456,1,0,0:0:0:0:
64,192,98524,1,0,0:0:0:0:
448,192,98524,1,0,0:0:0:0:
192,192,98591,1,0,0:0:0:0:
320,192,98659,1,0,0:0:0:0:
192,192,98726,1,0,0:0:0:0:
64,192,98794,1,0,0:0:0:0:
448,192,98794,1,0,0:0:0:0:
320,192,98861,1,0,0:0:0:0:
192,192,98929,1,0,0:0:0:0:
320,192,98996,1,0,0:0:0:0:
64,192,99064,1,0,0:0:0:0:
448,192,99064,1,0,0:0:0:0:
192,192,99131,1,0,0:0:0:0:
320,192,99199,1,0,0:0:0:0:
192,192,99266,1,0,0:0:0:0:
64,192,99334,1,0,0:0:0:0:
320,192,99334,1,0,0:0:0:0:
448,192,99334,1,0,0:0:0:0:
192,192,99401,1,0,0:0:0:0:
448,192,99469,1,0,0:0:0:0:
320,192,99536,1,0,0:0:0:0:
64,192,99604,1,0,0:0:0:0:
192,192,99604,1,0,0:0:0:0:
448,192,99671,1,0,0:0:0:0:
64,192,99739,1,0,0:0:0:0:
192,192,99806,1,0,0:0:0:0:
320,192,99874,1,0,0:0:0:0:
448,192,99874,1,0,0:0:0:0:
64,192,99941,1,0,0:0:0:0:
448,192,100009,1,0,0:0:0:0:
320,192,100076,1,0,0:0:0:0:
64,192,100144,1,0,0:0:0:0:
192,192,100144,1,0,0:0:0:0:
448,192,100211,1,0,0:0:0:0:
64,192,100279,1,0,0:0:0:0:
192,192,100346,1,0,0:0:0:0:
64,192,100414,1,0,0:0:0:0:
320,192,100414,1,0,0:0:0:0:
448,192,100414,1,0,0:0:0:0:
192,192,100481,1,0,0:0:0:0:
448,192,100549,1,0,0:0:0:0:
64,192,100616,1,0,0:0:0:0:
192,192,100684,1,0,0:0:0:0:
448,192,100684,1,0,0:0:0:0:
320,192,100751,1,0,0:0:0:0:
64,192,100819,1,0,0:0:0:0:
448,192,100886,1,0,0:0:0:0:
64,192,100954,1,0,0:0:0:0:
320,192,100954,1,0,0:0:0:0:
192,192,101021,1,0,0:0:0:0:
448,192,101089,1,0,0:0:0:0:
64,192,101156,1,0,0:0:0:0:
192,192,101224,1,0,0:0:0:0:
448,192,101224,1,0,0:0:0:0:
320,192,101291,1,0,0:0:0:0:
64,192,101359,1,0,0:0:0:0:
448,192,101426,1,0,0:0:0:0:
192,192,101494,1,0,0:0:0:0:
320,192,101494,1,0,0:0:0:0:
64,192,101561,1,0,0:0:0:0:
320,192,101629,1,0,0:0:0:0:
192,192,101696,1,0,0:0:0:0:
64,192,101764,1,0,0:0:0:0:
448,192,101764,1,0,0:0:0:0:
192,192,101831,1,0,0:0:0:0:
320,192,101899,1,0,0:0:0:0:
64,192,101966,1,0,0:0:0:0:
192,192,102034,1,0,0:0:0:0:
320,192,102034,1,0,0:0:0:0:
448,192,102101,1,0,0:0:0:0:
192,192,102169,1,0,0:0:0:0:
320,192,102236,1,0,0:0:0:0:
64,192,102304,1,0,0:0:0:0:
448,192,102304,1,0,0:0:0:0:
320,192,102371,1,0,0:0:0:0:
64,192,102439,1,0,0:0:0:0:
192,192,102439,1,0,0:0:0:0:
448,192,102506,1,0,0:0:0:0:
64,192,102574,1,0,0:0:0:0:
192,192,102574,1,0,0:0:0:0:
320,192,102574,1,0,0:0:0:0:
448,192,102641,1,0,0:0:0:0:
192,192,102709,1,0,0:0:0:0:
64,192,102776,1,0,0:0:0:0:
320,192,102844,1,0,0:0:0:0:
448,192,102844,1,0,0:0:0:0:
192,192,102911,1,0,0:0:0:0:
64,192,102979,1,0,0:0:0:0:
448,192,103046,1,0,0:0:0:0:
192,192,103114,1,0,0:0:0:0:
320,192,103114,1,0,0:0:0:0:
64,192,103181,1,0,0:0:0:0:
448,192,103249,1,0,0:0:0:0:
320,192,103316,1,0,0:0:0:0:
64,192,103384,1,0,0:0:0:0:
192,192,103384,1,0,0:0:0:0:
320,192,103451,1,0,0:0:0:0:
448,192,103519,1,0,0:0:0:0:
64,192,103586,1,0,0:0:0:0:
192,192,103654,1,0,0:0:0:0:
320,192,103654,1,0,0:0:0:0:
448,192,103654,1,0,0:0:0:0:
64,192,103721,1,0,0:0:0:0:
320,192,103789,1,0,0:0:0:0:
448,192,103789,1,0,0:0:0:0:
192,192,103856,1,0,0:0:0:0:
64,192,103924,1,0,0:0:0:0:
448,192,103924,1,0,0:0:0:0:
320,192,103991,1,0,0:0:0:0:
64,192,104059,1,0,0:0:0:0:
192,192,104059,1,0,0:0:0:0:
320,192,104126,1,0,0:0:0:0:
64,192,104194,1,0,0:0:0:0:
448,192,104194,1,0,0:0:0:0:
192,192,104261,1,0,0:0:0:0:
320,192,104329,1,0,0:0:0:0:
448,192,104329,1,0,0:0:0:0:
192,192,104396,1,0,0:0:0:0:
64,192,104464,1,0,0:0:0:0:
448,192,104464,1,0,0:0:0:0:
320,192,104531,1,0,0:0:0:0:
64,192,104599,1,0,0:0:0:0:
192,192,104599,1,0,0:0:0:0:
320,192,104666,1,0,0:0:0:0:
64,192,104734,1,0,0:0:0:0:
192,192,104734,1,0,0:0:0:0:
448,192,104734,1,0,0:0:0:0:
320,192,104801,1,0,0:0:0:0:
64,192,104869,1,0,0:0:0:0:
448,192,104869,1,0,0:0:0:0:
192,192,104936,1,0,0:0:0:0:
320,192,104936,1,0,0:0:0:0:
64,192,105004,1,0,0:0:0:0:
448,192,105004,1,0,0:0:0:0:
192,192,105071,1,0,0:0:0:0:
320,192,105139,1,0,0:0:0:0:
448,192,105139,1,0,0:0:0:0:
64,192,105206,1,0,0:0:0:0:
192,192,105206,1,0,0:0:0:0:
320,192,105274,1,0,0:0:0:0:
448,192,105274,1,0,0:0:0:0:
192,192,105341,1,0,0:0:0:0:
64,192,105409,1,0,0:0:0:0:
448,192,105409,1,0,0:0:0:0:
192,192,105476,1,0,0:0:0:0:
320,192,105476,1,0,0:0:0:0:
64,192,105544,1,0,0:0:0:0:
448,192,105544,1,0,0:0:0:0:
320,192,105611,1,0,0:0:0:0:
64,192,105679,1,0,0:0:0:0:
192,192,105679,1,0,0:0:0:0:
320,192,105746,1,0,0:0:0:0:
448,192,105746,1,0,0:0:0:0:
64,192,105814,1,0,0:0:0:0:
192,192,105847,1,0,0:0:0:0:
320,192,105881,1,0,0:0:0:0:
448,192,105915,1,0,0:0:0:0:
64,192,105949,1,0,0:0:0:0:
192,192,105982,1,0,0:0:0:0:
320,192,106016,1,0,0:0:0:0:
448,192,106050,1,0,0:0:0:0:
64,192,106084,1,0,0:0:0:0:
192,192,106117,1,0,0:0:0:0:
320,192,106151,1,0,0:0:0:0:
448,192,106185,1,0,0:0:0:0:
64,192,106219,1,0,0:0:0:0:
192,192,106252,1,0,0:0:0:0:
320,192,106286,1,0,0:0:0:0:
448,192,106286,1,0,0:0:0:0:
64,192,106354,1,0,0:0:0:0:
192,192,106354,1,0,0:0:0:0:
320,192,106421,1,0,0:0:0:0:
448,192,106421,1,0,0:0:0:0:
64,192,106489,1,0,0:0:0:0:
192,192,106489,1,0,0:0:0:0:
320,192,106556,1,0,0:0:0:0:
448,192,106556,1,0,0:0:0:0:
64,192,106624,1,0,0:0:0:0:
192,192,106624,1,0,0:0:0:0:
320,192,106691,1,0,0:0:0:0:
448,192,106691,1,0,0:0:0:0:
64,192,106759,1,0,0:0:0:0:
192,192,106759,1,0,0:0:0:0:
320,192,106826,1,0,0:0:0:0:
448,192,106826,1,0,0:0:0:0:
64,192,106894,1,0,0:0:0:0:
192,192,106894,1,0,0:0:0:0:
320,192,106894,1,0,0:0:0:0:
448,0,106894,128,0,107974:0:0:0:0:
64,192,107704,1,0,0:0:0:0:
192,192,107704,1,0,0:0:0:0:
320,192,107704,1,0,0:0:0:0:
64,192,107974,1,2,0:0:0:0:
192,192,107974,1,0,0:0:0:0:
320,192,108041,1,0,0:0:0:0:
448,192,108109,1,0,0:0:0:0:
64,192,108176,1,2,0:0:0:0:
192,192,108176,1,0,0:0:0:0:
320,192,108244,1,8,0:0:0:0:
448,192,108244,1,0,0:0:0:0:
64,192,108311,1,0,0:0:0:0:
192,192,108379,1,2,0:0:0:0:
320,192,108379,1,0,0:0:0:0:
448,192,108446,1,0,0:0:0:0:
64,192,108514,1,0,0:0:0:0:
192,192,108514,1,0,0:0:0:0:
320,192,108581,1,2,0:0:0:0:
448,192,108581,1,0,0:0:0:0:
64,192,108649,1,0,0:0:0:0:
192,192,108716,1,0,0:0:0:0:
320,192,108784,1,10,0:0:0:0:
448,192,108784,1,0,0:0:0:0:
192,192,108851,1,0,0:0:0:0:
320,192,108919,1,2,0:0:0:0:
448,192,108919,1,0,0:0:0:0:
192,192,108986,1,0,0:0:0:0:
320,192,109054,1,2,0:0:0:0:
448,192,109054,1,0,0:0:0:0:
192,192,109121,1,0,0:0:0:0:
64,192,109189,1,0,0:0:0:0:
320,192,109256,1,2,0:0:0:0:
448,192,109256,1,0,0:0:0:0:
64,192,109324,1,8,0:0:0:0:
192,192,109324,1,0,0:0:0:0:
448,192,109391,1,0,0:0:0:0:
192,192,109459,1,2,0:0:0:0:
320,192,109459,1,0,0:0:0:0:
64,192,109526,1,0,0:0:0:0:
320,192,109594,1,0,0:0:0:0:
448,192,109594,1,0,0:0:0:0:
64,192,109661,1,2,0:0:0:0:
192,192,109661,1,0,0:0:0:0:
448,192,109729,1,0,0:0:0:0:
320,192,109796,1,0,0:0:0:0:
192,192,109864,1,0,0:0:0:0:
64,192,109864,1,10,0:0:0:0:
320,192,109931,1,0,0:0:0:0:
64,192,109999,1,2,0:0:0:0:
192,192,109999,1,0,0:0:0:0:
320,192,110066,1,0,0:0:0:0:
192,192,110134,1,2,0:0:0:0:
448,192,110134,1,0,0:0:0:0:
64,192,110201,1,0,0:0:0:0:
320,192,110269,1,0,0:0:0:0:
192,192,110336,1,2,0:0:0:0:
448,192,110336,1,0,0:0:0:0:
64,192,110404,1,8,0:0:0:0:
320,192,110404,1,0,0:0:0:0:
192,192,110471,1,0,0:0:0:0:
64,192,110539,1,2,0:0:0:0:
448,192,110539,1,0,0:0:0:0:
320,192,110606,1,0,0:0:0:0:
192,192,110674,1,0,0:0:0:0:
448,192,110674,1,0,0:0:0:0:
64,192,110741,1,2,0:0:0:0:
320,192,110741,1,0,0:0:0:0:
192,192,110809,1,0,0:0:0:0:
448,192,110876,1,0,0:0:0:0:
64,192,110944,1,10,0:0:0:0:
320,192,110944,1,0,0:0:0:0:
448,192,111011,1,0,0:0:0:0:
64,192,111079,1,2,0:0:0:0:
192,192,111079,1,0,0:0:0:0:
448,192,111146,1,0,0:0:0:0:
64,192,111214,1,2,0:0:0:0:
320,192,111214,1,0,0:0:0:0:
448,192,111281,1,0,0:0:0:0:
64,192,111349,1,0,0:0:0:0:
192,192,111349,1,0,0:0:0:0:
320,192,111416,1,2,0:0:0:0:
448,192,111416,1,0,0:0:0:0:
64,192,111484,1,8,0:0:0:0:
192,192,111484,1,0,0:0:0:0:
320,192,111551,1,0,0:0:0:0:
64,192,111619,1,2,0:0:0:0:
448,192,111619,1,0,0:0:0:0:
192,192,111686,1,0,0:0:0:0:
320,192,111754,1,2,0:0:0:0:
448,192,111754,1,0,0:0:0:0:
192,192,111821,1,0,0:0:0:0:
64,192,111889,1,2,0:0:0:0:
448,192,111889,1,0,0:0:0:0:
320,192,111956,1,0,0:0:0:0:
64,192,112024,1,10,0:0:0:0:
192,192,112024,1,0,0:0:0:0:
320,192,112091,1,0,0:0:0:0:
64,192,112159,1,2,0:0:0:0:
448,192,112159,1,0,0:0:0:0:
192,192,112226,1,0,0:0:0:0:
64,192,112294,1,2,0:0:0:0:
320,192,112294,1,0,0:0:0:0:
448,192,112294,1,0,0:0:0:0:
192,192,112361,1,0,0:0:0:0:
320,192,112429,1,0,0:0:0:0:
192,192,112496,1,2,0:0:0:0:
448,192,112496,1,0,0:0:0:0:
64,192,112564,1,8,0:0:0:0:
320,192,112564,1,0,0:0:0:0:
192,192,112631,1,0,0:0:0:0:
320,192,112699,1,2,0:0:0:0:
448,192,112699,1,0,0:0:0:0:
192,192,112766,1,0,0:0:0:0:
64,192,112834,1,2,0:0:0:0:
320,192,112834,1,0,0:0:0:0:
448,192,112834,1,0,0:0:0:0:
192,192,112901,1,0,0:0:0:0:
448,192,112969,1,0,0:0:0:0:
320,192,113036,1,0,0:0:0:0:
64,192,113104,1,10,0:0:0:0:
192,192,113104,1,0,0:0:0:0:
448,192,113104,1,0,0:0:0:0:
320,192,113171,1,0,0:0:0:0:
64,192,113239,1,0,0:0:0:0:
448,192,113239,1,0,0:0:0:0:
192,192,113306,1,0,0:0:0:0:
64,192,113374,1,2,0:0:0:0:
320,192,113374,1,0,0:0:0:0:
448,192,113374,1,0,0:0:0:0:
192,192,113441,1,0,0:0:0:0:
64,192,113509,1,0,0:0:0:0:
320,192,113509,1,0,0:0:0:0:
448,192,113576,1,0,0:0:0:0:
64,192,113644,1,10,0:0:0:0:
192,192,113644,1,0,0:0:0:0:
320,192,113644,1,0,0:0:0:0:
448,192,113711,1,0,0:0:0:0:
192,192,113779,1,0,0:0:0:0:
64,192,113846,1,0,0:0:0:0:
192,192,113914,1,2,0:0:0:0:
320,192,113914,1,0,0:0:0:0:
448,192,113914,1,0,0:0:0:0:
64,192,113981,1,0,0:0:0:0:
320,192,114049,1,0,0:0:0:0:
448,192,114049,1,0,0:0:0:0:
192,192,114116,1,0,0:0:0:0:
64,192,114184,1,10,0:0:0:0:
320,192,114184,1,0,0:0:0:0:
448,192,114184,1,0,0:0:0:0:
192,192,114251,1,0,0:0:0:0:
320,192,114319,1,0,0:0:0:0:
448,192,114386,1,0,0:0:0:0:
64,192,114454,1,2,0:0:0:0:
192,192,114454,1,0,0:0:0:0:
320,192,114454,1,0,0:0:0:0:
448,192,114521,1,0,0:0:0:0:
64,192,114589,1,0,0:0:0:0:
192,192,114656,1,0,0:0:0:0:
64,192,114724,1,10,0:0:0:0:
320,192,114724,1,0,0:0:0:0:
448,192,114724,1,0,0:0:0:0:
192,192,114791,1,0,0:0:0:0:
320,192,114859,1,0,0:0:0:0:
192,192,114926,1,0,0:0:0:0:
64,192,114994,1,2,0:0:0:0:
320,192,114994,1,0,0:0:0:0:
448,192,114994,1,0,0:0:0:0:
192,192,115061,1,0,0:0:0:0:
448,192,115129,1,0,0:0:0:0:
320,192,115196,1,0,0:0:0:0:
64,192,115264,1,10,0:0:0:0:
192,192,115264,1,0,0:0:0:0:
448,192,115264,1,0,0:0:0:0:
320,192,115331,1,0,0:0:0:0:
64,192,115399,1,0,0:0:0:0:
192,192,115399,1,0,0:0:0:0:
320,192,115466,1,0,0:0:0:0:
448,192,115466,1,0,0:0:0:0:
64,192,115534,1,2,0:0:0:0:
192,192,115534,1,0,0:0:0:0:
320,192,115601,1,0,0:0:0:0:
448,192,115669,1,0,0:0:0:0:
192,192,115736,1,0,0:0:0:0:
64,192,115804,1,12,0:0:0:0:
320,192,115804,1,0,0:0:0:0:
448,192,115804,1,0,0:0:0:0:
192,192,115871,1,0,0:0:0:0:
320,192,115939,1,0,0:0:0:0:
448,192,115939,1,0,0:0:0:0:
64,192,116006,1,0,0:0:0:0:
192,192,116006,1,0,0:0:0:0:
320,192,116074,1,12,0:0:0:0:
448,192,116074,1,0,0:0:0:0:
64,192,116141,1,0,0:0:0:0:
192,192,116141,1,0,0:0:0:0:
448,192,116209,1,0,0:0:0:0:
320,192,116243,1,0,0:0:0:0:
192,192,116276,1,0,0:0:0:0:
64,192,116310,1,0,0:0:0:0:
320,192,116344,1,12,0:0:0:0:
448,192,116344,1,0,0:0:0:0:
64,192,116411,1,0,0:0:0:0:
192,192,116411,1,0,0:0:0:0:
320,192,116479,1,0,0:0:0:0:
448,192,116479,1,0,0:0:0:0:
64,192,116546,1,0,0:0:0:0:
192,192,116546,1,0,0:0:0:0:
320,192,116614,1,6,0:0:0:0:
448,192,116614,1,0,0:0:0:0:
192,192,116681,1,0,0:0:0:0:
320,192,116749,1,0,0:0:0:0:
448,192,116749,1,0,0:0:0:0:
192,192,116816,1,0,0:0:0:0:
64,192,116884,1,10,0:0:0:0:
448,192,116884,1,0,0:0:0:0:
320,192,116951,1,0,0:0:0:0:
64,192,117019,1,0,0:0:0:0:
448,192,117019,1,0,0:0:0:0:
192,192,117086,1,0,0:0:0:0:
64,192,117154,1,2,0:0:0:0:
320,192,117154,1,0,0:0:0:0:
448,192,117221,1,0,0:0:0:0:
64,192,117289,1,0,0:0:0:0:
320,192,117289,1,0,0:0:0:0:
192,192,117356,1,0,0:0:0:0:
320,192,117424,1,10,0:0:0:0:
448,192,117424,1,0,0:0:0:0:
64,192,117491,1,0,0:0:0:0:
320,192,117559,1,0,0:0:0:0:
448,192,117559,1,0,0:0:0:0:
64,192,117626,1,0,0:0:0:0:
320,192,117694,1,2,0:0:0:0:
448,192,117694,1,0,0:0:0:0:
64,192,117761,1,0,0:0:0:0:
192,192,117784,1,2,0:0:0:0:
320,192,117829,1,0,0:0:0:0:
448,192,117874,1,2,0:0:0:0:
64,192,117896,1,0,0:0:0:0:
192,192,117964,1,10,0:0:0:0:
320,192,117964,1,0,0:0:0:0:
448,192,118031,1,0,0:0:0:0:
64,192,118099,1,0,0:0:0:0:
192,192,118166,1,0,0:0:0:0:
320,192,118234,1,2,0:0:0:0:
448,192,118234,1,0,0:0:0:0:
192,192,118301,1,0,0:0:0:0:
64,192,118369,1,0,0:0:0:0:
320,192,118436,1,2,0:0:0:0:
448,192,118436,1,0,0:0:0:0:
64,192,118504,1,8,0:0:0:0:
192,192,118504,1,0,0:0:0:0:
320,192,118571,1,0,0:0:0:0:
64,192,118639,1,2,0:0:0:0:
192,192,118639,1,0,0:0:0:0:
320,192,118706,1,0,0:0:0:0:
64,192,118774,1,2,0:0:0:0:
448,192,118774,1,0,0:0:0:0:
192,192,118841,1,0,0:0:0:0:
448,192,118909,1,0,0:0:0:0:
320,192,118976,1,0,0:0:0:0:
64,192,119044,1,10,0:0:0:0:
192,192,119044,1,0,0:0:0:0:
320,192,119111,1,0,0:0:0:0:
448,192,119179,1,0,0:0:0:0:
192,192,119246,1,0,0:0:0:0:
64,192,119314,1,2,0:0:0:0:
448,192,119314,1,0,0:0:0:0:
320,192,119381,1,0,0:0:0:0:
192,192,119449,1,0,0:0:0:0:
320,192,119516,1,0,0:0:0:0:
64,192,119584,1,10,0:0:0:0:
192,192,119584,1,0,0:0:0:0:
448,192,119651,1,0,0:0:0:0:
320,192,119719,1,0,0:0:0:0:
192,192,119786,1,0,0:0:0:0:
64,192,119854,1,2,0:0:0:0:
320,192,119854,1,0,0:0:0:0:
448,192,119854,1,0,0:0:0:0:
192,192,119921,1,0,0:0:0:0:
448,192,119989,1,0,0:0:0:0:
320,192,120056,1,0,0:0:0:0:
64,192,120124,1,10,0:0:0:0:
192,192,120124,1,0,0:0:0:0:
448,192,120124,1,0,0:0:0:0:
320,192,120191,1,0,0:0:0:0:
64,192,120259,1,0,0:0:0:0:
192,192,120326,1,0,0:0:0:0:
64,192,120394,1,2,0:0:0:0:
320,192,120394,1,0,0:0:0:0:
448,192,120394,1,0,0:0:0:0:
192,192,120461,1,0,0:0:0:0:
320,192,120529,1,0,0:0:0:0:
448,192,120529,1,0,0:0:0:0:
64,192,120596,1,0,0:0:0:0:
192,192,120664,1,10,0:0:0:0:
320,192,120664,1,0,0:0:0:0:
448,192,120664,1,0,0:0:0:0:
64,192,120731,1,0,0:0:0:0:
320,192,120799,1,0,0:0:0:0:
192,192,120866,1,0,0:0:0:0:
64,192,120934,1,2,0:0:0:0:
320,192,120934,1,0,0:0:0:0:
448,192,120934,1,0,0:0:0:0:
192,192,121001,1,0,0:0:0:0:
320,192,121069,1,0,0:0:0:0:
192,192,121136,1,2,0:0:0:0:
448,192,121136,1,0,0:0:0:0:
64,192,121204,1,8,0:0:0:0:
320,192,121204,1,0,0:0:0:0:
192,192,121271,1,0,0:0:0:0:
64,192,121339,1,2,0:0:0:0:
320,192,121339,1,0,0:0:0:0:
448,192,121339,1,0,0:0:0:0:
192,192,121406,1,0,0:0:0:0:
320,192,121474,1,0,0:0:0:0:
448,192,121474,1,0,0:0:0:0:
64,192,121541,1,2,0:0:0:0:
192,192,121609,1,0,0:0:0:0:
320,192,121676,1,0,0:0:0:0:
64,192,121744,1,10,0:0:0:0:
448,192,121744,1,0,0:0:0:0:
320,192,121811,1,0,0:0:0:0:
64,192,121879,1,2,0:0:0:0:
192,192,121879,1,0,0:0:0:0:
320,192,121946,1,0,0:0:0:0:
64,192,122014,1,2,0:0:0:0:
192,192,122014,1,0,0:0:0:0:
448,192,122014,1,0,0:0:0:0:
320,192,122081,1,0,0:0:0:0:
192,192,122149,1,0,0:0:0:0:
448,192,122149,1,0,0:0:0:0:
64,192,122216,1,0,0:0:0:0:
192,192,122284,1,10,0:0:0:0:
320,192,122284,1,0,0:0:0:0:
448,192,122284,1,0,0:0:0:0:
64,192,122351,1,0,0:0:0:0:
320,192,122419,1,0,0:0:0:0:
448,192,122486,1,0,0:0:0:0:
64,192,122554,1,2,0:0:0:0:
192,192,122554,1,0,0:0:0:0:
320,192,122554,1,0,0:0:0:0:
448,192,122621,1,0,0:0:0:0:
64,192,122689,1,0,0:0:0:0:
192,192,122689,1,0,0:0:0:0:
320,192,122756,1,2,0:0:0:0:
448,192,122756,1,0,0:0:0:0:
64,192,122824,1,8,0:0:0:0:
192,192,122824,1,0,0:0:0:0:
320,192,122891,1,0,0:0:0:0:
64,192,122959,1,2,0:0:0:0:
192,192,123026,1,0,0:0:0:0:
64,192,123094,1,2,0:0:0:0:
320,192,123094,1,0,0:0:0:0:
448,192,123094,1,0,0:0:0:0:
192,192,123161,1,0,0:0:0:0:
448,192,123229,1,0,0:0:0:0:
192,192,123296,1,2,0:0:0:0:
320,192,123296,1,0,0:0:0:0:
64,192,123364,1,8,0:0:0:0:
448,192,123364,1,0,0:0:0:0:
192,192,123431,1,0,0:0:0:0:
64,192,123499,1,2,0:0:0:0:
320,192,123499,1,0,0:0:0:0:
448,192,123566,1,0,0:0:0:0:
192,192,123634,1,0,0:0:0:0:
320,192,123634,1,0,0:0:0:0:
64,192,123701,1,2,0:0:0:0:
448,192,123701,1,0,0:0:0:0:
192,192,123769,1,0,0:0:0:0:
64,192,123836,1,0,0:0:0:0:
320,192,123904,1,10,0:0:0:0:
448,192,123904,1,0,0:0:0:0:
192,192,123971,1,0,0:0:0:0:
64,192,124039,1,2,0:0:0:0:
448,192,124039,1,0,0:0:0:0:
320,192,124106,1,0,0:0:0:0:
64,192,124174,1,10,0:0:0:0:
192,192,124174,1,0,0:0:0:0:
448,192,124174,1,0,0:0:0:0:
320,192,124241,1,0,0:0:0:0:
64,192,124309,1,0,0:0:0:0:
192,192,124309,1,0,0:0:0:0:
320,192,124376,1,0,0:0:0:0:
448,192,124376,1,0,0:0:0:0:
64,192,124444,1,10,0:0:0:0:
192,192,124444,1,0,0:0:0:0:
320,192,124511,1,0,0:0:0:0:
64,192,124579,1,0,0:0:0:0:
192,192,124579,1,0,0:0:0:0:
320,192,124646,1,0,0:0:0:0:
448,192,124646,1,0,0:0:0:0:
64,192,124714,1,10,0:0:0:0:
192,192,124714,1,0,0:0:0:0:
320,192,124781,1,0,0:0:0:0:
448,192,124781,1,0,0:0:0:0:
64,192,124849,1,0,0:0:0:0:
192,192,124883,1,0,0:0:0:0:
320,192,124916,1,0,0:0:0:0:
448,192,124950,1,0,0:0:0:0:
64,192,124984,1,10,0:0:0:0:
192,192,124984,1,0,0:0:0:0:
320,192,125051,1,0,0:0:0:0:
448,192,125051,1,0,0:0:0:0:
64,192,125119,1,0,0:0:0:0:
192,192,125119,1,0,0:0:0:0:
320,192,125186,1,0,0:0:0:0:
448,192,125186,1,0,0:0:0:0:
64,192,125254,1,2,0:0:0:0:
192,192,125254,1,0,0:0:0:0:
448,192,125321,1,0,0:0:0:0:
320,192,125389,1,0,0:0:0:0:
64,192,125456,1,2,0:0:0:0:
192,192,125456,1,0,0:0:0:0:
320,192,125524,1,8,0:0:0:0:
448,192,125524,1,0,0:0:0:0:
192,192,125591,1,0,0:0:0:0:
64,192,125659,1,2,0:0:0:0:
448,192,125659,1,0,0:0:0:0:
320,192,125726,1,0,0:0:0:0:
64,192,125794,1,0,0:0:0:0:
192,192,125794,1,0,0:0:0:0:
320,192,125861,1,2,0:0:0:0:
448,192,125861,1,0,0:0:0:0:
192,192,125929,1,0,0:0:0:0:
64,192,125996,1,0,0:0:0:0:
320,192,126064,1,10,0:0:0:0:
448,192,126064,1,0,0:0:0:0:
64,192,126131,1,0,0:0:0:0:
320,192,126199,1,2,0:0:0:0:
448,192,126199,1,0,0:0:0:0:
64,192,126266,1,0,0:0:0:0:
320,192,126334,1,2,0:0:0:0:
448,192,126334,1,0,0:0:0:0:
64,192,126401,1,0,0:0:0:0:
192,192,126469,1,0,0:0:0:0:
320,192,126536,1,2,0:0:0:0:
448,192,126536,1,0,0:0:0:0:
64,192,126604,1,8,0:0:0:0:
192,192,126604,1,0,0:0:0:0:
320,192,126671,1,0,0:0:0:0:
64,192,126739,1,2,0:0:0:0:
448,192,126739,1,0,0:0:0:0:
192,192,126806,1,0,0:0:0:0:
320,192,126874,1,0,0:0:0:0:
448,192,126874,1,0,0:0:0:0:
64,192,126941,1,2,0:0:0:0:
192,192,126941,1,0,0:0:0:0:
320,192,127009,1,0,0:0:0:0:
448,192,127076,1,0,0:0:0:0:
64,192,127144,1,10,0:0:0:0:
192,192,127144,1,0,0:0:0:0:
448,192,127211,1,0,0:0:0:0:
64,192,127279,1,2,0:0:0:0:
192,192,127279,1,0,0:0:0:0:
448,192,127346,1,0,0:0:0:0:
64,192,127414,1,2,0:0:0:0:
320,192,127414,1,0,0:0:0:0:
192,192,127481,1,0,0:0:0:0:
448,192,127549,1,0,0:0:0:0:
64,192,127616,1,2,0:0:0:0:
320,192,127616,1,0,0:0:0:0:
192,192,127684,1,8,0:0:0:0:
448,192,127684,1,0,0:0:0:0:
64,192,127751,1,0,0:0:0:0:
192,192,127819,1,2,0:0:0:0:
320,192,127819,1,0,0:0:0:0:
448,192,127886,1,0,0:0:0:0:
64,192,127954,1,0,0:0:0:0:
320,192,127954,1,0,0:0:0:0:
192,192,128021,1,2,0:0:0:0:
448,192,128021,1,0,0:0:0:0:
64,192,128089,1,0,0:0:0:0:
320,192,128156,1,0,0:0:0:0:
192,192,128224,1,10,0:0:0:0:
448,192,128224,1,0,0:0:0:0:
320,192,128291,1,0,0:0:0:0:
64,192,128359,1,2,0:0:0:0:
192,192,128359,1,0,0:0:0:0:
320,192,128426,1,0,0:0:0:0:
192,192,128494,1,2,0:0:0:0:
448,192,128494,1,0,0:0:0:0:
320,192,128561,1,0,0:0:0:0:
64,192,128629,1,0,0:0:0:0:
192,192,128629,1,0,0:0:0:0:
320,192,128696,1,2,0:0:0:0:
448,192,128696,1,0,0:0:0:0:
64,192,128764,1,8,0:0:0:0:
192,192,128764,1,0,0:0:0:0:
448,192,128831,1,0,0:0:0:0:
192,192,128899,1,2,0:0:0:0:
320,192,128899,1,0,0:0:0:0:
64,192,128966,1,0,0:0:0:0:
320,192,129034,1,2,0:0:0:0:
448,192,129034,1,0,0:0:0:0:
64,192,129101,1,0,0:0:0:0:
192,192,129169,1,2,0:0:0:0:
320,192,129169,1,0,0:0:0:0:
448,192,129236,1,0,0:0:0:0:
64,192,129304,1,10,0:0:0:0:
192,192,129304,1,0,0:0:0:0:
448,192,129371,1,0,0:0:0:0:
192,192,129439,1,2,0:0:0:0:
320,192,129439,1,0,0:0:0:0:
64,192,129506,1,0,0:0:0:0:
192,192,129574,1,2,0:0:0:0:
320,192,129574,1,0,0:0:0:0:
448,192,129574,1,0,0:0:0:0:
64,192,129641,1,0,0:0:0:0:
448,192,129709,1,0,0:0:0:0:
64,192,129776,1,2,0:0:0:0:
320,192,129776,1,0,0:0:0:0:
192,192,129844,1,8,0:0:0:0:
448,192,129844,1,0,0:0:0:0:
64,192,129911,1,0,0:0:0:0:
320,192,129979,1,2,0:0:0:0:
448,192,129979,1,0,0:0:0:0:
64,192,130046,1,0,0:0:0:0:
192,192,130114,1,2,0:0:0:0:
320,192,130114,1,0,0:0:0:0:
448,192,130114,1,0,0:0:0:0:
64,192,130181,1,0,0:0:0:0:
320,192,130249,1,0,0:0:0:0:
448,192,130316,1,0,0:0:0:0:
64,192,130384,1,10,0:0:0:0:
192,192,130384,1,0,0:0:0:0:
320,192,130384,1,0,0:0:0:0:
448,192,130451,1,0,0:0:0:0:
192,192,130519,1,0,0:0:0:0:
320,192,130519,1,0,0:0:0:0:
64,192,130586,1,0,0:0:0:0:
192,192,130654,1,2,0:0:0:0:
320,192,130654,1,0,0:0:0:0:
448,192,130654,1,0,0:0:0:0:
64,192,130721,1,0,0:0:0:0:
192,192,130789,1,0,0:0:0:0:
448,192,130789,1,0,0:0:0:0:
320,192,130856,1,0,0:0:0:0:
64,192,130924,1,10,0:0:0:0:
192,192,130924,1,0,0:0:0:0:
448,192,130924,1,0,0:0:0:0:
320,192,130991,1,0,0:0:0:0:
64,192,131059,1,0,0:0:0:0:
192,192,131126,1,0,0:0:0:0:
64,192,131194,1,2,0:0:0:0:
320,192,131194,1,0,0:0:0:0:
448,192,131194,1,0,0:0:0:0:
192,192,131261,1,0,0:0:0:0:
320,192,131329,1,0,0:0:0:0:
448,192,131329,1,0,0:0:0:0:
64,192,131396,1,0,0:0:0:0:
192,192,131464,1,10,0:0:0:0:
320,192,131464,1,0,0:0:0:0:
448,192,131464,1,0,0:0:0:0:
64,192,131531,1,0,0:0:0:0:
448,192,131599,1,0,0:0:0:0:
320,192,131666,1,0,0:0:0:0:
64,192,131734,1,2,0:0:0:0:
192,192,131734,1,0,0:0:0:0:
448,192,131734,1,0,0:0:0:0:
320,192,131801,1,0,0:0:0:0:
192,192,131869,1,0,0:0:0:0:
64,192,131936,1,0,0:0:0:0:
192,192,132004,1,10,0:0:0:0:
320,192,132004,1,0,0:0:0:0:
448,192,132004,1,0,0:0:0:0:
64,192,132071,1,0,0:0:0:0:
448,192,132139,1,0,0:0:0:0:
64,192,132206,1,0,0:0:0:0:
192,192,132274,1,2,0:0:0:0:
320,192,132274,1,0,0:0:0:0:
448,192,132274,1,0,0:0:0:0:
64,192,132341,1,0,0:0:0:0:
320,192,132409,1,0,0:0:0:0:
448,192,132476,1,0,0:0:0:0:
64,192,132544,1,10,0:0:0:0:
192,192,132544,1,0,0:0:0:0:
320,192,132544,1,0,0:0:0:0:
448,192,132611,1,0,0:0:0:0:
64,192,132679,1,0,0:0:0:0:
192,192,132679,1,0,0:0:0:0:
320,192,132746,1,0,0:0:0:0:
448,192,132746,1,0,0:0:0:0:
64,192,132814,1,2,0:0:0:0:
192,192,132814,1,0,0:0:0:0:
448,192,132881,1,0,0:0:0:0:
320,192,132949,1,0,0:0:0:0:
64,192,133016,1,2,0:0:0:0:
192,192,133084,1,8,0:0:0:0:
320,192,133084,1,0,0:0:0:0:
448,192,133084,1,0,0:0:0:0:
64,192,133151,1,0,0:0:0:0:
320,192,133219,1,2,0:0:0:0:
448,192,133219,1,0,0:0:0:0:
64,192,133286,1,0,0:0:0:0:
192,192,133286,1,0,0:0:0:0:
320,192,133354,1,8,0:0:0:0:
448,192,133354,1,0,0:0:0:0:
64,192,133421,1,2,0:0:0:0:
192,192,133421,1,0,0:0:0:0:
320,192,133489,1,0,0:0:0:0:
448,192,133523,1,0,0:0:0:0:
64,192,133556,1,0,0:0:0:0:
192,192,133590,1,0,0:0:0:0:
320,192,133624,1,10,0:0:0:0:
448,192,133624,1,0,0:0:0:0:
64,192,133691,1,0,0:0:0:0:
192,192,133691,1,0,0:0:0:0:
320,192,133759,1,2,0:0:0:0:
448,192,133759,1,0,0:0:0:0:
64,192,133826,1,0,0:0:0:0:
192,192,133826,1,0,0:0:0:0:
320,192,133894,1,2,0:0:0:0:
448,192,133894,1,0,0:0:0:0:
64,192,133961,1,0,0:0:0:0:
320,192,134029,1,0,0:0:0:0:
448,192,134029,1,0,0:0:0:0:
64,192,134096,1,0,0:0:0:0:
192,192,134164,1,10,0:0:0:0:
320,192,134164,1,0,0:0:0:0:
448,192,134231,1,0,0:0:0:0:
192,192,134299,1,0,0:0:0:0:
320,192,134299,1,0,0:0:0:0:
64,192,134366,1,0,0:0:0:0:
192,192,134434,1,2,0:0:0:0:
448,192,134434,1,0,0:0:0:0:
320,192,134501,1,0,0:0:0:0:
192,192,134569,1,0,0:0:0:0:
448,192,134569,1,0,0:0:0:0:
64,192,134637,1,0,0:0:0:0:
320,192,134704,1,10,0:0:0:0:
448,192,134704,1,0,0:0:0:0:
192,192,134771,1,0,0:0:0:0:
320,192,134839,1,0,0:0:0:0:
448,192,134839,1,0,0:0:0:0:
192,192,134907,1,0,0:0:0:0:
320,192,134974,1,2,0:0:0:0:
448,192,134974,1,0,0:0:0:0:
192,192,135042,1,0,0:0:0:0:
64,192,135064,1,2,0:0:0:0:
448,192,135109,1,0,0:0:0:0:
320,192,135154,1,2,0:0:0:0:
192,192,135176,1,0,0:0:0:0:
64,192,135244,1,10,0:0:0:0:
448,192,135244,1,0,0:0:0:0:
320,192,135312,1,0,0:0:0:0:
192,192,135379,1,0,0:0:0:0:
64,192,135447,1,0,0:0:0:0:
320,192,135514,1,2,0:0:0:0:
448,192,135514,1,0,0:0:0:0:
64,192,135582,1,0,0:0:0:0:
192,192,135649,1,0,0:0:0:0:
320,192,135717,1,2,0:0:0:0:
448,192,135717,1,0,0:0:0:0:
64,192,135784,1,8,0:0:0:0:
192,192,135784,1,0,0:0:0:0:
448,192,135852,1,0,0:0:0:0:
64,192,135919,1,2,0:0:0:0:
192,192,135919,1,0,0:0:0:0:
448,192,135987,1,0,0:0:0:0:
192,192,136054,1,2,0:0:0:0:
320,192,136054,1,0,0:0:0:0:
64,192,136122,1,0,0:0:0:0:
320,192,136189,1,0,0:0:0:0:
448,192,136257,1,0,0:0:0:0:
64,192,136324,1,10,0:0:0:0:
192,192,136324,1,0,0:0:0:0:
448,192,136392,1,0,0:0:0:0:
320,192,136459,1,0,0:0:0:0:
64,192,136527,1,0,0:0:0:0:
192,192,136594,1,2,0:0:0:0:
320,192,136594,1,0,0:0:0:0:
448,192,136662,1,0,0:0:0:0:
64,192,136729,1,0,0:0:0:0:
448,192,136797,1,0,0:0:0:0:
64,192,136864,1,10,0:0:0:0:
192,192,136864,1,0,0:0:0:0:
320,192,136932,1,0,0:0:0:0:
448,192,136999,1,0,0:0:0:0:
64,192,137067,1,0,0:0:0:0:
192,192,137134,1,2,0:0:0:0:
320,192,137134,1,0,0:0:0:0:
448,192,137134,1,0,0:0:0:0:
64,192,137202,1,0,0:0:0:0:
320,192,137269,1,0,0:0:0:0:
448,192,137337,1,0,0:0:0:0:
64,192,137404,1,10,0:0:0:0:
192,192,137404,1,0,0:0:0:0:
320,192,137404,1,0,0:0:0:0:
448,192,137472,1,0,0:0:0:0:
192,192,137539,1,0,0:0:0:0:
64,192,137607,1,0,0:0:0:0:
192,192,137674,1,2,0:0:0:0:
320,192,137674,1,0,0:0:0:0:
448,192,137674,1,0,0:0:0:0:
64,192,137742,1,0,0:0:0:0:
320,192,137809,1,0,0:0:0:0:
448,192,137809,1,0,0:0:0:0:
192,192,137877,1,0,0:0:0:0:
64,192,137944,1,10,0:0:0:0:
320,192,137944,1,0,0:0:0:0:
448,192,137944,1,0,0:0:0:0:
192,192,138012,1,0,0:0:0:0:
448,192,138079,1,0,0:0:0:0:
64,192,138147,1,0,0:0:0:0:
192,192,138214,1,2,0:0:0:0:
320,192,138214,1,0,0:0:0:0:
448,192,138214,1,0,0:0:0:0:
64,192,138282,1,0,0:0:0:0:
448,192,138349,1,0,0:0:0:0:
64,192,138417,1,2,0:0:0:0:
320,192,138417,1,0,0:0:0:0:
192,192,138484,1,8,0:0:0:0:
448,192,138484,1,0,0:0:0:0:
64,192,138552,1,0,0:0:0:0:
192,192,138619,1,2,0:0:0:0:
320,192,138619,1,0,0:0:0:0:
448,192,138619,1,0,0:0:0:0:
64,192,138687,1,0,0:0:0:0:
320,192,138754,1,0,0:0:0:0:
448,192,138754,1,0,0:0:0:0:
192,192,138822,1,2,0:0:0:0:
64,192,138889,1,0,0:0:0:0:
448,192,138957,1,0,0:0:0:0:
192,192,139024,1,10,0:0:0:0:
320,192,139024,1,0,0:0:0:0:
448,192,139092,1,0,0:0:0:0:
64,192,139159,1,2,0:0:0:0:
192,192,139159,1,0,0:0:0:0:
448,192,139227,1,0,0:0:0:0:
64,192,139294,1,2,0:0:0:0:
192,192,139294,1,0,0:0:0:0:
320,192,139294,1,0,0:0:0:0:
448,192,139362,1,0,0:0:0:0:
64,192,139429,1,0,0:0:0:0:
320,192,139429,1,0,0:0:0:0:
192,192,139497,1,0,0:0:0:0:
64,192,139564,1,10,0:0:0:0:
320,192,139564,1,0,0:0:0:0:
448,192,139564,1,0,0:0:0:0:
192,192,139632,1,0,0:0:0:0:
448,192,139699,1,0,0:0:0:0:
320,192,139767,1,0,0:0:0:0:
64,192,139834,1,2,0:0:0:0:
192,192,139834,1,0,0:0:0:0:
448,192,139834,1,0,0:0:0:0:
320,192,139902,1,0,0:0:0:0:
64,192,139969,1,0,0:0:0:0:
192,192,139969,1,0,0:0:0:0:
320,192,140037,1,2,0:0:0:0:
448,192,140037,1,0,0:0:0:0:
64,192,140104,1,8,0:0:0:0:
192,192,140104,1,0,0:0:0:0:
448,192,140172,1,0,0:0:0:0:
192,192,140239,1,2,0:0:0:0:
64,192,140307,1,0,0:0:0:0:
192,192,140374,1,2,0:0:0:0:
320,192,140374,1,0,0:0:0:0:
448,192,140374,1,0,0:0:0:0:
64,192,140442,1,0,0:0:0:0:
320,192,140509,1,0,0:0:0:0:
64,192,140577,1,2,0:0:0:0:
448,192,140577,1,0,0:0:0:0:
192,192,140644,1,8,0:0:0:0:
320,192,140644,1,0,0:0:0:0:
64,192,140712,1,0,0:0:0:0:
192,192,140779,1,2,0:0:0:0:
448,192,140779,1,0,0:0:0:0:
320,192,140847,1,0,0:0:0:0:
64,192,140914,1,2,0:0:0:0:
448,192,140914,1,0,0:0:0:0:
192,192,140982,1,0,0:0:0:0:
320,192,140982,1,0,0:0:0:0:
64,192,141049,1,2,0:0:0:0:
192,192,141117,1,0,0:0:0:0:
320,192,141184,1,10,0:0:0:0:
448,192,141184,1,0,0:0:0:0:
64,192,141252,1,0,0:0:0:0:
192,192,141319,1,2,0:0:0:0:
320,192,141319,1,0,0:0:0:0:
448,192,141387,1,0,0:0:0:0:
64,192,141454,1,2,0:0:0:0:
192,192,141454,1,0,0:0:0:0:
320,192,141454,1,0,0:0:0:0:
448,192,141522,1,0,0:0:0:0:
64,192,141589,1,0,0:0:0:0:
192,192,141589,1,0,0:0:0:0:
320,192,141657,1,0,0:0:0:0:
448,192,141657,1,0,0:0:0:0:
64,192,141724,1,10,0:0:0:0:
192,192,141724,1,0,0:0:0:0:
448,192,141792,1,0,0:0:0:0:
64,192,141859,1,0,0:0:0:0:
192,192,141859,1,0,0:0:0:0:
320,192,141927,1,0,0:0:0:0:
448,192,141927,1,0,0:0:0:0:
64,192,141994,1,2,0:0:0:0:
192,192,141994,1,0,0:0:0:0:
448,192,142062,1,0,0:0:0:0:
64,192,142129,1,0,0:0:0:0:
192,192,142129,1,0,0:0:0:0:
320,192,142197,1,0,0:0:0:0:
448,192,142197,1,0,0:0:0:0:
64,192,142264,1,10,0:0:0:0:
192,192,142264,1,0,0:0:0:0:
320,192,142332,1,0,0:0:0:0:
448,192,142332,1,0,0:0:0:0:
64,192,142399,1,0,0:0:0:0:
192,192,142399,1,0,0:0:0:0:
320,192,142467,1,0,0:0:0:0:
448,192,142467,1,0,0:0:0:0:
64,192,142534,1,4,0:0:0:0:
192,192,142534,1,0,0:0:0:0:
320,192,142602,1,0,0:0:0:0:
64,192,142669,1,0,0:0:0:0:
448,192,142669,1,0,0:0:0:0:
192,192,142737,1,0,0:0:0:0:
64,192,142804,1,0,0:0:0:0:
320,192,142804,1,0,0:0:0:0:
448,192,142804,1,0,0:0:0:0:
192,192,142872,1,0,0:0:0:0:
320,192,142939,1,0,0:0:0:0:
448,192,142939,1,0,0:0:0:0:
64,192,143007,1,0,0:0:0:0:
192,192,143074,1,4,0:0:0:0:
320,192,143074,1,0,0:0:0:0:
448,192,143074,1,0,0:0:0:0:
64,192,143142,1,0,0:0:0:0:
192,192,143209,1,0,0:0:0:0:
320,192,143209,1,0,0:0:0:0:
448,192,143277,1,0,0:0:0:0:
64,192,143344,1,0,0:0:0:0:
192,192,143344,1,0,0:0:0:0:
320,192,143344,1,0,0:0:0:0:
448,192,143412,1,0,0:0:0:0:
64,192,143479,1,0,0:0:0:0:
192,192,143479,1,0,0:0:0:0:
320,192,143547,1,0,0:0:0:0:
64,192,143614,1,4,0:0:0:0:
192,192,143614,1,0,0:0:0:0:
448,192,143614,1,0,0:0:0:0:
320,192,143682,1,0,0:0:0:0:
64,192,143749,1,0,0:0:0:0:
448,192,143749,1,0,0:0:0:0:
192,192,143817,1,0,0:0:0:0:
64,192,143884,1,0,0:0:0:0:
320,192,143884,1,0,0:0:0:0:
448,192,143884,1,0,0:0:0:0:
192,192,143952,1,0,0:0:0:0:
320,192,144019,1,0,0:0:0:0:
448,192,144019,1,0,0:0:0:0:
64,192,144087,1,0,0:0:0:0:
192,192,144154,1,4,0:0:0:0:
320,192,144154,1,0,0:0:0:0:
448,192,144154,1,0,0:0:0:0:
64,192,144222,1,0,0:0:0:0:
448,192,144289,1,0,0:0:0:0:
320,192,144323,1,0,0:0:0:0:
192,192,144357,1,0,0:0:0:0:
64,192,144390,1,0,0:0:0:0:
320,192,144424,1,0,0:0:0:0:
448,192,144424,1,0,0:0:0:0:
64,192,144492,1,0,0:0:0:0:
192,192,144492,1,0,0:0:0:0:
320,192,144559,1,0,0:0:0:0:
448,192,144559,1,0,0:0:0:0:
64,192,144627,1,0,0:0:0:0:
192,192,144694,1,4,0:0:0:0:
320,192,144694,1,0,0:0:0:0:
448,192,144694,1,0,0:0:0:0:
64,192,144762,1,0,0:0:0:0:
320,192,144829,1,0,0:0:0:0:
448,192,144829,1,0,0:0:0:0:
192,192,144897,1,0,0:0:0:0:
64,192,144964,1,0,0:0:0:0:
320,192,144964,1,0,0:0:0:0:
448,192,144964,1,0,0:0:0:0:
192,192,145032,1,0,0:0:0:0:
320,192,145099,1,0,0:0:0:0:
448,192,145099,1,0,0:0:0:0:
64,192,145167,1,0,0:0:0:0:
192,192,145234,1,4,0:0:0:0:
320,192,145234,1,0,0:0:0:0:
448,192,145302,1,0,0:0:0:0:
64,192,145369,1,0,0:0:0:0:
192,192,145369,1,0,0:0:0:0:
320,192,145437,1,0,0:0:0:0:
64,192,145504,1,0,0:0:0:0:
192,192,145504,1,0,0:0:0:0:
320,192,145572,1,0,0:0:0:0:
448,192,145572,1,0,0:0:0:0:
64,192,145639,1,0,0:0:0:0:
192,192,145639,1,0,0:0:0:0:
320,192,145707,1,0,0:0:0:0:
448,192,145707,1,0,0:0:0:0:
64,192,145774,1,4,0:0:0:0:
192,192,145774,1,0,0:0:0:0:
320,192,145842,1,0,0:0:0:0:
448,192,145842,1,0,0:0:0:0:
64,192,145909,1,0,0:0:0:0:
192,192,145909,1,0,0:0:0:0:
320,192,145977,1,0,0:0:0:0:
448,192,145977,1,0,0:0:0:0:
64,192,146044,1,4,0:0:0:0:
192,192,146044,1,0,0:0:0:0:
320,192,146112,1,0,0:0:0:0:
448,192,146112,1,0,0:0:0:0:
64,192,146179,1,0,0:0:0:0:
192,192,146179,1,0,0:0:0:0:
320,192,146247,1,0,0:0:0:0:
448,192,146247,1,0,0:0:0:0:
64,192,146314,1,4,0:0:0:0:
192,192,146314,1,0,0:0:0:0:
320,192,146382,1,0,0:0:0:0:
448,192,146382,1,0,0:0:0:0:
64,192,146449,1,0,0:0:0:0:
192,192,146483,1,0,0:0:0:0:
320,192,146517,1,0,0:0:0:0:
448,192,146550,1,0,0:0:0:0:
64,192,146584,1,4,0:0:0:0:
192,192,146584,1,0,0:0:0:0:
320,192,146652,1,0,0:0:0:0:
448,192,146652,1,0,0:0:0:0:
64,192,146719,1,0,0:0:0:0:
192,192,146719,1,0,0:0:0:0:
320,192,146787,1,0,0:0:0:0:
448,192,146787,1,0,0:0:0:0:
64,192,146854,1,4,0:0:0:0:
192,192,146854,1,0,0:0:0:0:
320,192,146922,1,0,0:0:0:0:
448,192,146989,1,0,0:0:0:0:
192,192,147057,1,0,0:0:0:0:
64,192,147124,1,8,0:0:0:0:
320,192,147124,1,0,0:0:0:0:
448,192,147124,1,0,0:0:0:0:
192,192,147192,1,0,0:0:0:0:
320,192,147259,1,0,0:0:0:0:
64,192,147327,1,0,0:0:0:0:
192,192,147394,1,0,0:0:0:0:
448,192,147394,1,0,0:0:0:0:
320,192,147462,1,0,0:0:0:0:
192,192,147529,1,0,0:0:0:0:
448,192,147597,1,0,0:0:0:0:
64,192,147664,1,8,0:0:0:0:
192,192,147664,1,0,0:0:0:0:
320,192,147664,1,0,0:0:0:0:
448,192,147732,1,0,0:0:0:0:
64,192,147799,1,0,0:0:0:0:
320,192,147867,1,0,0:0:0:0:
64,192,147934,1,0,0:0:0:0:
192,192,147934,1,0,0:0:0:0:
448,192,148002,1,0,0:0:0:0:
320,192,148069,1,0,0:0:0:0:
192,192,148137,1,0,0:0:0:0:
64,192,148204,1,8,0:0:0:0:
320,192,148204,1,0,0:0:0:0:
448,192,148204,1,0,0:0:0:0:
192,192,148272,1,0,0:0:0:0:
448,192,148339,1,0,0:0:0:0:
320,192,148407,1,0,0:0:0:0:
64,192,148474,1,0,0:0:0:0:
192,192,148474,1,0,0:0:0:0:
320,192,148542,1,0,0:0:0:0:
64,192,148609,1,0,0:0:0:0:
448,192,148677,1,0,0:0:0:0:
64,192,148744,1,8,0:0:0:0:
192,192,148744,1,0,0:0:0:0:
320,192,148744,1,0,0:0:0:0:
448,192,148812,1,0,0:0:0:0:
64,192,148879,1,0,0:0:0:0:
192,192,148879,1,0,0:0:0:0:
320,192,148947,1,0,0:0:0:0:
64,192,149014,1,4,0:0:0:0:
192,192,149014,1,0,0:0:0:0:
448,192,149014,1,0,0:0:0:0:
320,192,149082,1,0,0:0:0:0:
192,192,149149,1,0,0:0:0:0:
448,192,149217,1,0,0:0:0:0:
64,192,149284,1,8,0:0:0:0:
192,192,149284,1,0,0:0:0:0:
320,192,149284,1,0,0:0:0:0:
448,192,149352,1,0,0:0:0:0:
64,192,149419,1,0,0:0:0:0:
192,192,149487,1,0,0:0:0:0:
320,192,149554,1,0,0:0:0:0:
448,192,149554,1,0,0:0:0:0:
192,192,149622,1,0,0:0:0:0:
448,192,149689,1,0,0:0:0:0:
64,192,149757,1,0,0:0:0:0:
192,192,149824,1,8,0:0:0:0:
320,192,149824,1,0,0:0:0:0:
448,192,149824,1,0,0:0:0:0:
64,192,149892,1,0,0:0:0:0:
320,192,149959,1,0,0:0:0:0:
448,192,149959,1,0,0:0:0:0:
192,192,150027,1,0,0:0:0:0:
64,192,150094,1,0,0:0:0:0:
448,192,150094,1,0,0:0:0:0:
320,192,150162,1,0,0:0:0:0:
64,192,150229,1,0,0:0:0:0:
192,192,150297,1,0,0:0:0:0:
64,192,150364,1,12,0:0:0:0:
320,192,150364,1,0,0:0:0:0:
448,192,150364,1,0,0:0:0:0:
192,192,150432,1,0,0:0:0:0:
320,192,150499,1,0,0:0:0:0:
448,192,150499,1,0,0:0:0:0:
64,192,150567,1,0,0:0:0:0:
192,192,150634,1,4,0:0:0:0:
320,192,150634,1,0,0:0:0:0:
448,192,150634,1,0,0:0:0:0:
64,192,150702,1,0,0:0:0:0:
320,192,150769,1,0,0:0:0:0:
192,192,150837,1,4,0:0:0:0:
448,192,150837,1,0,0:0:0:0:
64,192,150904,1,8,0:0:0:0:
320,192,150904,1,0,0:0:0:0:
192,192,150972,1,0,0:0:0:0:
64,192,151039,1,4,0:0:0:0:
320,192,151039,1,0,0:0:0:0:
448,192,151039,1,0,0:0:0:0:
192,192,151107,1,0,0:0:0:0:
64,192,151174,1,4,0:0:0:0:
320,192,151174,1,0,0:0:0:0:
448,192,151174,1,0,0:0:0:0:
192,192,151242,1,0,0:0:0:0:
448,192,151309,1,0,0:0:0:0:
320,192,151377,1,0,0:0:0:0:
64,192,151444,1,8,0:0:0:0:
192,192,151444,1,0,0:0:0:0:
448,192,151444,1,0,0:0:0:0:
320,192,151512,1,0,0:0:0:0:
64,192,151579,1,0,0:0:0:0:
448,192,151647,1,0,0:0:0:0:
192,192,151714,1,0,0:0:0:0:
320,192,151714,1,0,0:0:0:0:
448,192,151782,1,0,0:0:0:0:
320,192,151849,1,0,0:0:0:0:
192,192,151917,1,0,0:0:0:0:
64,192,151984,1,12,0:0:0:0:
320,192,151984,1,0,0:0:0:0:
448,192,151984,1,0,0:0:0:0:
192,192,152052,1,0,0:0:0:0:
64,192,152119,1,4,0:0:0:0:
320,192,152119,1,0,0:0:0:0:
448,192,152187,1,0,0:0:0:0:
192,192,152254,1,0,0:0:0:0:
320,192,152322,1,0,0:0:0:0:
64,192,152389,1,4,0:0:0:0:
192,192,152389,1,0,0:0:0:0:
320,192,152457,1,0,0:0:0:0:
64,192,152524,1,12,0:0:0:0:
192,192,152524,1,0,0:0:0:0:
448,192,152524,1,0,0:0:0:0:
320,192,152592,1,0,0:0:0:0:
64,192,152659,1,0,0:0:0:0:
192,192,152659,1,0,0:0:0:0:
320,192,152727,1,0,0:0:0:0:
64,192,152794,1,4,0:0:0:0:
448,192,152794,1,0,0:0:0:0:
192,192,152862,1,0,0:0:0:0:
320,192,152929,1,4,0:0:0:0:
448,192,152929,1,0,0:0:0:0:
192,192,152997,1,0,0:0:0:0:
64,192,153064,1,12,0:0:0:0:
448,192,153064,1,0,0:0:0:0:
320,192,153132,1,0,0:0:0:0:
64,192,153199,1,0,0:0:0:0:
192,192,153199,1,0,0:0:0:0:
320,192,153267,1,0,0:0:0:0:
448,192,153267,1,0,0:0:0:0:
64,192,153334,1,4,0:0:0:0:
192,192,153334,1,0,0:0:0:0:
320,192,153402,1,0,0:0:0:0:
64,192,153469,1,0,0:0:0:0:
448,192,153469,1,0,0:0:0:0:
192,192,153537,1,0,0:0:0:0:
320,192,153604,1,8,0:0:0:0:
448,192,153604,1,0,0:0:0:0:
192,192,153672,1,0,0:0:0:0:
320,192,153739,1,0,0:0:0:0:
448,192,153739,1,0,0:0:0:0:
64,192,153807,1,0,0:0:0:0:
192,192,153807,1,0,0:0:0:0:
320,192,153874,1,4,0:0:0:0:
448,192,153874,1,0,0:0:0:0:
192,192,153942,1,0,0:0:0:0:
64,192,154009,1,0,0:0:0:0:
448,192,154009,1,0,0:0:0:0:
320,192,154077,1,0,0:0:0:0:
64,192,154144,1,8,0:0:0:0:
192,192,154144,1,0,0:0:0:0:
320,192,154212,1,0,0:0:0:0:
64,192,154279,1,0,0:0:0:0:
192,192,154279,1,0,0:0:0:0:
320,192,154347,1,0,0:0:0:0:
448,192,154347,1,0,0:0:0:0:
64,192,154414,1,4,0:0:0:0:
192,192,154414,1,0,0:0:0:0:
320,192,154482,1,0,0:0:0:0:
192,192,154549,1,0,0:0:0:0:
448,192,154549,1,0,0:0:0:0:
64,192,154617,1,0,0:0:0:0:
320,192,154617,1,0,0:0:0:0:
192,192,154684,1,12,0:0:0:0:
448,192,154684,1,0,0:0:0:0:
320,192,154752,1,0,0:0:0:0:
64,192,154819,1,0,0:0:0:0:
192,192,154819,1,0,0:0:0:0:
320,192,154887,1,0,0:0:0:0:
448,192,154887,1,0,0:0:0:0:
64,192,154954,1,4,0:0:0:0:
192,192,154954,1,0,0:0:0:0:
448,192,155022,1,0,0:0:0:0:
64,192,155089,1,0,0:0:0:0:
192,192,155123,1,0,0:0:0:0:
320,192,155157,1,0,0:0:0:0:
448,192,155190,1,0,0:0:0:0:
64,192,155224,1,12,0:0:0:0:
192,192,155224,1,0,0:0:0:0:
320,192,155292,1,0,0:0:0:0:
448,192,155292,1,0,0:0:0:0:
64,192,155359,1,0,0:0:0:0:
192,192,155359,1,0,0:0:0:0:
320,192,155427,1,0,0:0:0:0:
448,192,155427,1,0,0:0:0:0:
64,192,155494,1,4,0:0:0:0:
192,192,155494,1,0,0:0:0:0:
448,192,155562,1,0,0:0:0:0:
320,192,155629,1,0,0:0:0:0:
64,192,155697,1,0,0:0:0:0:
192,192,155764,1,8,0:0:0:0:
320,192,155764,1,0,0:0:0:0:
448,192,155764,1,0,0:0:0:0:
64,192,155832,1,0,0:0:0:0:
448,192,155899,1,0,0:0:0:0:
192,192,155967,1,0,0:0:0:0:
64,192,156034,1,0,0:0:0:0:
320,192,156034,1,0,0:0:0:0:
448,192,156102,1,0,0:0:0:0:
64,192,156169,1,0,0:0:0:0:
320,192,156237,1,0,0:0:0:0:
64,192,156304,1,8,0:0:0:0:
192,192,156304,1,0,0:0:0:0:
448,192,156304,1,0,0:0:0:0:
320,192,156372,1,0,0:0:0:0:
192,192,156439,1,0,0:0:0:0:
448,192,156507,1,0,0:0:0:0:
64,192,156574,1,0,0:0:0:0:
192,192,156574,1,0,0:0:0:0:
320,192,156642,1,0,0:0:0:0:
448,192,156709,1,0,0:0:0:0:
64,192,156777,1,0,0:0:0:0:
192,192,156844,1,8,0:0:0:0:
320,192,156844,1,0,0:0:0:0:
448,192,156844,1,0,0:0:0:0:
64,192,156912,1,0,0:0:0:0:
320,192,156979,1,0,0:0:0:0:
448,192,157047,1,0,0:0:0:0:
64,192,157114,1,0,0:0:0:0:
192,192,157114,1,0,0:0:0:0:
448,192,157182,1,0,0:0:0:0:
192,192,157249,1,0,0:0:0:0:
320,192,157317,1,0,0:0:0:0:
64,192,157384,1,8,0:0:0:0:
192,192,157384,1,0,0:0:0:0:
448,192,157384,1,0,0:0:0:0:
320,192,157452,1,0,0:0:0:0:
64,192,157519,1,0,0:0:0:0:
192,192,157519,1,0,0:0:0:0:
448,192,157587,1,0,0:0:0:0:
64,192,157654,1,4,0:0:0:0:
192,192,157654,1,0,0:0:0:0:
320,192,157654,1,0,0:0:0:0:
448,192,157722,1,0,0:0:0:0:
64,192,157789,1,0,0:0:0:0:
320,192,157857,1,0,0:0:0:0:
64,192,157924,1,8,0:0:0:0:
192,192,157924,1,0,0:0:0:0:
448,192,157924,1,0,0:0:0:0:
320,192,157992,1,0,0:0:0:0:
192,192,158059,1,0,0:0:0:0:
64,192,158127,1,0,0:0:0:0:
320,192,158194,1,0,0:0:0:0:
448,192,158194,1,0,0:0:0:0:
64,192,158262,1,0,0:0:0:0:
320,192,158329,1,0,0:0:0:0:
192,192,158397,1,0,0:0:0:0:
64,192,158464,1,8,0:0:0:0:
320,192,158464,1,0,0:0:0:0:
448,192,158464,1,0,0:0:0:0:
192,192,158532,1,0,0:0:0:0:
320,192,158599,1,0,0:0:0:0:
448,192,158599,1,0,0:0:0:0:
64,192,158667,1,0,0:0:0:0:
192,192,158734,1,0,0:0:0:0:
320,192,158734,1,0,0:0:0:0:
448,192,158802,1,0,0:0:0:0:
192,192,158869,1,0,0:0:0:0:
64,192,158937,1,0,0:0:0:0:
192,192,159004,1,12,0:0:0:0:
320,192,159004,1,0,0:0:0:0:
448,192,159004,1,0,0:0:0:0:
64,192,159072,1,0,0:0:0:0:
320,192,159139,1,0,0:0:0:0:
448,192,159139,1,0,0:0:0:0:
192,192,159207,1,0,0:0:0:0:
64,192,159274,1,4,0:0:0:0:
320,192,159274,1,0,0:0:0:0:
448,192,159274,1,0,0:0:0:0:
192,192,159342,1,0,0:0:0:0:
448,192,159409,1,0,0:0:0:0:
64,192,159477,1,4,0:0:0:0:
320,192,159477,1,0,0:0:0:0:
192,192,159544,1,8,0:0:0:0:
448,192,159544,1,0,0:0:0:0:
64,192,159612,1,0,0:0:0:0:
192,192,159679,1,4,0:0:0:0:
320,192,159679,1,0,0:0:0:0:
448,192,159679,1,0,0:0:0:0:
64,192,159747,1,0,0:0:0:0:
192,192,159814,1,4,0:0:0:0:
320,192,159814,1,0,0:0:0:0:
448,192,159814,1,0,0:0:0:0:
64,192,159882,1,0,0:0:0:0:
320,192,159949,1,0,0:0:0:0:
448,192,160017,1,0,0:0:0:0:
64,192,160084,1,8,0:0:0:0:
192,192,160084,1,0,0:0:0:0:
320,192,160084,1,0,0:0:0:0:
448,192,160152,1,0,0:0:0:0:
192,192,160219,1,0,0:0:0:0:
320,192,160287,1,0,0:0:0:0:
64,192,160354,1,0,0:0:0:0:
448,192,160354,1,0,0:0:0:0:
320,192,160422,1,0,0:0:0:0:
448,192,160489,1,0,0:0:0:0:
64,192,160557,1,0,0:0:0:0:
192,192,160624,1,12,0:0:0:0:
320,192,160624,1,0,0:0:0:0:
448,192,160624,1,0,0:0:0:0:
64,192,160692,1,0,0:0:0:0:
192,192,160759,1,4,0:0:0:0:
448,192,160759,1,0,0:0:0:0:
320,192,160827,1,0,0:0:0:0:
64,192,160894,1,0,0:0:0:0:
448,192,160962,1,0,0:0:0:0:
64,192,161029,1,4,0:0:0:0:
192,192,161029,1,0,0:0:0:0:
448,192,161097,1,0,0:0:0:0:
64,192,161164,1,12,0:0:0:0:
192,192,161164,1,0,0:0:0:0:
320,192,161164,1,0,0:0:0:0:
448,192,161232,1,0,0:0:0:0:
64,192,161299,1,0,0:0:0:0:
192,192,161299,1,0,0:0:0:0:
448,192,161367,1,0,0:0:0:0:
192,192,161434,1,4,0:0:0:0:
320,192,161434,1,0,0:0:0:0:
64,192,161502,1,0,0:0:0:0:
320,192,161569,1,4,0:0:0:0:
448,192,161569,1,0,0:0:0:0:
64,192,161637,1,0,0:0:0:0:
192,192,161704,1,12,0:0:0:0:
320,192,161704,1,0,0:0:0:0:
448,192,161772,1,0,0:0:0:0:
64,192,161839,1,0,0:0:0:0:
192,192,161839,1,0,0:0:0:0:
320,192,161907,1,0,0:0:0:0:
448,192,161907,1,0,0:0:0:0:
64,192,161974,1,4,0:0:0:0:
192,192,161974,1,0,0:0:0:0:
448,192,162042,1,0,0:0:0:0:
192,192,162109,1,0,0:0:0:0:
320,192,162109,1,0,0:0:0:0:
64,192,162177,1,0,0:0:0:0:
320,192,162244,1,8,0:0:0:0:
448,192,162244,1,0,0:0:0:0:
64,192,162312,1,0,0:0:0:0:
320,192,162379,1,0,0:0:0:0:
448,192,162379,1,0,0:0:0:0:
64,192,162447,1,0,0:0:0:0:
192,192,162447,1,0,0:0:0:0:
320,192,162514,1,4,0:0:0:0:
448,192,162514,1,0,0:0:0:0:
64,192,162582,1,0,0:0:0:0:
192,192,162649,1,0,0:0:0:0:
320,192,162649,1,0,0:0:0:0:
448,192,162717,1,0,0:0:0:0:
64,192,162784,1,8,0:0:0:0:
192,192,162784,1,0,0:0:0:0:
320,192,162852,1,0,0:0:0:0:
64,192,162919,1,0,0:0:0:0:
192,192,162919,1,0,0:0:0:0:
320,192,162987,1,0,0:0:0:0:
448,192,162987,1,0,0:0:0:0:
64,192,163054,1,4,0:0:0:0:
192,192,163054,1,0,0:0:0:0:
320,192,163122,1,0,0:0:0:0:
192,192,163189,1,0,0:0:0:0:
448,192,163189,1,0,0:0:0:0:
64,192,163257,1,0,0:0:0:0:
320,192,163257,1,0,0:0:0:0:
192,192,163324,1,12,0:0:0:0:
448,192,163324,1,0,0:0:0:0:
320,192,163392,1,0,0:0:0:0:
64,192,163459,1,0,0:0:0:0:
192,192,163459,1,0,0:0:0:0:
320,192,163527,1,0,0:0:0:0:
448,192,163527,1,0,0:0:0:0:
64,192,163594,1,4,0:0:0:0:
192,192,163594,1,0,0:0:0:0:
320,192,163662,1,0,0:0:0:0:
64,192,163729,1,0,0:0:0:0:
192,192,163763,1,0,0:0:0:0:
448,192,163797,1,0,0:0:0:0:
320,192,163831,1,0,0:0:0:0:
64,192,163864,1,12,0:0:0:0:
192,192,163864,1,0,0:0:0:0:
320,192,163932,1,0,0:0:0:0:
448,192,163932,1,0,0:0:0:0:
64,192,163999,1,0,0:0:0:0:
192,192,163999,1,0,0:0:0:0:
320,192,164067,1,0,0:0:0:0:
448,192,164067,1,0,0:0:0:0:
64,192,164134,1,6,0:0:0:0:
192,192,164134,1,0,0:0:0:0:
320,192,164202,1,0,0:0:0:0:
64,192,164269,1,0,0:0:0:0:
192,192,164337,1,0,0:0:0:0:
320,192,164404,1,10,0:0:0:0:
448,192,164404,1,0,0:0:0:0:
64,192,164472,1,0,0:0:0:0:
192,192,164539,1,0,0:0:0:0:
320,192,164607,1,0,0:0:0:0:
192,192,164674,1,2,0:0:0:0:
448,192,164674,1,0,0:0:0:0:
64,192,164742,1,0,0:0:0:0:
192,192,164809,1,0,0:0:0:0:
320,192,164877,1,0,0:0:0:0:
64,192,164944,1,10,0:0:0:0:
448,192,164944,1,0,0:0:0:0:
320,192,165012,1,0,0:0:0:0:
64,192,165079,1,2,0:0:0:0:
192,192,165079,1,0,0:0:0:0:
320,192,165147,1,2,0:0:0:0:
448,192,165147,1,0,0:0:0:0:
192,192,165214,1,0,0:0:0:0:
64,192,165282,1,2,0:0:0:0:
448,192,165282,1,0,0:0:0:0:
320,192,165349,1,0,0:0:0:0:
192,192,165417,1,0,0:0:0:0:
64,192,165484,1,10,0:0:0:0:
320,192,165484,1,0,0:0:0:0:
448,192,165484,1,0,0:0:0:0:
192,192,165552,1,0,0:0:0:0:
320,192,165619,1,0,0:0:0:0:
64,192,165687,1,2,0:0:0:0:
192,192,165687,1,0,0:0:0:0:
448,192,165687,1,0,0:0:0:0:
320,192,165754,1,0,0:0:0:0:
64,192,165822,1,0,0:0:0:0:
192,192,165889,1,2,0:0:0:0:
320,192,165889,1,0,0:0:0:0:
448,192,165889,1,0,0:0:0:0:
64,192,165957,1,0,0:0:0:0:
448,192,166024,1,8,0:0:0:0:
64,192,166092,1,2,0:0:0:0:
192,192,166092,1,0,0:0:0:0:
320,192,166092,1,0,0:0:0:0:
448,192,166159,1,0,0:0:0:0:
192,192,166227,1,0,0:0:0:0:
64,192,166294,1,2,0:0:0:0:
448,192,166294,1,0,0:0:0:0:
320,192,166362,1,0,0:0:0:0:
192,192,166429,1,0,0:0:0:0:
320,192,166497,1,0,0:0:0:0:
192,192,166564,1,10,0:0:0:0:
448,192,166564,1,0,0:0:0:0:
320,192,166632,1,0,0:0:0:0:
64,192,166699,1,0,0:0:0:0:
448,192,166767,1,0,0:0:0:0:
64,192,166834,1,2,0:0:0:0:
192,192,166834,1,0,0:0:0:0:
448,192,166902,1,0,0:0:0:0:
192,192,166969,1,0,0:0:0:0:
320,192,167037,1,0,0:0:0:0:
64,192,167104,1,10,0:0:0:0:
192,192,167104,1,0,0:0:0:0:
448,192,167172,1,0,0:0:0:0:
64,192,167239,1,2,0:0:0:0:
320,192,167239,1,0,0:0:0:0:
192,192,167307,1,2,0:0:0:0:
448,192,167307,1,0,0:0:0:0:
320,192,167374,1,0,0:0:0:0:
192,192,167442,1,0,0:0:0:0:
64,192,167509,1,0,0:0:0:0:
320,192,167509,1,0,0:0:0:0:
448,192,167509,1,0,0:0:0:0:
192,192,167577,1,0,0:0:0:0:
64,192,167644,1,10,0:0:0:0:
448,192,167644,1,0,0:0:0:0:
320,192,167712,1,0,0:0:0:0:
192,192,167779,1,0,0:0:0:0:
320,192,167847,1,0,0:0:0:0:
64,192,167914,1,2,0:0:0:0:
192,192,167914,1,0,0:0:0:0:
448,192,167914,1,0,0:0:0:0:
320,192,167982,1,0,0:0:0:0:
64,192,168049,1,0,0:0:0:0:
192,192,168117,1,2,0:0:0:0:
320,192,168117,1,0,0:0:0:0:
448,192,168117,1,0,0:0:0:0:
64,192,168184,1,8,0:0:0:0:
320,192,168252,1,0,0:0:0:0:
64,192,168319,1,2,0:0:0:0:
192,192,168319,1,0,0:0:0:0:
448,192,168319,1,0,0:0:0:0:
320,192,168387,1,0,0:0:0:0:
64,192,168454,1,2,0:0:0:0:
192,192,168454,1,0,0:0:0:0:
448,192,168522,1,0,0:0:0:0:
320,192,168589,1,0,0:0:0:0:
192,192,168657,1,0,0:0:0:0:
64,192,168724,1,8,0:0:0:0:
320,192,168792,1,0,0:0:0:0:
64,192,168859,1,2,0:0:0:0:
192,192,168859,1,0,0:0:0:0:
448,192,168859,1,0,0:0:0:0:
320,192,168927,1,0,0:0:0:0:
64,192,168994,1,0,0:0:0:0:
192,192,168994,1,0,0:0:0:0:
448,192,169062,1,0,0:0:0:0:
320,192,169129,1,0,0:0:0:0:
192,192,169197,1,0,0:0:0:0:
64,192,169264,1,10,0:0:0:0:
448,192,169264,1,0,0:0:0:0:
192,192,169332,1,0,0:0:0:0:
320,192,169399,1,0,0:0:0:0:
448,192,169467,1,0,0:0:0:0:
64,192,169534,1,2,0:0:0:0:
320,192,169534,1,0,0:0:0:0:
192,192,169602,1,0,0:0:0:0:
64,192,169669,1,0,0:0:0:0:
192,192,169737,1,0,0:0:0:0:
320,192,169804,1,10,0:0:0:0:
448,192,169804,1,0,0:0:0:0:
192,192,169872,1,0,0:0:0:0:
64,192,169939,1,0,0:0:0:0:
192,192,170007,1,0,0:0:0:0:
320,192,170074,1,2,0:0:0:0:
448,192,170074,1,0,0:0:0:0:
64,192,170142,1,0,0:0:0:0:
192,192,170209,1,0,0:0:0:0:
320,192,170277,1,0,0:0:0:0:
64,192,170344,1,10,0:0:0:0:
448,192,170344,1,0,0:0:0:0:
320,192,170412,1,0,0:0:0:0:
64,192,170479,1,2,0:0:0:0:
192,192,170479,1,0,0:0:0:0:
320,192,170547,1,0,0:0:0:0:
64,192,170614,1,2,0:0:0:0:
448,192,170614,1,0,0:0:0:0:
320,192,170682,1,0,0:0:0:0:
192,192,170749,1,0,0:0:0:0:
64,192,170817,1,0,0:0:0:0:
192,192,170884,1,10,0:0:0:0:
320,192,170884,1,0,0:0:0:0:
448,192,170884,1,0,0:0:0:0:
64,192,170952,1,0,0:0:0:0:
448,192,171019,1,0,0:0:0:0:
320,192,171087,1,0,0:0:0:0:
64,192,171154,1,2,0:0:0:0:
192,192,171154,1,0,0:0:0:0:
448,192,171154,1,0,0:0:0:0:
320,192,171222,1,0,0:0:0:0:
192,192,171289,1,0,0:0:0:0:
64,192,171357,1,2,0:0:0:0:
320,192,171357,1,0,0:0:0:0:
448,192,171357,1,0,0:0:0:0:
192,192,171424,1,8,0:0:0:0:
320,192,171492,1,0,0:0:0:0:
64,192,171559,1,2,0:0:0:0:
192,192,171559,1,0,0:0:0:0:
320,192,171627,1,0,0:0:0:0:
448,192,171627,1,0,0:0:0:0:
64,192,171694,1,0,0:0:0:0:
192,192,171694,1,0,0:0:0:0:
320,192,171762,1,2,0:0:0:0:
448,192,171762,1,0,0:0:0:0:
64,192,171829,1,0,0:0:0:0:
192,192,171897,1,0,0:0:0:0:
64,192,171964,1,14,0:0:0:0:
320,192,171964,1,0,0:0:0:0:
448,192,171964,1,0,0:0:0:0:
192,192,172032,1,0,0:0:0:0:
320,192,172099,1,0,0:0:0:0:
448,192,172099,1,0,0:0:0:0:
64,192,172167,1,2,0:0:0:0:
192,192,172167,1,0,0:0:0:0:
320,192,172234,1,4,0:0:0:0:
64,192,172302,1,0,0:0:0:0:
192,192,172302,1,0,0:0:0:0:
320,192,172369,1,2,0:0:0:0:
448,192,172369,1,0,0:0:0:0:
64,192,172437,1,4,0:0:0:0:
192,192,172437,1,0,0:0:0:0:
320,192,172504,1,10,0:0:0:0:
448,192,172504,1,0,0:0:0:0:
64,192,172572,1,0,0:0:0:0:
192,192,172572,1,0,0:0:0:0:
320,192,172639,1,4,0:0:0:0:
448,192,172639,1,0,0:0:0:0:
64,192,172707,1,0,0:0:0:0:
192,192,172707,1,0,0:0:0:0:
320,192,172774,1,6,0:0:0:0:
448,192,172774,1,0,0:0:0:0:
192,192,172842,1,0,0:0:0:0:
64,192,172909,1,0,0:0:0:0:
320,192,172977,1,0,0:0:0:0:
64,192,173044,1,10,0:0:0:0:
448,192,173044,1,0,0:0:0:0:
192,192,173112,1,0,0:0:0:0:
320,192,173179,1,0,0:0:0:0:
192,192,173247,1,0,0:0:0:0:
320,192,173314,1,2,0:0:0:0:
448,192,173314,1,0,0:0:0:0:
64,192,173382,1,0,0:0:0:0:
192,192,173449,1,0,0:0:0:0:
320,192,173517,1,0,0:0:0:0:
64,192,173584,1,10,0:0:0:0:
192,192,173584,1,0,0:0:0:0:
320,192,173652,1,0,0:0:0:0:
64,192,173719,1,2,0:0:0:0:
192,192,173719,1,0,0:0:0:0:
448,192,173719,1,0,0:0:0:0:
320,192,173787,1,0,0:0:0:0:
192,192,173854,1,0,0:0:0:0:
320,192,173922,1,0,0:0:0:0:
64,192,173989,1,0,0:0:0:0:
192,192,174057,1,0,0:0:0:0:
320,192,174124,1,10,0:0:0:0:
448,192,174124,1,0,0:0:0:0:
192,192,174192,1,0,0:0:0:0:
64,192,174259,1,0,0:0:0:0:
192,192,174327,1,0,0:0:0:0:
320,192,174394,1,2,0:0:0:0:
448,192,174394,1,0,0:0:0:0:
64,192,174462,1,0,0:0:0:0:
192,192,174529,1,0,0:0:0:0:
320,192,174597,1,0,0:0:0:0:
64,192,174664,1,10,0:0:0:0:
448,192,174664,1,0,0:0:0:0:
320,192,174732,1,0,0:0:0:0:
64,192,174799,1,0,0:0:0:0:
192,192,174799,1,0,0:0:0:0:
320,192,174867,1,0,0:0:0:0:
64,192,174934,1,2,0:0:0:0:
448,192,174934,1,0,0:0:0:0:
192,192,175002,1,0,0:0:0:0:
320,192,175069,1,0,0:0:0:0:
192,192,175137,1,0,0:0:0:0:
64,192,175204,1,10,0:0:0:0:
448,192,175204,1,0,0:0:0:0:
320,192,175272,1,0,0:0:0:0:
192,192,175339,1,0,0:0:0:0:
320,192,175407,1,0,0:0:0:0:
192,192,175474,1,2,0:0:0:0:
448,192,175474,1,0,0:0:0:0:
64,192,175542,1,0,0:0:0:0:
192,192,175609,1,0,0:0:0:0:
320,192,175677,1,0,0:0:0:0:
64,192,175744,1,10,0:0:0:0:
448,192,175744,1,0,0:0:0:0:
192,192,175812,1,0,0:0:0:0:
64,192,175879,1,2,0:0:0:0:
320,192,175879,1,0,0:0:0:0:
448,192,175879,1,0,0:0:0:0:
192,192,175947,1,0,0:0:0:0:
320,192,176014,1,0,0:0:0:0:
64,192,176082,1,0,0:0:0:0:
192,192,176149,1,2,0:0:0:0:
448,192,176149,1,0,0:0:0:0:
320,192,176217,1,0,0:0:0:0:
64,192,176284,1,10,0:0:0:0:
192,192,176284,1,0,0:0:0:0:
320,192,176352,1,0,0:0:0:0:
64,192,176419,1,0,0:0:0:0:
448,192,176419,1,0,0:0:0:0:
192,192,176487,1,0,0:0:0:0:
320,192,176554,1,2,0:0:0:0:
448,192,176554,1,0,0:0:0:0:
64,192,176622,1,0,0:0:0:0:
320,192,176689,1,2,0:0:0:0:
448,192,176689,1,0,0:0:0:0:
64,192,176757,1,0,0:0:0:0:
192,192,176824,1,10,0:0:0:0:
320,192,176824,1,0,0:0:0:0:
448,192,176824,1,0,0:0:0:0:
64,192,176892,1,0,0:0:0:0:
320,192,176959,1,0,0:0:0:0:
448,192,176959,1,0,0:0:0:0:
192,192,177027,1,0,0:0:0:0:
64,192,177094,1,2,0:0:0:0:
320,192,177094,1,0,0:0:0:0:
448,192,177094,1,0,0:0:0:0:
192,192,177162,1,0,0:0:0:0:
64,192,177229,1,0,0:0:0:0:
448,192,177297,1,0,0:0:0:0:
64,192,177364,1,8,0:0:0:0:
192,192,177432,1,0,0:0:0:0:
64,192,177499,1,2,0:0:0:0:
320,192,177499,1,0,0:0:0:0:
448,192,177499,1,0,0:0:0:0:
192,192,177567,1,0,0:0:0:0:
448,192,177634,1,0,0:0:0:0:
64,192,177702,1,0,0:0:0:0:
448,192,177769,1,0,0:0:0:0:
320,192,177837,1,0,0:0:0:0:
64,192,177904,1,10,0:0:0:0:
192,192,177904,1,0,0:0:0:0:
448,192,177904,1,0,0:0:0:0:
320,192,177972,1,0,0:0:0:0:
64,192,178039,1,0,0:0:0:0:
448,192,178107,1,0,0:0:0:0:
64,192,178174,1,0,0:0:0:0:
192,192,178242,1,0,0:0:0:0:
64,192,178309,1,2,0:0:0:0:
320,192,178309,1,0,0:0:0:0:
448,192,178309,1,0,0:0:0:0:
192,192,178377,1,0,0:0:0:0:
64,192,178444,1,10,0:0:0:0:
320,192,178444,1,0,0:0:0:0:
448,192,178444,1,0,0:0:0:0:
192,192,178512,1,0,0:0:0:0:
448,192,178579,1,0,0:0:0:0:
320,192,178647,1,0,0:0:0:0:
64,192,178714,1,2,0:0:0:0:
192,192,178714,1,0,0:0:0:0:
448,192,178714,1,0,0:0:0:0:
320,192,178782,1,0,0:0:0:0:
192,192,178849,1,0,0:0:0:0:
64,192,178917,1,0,0:0:0:0:
192,192,178984,1,10,0:0:0:0:
320,192,178984,1,0,0:0:0:0:
448,192,178984,1,0,0:0:0:0:
64,192,179052,1,0,0:0:0:0:
320,192,179119,1,0,0:0:0:0:
448,192,179119,1,0,0:0:0:0:
192,192,179187,1,0,0:0:0:0:
64,192,179254,1,2,0:0:0:0:
320,192,179254,1,0,0:0:0:0:
448,192,179254,1,0,0:0:0:0:
192,192,179322,1,0,0:0:0:0:
64,192,179389,1,0,0:0:0:0:
320,192,179389,1,0,0:0:0:0:
192,192,179457,1,0,0:0:0:0:
448,192,179457,1,0,0:0:0:0:
64,192,179524,1,8,0:0:0:0:
320,192,179524,1,0,0:0:0:0:
192,192,179592,1,0,0:0:0:0:
320,192,179659,1,0,0:0:0:0:
448,192,179659,1,0,0:0:0:0:
64,192,179727,1,0,0:0:0:0:
192,192,179727,1,0,0:0:0:0:
320,192,179794,1,2,0:0:0:0:
448,192,179794,1,0,0:0:0:0:
64,192,179862,1,0,0:0:0:0:
192,192,179929,1,0,0:0:0:0:
448,192,179929,1,0,0:0:0:0:
64,192,179997,1,0,0:0:0:0:
320,192,179997,1,0,0:0:0:0:
192,192,180064,1,8,0:0:0:0:
448,192,180064,1,0,0:0:0:0:
64,192,180132,1,0,0:0:0:0:
320,192,180199,1,0,0:0:0:0:
448,192,180199,1,0,0:0:0:0:
64,192,180267,1,0,0:0:0:0:
192,192,180267,1,0,0:0:0:0:
320,192,180334,1,6,0:0:0:0:
448,192,180334,1,0,0:0:0:0:
192,192,180402,1,0,0:0:0:0:
64,192,180469,1,0,0:0:0:0:
448,192,180469,1,0,0:0:0:0:
192,192,180537,1,0,0:0:0:0:
320,192,180537,1,0,0:0:0:0:
64,192,180604,1,14,0:0:0:0:
448,192,180604,1,0,0:0:0:0:
320,192,180672,1,0,0:0:0:0:
64,192,180739,1,0,0:0:0:0:
192,192,180739,1,0,0:0:0:0:
320,192,180807,1,0,0:0:0:0:
448,192,180807,1,0,0:0:0:0:
64,192,180874,1,6,0:0:0:0:
192,192,180874,1,0,0:0:0:0:
320,192,180942,1,0,0:0:0:0:
448,192,180942,1,0,0:0:0:0:
64,192,181009,1,0,0:0:0:0:
192,192,181043,1,0,0:0:0:0:
448,192,181077,1,0,0:0:0:0:
320,192,181111,1,0,0:0:0:0:
64,192,181144,1,14,0:0:0:0:
192,192,181144,1,0,0:0:0:0:
320,192,181212,1,0,0:0:0:0:
448,192,181212,1,0,0:0:0:0:
64,192,181279,1,0,0:0:0:0:
192,192,181279,1,0,0:0:0:0:
320,192,181347,1,0,0:0:0:0:
448,192,181347,1,0,0:0:0:0:
64,192,181414,1,6,0:0:0:0:
192,192,181414,1,0,0:0:0:0:
320,192,181482,1,0,0:0:0:0:
448,192,181549,1,0,0:0:0:0:
64,192,181617,1,0,0:0:0:0:
192,192,181617,1,0,0:0:0:0:
320,192,181684,1,10,0:0:0:0:
448,192,181684,1,0,0:0:0:0:
64,192,181752,1,0,0:0:0:0:
192,192,181819,1,2,0:0:0:0:
320,192,181887,1,0,0:0:0:0:
64,192,181954,1,0,0:0:0:0:
448,192,181954,1,0,0:0:0:0:
192,192,182022,1,0,0:0:0:0:
64,192,182089,1,2,0:0:0:0:
320,192,182089,1,0,0:0:0:0:
448,192,182089,1,0,0:0:0:0:
192,192,182157,1,0,0:0:0:0:
320,192,182224,1,10,0:0:0:0:
448,192,182292,1,0,0:0:0:0:
64,192,182359,1,2,0:0:0:0:
192,192,182359,1,0,0:0:0:0:
320,192,182359,1,0,0:0:0:0:
448,192,182427,1,0,0:0:0:0:
64,192,182494,1,2,0:0:0:0:
192,192,182494,1,0,0:0:0:0:
320,192,182562,1,0,0:0:0:0:
64,192,182629,1,0,0:0:0:0:
192,192,182697,1,0,0:0:0:0:
320,192,182764,1,10,0:0:0:0:
448,192,182764,1,0,0:0:0:0:
64,192,182832,1,0,0:0:0:0:
192,192,182899,1,0,0:0:0:0:
320,192,182967,1,0,0:0:0:0:
64,192,183034,1,2,0:0:0:0:
192,192,183034,1,0,0:0:0:0:
448,192,183034,1,0,0:0:0:0:
320,192,183102,1,0,0:0:0:0:
192,192,183169,1,0,0:0:0:0:
64,192,183237,1,0,0:0:0:0:
320,192,183304,1,10,0:0:0:0:
448,192,183304,1,0,0:0:0:0:
64,192,183372,1,0,0:0:0:0:
192,192,183439,1,0,0:0:0:0:
320,192,183439,1,0,0:0:0:0:
448,192,183507,1,0,0:0:0:0:
64,192,183574,1,2,0:0:0:0:
320,192,183574,1,0,0:0:0:0:
192,192,183642,1,0,0:0:0:0:
64,192,183709,1,0,0:0:0:0:
320,192,183777,1,0,0:0:0:0:
64,192,183844,1,10,0:0:0:0:
448,192,183844,1,0,0:0:0:0:
320,192,183912,1,0,0:0:0:0:
192,192,183979,1,2,0:0:0:0:
64,192,184047,1,0,0:0:0:0:
320,192,184114,1,0,0:0:0:0:
448,192,184114,1,0,0:0:0:0:
192,192,184182,1,0,0:0:0:0:
64,192,184249,1,2,0:0:0:0:
320,192,184249,1,0,0:0:0:0:
448,192,184249,1,0,0:0:0:0:
192,192,184317,1,0,0:0:0:0:
320,192,184384,1,10,0:0:0:0:
64,192,184452,1,0,0:0:0:0:
192,192,184519,1,2,0:0:0:0:
320,192,184519,1,0,0:0:0:0:
448,192,184519,1,0,0:0:0:0:
64,192,184587,1,0,0:0:0:0:
320,192,184654,1,2,0:0:0:0:
448,192,184654,1,0,0:0:0:0:
64,192,184722,1,0,0:0:0:0:
192,192,184790,1,0,0:0:0:0:
320,192,184857,1,0,0:0:0:0:
64,192,184924,1,10,0:0:0:0:
448,192,184924,1,0,0:0:0:0:
192,192,184992,1,0,0:0:0:0:
320,192,185060,1,0,0:0:0:0:
448,192,185127,1,0,0:0:0:0:
64,192,185195,1,2,0:0:0:0:
192,192,185195,1,0,0:0:0:0:
320,192,185195,1,0,0:0:0:0:
448,192,185262,1,0,0:0:0:0:
320,192,185330,1,0,0:0:0:0:
192,192,185397,1,0,0:0:0:0:
64,192,185465,1,10,0:0:0:0:
448,192,185465,1,0,0:0:0:0:
192,192,185532,1,0,0:0:0:0:
320,192,185600,1,0,0:0:0:0:
448,192,185600,1,0,0:0:0:0:
192,192,185667,1,0,0:0:0:0:
320,192,185735,1,2,0:0:0:0:
448,192,185735,1,0,0:0:0:0:
64,192,185802,1,0,0:0:0:0:
192,192,185870,1,0,0:0:0:0:
320,192,185937,1,0,0:0:0:0:
64,192,186005,1,10,0:0:0:0:
448,192,186005,1,0,0:0:0:0:
192,192,186072,1,0,0:0:0:0:
320,192,186140,1,0,0:0:0:0:
64,192,186207,1,2,0:0:0:0:
192,192,186207,1,0,0:0:0:0:
320,192,186275,1,2,0:0:0:0:
448,192,186275,1,0,0:0:0:0:
64,192,186342,1,0,0:0:0:0:
192,192,186410,1,0,0:0:0:0:
320,192,186477,1,2,0:0:0:0:
448,192,186477,1,0,0:0:0:0:
192,192,186545,1,8,0:0:0:0:
64,192,186612,1,0,0:0:0:0:
320,192,186612,1,0,0:0:0:0:
192,192,186680,1,2,0:0:0:0:
448,192,186680,1,0,0:0:0:0:
320,192,186747,1,0,0:0:0:0:
64,192,186815,1,0,0:0:0:0:
192,192,186815,1,0,0:0:0:0:
320,192,186882,1,2,0:0:0:0:
448,192,186882,1,0,0:0:0:0:
64,192,186950,1,0,0:0:0:0:
192,192,187017,1,0,0:0:0:0:
320,192,187085,1,10,0:0:0:0:
448,192,187085,1,0,0:0:0:0:
64,192,187152,1,0,0:0:0:0:
192,192,187220,1,0,0:0:0:0:
320,192,187287,1,2,0:0:0:0:
448,192,187287,1,0,0:0:0:0:
192,192,187355,1,0,0:0:0:0:
320,192,187422,1,0,0:0:0:0:
64,192,187490,1,2,0:0:0:0:
448,192,187490,1,0,0:0:0:0:
192,192,187557,1,0,0:0:0:0:
320,192,187625,1,10,0:0:0:0:
448,192,187625,1,0,0:0:0:0:
64,192,187692,1,0,0:0:0:0:
192,192,187760,1,0,0:0:0:0:
320,192,187827,1,0,0:0:0:0:
64,192,187895,1,2,0:0:0:0:
448,192,187895,1,0,0:0:0:0:
320,192,187962,1,0,0:0:0:0:
192,192,188030,1,0,0:0:0:0:
64,192,188097,1,0,0:0:0:0:
192,192,188165,1,10,0:0:0:0:
448,192,188165,1,0,0:0:0:0:
320,192,188232,1,0,0:0:0:0:
192,192,188300,1,0,0:0:0:0:
64,192,188367,1,0,0:0:0:0:
320,192,188435,1,2,0:0:0:0:
448,192,188435,1,0,0:0:0:0:
192,192,188502,1,0,0:0:0:0:
320,192,188570,1,0,0:0:0:0:
64,192,188637,1,0,0:0:0:0:
320,192,188705,1,10,0:0:0:0:
448,192,188705,1,0,0:0:0:0:
192,192,188772,1,0,0:0:0:0:
320,192,188840,1,0,0:0:0:0:
448,192,188840,1,0,0:0:0:0:
64,192,188907,1,0,0:0:0:0:
192,192,188907,1,0,0:0:0:0:
320,192,188975,1,2,0:0:0:0:
448,192,188975,1,0,0:0:0:0:
64,192,189042,1,0,0:0:0:0:
192,192,189110,1,0,0:0:0:0:
320,192,189110,1,0,0:0:0:0:
448,192,189177,1,0,0:0:0:0:
64,192,189245,1,14,0:0:0:0:
192,192,189245,1,0,0:0:0:0:
320,192,189312,1,0,0:0:0:0:
64,192,189380,1,0,0:0:0:0:
448,192,189380,1,0,0:0:0:0:
192,192,189447,1,0,0:0:0:0:
320,192,189447,1,0,0:0:0:0:
64,192,189515,1,6,0:0:0:0:
448,192,189515,1,0,0:0:0:0:
192,192,189582,1,0,0:0:0:0:
320,192,189650,1,0,0:0:0:0:
448,192,189683,1,0,0:0:0:0:
64,192,189717,1,0,0:0:0:0:
192,192,189751,1,0,0:0:0:0:
320,192,189785,1,14,0:0:0:0:
448,192,189785,1,0,0:0:0:0:
64,192,189852,1,0,0:0:0:0:
192,192,189852,1,0,0:0:0:0:
320,192,189920,1,0,0:0:0:0:
448,192,189920,1,0,0:0:0:0:
64,192,189987,1,0,0:0:0:0:
192,192,189987,1,0,0:0:0:0:
320,192,190054,1,6,0:0:0:0:
448,192,190055,1,0,0:0:0:0:
64,192,190122,1,0,0:0:0:0:
192,192,190190,1,0,0:0:0:0:
320,192,190257,1,0,0:0:0:0:
64,192,190325,1,10,0:0:0:0:
448,192,190325,1,0,0:0:0:0:
320,192,190392,1,0,0:0:0:0:
64,192,190460,1,0,0:0:0:0:
192,192,190527,1,0,0:0:0:0:
320,192,190595,1,2,0:0:0:0:
448,192,190595,1,0,0:0:0:0:
192,192,190662,1,0,0:0:0:0:
64,192,190730,1,0,0:0:0:0:
320,192,190797,1,0,0:0:0:0:
64,192,190865,1,10,0:0:0:0:
448,192,190865,1,0,0:0:0:0:
320,192,190932,1,0,0:0:0:0:
192,192,191000,1,0,0:0:0:0:
320,192,191067,1,0,0:0:0:0:
64,192,191135,1,2,0:0:0:0:
448,192,191135,1,0,0:0:0:0:
192,192,191202,1,0,0:0:0:0:
320,192,191270,1,0,0:0:0:0:
192,192,191337,1,0,0:0:0:0:
64,192,191405,1,10,0:0:0:0:
448,192,191405,1,0,0:0:0:0:
192,192,191472,1,0,0:0:0:0:
320,192,191540,1,0,0:0:0:0:
192,192,191607,1,0,0:0:0:0:
64,192,191675,1,2,0:0:0:0:
448,192,191675,1,0,0:0:0:0:
320,192,191742,1,0,0:0:0:0:
192,192,191810,1,0,0:0:0:0:
320,192,191877,1,0,0:0:0:0:
64,192,191945,1,10,0:0:0:0:
448,192,191945,1,0,0:0:0:0:
192,192,192012,1,0,0:0:0:0:
64,192,192080,1,2,0:0:0:0:
320,192,192080,1,0,0:0:0:0:
192,192,192147,1,0,0:0:0:0:
64,192,192215,1,2,0:0:0:0:
448,192,192215,1,0,0:0:0:0:
320,192,192282,1,0,0:0:0:0:
64,192,192350,1,2,0:0:0:0:
192,192,192350,1,0,0:0:0:0:
320,192,192417,1,0,0:0:0:0:
192,192,192485,1,10,0:0:0:0:
448,192,192485,1,0,0:0:0:0:
64,192,192552,1,0,0:0:0:0:
448,192,192620,1,0,0:0:0:0:
320,192,192687,1,0,0:0:0:0:
64,192,192755,1,2,0:0:0:0:
192,192,192755,1,0,0:0:0:0:
320,192,192822,1,0,0:0:0:0:
64,192,192890,1,0,0:0:0:0:
192,192,192957,1,2,0:0:0:0:
448,192,192957,1,0,0:0:0:0:
64,192,193025,1,8,0:0:0:0:
320,192,193025,1,0,0:0:0:0:
448,192,193092,1,0,0:0:0:0:
192,192,193160,1,2,0:0:0:0:
320,192,193227,1,0,0:0:0:0:
64,192,193295,1,2,0:0:0:0:
448,192,193295,1,0,0:0:0:0:
320,192,193362,1,0,0:0:0:0:
192,192,193430,1,0,0:0:0:0:
64,192,193497,1,0,0:0:0:0:
192,192,193565,1,10,0:0:0:0:
448,192,193565,1,0,0:0:0:0:
320,192,193632,1,0,0:0:0:0:
192,192,193700,1,0,0:0:0:0:
64,192,193767,1,0,0:0:0:0:
320,192,193835,1,2,0:0:0:0:
448,192,193835,1,0,0:0:0:0:
192,192,193902,1,0,0:0:0:0:
320,192,193970,1,0,0:0:0:0:
64,192,194037,1,0,0:0:0:0:
320,192,194105,1,10,0:0:0:0:
448,192,194105,1,0,0:0:0:0:
192,192,194172,1,0,0:0:0:0:
320,192,194240,1,0,0:0:0:0:
448,192,194240,1,0,0:0:0:0:
64,192,194307,1,0,0:0:0:0:
192,192,194375,1,2,0:0:0:0:
448,192,194375,1,0,0:0:0:0:
64,192,194442,1,0,0:0:0:0:
320,192,194510,1,0,0:0:0:0:
448,192,194577,1,0,0:0:0:0:
320,192,194645,1,2,0:0:0:0:
64,192,194712,1,0,0:0:0:0:
448,192,194780,1,2,0:0:0:0:
192,192,194847,1,0,0:0:0:0:
320,192,194915,1,0,0:0:0:0:
448,192,194982,1,0,0:0:0:0:
320,192,195050,1,2,0:0:0:0:
192,192,195117,1,0,0:0:0:0:
64,192,195185,1,2,0:0:0:0:
320,192,195252,1,0,0:0:0:0:
64,192,195320,1,2,0:0:0:0:
192,192,195387,1,0,0:0:0:0:
320,192,195455,1,6,0:0:0:0:
448,192,195455,1,0,0:0:0:0:
192,192,195522,1,0,0:0:0:0:
320,192,195590,1,0,0:0:0:0:
448,192,195657,1,0,0:0:0:0:
192,192,195725,1,0,0:0:0:0:
448,192,195792,1,0,0:0:0:0:
64,192,195860,1,0,0:0:0:0:
192,192,195927,1,0,0:0:0:0:
320,192,195995,1,4,0:0:0:0:
448,192,195995,1,0,0:0:0:0:
64,192,196062,1,0,0:0:0:0:
192,192,196130,1,0,0:0:0:0:
320,192,196197,1,0,0:0:0:0:
64,192,196265,1,0,0:0:0:0:
448,192,196298,1,0,0:0:0:0:
192,192,196332,1,0,0:0:0:0:
320,192,196366,1,0,0:0:0:0:
64,192,196400,1,0,0:0:0:0:
448,192,196433,1,0,0:0:0:0:
192,192,196467,1,0,0:0:0:0:
320,192,196501,1,0,0:0:0:0:
64,192,196535,1,4,0:0:0:0:
448,192,196535,1,0,0:0:0:0:
192,192,196602,1,0,0:0:0:0:
320,192,196670,1,0,0:0:0:0:
448,192,196670,1,0,0:0:0:0:
192,192,196737,1,0,0:0:0:0:
64,192,196805,1,0,0:0:0:0:
448,192,196805,1,0,0:0:0:0:
320,192,196872,1,0,0:0:0:0:
64,192,196940,1,0,0:0:0:0:
192,192,196940,1,0,0:0:0:0:
320,192,197007,1,0,0:0:0:0:
64,192,197075,1,4,0:0:0:0:
192,192,197075,1,0,0:0:0:0:
448,192,197075,1,0,0:0:0:0:
320,192,197142,1,0,0:0:0:0:
64,192,197210,1,0,0:0:0:0:
192,192,197210,1,0,0:0:0:0:
320,192,197277,1,0,0:0:0:0:
64,192,197345,1,0,0:0:0:0:
448,192,197345,1,0,0:0:0:0:
192,192,197412,1,0,0:0:0:0:
320,192,197480,1,0,0:0:0:0:
448,192,197480,1,0,0:0:0:0:
64,192,197547,1,0,0:0:0:0:
192,192,197547,1,0,0:0:0:0:
320,192,197615,1,4,0:0:0:0:
448,192,197615,1,0,0:0:0:0:
192,192,197682,1,0,0:0:0:0:
320,192,197750,1,0,0:0:0:0:
448,192,197750,1,0,0:0:0:0:
192,192,197817,1,0,0:0:0:0:
64,192,197885,1,0,0:0:0:0:
448,192,197885,1,0,0:0:0:0:
320,192,197952,1,0,0:0:0:0:
64,192,198020,1,0,0:0:0:0:
192,192,198020,1,0,0:0:0:0:
320,192,198087,1,0,0:0:0:0:
448,192,198087,1,0,0:0:0:0:
64,192,198155,1,4,0:0:0:0:
192,192,198155,1,0,0:0:0:0:
448,192,198222,1,0,0:0:0:0:
64,192,198290,1,0,0:0:0:0:
192,192,198323,1,0,0:0:0:0:
448,192,198357,1,0,0:0:0:0:
320,192,198391,1,0,0:0:0:0:
64,192,198425,1,0,0:0:0:0:
192,192,198425,1,0,0:0:0:0:
320,192,198492,1,0,0:0:0:0:
448,192,198492,1,0,0:0:0:0:
64,192,198560,1,0,0:0:0:0:
192,192,198560,1,0,0:0:0:0:
448,192,198627,1,0,0:0:0:0:
64,192,198695,1,4,0:0:0:0:
192,192,198695,1,0,0:0:0:0:
320,192,198695,1,0,0:0:0:0:
448,192,198762,1,0,0:0:0:0:
64,192,198830,1,0,0:0:0:0:
192,192,198830,1,0,0:0:0:0:
320,192,198897,1,0,0:0:0:0:
448,192,198897,1,0,0:0:0:0:
64,192,198965,1,0,0:0:0:0:
192,192,198965,1,0,0:0:0:0:
320,192,199032,1,0,0:0:0:0:
448,192,199032,1,0,0:0:0:0:
64,192,199100,1,0,0:0:0:0:
192,192,199100,1,0,0:0:0:0:
320,192,199167,1,0,0:0:0:0:
64,192,199235,1,4,0:0:0:0:
192,192,199235,1,0,0:0:0:0:
448,192,199235,1,0,0:0:0:0:
320,192,199302,1,0,0:0:0:0:
64,192,199370,1,0,0:0:0:0:
192,192,199370,1,0,0:0:0:0:
320,192,199437,1,0,0:0:0:0:
448,192,199437,1,0,0:0:0:0:
64,192,199505,1,4,0:0:0:0:
192,192,199505,1,0,0:0:0:0:
320,192,199572,1,0,0:0:0:0:
448,192,199572,1,0,0:0:0:0:
64,192,199640,1,0,0:0:0:0:
192,192,199640,1,0,0:0:0:0:
448,192,199707,1,0,0:0:0:0:
64,192,199775,1,4,0:0:0:0:
192,192,199775,1,0,0:0:0:0:
320,192,199775,1,0,0:0:0:0:
448,192,199842,1,0,0:0:0:0:
64,192,199910,1,0,0:0:0:0:
192,192,199910,1,0,0:0:0:0:
320,192,199977,1,0,0:0:0:0:
448,192,199977,1,0,0:0:0:0:
64,192,200045,1,4,0:0:0:0:
192,192,200045,1,0,0:0:0:0:
320,192,200112,1,0,0:0:0:0:
448,192,200112,1,0,0:0:0:0:
64,192,200180,1,0,0:0:0:0:
192,192,200180,1,0,0:0:0:0:
320,192,200247,1,0,0:0:0:0:
64,192,200315,1,4,0:0:0:0:
192,192,200315,1,0,0:0:0:0:
448,192,200315,1,0,0:0:0:0:
320,192,200382,1,0,0:0:0:0:
64,192,200450,1,0,0:0:0:0:
192,192,200450,1,0,0:0:0:0:
320,192,200517,1,0,0:0:0:0:
448,192,200517,1,0,0:0:0:0:
64,192,200585,1,4,0:0:0:0:
192,192,200585,1,0,0:0:0:0:
320,192,200652,1,0,0:0:0:0:
448,192,200652,1,0,0:0:0:0:
64,192,200720,1,0,0:0:0:0:
192,192,200720,1,0,0:0:0:0:
320,192,200787,1,0,0:0:0:0:
448,192,200787,1,0,0:0:0:0:
64,192,200855,1,4,0:0:0:0:
192,192,200855,1,0,0:0:0:0:
320,192,200922,1,0,0:0:0:0:
192,192,200990,1,0,0:0:0:0:
448,192,201057,1,0,0:0:0:0:
320,192,201125,1,0,0:0:0:0:
192,192,201192,1,0,0:0:0:0:
448,192,201260,1,0,0:0:0:0:
320,192,201327,1,0,0:0:0:0:
192,192,201395,1,0,0:0:0:0:
448,192,201462,1,0,0:0:0:0:
320,192,201530,1,0,0:0:0:0:
64,192,201597,1,0,0:0:0:0:
448,192,201665,1,0,0:0:0:0:
320,192,201732,1,0,0:0:0:0:
448,192,201800,1,0,0:0:0:0:
320,192,201867,1,0,0:0:0:0:
448,192,201935,1,0,0:0:0:0:
192,192,202002,1,0,0:0:0:0:
64,192,202070,1,0,0:0:0:0:
448,192,202137,1,0,0:0:0:0:
192,192,202205,1,0,0:0:0:0:
64,192,202272,1,0,0:0:0:0:
448,192,202340,1,0,0:0:0:0:
192,192,202407,1,0,0:0:0:0:
64,192,202475,1,0,0:0:0:0:
320,192,202542,1,0,0:0:0:0:
192,192,202610,1,0,0:0:0:0:
64,192,202677,1,0,0:0:0:0:
320,192,202745,1,0,0:0:0:0:
192,192,202812,1,0,0:0:0:0:
320,192,202880,1,0,0:0:0:0:
192,192,202947,1,0,0:0:0:0:
64,192,203015,1,0,0:0:0:0:
448,192,203015,1,0,0:0:0:0:
320,192,203082,1,0,0:0:0:0:
64,192,203150,1,0,0:0:0:0:
448,192,203217,1,0,0:0:0:0:
320,192,203285,1,0,0:0:0:0:
64,192,203352,1,0,0:0:0:0:
448,192,203420,1,0,0:0:0:0:
320,192,203487,1,0,0:0:0:0:
64,192,203555,1,0,0:0:0:0:
320,192,203622,1,0,0:0:0:0:
192,192,203690,1,0,0:0:0:0:
64,192,203757,1,0,0:0:0:0:
320,192,203825,1,0,0:0:0:0:
192,192,203892,1,0,0:0:0:0:
320,192,203960,1,0,0:0:0:0:
192,192,204027,1,0,0:0:0:0:
64,192,204095,1,0,0:0:0:0:
448,192,204095,1,0,0:0:0:0:
320,192,204162,1,0,0:0:0:0:
64,192,204230,1,0,0:0:0:0:
448,192,204297,1,0,0:0:0:0:
192,192,204365,1,0,0:0:0:0:
64,192,204432,1,0,0:0:0:0:
320,192,204500,1,0,0:0:0:0:
192,192,204567,1,0,0:0:0:0:
64,192,204635,1,0,0:0:0:0:
448,192,204635,1,0,0:0:0:0:
320,192,204702,1,0,0:0:0:0:
64,192,204770,1,0,0:0:0:0:
448,192,204837,1,0,0:0:0:0:
192,192,204905,1,0,0:0:0:0:
64,192,204972,1,0,0:0:0:0:
320,192,205040,1,0,0:0:0:0:
192,192,205107,1,0,0:0:0:0:
320,192,205175,1,0,0:0:0:0:
448,192,205175,1,0,0:0:0:0:
192,192,205242,1,0,0:0:0:0:
64,192,205310,1,0,0:0:0:0:
448,192,205377,1,0,0:0:0:0:
192,192,205445,1,0,0:0:0:0:
64,192,205512,1,0,0:0:0:0:
448,192,205580,1,0,0:0:0:0:
192,192,205647,1,0,0:0:0:0:
64,192,205715,1,0,0:0:0:0:
448,192,205782,1,0,0:0:0:0:
320,192,205850,1,0,0:0:0:0:
64,192,205917,1,0,0:0:0:0:
320,192,205985,1,0,0:0:0:0:
192,192,206052,1,0,0:0:0:0:
320,192,206120,1,0,0:0:0:0:
192,192,206187,1,0,0:0:0:0:
64,192,206255,1,0,0:0:0:0:
448,192,206255,1,0,0:0:0:0:
320,192,206322,1,0,0:0:0:0:
448,192,206390,1,0,0:0:0:0:
320,192,206457,1,0,0:0:0:0:
192,192,206525,1,0,0:0:0:0:
64,192,206592,1,0,0:0:0:0:
192,192,206660,1,0,0:0:0:0:
64,192,206727,1,0,0:0:0:0:
320,192,206795,1,0,0:0:0:0:
448,192,206795,1,0,0:0:0:0:
192,192,206862,1,0,0:0:0:0:
320,192,206930,1,0,0:0:0:0:
192,192,206997,1,0,0:0:0:0:
448,192,207065,1,0,0:0:0:0:
192,192,207132,1,0,0:0:0:0:
448,192,207200,1,0,0:0:0:0:
192,192,207267,1,0,0:0:0:0:
320,192,207335,1,0,0:0:0:0:
448,192,207335,1,0,0:0:0:0:
192,192,207402,1,0,0:0:0:0:
448,192,207470,1,0,0:0:0:0:
192,192,207537,1,0,0:0:0:0:
320,192,207605,1,0,0:0:0:0:
64,192,207672,1,0,0:0:0:0:
320,192,207740,1,0,0:0:0:0:
64,192,207807,1,0,0:0:0:0:
192,192,207875,1,0,0:0:0:0:
64,192,207942,1,0,0:0:0:0:
192,192,208010,1,0,0:0:0:0:
64,192,208077,1,0,0:0:0:0:
448,192,208145,1,0,0:0:0:0:
192,192,208212,1,0,0:0:0:0:
448,192,208280,1,0,0:0:0:0:
192,192,208347,1,0,0:0:0:0:
64,192,208415,1,0,0:0:0:0:
448,192,208415,1,0,0:0:0:0:
320,192,208482,1,0,0:0:0:0:
64,192,208550,1,0,0:0:0:0:
448,192,208617,1,0,0:0:0:0:
320,192,208685,1,0,0:0:0:0:
64,192,208752,1,0,0:0:0:0:
448,192,208820,1,0,0:0:0:0:
320,192,208887,1,0,0:0:0:0:
64,192,208955,1,0,0:0:0:0:
192,192,208955,1,0,0:0:0:0:
320,192,209022,1,0,0:0:0:0:
192,192,209090,1,0,0:0:0:0:
64,192,209157,1,0,0:0:0:0:
320,192,209225,1,0,0:0:0:0:
192,192,209292,1,0,0:0:0:0:
320,192,209360,1,0,0:0:0:0:
448,192,209360,1,0,0:0:0:0:
64,192,209427,1,0,0:0:0:0:
192,192,209427,1,0,0:0:0:0:
320,192,209495,1,4,0:0:0:0:
448,192,209495,1,0,0:0:0:0:
192,192,209562,1,0,0:0:0:0:
320,192,209630,1,0,0:0:0:0:
192,192,209697,1,0,0:0:0:0:
448,192,209765,1,0,0:0:0:0:
320,192,209832,1,0,0:0:0:0:
448,192,209900,1,0,0:0:0:0:
320,192,209967,1,0,0:0:0:0:
448,192,210035,1,0,0:0:0:0:
192,192,210102,1,0,0:0:0:0:
448,192,210170,1,0,0:0:0:0:
192,192,210237,1,0,0:0:0:0:
448,192,210305,1,0,0:0:0:0:
64,192,210372,1,0,0:0:0:0:
448,192,210440,1,0,0:0:0:0:
64,192,210507,1,0,0:0:0:0:
192,192,210575,1,0,0:0:0:0:
320,192,210575,1,0,0:0:0:0:
448,192,210665,1,0,0:0:0:0:
320,192,210755,1,0,0:0:0:0:
192,192,210845,1,0,0:0:0:0:
64,192,210912,1,0,0:0:0:0:
320,192,210980,1,0,0:0:0:0:
64,192,211047,1,0,0:0:0:0:
192,192,211115,1,0,0:0:0:0:
448,192,211115,1,0,0:0:0:0:
320,192,211182,1,0,0:0:0:0:
64,192,211250,1,0,0:0:0:0:
448,192,211317,1,0,0:0:0:0:
320,192,211385,1,0,0:0:0:0:
64,192,211452,1,0,0:0:0:0:
320,192,211520,1,0,0:0:0:0:
192,192,211587,1,0,0:0:0:0:
64,192,211655,1,4,0:0:0:0:
320,192,211655,1,0,0:0:0:0:
448,192,211655,1,0,0:0:0:0:
192,192,211722,1,0,0:0:0:0:
320,192,211790,1,0,0:0:0:0:
192,192,211857,1,0,0:0:0:0:
448,192,211925,1,0,0:0:0:0:
320,192,211992,1,0,0:0:0:0:
448,192,212060,1,0,0:0:0:0:
320,192,212127,1,0,0:0:0:0:
448,192,212195,1,0,0:0:0:0:
64,192,212195,1,0,0:0:0:0:
192,192,212262,1,0,0:0:0:0:
448,192,212330,1,0,0:0:0:0:
192,192,212397,1,0,0:0:0:0:
320,192,212465,1,0,0:0:0:0:
192,192,212532,1,0,0:0:0:0:
320,192,212600,1,0,0:0:0:0:
192,192,212667,1,0,0:0:0:0:
64,192,212735,1,0,0:0:0:0:
448,192,212735,1,0,0:0:0:0:
320,192,212802,1,0,0:0:0:0:
448,192,212870,1,0,0:0:0:0:
320,192,212937,1,0,0:0:0:0:
448,192,213005,1,0,0:0:0:0:
192,192,213072,1,0,0:0:0:0:
448,192,213140,1,0,0:0:0:0:
192,192,213207,1,0,0:0:0:0:
320,192,213275,1,0,0:0:0:0:
448,192,213275,1,0,0:0:0:0:
64,192,213342,1,0,0:0:0:0:
320,192,213410,1,0,0:0:0:0:
64,192,213477,1,0,0:0:0:0:
448,192,213545,1,0,0:0:0:0:
192,192,213612,1,0,0:0:0:0:
448,192,213680,1,0,0:0:0:0:
192,192,213747,1,0,0:0:0:0:
64,192,213815,1,4,0:0:0:0:
320,192,213815,1,0,0:0:0:0:
448,192,213815,1,0,0:0:0:0:
192,192,213882,1,0,0:0:0:0:
64,192,213950,1,0,0:0:0:0:
320,192,214017,1,0,0:0:0:0:
192,192,214085,1,0,0:0:0:0:
64,192,214152,1,0,0:0:0:0:
320,192,214220,1,0,0:0:0:0:
192,192,214287,1,0,0:0:0:0:
64,192,214355,1,0,0:0:0:0:
192,192,214422,1,0,0:0:0:0:
64,192,214490,1,0,0:0:0:0:
448,192,214557,1,0,0:0:0:0:
320,192,214625,1,0,0:0:0:0:
64,192,214692,1,0,0:0:0:0:
320,192,214760,1,0,0:0:0:0:
448,192,214760,1,0,0:0:0:0:
64,192,214827,1,0,0:0:0:0:
192,192,214827,1,0,0:0:0:0:
320,192,214895,1,4,0:0:0:0:
448,192,214895,1,0,0:0:0:0:
64,192,214962,1,0,0:0:0:0:
448,192,215030,1,0,0:0:0:0:
64,192,215097,1,0,0:0:0:0:
192,192,215165,1,0,0:0:0:0:
64,192,215232,1,0,0:0:0:0:
192,192,215300,1,0,0:0:0:0:
64,192,215367,1,0,0:0:0:0:
320,192,215435,1,4,0:0:0:0:
448,192,215435,1,0,0:0:0:0:
192,192,215502,1,0,0:0:0:0:
64,192,215570,1,0,0:0:0:0:
448,192,215637,1,0,0:0:0:0:
320,192,215705,1,0,0:0:0:0:
64,192,215772,1,0,0:0:0:0:
320,192,215840,1,0,0:0:0:0:
192,192,215907,1,0,0:0:0:0:
64,192,215975,1,4,0:0:0:0:
320,192,215975,1,0,0:0:0:0:
448,192,215975,1,0,0:0:0:0:
192,192,216042,1,0,0:0:0:0:
320,192,216110,1,0,0:0:0:0:
192,192,216177,1,0,0:0:0:0:
320,192,216245,1,0,0:0:0:0:
192,192,216312,1,0,0:0:0:0:
320,192,216380,1,0,0:0:0:0:
192,192,216447,1,0,0:0:0:0:
448,192,216515,1,0,0:0:0:0:
320,192,216515,1,4,0:0:0:0:
192,192,216582,1,0,0:0:0:0:
320,192,216650,1,0,0:0:0:0:
192,192,216717,1,0,0:0:0:0:
64,192,216785,1,4,0:0:0:0:
320,192,216785,1,0,0:0:0:0:
192,192,216852,1,0,0:0:0:0:
320,192,216920,1,0,0:0:0:0:
192,192,216987,1,0,0:0:0:0:
448,192,217055,1,4,0:0:0:0:
320,192,217122,1,0,0:0:0:0:
192,192,217190,1,0,0:0:0:0:
448,192,217257,1,0,0:0:0:0:
192,192,217325,1,4,0:0:0:0:
320,192,217325,1,0,0:0:0:0:
64,192,217392,1,0,0:0:0:0:
448,192,217460,1,0,0:0:0:0:
192,192,217527,1,0,0:0:0:0:
64,192,217595,1,4,0:0:0:0:
448,192,217595,1,0,0:0:0:0:
320,192,217662,1,0,0:0:0:0:
192,192,217730,1,0,0:0:0:0:
64,192,217797,1,0,0:0:0:0:
192,192,217865,1,0,0:0:0:0:
448,192,217865,1,0,0:0:0:0:
320,192,217932,1,0,0:0:0:0:
64,192,218000,1,0,0:0:0:0:
192,192,218000,1,0,0:0:0:0:
320,192,218067,1,0,0:0:0:0:
448,192,218067,1,0,0:0:0:0:
64,192,218135,1,2,0:0:0:0:
192,192,218135,1,0,0:0:0:0:
320,192,218202,1,0,0:0:0:0:
448,192,218270,1,0,0:0:0:0:
192,192,218337,1,0,0:0:0:0:
64,192,218337,1,2,0:0:0:0:
320,192,218405,1,8,0:0:0:0:
448,192,218405,1,0,0:0:0:0:
64,192,218472,1,0,0:0:0:0:
192,192,218540,1,2,0:0:0:0:
448,192,218607,1,0,0:0:0:0:
320,192,218607,1,8,0:0:0:0:
64,192,218675,1,0,0:0:0:0:
192,192,218675,1,0,0:0:0:0:
320,192,218742,1,2,0:0:0:0:
448,192,218742,1,0,0:0:0:0:
64,192,218810,1,0,0:0:0:0:
192,192,218877,1,0,0:0:0:0:
320,192,218945,1,10,0:0:0:0:
448,192,218945,1,0,0:0:0:0:
192,192,219012,1,0,0:0:0:0:
320,192,219080,1,2,0:0:0:0:
448,192,219080,1,0,0:0:0:0:
192,192,219147,1,0,0:0:0:0:
320,192,219215,1,2,0:0:0:0:
448,192,219215,1,0,0:0:0:0:
192,192,219282,1,0,0:0:0:0:
64,192,219350,1,0,0:0:0:0:
320,192,219417,1,2,0:0:0:0:
448,192,219417,1,0,0:0:0:0:
64,192,219485,1,8,0:0:0:0:
192,192,219485,1,0,0:0:0:0:
448,192,219552,1,0,0:0:0:0:
192,192,219620,1,2,0:0:0:0:
320,192,219620,1,0,0:0:0:0:
64,192,219687,1,0,0:0:0:0:
320,192,219755,1,0,0:0:0:0:
448,192,219755,1,0,0:0:0:0:
64,192,219822,1,2,0:0:0:0:
192,192,219822,1,0,0:0:0:0:
448,192,219890,1,0,0:0:0:0:
320,192,219957,1,0,0:0:0:0:
64,192,220025,1,10,0:0:0:0:
192,192,220025,1,0,0:0:0:0:
320,192,220092,1,0,0:0:0:0:
64,192,220160,1,2,0:0:0:0:
192,192,220160,1,0,0:0:0:0:
320,192,220227,1,0,0:0:0:0:
192,192,220295,1,2,0:0:0:0:
448,192,220295,1,0,0:0:0:0:
64,192,220362,1,0,0:0:0:0:
320,192,220430,1,0,0:0:0:0:
192,192,220497,1,2,0:0:0:0:
448,192,220497,1,0,0:0:0:0:
64,192,220565,1,8,0:0:0:0:
320,192,220565,1,0,0:0:0:0:
192,192,220632,1,0,0:0:0:0:
64,192,220700,1,2,0:0:0:0:
448,192,220700,1,0,0:0:0:0:
320,192,220767,1,0,0:0:0:0:
192,192,220835,1,0,0:0:0:0:
448,192,220835,1,0,0:0:0:0:
64,192,220902,1,2,0:0:0:0:
320,192,220902,1,0,0:0:0:0:
192,192,220970,1,0,0:0:0:0:
448,192,221037,1,0,0:0:0:0:
64,192,221105,1,10,0:0:0:0:
320,192,221105,1,0,0:0:0:0:
448,192,221172,1,0,0:0:0:0:
64,192,221240,1,2,0:0:0:0:
192,192,221240,1,0,0:0:0:0:
448,192,221307,1,0,0:0:0:0:
64,192,221375,1,2,0:0:0:0:
320,192,221375,1,0,0:0:0:0:
448,192,221442,1,0,0:0:0:0:
64,192,221510,1,0,0:0:0:0:
192,192,221510,1,0,0:0:0:0:
320,192,221577,1,2,0:0:0:0:
448,192,221577,1,0,0:0:0:0:
64,192,221645,1,8,0:0:0:0:
192,192,221645,1,0,0:0:0:0:
320,192,221712,1,0,0:0:0:0:
64,192,221780,1,2,0:0:0:0:
448,192,221780,1,0,0:0:0:0:
192,192,221847,1,0,0:0:0:0:
320,192,221915,1,2,0:0:0:0:
448,192,221915,1,0,0:0:0:0:
192,192,221982,1,0,0:0:0:0:
64,192,222050,1,2,0:0:0:0:
448,192,222050,1,0,0:0:0:0:
320,192,222117,1,0,0:0:0:0:
64,192,222185,1,10,0:0:0:0:
192,192,222185,1,0,0:0:0:0:
320,192,222252,1,0,0:0:0:0:
64,192,222320,1,2,0:0:0:0:
448,192,222320,1,0,0:0:0:0:
192,192,222387,1,0,0:0:0:0:
64,192,222455,1,2,0:0:0:0:
320,192,222455,1,0,0:0:0:0:
448,192,222455,1,0,0:0:0:0:
192,192,222522,1,0,0:0:0:0:
320,192,222590,1,0,0:0:0:0:
192,192,222657,1,2,0:0:0:0:
448,192,222657,1,0,0:0:0:0:
64,192,222725,1,8,0:0:0:0:
320,192,222725,1,0,0:0:0:0:
192,192,222792,1,0,0:0:0:0:
64,192,222860,1,0,0:0:0:0:
448,192,222860,1,0,0:0:0:0:
320,192,222860,1,2,0:0:0:0:
192,192,222927,1,0,0:0:0:0:
64,192,222995,1,2,0:0:0:0:
320,192,222995,1,0,0:0:0:0:
448,192,222995,1,0,0:0:0:0:
192,192,223062,1,0,0:0:0:0:
448,192,223130,1,0,0:0:0:0:
320,192,223197,1,0,0:0:0:0:
64,192,223265,1,10,0:0:0:0:
192,192,223265,1,0,0:0:0:0:
448,192,223265,1,0,0:0:0:0:
320,192,223332,1,0,0:0:0:0:
64,192,223400,1,0,0:0:0:0:
448,192,223400,1,0,0:0:0:0:
192,192,223467,1,0,0:0:0:0:
64,192,223535,1,2,0:0:0:0:
320,192,223535,1,0,0:0:0:0:
448,192,223535,1,0,0:0:0:0:
192,192,223602,1,0,0:0:0:0:
64,192,223670,1,0,0:0:0:0:
320,192,223670,1,0,0:0:0:0:
448,192,223737,1,0,0:0:0:0:
64,192,223805,1,10,0:0:0:0:
192,192,223805,1,0,0:0:0:0:
320,192,223805,1,0,0:0:0:0:
448,192,223872,1,0,0:0:0:0:
192,192,223940,1,0,0:0:0:0:
64,192,224007,1,0,0:0:0:0:
192,192,224075,1,2,0:0:0:0:
320,192,224075,1,0,0:0:0:0:
448,192,224075,1,0,0:0:0:0:
64,192,224142,1,0,0:0:0:0:
320,192,224210,1,0,0:0:0:0:
448,192,224210,1,0,0:0:0:0:
192,192,224277,1,0,0:0:0:0:
64,192,224345,1,10,0:0:0:0:
320,192,224345,1,0,0:0:0:0:
448,192,224345,1,0,0:0:0:0:
192,192,224412,1,0,0:0:0:0:
320,192,224480,1,0,0:0:0:0:
448,192,224547,1,0,0:0:0:0:
64,192,224615,1,2,0:0:0:0:
192,192,224615,1,0,0:0:0:0:
320,192,224615,1,0,0:0:0:0:
448,192,224682,1,0,0:0:0:0:
64,192,224750,1,0,0:0:0:0:
192,192,224817,1,0,0:0:0:0:
64,192,224885,1,10,0:0:0:0:
320,192,224885,1,0,0:0:0:0:
448,192,224885,1,0,0:0:0:0:
192,192,224952,1,0,0:0:0:0:
320,192,225020,1,0,0:0:0:0:
192,192,225087,1,0,0:0:0:0:
64,192,225155,1,2,0:0:0:0:
320,192,225155,1,0,0:0:0:0:
448,192,225155,1,0,0:0:0:0:
192,192,225222,1,0,0:0:0:0:
448,192,225290,1,0,0:0:0:0:
320,192,225357,1,0,0:0:0:0:
64,192,225425,1,10,0:0:0:0:
192,192,225425,1,0,0:0:0:0:
448,192,225425,1,0,0:0:0:0:
320,192,225492,1,0,0:0:0:0:
64,192,225560,1,0,0:0:0:0:
192,192,225560,1,0,0:0:0:0:
320,192,225627,1,0,0:0:0:0:
448,192,225627,1,0,0:0:0:0:
64,192,225695,1,2,0:0:0:0:
192,192,225695,1,0,0:0:0:0:
320,192,225762,1,0,0:0:0:0:
448,192,225830,1,0,0:0:0:0:
192,192,225897,1,0,0:0:0:0:
64,192,225965,1,12,0:0:0:0:
320,192,225965,1,0,0:0:0:0:
448,192,225965,1,0,0:0:0:0:
192,192,226032,1,0,0:0:0:0:
320,192,226100,1,0,0:0:0:0:
448,192,226100,1,0,0:0:0:0:
64,192,226167,1,0,0:0:0:0:
192,192,226167,1,0,0:0:0:0:
320,192,226235,1,4,0:0:0:0:
448,192,226235,1,0,0:0:0:0:
64,192,226302,1,0,0:0:0:0:
192,192,226302,1,0,0:0:0:0:
448,192,226370,1,0,0:0:0:0:
320,192,226404,1,0,0:0:0:0:
192,192,226437,1,0,0:0:0:0:
64,192,226471,1,0,0:0:0:0:
320,192,226505,1,12,0:0:0:0:
448,192,226505,1,0,0:0:0:0:
64,192,226572,1,0,0:0:0:0:
192,192,226572,1,0,0:0:0:0:
320,192,226640,1,0,0:0:0:0:
448,192,226640,1,0,0:0:0:0:
64,192,226707,1,0,0:0:0:0:
192,192,226707,1,0,0:0:0:0:
320,192,226775,1,6,0:0:0:0:
448,192,226775,1,0,0:0:0:0:
192,192,226842,1,0,0:0:0:0:
320,192,226910,1,0,0:0:0:0:
448,192,226910,1,0,0:0:0:0:
192,192,226977,1,0,0:0:0:0:
64,192,227045,1,10,0:0:0:0:
448,192,227045,1,0,0:0:0:0:
320,192,227112,1,0,0:0:0:0:
64,192,227180,1,0,0:0:0:0:
448,192,227180,1,0,0:0:0:0:
192,192,227247,1,0,0:0:0:0:
64,192,227315,1,2,0:0:0:0:
320,192,227315,1,0,0:0:0:0:
448,192,227382,1,0,0:0:0:0:
64,192,227450,1,0,0:0:0:0:
320,192,227450,1,0,0:0:0:0:
192,192,227517,1,0,0:0:0:0:
320,192,227585,1,10,0:0:0:0:
448,192,227585,1,0,0:0:0:0:
64,192,227652,1,0,0:0:0:0:
320,192,227720,1,0,0:0:0:0:
448,192,227720,1,0,0:0:0:0:
64,192,227787,1,0,0:0:0:0:
320,192,227855,1,2,0:0:0:0:
448,192,227855,1,0,0:0:0:0:
64,192,227922,1,0,0:0:0:0:
192,192,227945,1,2,0:0:0:0:
320,192,227990,1,0,0:0:0:0:
448,192,228035,1,2,0:0:0:0:
64,192,228057,1,0,0:0:0:0:
192,192,228125,1,10,0:0:0:0:
320,192,228125,1,0,0:0:0:0:
448,192,228192,1,0,0:0:0:0:
64,192,228260,1,0,0:0:0:0:
192,192,228327,1,0,0:0:0:0:
320,192,228395,1,2,0:0:0:0:
448,192,228395,1,0,0:0:0:0:
192,192,228462,1,0,0:0:0:0:
64,192,228530,1,0,0:0:0:0:
320,192,228597,1,2,0:0:0:0:
448,192,228597,1,0,0:0:0:0:
64,192,228665,1,8,0:0:0:0:
192,192,228665,1,0,0:0:0:0:
320,192,228732,1,0,0:0:0:0:
64,192,228800,1,2,0:0:0:0:
192,192,228800,1,0,0:0:0:0:
320,192,228867,1,0,0:0:0:0:
448,192,228867,1,0,0:0:0:0:
64,192,228935,1,2,0:0:0:0:
192,192,228935,1,0,0:0:0:0:
320,192,229002,1,0,0:0:0:0:
448,192,229070,1,0,0:0:0:0:
192,192,229137,1,0,0:0:0:0:
64,192,229205,1,10,0:0:0:0:
320,192,229205,1,0,0:0:0:0:
192,192,229272,1,0,0:0:0:0:
448,192,229340,1,0,0:0:0:0:
192,192,229407,1,0,0:0:0:0:
64,192,229475,1,2,0:0:0:0:
448,192,229475,1,0,0:0:0:0:
320,192,229542,1,0,0:0:0:0:
192,192,229610,1,0,0:0:0:0:
320,192,229677,1,0,0:0:0:0:
192,192,229745,1,0,0:0:0:0:
64,192,229745,1,10,0:0:0:0:
448,192,229812,1,0,0:0:0:0:
64,192,229880,1,0,0:0:0:0:
320,192,229880,1,0,0:0:0:0:
192,192,229947,1,0,0:0:0:0:
64,192,230015,1,2,0:0:0:0:
320,192,230015,1,0,0:0:0:0:
448,192,230015,1,0,0:0:0:0:
192,192,230082,1,0,0:0:0:0:
448,192,230150,1,0,0:0:0:0:
320,192,230217,1,0,0:0:0:0:
64,192,230285,1,10,0:0:0:0:
192,192,230285,1,0,0:0:0:0:
448,192,230285,1,0,0:0:0:0:
320,192,230352,1,0,0:0:0:0:
64,192,230420,1,0,0:0:0:0:
192,192,230487,1,0,0:0:0:0:
64,192,230555,1,2,0:0:0:0:
320,192,230555,1,0,0:0:0:0:
448,192,230555,1,0,0:0:0:0:
192,192,230622,1,0,0:0:0:0:
448,192,230690,1,0,0:0:0:0:
64,192,230757,1,0,0:0:0:0:
192,192,230825,1,10,0:0:0:0:
320,192,230825,1,0,0:0:0:0:
448,192,230825,1,0,0:0:0:0:
64,192,230892,1,0,0:0:0:0:
320,192,230960,1,0,0:0:0:0:
192,192,231027,1,0,0:0:0:0:
64,192,231095,1,2,0:0:0:0:
320,192,231095,1,0,0:0:0:0:
448,192,231095,1,0,0:0:0:0:
192,192,231162,1,0,0:0:0:0:
320,192,231230,1,0,0:0:0:0:
192,192,231297,1,2,0:0:0:0:
448,192,231297,1,0,0:0:0:0:
64,192,231365,1,8,0:0:0:0:
320,192,231365,1,0,0:0:0:0:
192,192,231432,1,0,0:0:0:0:
64,192,231500,1,2,0:0:0:0:
320,192,231500,1,0,0:0:0:0:
448,192,231500,1,0,0:0:0:0:
192,192,231567,1,0,0:0:0:0:
320,192,231635,1,2,0:0:0:0:
448,192,231635,1,0,0:0:0:0:
64,192,231702,1,0,0:0:0:0:
192,192,231770,1,0,0:0:0:0:
320,192,231837,1,0,0:0:0:0:
64,192,231905,1,10,0:0:0:0:
448,192,231905,1,0,0:0:0:0:
320,192,231972,1,0,0:0:0:0:
64,192,232040,1,0,0:0:0:0:
192,192,232040,1,0,0:0:0:0:
320,192,232107,1,0,0:0:0:0:
64,192,232175,1,2,0:0:0:0:
192,192,232175,1,0,0:0:0:0:
448,192,232175,1,0,0:0:0:0:
320,192,232242,1,0,0:0:0:0:
192,192,232310,1,0,0:0:0:0:
448,192,232310,1,0,0:0:0:0:
64,192,232377,1,0,0:0:0:0:
192,192,232445,1,10,0:0:0:0:
320,192,232445,1,0,0:0:0:0:
448,192,232445,1,0,0:0:0:0:
64,192,232512,1,0,0:0:0:0:
320,192,232580,1,0,0:0:0:0:
448,192,232647,1,0,0:0:0:0:
64,192,232715,1,2,0:0:0:0:
192,192,232715,1,0,0:0:0:0:
320,192,232715,1,0,0:0:0:0:
448,192,232782,1,0,0:0:0:0:
64,192,232850,1,0,0:0:0:0:
192,192,232850,1,0,0:0:0:0:
320,192,232917,1,2,0:0:0:0:
448,192,232917,1,0,0:0:0:0:
64,192,232985,1,8,0:0:0:0:
192,192,232985,1,0,0:0:0:0:
320,192,233052,1,0,0:0:0:0:
64,192,233120,1,2,0:0:0:0:
192,192,233187,1,0,0:0:0:0:
64,192,233255,1,2,0:0:0:0:
320,192,233255,1,0,0:0:0:0:
448,192,233255,1,0,0:0:0:0:
192,192,233322,1,0,0:0:0:0:
448,192,233390,1,0,0:0:0:0:
192,192,233457,1,2,0:0:0:0:
320,192,233457,1,0,0:0:0:0:
64,192,233525,1,8,0:0:0:0:
448,192,233525,1,0,0:0:0:0:
192,192,233592,1,0,0:0:0:0:
64,192,233660,1,2,0:0:0:0:
320,192,233660,1,0,0:0:0:0:
448,192,233727,1,0,0:0:0:0:
192,192,233795,1,2,0:0:0:0:
320,192,233795,1,0,0:0:0:0:
64,192,233862,1,0,0:0:0:0:
320,192,233930,1,2,0:0:0:0:
448,192,233930,1,0,0:0:0:0:
64,192,233997,1,0,0:0:0:0:
192,192,233997,1,0,0:0:0:0:
320,192,234065,1,10,0:0:0:0:
448,192,234065,1,0,0:0:0:0:
192,192,234132,1,0,0:0:0:0:
64,192,234200,1,2,0:0:0:0:
448,192,234200,1,0,0:0:0:0:
320,192,234268,1,0,0:0:0:0:
64,192,234335,1,6,0:0:0:0:
192,192,234335,1,0,0:0:0:0:
448,192,234335,1,0,0:0:0:0:
320,192,234402,1,0,0:0:0:0:
64,192,234470,1,0,0:0:0:0:
192,192,234470,1,0,0:0:0:0:
320,192,234537,1,0,0:0:0:0:
448,192,234537,1,0,0:0:0:0:
64,192,234605,1,14,0:0:0:0:
192,192,234605,1,0,0:0:0:0:
320,192,234672,1,0,0:0:0:0:
64,192,234740,1,0,0:0:0:0:
192,192,234740,1,0,0:0:0:0:
320,192,234807,1,0,0:0:0:0:
448,192,234807,1,0,0:0:0:0:
64,192,234875,1,6,0:0:0:0:
192,192,234875,1,0,0:0:0:0:
320,192,234943,1,0,0:0:0:0:
448,192,234943,1,0,0:0:0:0:
64,192,235010,1,0,0:0:0:0:
192,192,235044,1,0,0:0:0:0:
320,192,235077,1,0,0:0:0:0:
448,192,235111,1,0,0:0:0:0:
64,192,235145,1,14,0:0:0:0:
192,192,235145,1,0,0:0:0:0:
320,192,235213,1,0,0:0:0:0:
448,192,235213,1,0,0:0:0:0:
64,192,235280,1,0,0:0:0:0:
192,192,235280,1,0,0:0:0:0:
320,192,235348,1,0,0:0:0:0:
448,192,235348,1,0,0:0:0:0:
64,192,235415,1,6,0:0:0:0:
192,192,235415,1,0,0:0:0:0:
320,192,235483,1,0,0:0:0:0:
64,192,235550,1,0,0:0:0:0:
192,192,235550,1,0,0:0:0:0:
320,192,235618,1,2,0:0:0:0:
448,192,235618,1,0,0:0:0:0:
64,192,235685,1,8,0:0:0:0:
192,192,235685,1,0,0:0:0:0:
320,192,235753,1,0,0:0:0:0:
64,192,235820,1,2,0:0:0:0:
448,192,235820,1,0,0:0:0:0:
320,192,235888,1,0,0:0:0:0:
64,192,235955,1,0,0:0:0:0:
192,192,235955,1,0,0:0:0:0:
320,192,236023,1,2,0:0:0:0:
448,192,236023,1,0,0:0:0:0:
64,192,236090,1,0,0:0:0:0:
192,192,236090,1,0,0:0:0:0:
320,192,236158,1,0,0:0:0:0:
64,192,236225,1,10,0:0:0:0:
448,192,236225,1,0,0:0:0:0:
192,192,236293,1,0,0:0:0:0:
320,192,236360,1,2,0:0:0:0:
448,192,236360,1,0,0:0:0:0:
64,192,236428,1,0,0:0:0:0:
320,192,236495,1,2,0:0:0:0:
448,192,236495,1,0,0:0:0:0:
64,192,236563,1,0,0:0:0:0:
192,192,236630,1,0,0:0:0:0:
448,192,236630,1,0,0:0:0:0:
64,192,236698,1,2,0:0:0:0:
320,192,236698,1,0,0:0:0:0:
192,192,236765,1,8,0:0:0:0:
448,192,236765,1,0,0:0:0:0:
320,192,236833,1,0,0:0:0:0:
64,192,236900,1,2,0:0:0:0:
192,192,236900,1,0,0:0:0:0:
320,192,236968,1,0,0:0:0:0:
64,192,237035,1,0,0:0:0:0:
448,192,237035,1,0,0:0:0:0:
192,192,237103,1,2,0:0:0:0:
320,192,237103,1,0,0:0:0:0:
64,192,237170,1,0,0:0:0:0:
448,192,237170,1,0,0:0:0:0:
192,192,237238,1,0,0:0:0:0:
320,192,237305,1,10,0:0:0:0:
448,192,237305,1,0,0:0:0:0:
64,192,237373,1,0,0:0:0:0:
192,192,237440,1,2,0:0:0:0:
448,192,237440,1,0,0:0:0:0:
320,192,237508,1,0,0:0:0:0:
64,192,237575,1,2,0:0:0:0:
192,192,237575,1,0,0:0:0:0:
320,192,237643,1,0,0:0:0:0:
64,192,237710,1,0,0:0:0:0:
192,192,237710,1,0,0:0:0:0:
320,192,237778,1,2,0:0:0:0:
448,192,237778,1,0,0:0:0:0:
64,192,237845,1,8,0:0:0:0:
192,192,237845,1,0,0:0:0:0:
448,192,237913,1,0,0:0:0:0:
192,192,237980,1,2,0:0:0:0:
320,192,237980,1,0,0:0:0:0:
64,192,238048,1,0,0:0:0:0:
320,192,238115,1,0,0:0:0:0:
448,192,238115,1,0,0:0:0:0:
64,192,238183,1,2,0:0:0:0:
192,192,238183,1,0,0:0:0:0:
320,192,238250,1,0,0:0:0:0:
448,192,238250,1,0,0:0:0:0:
64,192,238318,1,0,0:0:0:0:
192,192,238385,1,10,0:0:0:0:
448,192,238385,1,0,0:0:0:0:
320,192,238453,1,0,0:0:0:0:
64,192,238520,1,2,0:0:0:0:
192,192,238520,1,0,0:0:0:0:
320,192,238588,1,0,0:0:0:0:
192,192,238655,1,2,0:0:0:0:
448,192,238655,1,0,0:0:0:0:
320,192,238723,1,0,0:0:0:0:
64,192,238790,1,0,0:0:0:0:
192,192,238790,1,0,0:0:0:0:
320,192,238858,1,2,0:0:0:0:
448,192,238858,1,0,0:0:0:0:
64,192,238925,1,8,0:0:0:0:
192,192,238925,1,0,0:0:0:0:
448,192,238993,1,0,0:0:0:0:
192,192,239060,1,2,0:0:0:0:
320,192,239060,1,0,0:0:0:0:
64,192,239128,1,0,0:0:0:0:
448,192,239195,1,0,0:0:0:0:
320,192,239195,1,2,0:0:0:0:
64,192,239263,1,0,0:0:0:0:
192,192,239330,1,2,0:0:0:0:
320,192,239330,1,0,0:0:0:0:
448,192,239398,1,0,0:0:0:0:
64,192,239465,1,10,0:0:0:0:
192,192,239465,1,0,0:0:0:0:
448,192,239533,1,0,0:0:0:0:
192,192,239600,1,2,0:0:0:0:
320,192,239600,1,0,0:0:0:0:
64,192,239668,1,0,0:0:0:0:
192,192,239735,1,2,0:0:0:0:
320,192,239735,1,0,0:0:0:0:
448,192,239735,1,0,0:0:0:0:
64,192,239803,1,0,0:0:0:0:
320,192,239870,1,0,0:0:0:0:
448,192,239870,1,0,0:0:0:0:
64,192,239938,1,2,0:0:0:0:
192,192,239938,1,0,0:0:0:0:
320,192,240005,1,8,0:0:0:0:
448,192,240005,1,0,0:0:0:0:
64,192,240073,1,0,0:0:0:0:
320,192,240140,1,2,0:0:0:0:
448,192,240140,1,0,0:0:0:0:
64,192,240208,1,0,0:0:0:0:
192,192,240275,1,2,0:0:0:0:
320,192,240275,1,0,0:0:0:0:
448,192,240275,1,0,0:0:0:0:
64,192,240343,1,0,0:0:0:0:
192,192,240410,1,0,0:0:0:0:
320,192,240410,1,0,0:0:0:0:
448,192,240478,1,0,0:0:0:0:
64,192,240545,1,10,0:0:0:0:
192,192,240545,1,0,0:0:0:0:
320,192,240545,1,0,0:0:0:0:
448,192,240613,1,0,0:0:0:0:
192,192,240680,1,0,0:0:0:0:
320,192,240680,1,0,0:0:0:0:
64,192,240748,1,0,0:0:0:0:
192,192,240815,1,2,0:0:0:0:
320,192,240815,1,0,0:0:0:0:
448,192,240815,1,0,0:0:0:0:
64,192,240883,1,0,0:0:0:0:
192,192,240950,1,0,0:0:0:0:
448,192,240950,1,0,0:0:0:0:
320,192,241018,1,0,0:0:0:0:
64,192,241085,1,10,0:0:0:0:
192,192,241085,1,0,0:0:0:0:
448,192,241085,1,0,0:0:0:0:
320,192,241153,1,0,0:0:0:0:
64,192,241220,1,0,0:0:0:0:
448,192,241220,1,0,0:0:0:0:
192,192,241288,1,0,0:0:0:0:
64,192,241355,1,2,0:0:0:0:
320,192,241355,1,0,0:0:0:0:
448,192,241355,1,0,0:0:0:0:
192,192,241423,1,0,0:0:0:0:
320,192,241490,1,0,0:0:0:0:
448,192,241490,1,0,0:0:0:0:
64,192,241558,1,0,0:0:0:0:
192,192,241625,1,10,0:0:0:0:
320,192,241625,1,0,0:0:0:0:
448,192,241625,1,0,0:0:0:0:
64,192,241693,1,0,0:0:0:0:
192,192,241760,1,0,0:0:0:0:
448,192,241760,1,0,0:0:0:0:
320,192,241828,1,0,0:0:0:0:
64,192,241895,1,2,0:0:0:0:
192,192,241895,1,0,0:0:0:0:
448,192,241895,1,0,0:0:0:0:
320,192,241963,1,0,0:0:0:0:
64,192,242030,1,0,0:0:0:0:
192,192,242030,1,0,0:0:0:0:
448,192,242098,1,0,0:0:0:0:
64,192,242165,1,10,0:0:0:0:
192,192,242165,1,0,0:0:0:0:
320,192,242165,1,0,0:0:0:0:
448,192,242233,1,0,0:0:0:0:
64,192,242300,1,0,0:0:0:0:
320,192,242300,1,0,0:0:0:0:
192,192,242368,1,0,0:0:0:0:
64,192,242435,1,2,0:0:0:0:
320,192,242435,1,0,0:0:0:0:
448,192,242435,1,0,0:0:0:0:
192,192,242503,1,0,0:0:0:0:
320,192,242570,1,0,0:0:0:0:
448,192,242570,1,0,0:0:0:0:
64,192,242638,1,0,0:0:0:0:
192,192,242705,1,10,0:0:0:0:
320,192,242705,1,0,0:0:0:0:
448,192,242705,1,0,0:0:0:0:
64,192,242773,1,0,0:0:0:0:
320,192,242840,1,0,0:0:0:0:
448,192,242840,1,0,0:0:0:0:
64,192,242908,1,0,0:0:0:0:
192,192,242908,1,0,0:0:0:0:
320,192,242975,1,2,0:0:0:0:
448,192,242975,1,0,0:0:0:0:
192,192,243043,1,0,0:0:0:0:
64,192,243110,1,0,0:0:0:0:
320,192,243110,1,0,0:0:0:0:
192,192,243178,1,2,0:0:0:0:
64,192,243245,1,12,0:0:0:0:
320,192,243245,1,0,0:0:0:0:
448,192,243245,1,0,0:0:0:0:
192,192,243313,1,0,0:0:0:0:
320,192,243380,1,2,0:0:0:0:
448,192,243380,1,0,0:0:0:0:
64,192,243448,1,0,0:0:0:0:
192,192,243448,1,0,0:0:0:0:
320,192,243515,1,4,0:0:0:0:
448,192,243515,1,0,0:0:0:0:
64,192,243583,1,2,0:0:0:0:
192,192,243583,1,0,0:0:0:0:
320,192,243650,1,0,0:0:0:0:
448,192,243684,1,0,0:0:0:0:
64,192,243718,1,0,0:0:0:0:
192,192,243751,1,0,0:0:0:0:
320,192,243785,1,14,0:0:0:0:
448,192,243785,1,0,0:0:0:0:
64,192,243853,1,0,0:0:0:0:
192,192,243853,1,0,0:0:0:0:
320,192,243920,1,2,0:0:0:0:
448,192,243920,1,0,0:0:0:0:
64,192,243988,1,0,0:0:0:0:
192,192,243988,1,0,0:0:0:0:
320,192,244055,1,6,0:0:0:0:
448,192,244055,1,0,0:0:0:0:
64,192,244123,1,0,0:0:0:0:
320,192,244190,1,0,0:0:0:0:
448,192,244190,1,0,0:0:0:0:
64,192,244258,1,0,0:0:0:0:
192,192,244325,1,10,0:0:0:0:
320,192,244325,1,0,0:0:0:0:
448,192,244393,1,0,0:0:0:0:
192,192,244460,1,0,0:0:0:0:
320,192,244460,1,0,0:0:0:0:
64,192,244528,1,0,0:0:0:0:
192,192,244595,1,2,0:0:0:0:
448,192,244595,1,0,0:0:0:0:
320,192,244663,1,0,0:0:0:0:
192,192,244730,1,0,0:0:0:0:
448,192,244730,1,0,0:0:0:0:
64,192,244798,1,0,0:0:0:0:
320,192,244865,1,10,0:0:0:0:
448,192,244865,1,0,0:0:0:0:
192,192,244933,1,0,0:0:0:0:
320,192,245000,1,0,0:0:0:0:
448,192,245000,1,0,0:0:0:0:
192,192,245068,1,0,0:0:0:0:
320,192,245135,1,2,0:0:0:0:
448,192,245135,1,0,0:0:0:0:
192,192,245203,1,0,0:0:0:0:
64,192,245225,1,2,0:0:0:0:
448,192,245270,1,0,0:0:0:0:
320,192,245315,1,2,0:0:0:0:
192,192,245338,1,0,0:0:0:0:
64,192,245405,1,10,0:0:0:0:
448,192,245405,1,0,0:0:0:0:
320,192,245473,1,0,0:0:0:0:
192,192,245540,1,0,0:0:0:0:
448,192,245540,1,0,0:0:0:0:
64,192,245608,1,0,0:0:0:0:
320,192,245675,1,2,0:0:0:0:
448,192,245675,1,0,0:0:0:0:
192,192,245743,1,0,0:0:0:0:
64,192,245810,1,0,0:0:0:0:
320,192,245810,1,0,0:0:0:0:
192,192,245878,1,2,0:0:0:0:
448,192,245878,1,0,0:0:0:0:
64,192,245945,1,8,0:0:0:0:
320,192,245945,1,0,0:0:0:0:
448,192,246013,1,0,0:0:0:0:
64,192,246080,1,2,0:0:0:0:
192,192,246080,1,0,0:0:0:0:
448,192,246148,1,0,0:0:0:0:
192,192,246215,1,2,0:0:0:0:
320,192,246215,1,0,0:0:0:0:
64,192,246283,1,0,0:0:0:0:
320,192,246350,1,0,0:0:0:0:
448,192,246350,1,0,0:0:0:0:
192,192,246418,1,0,0:0:0:0:
64,192,246485,1,10,0:0:0:0:
448,192,246485,1,0,0:0:0:0:
192,192,246553,1,0,0:0:0:0:
320,192,246620,1,0,0:0:0:0:
448,192,246620,1,0,0:0:0:0:
64,192,246688,1,0,0:0:0:0:
192,192,246755,1,2,0:0:0:0:
320,192,246755,1,0,0:0:0:0:
448,192,246823,1,0,0:0:0:0:
64,192,246890,1,0,0:0:0:0:
192,192,246890,1,0,0:0:0:0:
448,192,246958,1,0,0:0:0:0:
64,192,247025,1,10,0:0:0:0:
192,192,247025,1,0,0:0:0:0:
320,192,247093,1,0,0:0:0:0:
192,192,247160,1,0,0:0:0:0:
448,192,247160,1,0,0:0:0:0:
64,192,247228,1,0,0:0:0:0:
192,192,247295,1,2,0:0:0:0:
320,192,247295,1,0,0:0:0:0:
448,192,247295,1,0,0:0:0:0:
64,192,247363,1,0,0:0:0:0:
320,192,247430,1,0,0:0:0:0:
448,192,247430,1,0,0:0:0:0:
192,192,247498,1,0,0:0:0:0:
64,192,247565,1,10,0:0:0:0:
320,192,247565,1,0,0:0:0:0:
448,192,247565,1,0,0:0:0:0:
192,192,247633,1,0,0:0:0:0:
64,192,247700,1,0,0:0:0:0:
320,192,247700,1,0,0:0:0:0:
448,192,247768,1,0,0:0:0:0:
64,192,247835,1,2,0:0:0:0:
192,192,247835,1,0,0:0:0:0:
320,192,247835,1,0,0:0:0:0:
448,192,247903,1,0,0:0:0:0:
64,192,247970,1,0,0:0:0:0:
192,192,247970,1,0,0:0:0:0:
320,192,248038,1,0,0:0:0:0:
64,192,248105,1,10,0:0:0:0:
192,192,248105,1,0,0:0:0:0:
448,192,248105,1,0,0:0:0:0:
320,192,248173,1,0,0:0:0:0:
192,192,248240,1,0,0:0:0:0:
448,192,248240,1,0,0:0:0:0:
64,192,248308,1,0,0:0:0:0:
192,192,248375,1,2,0:0:0:0:
320,192,248375,1,0,0:0:0:0:
448,192,248375,1,0,0:0:0:0:
64,192,248443,1,0,0:0:0:0:
320,192,248510,1,0,0:0:0:0:
448,192,248510,1,0,0:0:0:0:
64,192,248578,1,2,0:0:0:0:
192,192,248578,1,0,0:0:0:0:
320,192,248645,1,8,0:0:0:0:
448,192,248645,1,0,0:0:0:0:
64,192,248713,1,0,0:0:0:0:
192,192,248780,1,2,0:0:0:0:
320,192,248780,1,0,0:0:0:0:
448,192,248780,1,0,0:0:0:0:
64,192,248848,1,0,0:0:0:0:
320,192,248915,1,2,0:0:0:0:
448,192,248915,1,0,0:0:0:0:
192,192,248983,1,0,0:0:0:0:
64,192,249050,1,0,0:0:0:0:
320,192,249050,1,0,0:0:0:0:
448,192,249118,1,2,0:0:0:0:
192,192,249185,1,8,0:0:0:0:
320,192,249185,1,0,0:0:0:0:
448,192,249253,1,0,0:0:0:0:
64,192,249320,1,2,0:0:0:0:
192,192,249320,1,0,0:0:0:0:
448,192,249388,1,0,0:0:0:0:
64,192,249455,1,2,0:0:0:0:
192,192,249455,1,0,0:0:0:0:
320,192,249455,1,0,0:0:0:0:
448,192,249523,1,0,0:0:0:0:
64,192,249590,1,0,0:0:0:0:
320,192,249590,1,0,0:0:0:0:
192,192,249658,1,0,0:0:0:0:
64,192,249725,1,10,0:0:0:0:
320,192,249725,1,0,0:0:0:0:
448,192,249725,1,0,0:0:0:0:
192,192,249793,1,0,0:0:0:0:
64,192,249860,1,0,0:0:0:0:
448,192,249860,1,0,0:0:0:0:
320,192,249928,1,0,0:0:0:0:
64,192,249995,1,2,0:0:0:0:
192,192,249995,1,0,0:0:0:0:
448,192,249995,1,0,0:0:0:0:
320,192,250063,1,0,0:0:0:0:
64,192,250130,1,0,0:0:0:0:
192,192,250130,1,0,0:0:0:0:
320,192,250198,1,2,0:0:0:0:
448,192,250198,1,0,0:0:0:0:
64,192,250265,1,8,0:0:0:0:
192,192,250265,1,0,0:0:0:0:
448,192,250333,1,0,0:0:0:0:
192,192,250400,1,2,0:0:0:0:
320,192,250400,1,0,0:0:0:0:
64,192,250468,1,0,0:0:0:0:
192,192,250535,1,2,0:0:0:0:
320,192,250535,1,0,0:0:0:0:
448,192,250535,1,0,0:0:0:0:
64,192,250603,1,0,0:0:0:0:
320,192,250670,1,0,0:0:0:0:
448,192,250670,1,0,0:0:0:0:
64,192,250738,1,2,0:0:0:0:
192,192,250738,1,0,0:0:0:0:
320,192,250805,1,8,0:0:0:0:
448,192,250805,1,0,0:0:0:0:
64,192,250873,1,0,0:0:0:0:
192,192,250940,1,2,0:0:0:0:
448,192,250940,1,0,0:0:0:0:
320,192,251008,1,0,0:0:0:0:
64,192,251075,1,0,0:0:0:0:
448,192,251075,1,0,0:0:0:0:
192,192,251143,1,2,0:0:0:0:
320,192,251143,1,0,0:0:0:0:
64,192,251210,1,0,0:0:0:0:
448,192,251210,1,0,0:0:0:0:
192,192,251278,1,0,0:0:0:0:
320,192,251345,1,10,0:0:0:0:
448,192,251345,1,0,0:0:0:0:
64,192,251413,1,0,0:0:0:0:
192,192,251480,1,2,0:0:0:0:
320,192,251480,1,0,0:0:0:0:
448,192,251548,1,0,0:0:0:0:
64,192,251615,1,6,0:0:0:0:
192,192,251615,1,0,0:0:0:0:
320,192,251615,1,0,0:0:0:0:
448,192,251683,1,0,0:0:0:0:
64,192,251750,1,0,0:0:0:0:
192,192,251750,1,0,0:0:0:0:
320,192,251818,1,0,0:0:0:0:
448,192,251818,1,0,0:0:0:0:
64,192,251885,1,14,0:0:0:0:
192,192,251885,1,0,0:0:0:0:
448,192,251953,1,0,0:0:0:0:
64,192,252020,1,0,0:0:0:0:
192,192,252020,1,0,0:0:0:0:
320,192,252088,1,0,0:0:0:0:
448,192,252088,1,0,0:0:0:0:
64,192,252155,1,6,0:0:0:0:
192,192,252155,1,0,0:0:0:0:
448,192,252223,1,0,0:0:0:0:
64,192,252290,1,0,0:0:0:0:
192,192,252290,1,0,0:0:0:0:
320,192,252358,1,0,0:0:0:0:
448,192,252358,1,0,0:0:0:0:
64,192,252425,1,14,0:0:0:0:
192,192,252425,1,0,0:0:0:0:
320,192,252493,1,0,0:0:0:0:
448,192,252493,1,0,0:0:0:0:
64,192,252560,1,0,0:0:0:0:
192,192,252560,1,0,0:0:0:0:
320,192,252628,1,0,0:0:0:0:
448,192,252628,1,0,0:0:0:0:
64,192,252695,1,4,0:0:0:0:
192,192,252695,1,0,0:0:0:0:
320,192,252763,1,0,0:0:0:0:
64,192,252830,1,0,0:0:0:0:
448,192,252830,1,0,0:0:0:0:
192,192,252898,1,0,0:0:0:0:
64,192,252965,1,0,0:0:0:0:
320,192,252965,1,0,0:0:0:0:
448,192,252965,1,0,0:0:0:0:
192,192,253033,1,0,0:0:0:0:
320,192,253100,1,0,0:0:0:0:
448,192,253100,1,0,0:0:0:0:
64,192,253168,1,0,0:0:0:0:
192,192,253235,1,0,0:0:0:0:
320,192,253235,1,0,0:0:0:0:
448,192,253235,1,0,0:0:0:0:
64,192,253303,1,0,0:0:0:0:
192,192,253370,1,0,0:0:0:0:
320,192,253370,1,0,0:0:0:0:
448,192,253438,1,0,0:0:0:0:
64,192,253505,1,0,0:0:0:0:
192,192,253505,1,0,0:0:0:0:
320,192,253505,1,0,0:0:0:0:
448,192,253573,1,0,0:0:0:0:
64,192,253640,1,0,0:0:0:0:
192,192,253640,1,0,0:0:0:0:
320,192,253708,1,0,0:0:0:0:
64,192,253775,1,4,0:0:0:0:
192,192,253775,1,0,0:0:0:0:
448,192,253775,1,0,0:0:0:0:
320,192,253843,1,0,0:0:0:0:
64,192,253910,1,0,0:0:0:0:
448,192,253910,1,0,0:0:0:0:
192,192,253978,1,0,0:0:0:0:
64,192,254045,1,0,0:0:0:0:
320,192,254045,1,0,0:0:0:0:
448,192,254045,1,0,0:0:0:0:
192,192,254113,1,0,0:0:0:0:
320,192,254180,1,0,0:0:0:0:
448,192,254180,1,0,0:0:0:0:
64,192,254248,1,0,0:0:0:0:
192,192,254315,1,4,0:0:0:0:
320,192,254315,1,0,0:0:0:0:
448,192,254315,1,0,0:0:0:0:
64,192,254383,1,0,0:0:0:0:
448,192,254450,1,0,0:0:0:0:
320,192,254484,1,0,0:0:0:0:
64,192,254518,1,0,0:0:0:0:
192,192,254551,1,0,0:0:0:0:
320,192,254585,1,0,0:0:0:0:
448,192,254585,1,0,0:0:0:0:
64,192,254653,1,0,0:0:0:0:
192,192,254653,1,0,0:0:0:0:
320,192,254720,1,0,0:0:0:0:
448,192,254720,1,0,0:0:0:0:
64,192,254788,1,0,0:0:0:0:
192,192,254855,1,4,0:0:0:0:
320,192,254855,1,0,0:0:0:0:
448,192,254855,1,0,0:0:0:0:
64,192,254923,1,0,0:0:0:0:
320,192,254990,1,0,0:0:0:0:
448,192,254990,1,0,0:0:0:0:
192,192,255058,1,0,0:0:0:0:
64,192,255125,1,0,0:0:0:0:
320,192,255125,1,0,0:0:0:0:
448,192,255125,1,0,0:0:0:0:
192,192,255193,1,0,0:0:0:0:
320,192,255260,1,0,0:0:0:0:
448,192,255260,1,0,0:0:0:0:
64,192,255328,1,0,0:0:0:0:
192,192,255395,1,4,0:0:0:0:
320,192,255395,1,0,0:0:0:0:
448,192,255463,1,0,0:0:0:0:
64,192,255530,1,0,0:0:0:0:
192,192,255530,1,0,0:0:0:0:
320,192,255598,1,0,0:0:0:0:
64,192,255665,1,0,0:0:0:0:
192,192,255665,1,0,0:0:0:0:
320,192,255733,1,0,0:0:0:0:
448,192,255733,1,0,0:0:0:0:
64,192,255800,1,0,0:0:0:0:
192,192,255800,1,0,0:0:0:0:
320,192,255868,1,0,0:0:0:0:
448,192,255868,1,0,0:0:0:0:
64,192,255935,1,4,0:0:0:0:
192,192,255935,1,0,0:0:0:0:
320,192,256003,1,0,0:0:0:0:
448,192,256003,1,0,0:0:0:0:
64,192,256070,1,0,0:0:0:0:
192,192,256070,1,0,0:0:0:0:
320,192,256138,1,0,0:0:0:0:
448,192,256138,1,0,0:0:0:0:
64,192,256205,1,4,0:0:0:0:
192,192,256205,1,0,0:0:0:0:
320,192,256273,1,0,0:0:0:0:
448,192,256273,1,0,0:0:0:0:
64,192,256340,1,0,0:0:0:0:
192,192,256340,1,0,0:0:0:0:
320,192,256408,1,0,0:0:0:0:
448,192,256408,1,0,0:0:0:0:
64,192,256475,1,4,0:0:0:0:
192,192,256475,1,0,0:0:0:0:
320,192,256543,1,0,0:0:0:0:
448,192,256543,1,0,0:0:0:0:
64,192,256610,1,0,0:0:0:0:
192,192,256610,1,0,0:0:0:0:
320,192,256678,1,0,0:0:0:0:
448,192,256678,1,0,0:0:0:0:
64,192,256745,1,4,0:0:0:0:
192,192,256745,1,0,0:0:0:0:
320,192,256813,1,0,0:0:0:0:
448,192,256813,1,0,0:0:0:0:
64,192,256880,1,0,0:0:0:0:
192,192,256880,1,0,0:0:0:0:
320,192,256948,1,0,0:0:0:0:
448,192,256948,1,0,0:0:0:0:
448,0,257015,128,0,261335:0:0:0:0:
320,0,257015,128,0,261335:0:0:0:0:
192,192,257015,1,4,0:0:0:0:
64,192,257015,1,0,0:0:0:0:
