osu file format v13

[General]
AudioFilename: Freedom Dive.mp3
AudioLeadIn: 0
PreviewTime: 108027
Countdown: 0
SampleSet: Normal
StackLeniency: 0.7
Mode: 3
LetterboxInBreaks: 0
SpecialStyle: 0
WidescreenStoryboard: 1

[Editor]
DistanceSpacing: 0.8
BeatDivisor: 4
GridSize: 8
TimelineZoom: 2

[Metadata]
Title:FREEDOM DiVE
TitleUnicode:FREEDOM DiVE
Artist:xi
ArtistUnicode:xi
Creator:razlteh
Version:Blocko's 7K Normal
Source:Cytus
Tags:bms blocko fullerene- tear dainesl
BeatmapID:420781
BeatmapSetID:173612

[Difficulty]
HPDrainRate:7
CircleSize:7
OverallDifficulty:7
ApproachRate:5
SliderMultiplier:1.4
SliderTickRate:1

[Events]
//Background and Video events
0,0,"background desuuu.jpg",0,0
//Break Periods
//Storyboard Layer 0 (Background)
//Storyboard Layer 1 (Fail)
//Storyboard Layer 2 (Pass)
//Storyboard Layer 3 (Foreground)
//Storyboard Sound Samples
//Background Colour Transformations
3,100,163,162,255

[TimingPoints]
2133,270.002700027,4,1,0,30,1,0
10772,-100,4,1,0,30,0,0
28052,-100,4,1,0,30,0,0
47492,-100,4,1,0,30,0,0
64772,-100,4,1,0,30,0,1
82052,-125,4,1,0,30,0,0
98252,-121.212121212121,4,1,0,30,0,0
98253,-121.212121212121,4,1,0,5,0,0
99332,-117.647058823529,4,1,0,5,0,0
99333,-117.647058823529,4,1,0,10,0,0
100412,-113.636363636364,4,1,0,10,0,0
100413,-113.636363636364,4,1,0,15,0,0
101492,-111.111111111111,4,1,0,15,0,0
101493,-111.111111111111,4,1,0,20,0,0
102572,-107.52688172043,4,1,0,20,0,0
102574,-107.52688172043,4,1,0,25,0,0
103652,-105.263157894737,4,1,0,25,0,0
103654,-105.263157894737,4,1,0,30,0,0
104732,-103.092783505155,4,1,0,30,0,0
104734,-103.092783505155,4,1,0,40,0,0
105812,-100,4,1,0,40,0,0
105814,-100,4,1,0,50,0,0
106084,-100,4,1,0,60,0,0
106352,-90.9090909090909,4,1,0,60,0,0
106354,-90.9090909090909,4,1,0,70,0,0
106624,-90.9090909090909,4,1,0,85,0,0
106892,-66.6666666666667,4,1,0,85,0,0
106894,-66.6666666666667,4,1,0,100,0,0
107567,-86.9565217391304,4,1,0,100,0,0
107635,-125,4,1,0,100,0,0
107702,-200,4,1,0,100,0,0
107704,-200,4,1,0,30,0,0
107974,-100,4,1,0,30,0,1
146853,-100,4,1,0,30,0,0
218135,-100,4,1,0,30,0,1
257015,-100,4,1,0,30,0,0

[HitObjects]
256,192,1322,128,0,2133:0:0:0:0:
36,192,2133,1,4,0:0:0:0:
475,192,2133,1,0,0:0:0:0:
109,192,2268,1,0,0:0:0:0:
402,192,2538,1,2,0:0:0:0:
109,192,2808,1,2,0:0:0:0:
402,192,3078,1,2,0:0:0:0:
109,192,3348,1,0,0:0:0:0:
402,192,3618,1,2,0:0:0:0:
109,192,3888,1,2,0:0:0:0:
402,192,4158,1,0,0:0:0:0:
256,192,4293,1,4,0:0:0:0:
182,192,4428,1,0,0:0:0:0:
329,192,4698,1,2,0:0:0:0:
182,192,4968,1,2,0:0:0:0:
329,192,5238,1,2,0:0:0:0:
182,192,5508,1,0,0:0:0:0:
329,192,5778,1,2,0:0:0:0:
182,192,6048,1,2,0:0:0:0:
256,192,6183,1,2,0:0:0:0:
329,192,6318,1,2,0:0:0:0:
256,192,6453,1,4,0:0:0:0:
36,192,6588,1,0,0:0:0:0:
475,192,6858,1,2,0:0:0:0:
36,192,7128,1,2,0:0:0:0:
475,192,7398,1,2,0:0:0:0:
36,192,7668,1,0,0:0:0:0:
475,192,7938,1,2,0:0:0:0:
36,192,8208,1,2,0:0:0:0:
475,192,8478,1,0,0:0:0:0:
256,192,8613,1,4,0:0:0:0:
109,192,8748,1,0,0:0:0:0:
402,192,9018,1,2,0:0:0:0:
256,192,9153,1,4,0:0:0:0:
109,192,9288,1,2,0:0:0:0:
402,192,9558,1,2,0:0:0:0:
36,192,9693,1,4,0:0:0:0:
475,192,9693,1,0,0:0:0:0:
109,192,9963,1,4,0:0:0:0:
402,192,9963,1,0,0:0:0:0:
182,192,10233,1,6,0:0:0:0:
329,192,10233,1,0,0:0:0:0:
36,192,10503,1,6,0:0:0:0:
475,192,10503,1,0,0:0:0:0:
109,192,10773,1,4,0:0:0:0:
402,192,11043,1,8,0:0:0:0:
256,192,11043,1,0,0:0:0:0:
109,192,11313,1,0,0:0:0:0:
402,192,11583,1,8,0:0:0:0:
256,192,11583,1,0,0:0:0:0:
36,192,11853,1,0,0:0:0:0:
329,192,12123,1,8,0:0:0:0:
475,192,12123,1,0,0:0:0:0:
36,192,12393,1,0,0:0:0:0:
329,192,12663,1,8,0:0:0:0:
475,192,12663,1,0,0:0:0:0:
402,192,12933,1,4,0:0:0:0:
256,192,13203,1,8,0:0:0:0:
109,192,13203,1,0,0:0:0:0:
402,192,13473,1,0,0:0:0:0:
256,192,13743,1,8,0:0:0:0:
109,192,13743,1,0,0:0:0:0:
475,192,14013,1,0,0:0:0:0:
182,192,14283,1,12,0:0:0:0:
36,192,14283,1,0,0:0:0:0:
109,192,14553,1,12,0:0:0:0:
402,192,14553,1,0,0:0:0:0:
402,192,14755,1,12,0:0:0:0:
109,192,14755,1,0,0:0:0:0:
109,192,14958,1,12,0:0:0:0:
402,192,14958,1,0,0:0:0:0:
36,192,15093,1,4,0:0:0:0:
182,192,15363,1,8,0:0:0:0:
475,192,15363,1,0,0:0:0:0:
36,192,15633,1,0,0:0:0:0:
182,192,15903,1,12,0:0:0:0:
475,192,15903,1,0,0:0:0:0:
475,192,16173,1,0,0:0:0:0:
329,192,16443,1,12,0:0:0:0:
36,192,16443,1,0,0:0:0:0:
475,192,16713,1,4,0:0:0:0:
329,192,16983,1,12,0:0:0:0:
36,192,16983,1,0,0:0:0:0:
256,192,17253,1,4,0:0:0:0:
402,192,17523,1,8,0:0:0:0:
109,192,17523,1,0,0:0:0:0:
256,192,17793,1,4,0:0:0:0:
109,192,18063,1,8,0:0:0:0:
402,192,18063,1,0,0:0:0:0:
36,192,18333,1,12,0:0:0:0:
475,192,18333,1,0,0:0:0:0:
36,192,18603,1,12,0:0:0:0:
475,192,18603,1,0,0:0:0:0:
109,192,18873,1,12,0:0:0:0:
402,192,18873,1,0,0:0:0:0:
36,192,19143,1,12,0:0:0:0:
475,192,19143,1,0,0:0:0:0:
329,192,19413,1,4,0:0:0:0:
109,192,19683,1,8,0:0:0:0:
402,192,19683,1,0,0:0:0:0:
182,192,19953,1,0,0:0:0:0:
109,192,20223,1,8,0:0:0:0:
402,192,20223,1,0,0:0:0:0:
329,192,20493,1,0,0:0:0:0:
402,192,20763,1,8,0:0:0:0:
109,192,20763,1,0,0:0:0:0:
182,192,21033,1,0,0:0:0:0:
109,192,21303,1,8,0:0:0:0:
402,192,21303,1,0,0:0:0:0:
256,192,21573,1,4,0:0:0:0:
36,192,21843,1,8,0:0:0:0:
475,192,21843,1,0,0:0:0:0:
256,192,22113,1,0,0:0:0:0:
36,192,22383,1,8,0:0:0:0:
475,192,22383,1,0,0:0:0:0:
256,192,22653,1,0,0:0:0:0:
182,192,22923,1,12,0:0:0:0:
329,192,22923,1,0,0:0:0:0:
182,192,23193,1,12,0:0:0:0:
329,192,23193,1,0,0:0:0:0:
182,192,23395,1,12,0:0:0:0:
329,192,23395,1,0,0:0:0:0:
329,192,23598,1,12,0:0:0:0:
182,192,23598,1,0,0:0:0:0:
36,192,23733,1,4,0:0:0:0:
182,192,24003,1,8,0:0:0:0:
329,192,24003,1,0,0:0:0:0:
109,192,24273,1,0,0:0:0:0:
256,192,24543,1,12,0:0:0:0:
402,192,24543,1,0,0:0:0:0:
182,192,24813,1,0,0:0:0:0:
329,192,25083,1,12,0:0:0:0:
475,192,25083,1,0,0:0:0:0:
109,192,25353,1,4,0:0:0:0:
256,192,25623,1,12,0:0:0:0:
402,192,25623,1,0,0:0:0:0:
36,192,25893,128,4,26163:0:0:0:0:
182,192,26163,128,8,26433:0:0:0:0:
109,192,26163,1,0,0:0:0:0:
329,192,26433,128,4,26703:0:0:0:0:
402,192,26703,128,8,26973:0:0:0:0:
256,192,26703,1,0,0:0:0:0:
109,192,26973,128,4,27243:0:0:0:0:
182,192,27243,128,12,27513:0:0:0:0:
402,192,27243,1,0,0:0:0:0:
329,192,27513,128,4,27783:0:0:0:0:
256,192,27513,1,0,0:0:0:0:
402,192,27783,128,12,28053:0:0:0:0:
109,192,27783,1,0,0:0:0:0:
475,192,28053,1,4,0:0:0:0:
36,192,28053,1,0,0:0:0:0:
329,192,28593,1,0,0:0:0:0:
182,192,29133,1,0,0:0:0:0:
36,192,29673,1,0,0:0:0:0:
402,192,30213,1,0,0:0:0:0:
256,192,30753,1,0,0:0:0:0:
109,192,31293,1,0,0:0:0:0:
182,192,31833,1,0,0:0:0:0:
256,192,32103,1,0,0:0:0:0:
329,192,32373,1,0,0:0:0:0:
182,192,32913,1,0,0:0:0:0:
329,192,33183,1,0,0:0:0:0:
475,192,33453,1,0,0:0:0:0:
402,192,33723,1,0,0:0:0:0:
329,192,33993,1,0,0:0:0:0:
256,192,34263,1,0,0:0:0:0:
256,192,34533,1,0,0:0:0:0:
182,192,34803,1,0,0:0:0:0:
109,192,35073,1,0,0:0:0:0:
475,192,35343,1,0,0:0:0:0:
182,192,35613,1,0,0:0:0:0:
36,192,36153,1,0,0:0:0:0:
109,192,36693,1,4,0:0:0:0:
402,192,36693,1,0,0:0:0:0:
182,192,36963,1,0,0:0:0:0:
329,192,37233,1,0,0:0:0:0:
475,192,37503,1,0,0:0:0:0:
329,192,37773,1,0,0:0:0:0:
402,192,37863,1,0,0:0:0:0:
182,192,37953,1,0,0:0:0:0:
109,192,38043,1,0,0:0:0:0:
256,192,38313,1,0,0:0:0:0:
109,192,38718,1,0,0:0:0:0:
36,192,38853,1,4,0:0:0:0:
475,192,38853,1,0,0:0:0:0:
182,192,39123,1,0,0:0:0:0:
402,192,39393,1,0,0:0:0:0:
256,192,39663,1,0,0:0:0:0:
475,192,39933,1,0,0:0:0:0:
329,192,40203,1,0,0:0:0:0:
109,192,40473,1,0,0:0:0:0:
182,192,40743,1,0,0:0:0:0:
36,192,41013,1,4,0:0:0:0:
475,192,41013,1,0,0:0:0:0:
182,192,41553,1,0,0:0:0:0:
256,192,41958,1,0,0:0:0:0:
402,192,42093,1,4,0:0:0:0:
109,192,42093,1,0,0:0:0:0:
329,192,42363,1,0,0:0:0:0:
109,192,42633,1,4,0:0:0:0:
402,192,42633,1,0,0:0:0:0:
475,192,42835,1,0,0:0:0:0:
36,192,43038,1,0,0:0:0:0:
109,192,43173,1,4,0:0:0:0:
402,192,43173,1,0,0:0:0:0:
109,192,43713,1,4,0:0:0:0:
402,192,43713,1,0,0:0:0:0:
109,192,43983,1,4,0:0:0:0:
402,192,43983,1,0,0:0:0:0:
36,192,44253,1,4,0:0:0:0:
475,192,44253,1,0,0:0:0:0:
109,192,44523,1,4,0:0:0:0:
402,192,44523,1,0,0:0:0:0:
182,192,44793,1,4,0:0:0:0:
329,192,44793,1,0,0:0:0:0:
109,192,45063,1,4,0:0:0:0:
402,192,45063,1,0,0:0:0:0:
36,192,45333,1,4,0:0:0:0:
109,192,45333,1,0,0:0:0:0:
182,192,45603,1,0,0:0:0:0:
402,192,45873,1,4,0:0:0:0:
329,192,45873,1,0,0:0:0:0:
475,192,46143,1,0,0:0:0:0:
36,192,46413,1,4,0:0:0:0:
256,192,46413,1,0,0:0:0:0:
109,192,46683,1,4,0:0:0:0:
329,192,46683,1,0,0:0:0:0:
182,192,46953,1,4,0:0:0:0:
402,192,46953,1,0,0:0:0:0:
256,192,47223,1,4,0:0:0:0:
475,192,47223,1,0,0:0:0:0:
402,192,47493,128,4,47628:0:0:0:0:
109,192,47493,1,0,0:0:0:0:
402,192,47763,128,8,47898:0:0:0:0:
475,192,48033,128,0,48168:0:0:0:0:
402,192,48303,128,8,48438:0:0:0:0:
329,192,48573,128,0,48708:0:0:0:0:
256,192,48843,128,8,48978:0:0:0:0:
182,192,49113,128,0,49248:0:0:0:0:
36,192,49383,128,8,49518:0:0:0:0:
109,192,49653,128,0,49788:0:0:0:0:
182,192,49923,128,8,50058:0:0:0:0:
402,192,50193,128,0,50328:0:0:0:0:
402,192,50463,128,8,50598:0:0:0:0:
475,192,50733,128,0,50868:0:0:0:0:
329,192,51003,128,8,51138:0:0:0:0:
182,192,51273,128,0,51408:0:0:0:0:
36,192,51543,128,8,51678:0:0:0:0:
109,192,51813,128,0,51948:0:0:0:0:
256,192,52083,128,8,52218:0:0:0:0:
402,192,52353,128,0,52488:0:0:0:0:
256,192,52623,128,8,52758:0:0:0:0:
36,192,52893,128,0,53028:0:0:0:0:
475,192,53163,128,8,53298:0:0:0:0:
329,192,53433,128,0,53568:0:0:0:0:
182,192,53703,128,8,53838:0:0:0:0:
109,192,53973,128,0,54108:0:0:0:0:
182,192,54243,128,8,54378:0:0:0:0:
329,192,54513,128,0,54648:0:0:0:0:
402,192,54783,128,8,54918:0:0:0:0:
475,192,55053,128,0,55188:0:0:0:0:
256,192,55323,128,12,55458:0:0:0:0:
36,192,55593,128,12,55728:0:0:0:0:
256,192,55863,128,12,55998:0:0:0:0:
329,192,56133,128,4,56268:0:0:0:0:
329,192,56403,128,8,56538:0:0:0:0:
182,192,56403,1,0,0:0:0:0:
475,192,56673,128,0,56808:0:0:0:0:
402,192,56943,128,8,57078:0:0:0:0:
109,192,56943,1,0,0:0:0:0:
182,192,57213,128,0,57348:0:0:0:0:
109,192,57483,128,8,57618:0:0:0:0:
402,192,57483,1,0,0:0:0:0:
36,192,57753,128,0,57888:0:0:0:0:
109,192,58023,128,8,58158:0:0:0:0:
402,192,58023,1,0,0:0:0:0:
329,192,58293,128,0,58428:0:0:0:0:
402,192,58563,128,8,58698:0:0:0:0:
109,192,58563,1,0,0:0:0:0:
475,192,58833,128,0,58968:0:0:0:0:
475,192,59103,128,8,59238:0:0:0:0:
109,192,59103,1,0,0:0:0:0:
182,192,59373,128,0,59508:0:0:0:0:
109,192,59643,128,8,59778:0:0:0:0:
402,192,59643,1,0,0:0:0:0:
36,192,59913,128,0,60048:0:0:0:0:
109,192,60183,128,8,60318:0:0:0:0:
402,192,60183,1,0,0:0:0:0:
329,192,60453,128,0,60588:0:0:0:0:
402,192,60723,128,8,60858:0:0:0:0:
109,192,60723,1,0,0:0:0:0:
475,192,60993,128,0,61128:0:0:0:0:
109,192,61263,128,8,61398:0:0:0:0:
402,192,61263,1,0,0:0:0:0:
36,192,61533,128,0,61668:0:0:0:0:
475,192,61803,128,8,61938:0:0:0:0:
182,192,61803,1,0,0:0:0:0:
329,192,62073,128,0,62208:0:0:0:0:
182,192,62343,128,8,62478:0:0:0:0:
402,192,62343,1,0,0:0:0:0:
36,192,62613,1,0,0:0:0:0:
182,192,62748,1,0,0:0:0:0:
256,192,62883,1,8,0:0:0:0:
402,192,63018,1,0,0:0:0:0:
475,192,63153,1,0,0:0:0:0:
36,192,63288,1,0,0:0:0:0:
109,192,63423,1,8,0:0:0:0:
182,192,63558,1,0,0:0:0:0:
256,192,63693,5,8,0:0:0:0:
182,192,63828,1,0,0:0:0:0:
256,192,63963,1,12,0:0:0:0:
329,192,64098,1,0,0:0:0:0:
475,192,64233,1,4,0:0:0:0:
402,192,64368,1,0,0:0:0:0:
329,192,64503,1,12,0:0:0:0:
256,192,64638,1,0,0:0:0:0:
36,192,64773,5,6,0:0:0:0:
475,192,64773,1,0,0:0:0:0:
475,192,64976,1,2,0:0:0:0:
475,192,65178,1,2,0:0:0:0:
402,192,65381,1,2,0:0:0:0:
402,192,65583,1,10,0:0:0:0:
402,192,65718,1,2,0:0:0:0:
329,192,65853,1,2,0:0:0:0:
329,192,66056,1,2,0:0:0:0:
329,192,66258,1,2,0:0:0:0:
109,192,66461,1,2,0:0:0:0:
109,192,66663,1,10,0:0:0:0:
109,192,66798,1,2,0:0:0:0:
256,192,66933,1,2,0:0:0:0:
256,192,67136,1,2,0:0:0:0:
256,192,67338,1,2,0:0:0:0:
182,192,67541,1,2,0:0:0:0:
182,192,67743,1,10,0:0:0:0:
182,192,67878,1,2,0:0:0:0:
36,192,68013,1,2,0:0:0:0:
36,192,68216,1,0,0:0:0:0:
109,192,68418,1,2,0:0:0:0:
182,192,68553,1,0,0:0:0:0:
256,192,68688,1,2,0:0:0:0:
329,192,68823,1,8,0:0:0:0:
402,192,68958,1,2,0:0:0:0:
475,192,69093,1,2,0:0:0:0:
475,192,69296,1,2,0:0:0:0:
475,192,69498,1,2,0:0:0:0:
109,192,69633,1,2,0:0:0:0:
109,192,69768,1,0,0:0:0:0:
402,192,69903,1,10,0:0:0:0:
402,192,70038,1,0,0:0:0:0:
475,192,70173,1,2,0:0:0:0:
475,192,70308,1,0,0:0:0:0:
329,192,70443,1,10,0:0:0:0:
329,192,70578,1,0,0:0:0:0:
256,192,70713,1,2,0:0:0:0:
256,192,70848,1,0,0:0:0:0:
182,192,70983,1,10,0:0:0:0:
182,192,71118,1,0,0:0:0:0:
182,192,71253,1,2,0:0:0:0:
182,192,71388,1,0,0:0:0:0:
109,192,71523,1,10,0:0:0:0:
109,192,71658,1,0,0:0:0:0:
36,192,71793,1,2,0:0:0:0:
36,192,71928,1,0,0:0:0:0:
402,192,72063,1,10,0:0:0:0:
402,192,72198,1,0,0:0:0:0:
256,192,72333,1,2,0:0:0:0:
256,192,72536,1,2,0:0:0:0:
256,192,72738,1,2,0:0:0:0:
109,192,72941,1,2,0:0:0:0:
109,192,73143,1,14,0:0:0:0:
109,192,73278,1,0,0:0:0:0:
182,192,73413,1,6,0:0:0:0:
182,192,73548,1,0,0:0:0:0:
256,192,73683,1,10,0:0:0:0:
256,192,73818,1,0,0:0:0:0:
329,192,73953,1,2,0:0:0:0:
329,192,74088,1,0,0:0:0:0:
475,192,74223,1,10,0:0:0:0:
475,192,74358,1,0,0:0:0:0:
402,192,74493,1,2,0:0:0:0:
475,192,74583,1,2,0:0:0:0:
402,192,74673,1,2,0:0:0:0:
329,192,74763,1,10,0:0:0:0:
256,192,75033,1,2,0:0:0:0:
256,192,75236,1,2,0:0:0:0:
109,192,75438,1,2,0:0:0:0:
36,192,75573,1,2,0:0:0:0:
36,192,75708,1,0,0:0:0:0:
182,192,75843,1,10,0:0:0:0:
182,192,75978,1,0,0:0:0:0:
475,192,76113,1,0,0:0:0:0:
475,192,76248,1,0,0:0:0:0:
329,192,76383,1,10,0:0:0:0:
329,192,76518,1,0,0:0:0:0:
402,192,76653,1,2,0:0:0:0:
402,192,76788,1,0,0:0:0:0:
256,192,76923,1,10,0:0:0:0:
256,192,77058,1,0,0:0:0:0:
109,192,77193,1,2,0:0:0:0:
109,192,77328,1,0,0:0:0:0:
256,192,77463,1,10,0:0:0:0:
256,192,77598,1,0,0:0:0:0:
475,192,77733,1,2,0:0:0:0:
475,192,77936,1,2,0:0:0:0:
475,192,78138,1,2,0:0:0:0:
36,192,78341,1,0,0:0:0:0:
36,192,78543,1,8,0:0:0:0:
256,192,78678,1,2,0:0:0:0:
402,192,78813,1,2,0:0:0:0:
402,192,78948,1,0,0:0:0:0:
109,192,79083,1,10,0:0:0:0:
109,192,79218,1,0,0:0:0:0:
182,192,79353,1,2,0:0:0:0:
329,192,79556,1,2,0:0:0:0:
182,192,79758,1,2,0:0:0:0:
256,192,79893,1,2,0:0:0:0:
256,192,80096,1,2,0:0:0:0:
256,192,80298,1,2,0:0:0:0:
109,192,80501,1,0,0:0:0:0:
402,192,80703,1,10,0:0:0:0:
109,192,80838,1,0,0:0:0:0:
475,192,80973,1,14,0:0:0:0:
475,192,81108,1,0,0:0:0:0:
329,192,81243,1,14,0:0:0:0:
329,192,81378,1,0,0:0:0:0:
182,192,81513,1,14,0:0:0:0:
182,192,81648,1,0,0:0:0:0:
36,192,81783,1,14,0:0:0:0:
36,192,81918,1,0,0:0:0:0:
256,192,82053,128,14,84213:0:0:0:0:
402,192,82053,1,0,0:0:0:0:
109,192,82053,1,0,0:0:0:0:
182,192,82593,1,0,0:0:0:0:
329,192,83133,1,0,0:0:0:0:
475,192,83673,1,0,0:0:0:0:
402,192,83943,1,0,0:0:0:0:
329,192,84213,1,0,0:0:0:0:
182,192,84753,1,0,0:0:0:0:
36,192,85293,1,0,0:0:0:0:
109,192,85563,1,0,0:0:0:0:
182,192,85833,1,0,0:0:0:0:
109,192,86103,1,0,0:0:0:0:
256,192,86373,1,0,0:0:0:0:
109,192,86913,1,0,0:0:0:0:
109,192,87183,1,0,0:0:0:0:
182,192,87453,1,0,0:0:0:0:
475,192,87993,1,0,0:0:0:0:
402,192,88263,1,0,0:0:0:0:
329,192,88533,1,0,0:0:0:0:
36,192,89073,1,0,0:0:0:0:
36,192,89343,1,0,0:0:0:0:
109,192,89613,1,0,0:0:0:0:
256,192,89883,1,0,0:0:0:0:
36,192,90153,1,0,0:0:0:0:
475,192,90153,1,0,0:0:0:0:
109,192,90423,1,0,0:0:0:0:
402,192,90423,1,0,0:0:0:0:
182,192,90693,1,0,0:0:0:0:
329,192,90693,1,0,0:0:0:0:
256,192,90828,1,0,0:0:0:0:
109,192,91098,1,0,0:0:0:0:
402,192,91368,1,0,0:0:0:0:
109,192,91638,1,0,0:0:0:0:
402,192,91908,1,0,0:0:0:0:
109,192,92178,1,0,0:0:0:0:
402,192,92448,1,0,0:0:0:0:
109,192,92718,1,0,0:0:0:0:
256,192,92853,1,0,0:0:0:0:
475,192,92988,1,0,0:0:0:0:
36,192,93258,1,0,0:0:0:0:
475,192,93528,1,0,0:0:0:0:
36,192,93798,1,0,0:0:0:0:
475,192,94068,1,0,0:0:0:0:
36,192,94338,1,0,0:0:0:0:
475,192,94608,1,0,0:0:0:0:
36,192,94743,1,0,0:0:0:0:
475,192,94878,1,0,0:0:0:0:
256,192,95013,1,0,0:0:0:0:
182,192,95148,1,0,0:0:0:0:
329,192,95418,1,0,0:0:0:0:
182,192,95688,1,0,0:0:0:0:
329,192,95958,1,0,0:0:0:0:
256,192,96093,1,0,0:0:0:0:
109,192,96228,1,0,0:0:0:0:
402,192,96498,1,0,0:0:0:0:
256,192,96633,1,0,0:0:0:0:
109,192,96768,1,0,0:0:0:0:
402,192,97038,1,0,0:0:0:0:
256,192,97173,1,0,0:0:0:0:
36,192,97308,1,0,0:0:0:0:
256,192,97443,1,0,0:0:0:0:
475,192,97578,1,0,0:0:0:0:
256,192,97713,1,0,0:0:0:0:
36,192,97848,1,0,0:0:0:0:
256,192,97983,1,0,0:0:0:0:
475,192,98118,1,0,0:0:0:0:
36,192,98253,1,0,0:0:0:0:
36,192,98523,1,0,0:0:0:0:
36,192,98793,1,0,0:0:0:0:
36,192,99063,1,0,0:0:0:0:
109,192,99333,1,0,0:0:0:0:
109,192,99603,1,0,0:0:0:0:
109,192,99873,1,0,0:0:0:0:
109,192,100143,1,0,0:0:0:0:
182,192,100413,1,0,0:0:0:0:
182,192,100683,1,0,0:0:0:0:
182,192,100953,1,0,0:0:0:0:
182,192,101223,1,0,0:0:0:0:
256,192,101493,1,0,0:0:0:0:
256,192,101763,1,0,0:0:0:0:
256,192,102033,1,0,0:0:0:0:
256,192,102304,1,0,0:0:0:0:
256,192,102439,1,0,0:0:0:0:
329,192,102574,1,0,0:0:0:0:
182,192,102709,1,0,0:0:0:0:
329,192,102844,1,0,0:0:0:0:
182,192,102979,1,0,0:0:0:0:
329,192,103114,1,0,0:0:0:0:
182,192,103249,1,0,0:0:0:0:
329,192,103384,1,0,0:0:0:0:
182,192,103519,1,0,0:0:0:0:
402,192,103654,1,0,0:0:0:0:
109,192,103789,1,0,0:0:0:0:
402,192,103924,1,0,0:0:0:0:
109,192,104059,1,0,0:0:0:0:
402,192,104194,1,0,0:0:0:0:
109,192,104329,1,0,0:0:0:0:
402,192,104464,1,0,0:0:0:0:
109,192,104599,1,0,0:0:0:0:
475,192,104734,1,0,0:0:0:0:
36,192,104869,1,0,0:0:0:0:
475,192,105004,1,0,0:0:0:0:
36,192,105139,1,0,0:0:0:0:
475,192,105274,1,0,0:0:0:0:
36,192,105409,1,0,0:0:0:0:
475,192,105544,1,0,0:0:0:0:
36,192,105679,1,0,0:0:0:0:
182,192,105814,1,0,0:0:0:0:
329,192,105949,1,0,0:0:0:0:
182,192,106084,1,0,0:0:0:0:
329,192,106219,1,0,0:0:0:0:
109,192,106354,1,0,0:0:0:0:
402,192,106489,1,0,0:0:0:0:
109,192,106624,1,0,0:0:0:0:
402,192,106759,1,0,0:0:0:0:
36,192,106894,128,0,107704:0:0:0:0:
475,192,106894,128,0,107704:0:0:0:0:
256,192,107704,1,0,0:0:0:0:
36,192,107974,1,0,0:0:0:0:
475,192,107974,1,0,0:0:0:0:
475,192,108176,1,2,0:0:0:0:
475,192,108379,1,0,0:0:0:0:
329,192,108581,1,2,0:0:0:0:
329,192,108784,1,0,0:0:0:0:
329,192,108919,1,0,0:0:0:0:
182,192,109054,1,0,0:0:0:0:
182,192,109256,1,2,0:0:0:0:
182,192,109459,1,0,0:0:0:0:
36,192,109661,1,2,0:0:0:0:
36,192,109864,1,0,0:0:0:0:
36,192,109999,1,0,0:0:0:0:
402,192,110134,1,0,0:0:0:0:
402,192,110336,1,2,0:0:0:0:
402,192,110539,1,0,0:0:0:0:
256,192,110741,1,2,0:0:0:0:
256,192,110944,1,0,0:0:0:0:
256,192,111079,1,0,0:0:0:0:
109,192,111214,1,0,0:0:0:0:
109,192,111416,1,2,0:0:0:0:
36,192,111619,1,0,0:0:0:0:
182,192,111754,1,0,0:0:0:0:
256,192,111889,1,0,0:0:0:0:
329,192,112024,1,0,0:0:0:0:
402,192,112159,1,0,0:0:0:0:
475,192,112294,1,0,0:0:0:0:
475,192,112496,1,2,0:0:0:0:
475,192,112699,1,0,0:0:0:0:
36,192,112834,1,0,0:0:0:0:
36,192,112969,1,0,0:0:0:0:
256,192,113104,1,0,0:0:0:0:
256,192,113239,1,0,0:0:0:0:
475,192,113374,1,0,0:0:0:0:
475,192,113509,1,0,0:0:0:0:
182,192,113644,1,0,0:0:0:0:
182,192,113779,1,0,0:0:0:0:
402,192,113914,1,0,0:0:0:0:
402,192,114049,1,0,0:0:0:0:
109,192,114184,1,0,0:0:0:0:
109,192,114319,1,0,0:0:0:0:
329,192,114454,1,0,0:0:0:0:
329,192,114589,1,0,0:0:0:0:
256,192,114724,1,0,0:0:0:0:
256,192,114859,1,0,0:0:0:0:
36,192,114994,1,0,0:0:0:0:
36,192,115129,1,0,0:0:0:0:
475,192,115264,1,0,0:0:0:0:
475,192,115399,1,0,0:0:0:0:
329,192,115534,1,0,0:0:0:0:
329,192,115736,1,0,0:0:0:0:
329,192,115939,1,0,0:0:0:0:
182,192,116141,1,0,0:0:0:0:
182,192,116344,1,12,0:0:0:0:
182,192,116479,1,0,0:0:0:0:
109,192,116614,1,6,0:0:0:0:
109,192,116749,1,0,0:0:0:0:
182,192,116884,1,10,0:0:0:0:
182,192,117019,1,0,0:0:0:0:
329,192,117154,1,2,0:0:0:0:
329,192,117289,1,0,0:0:0:0:
402,192,117424,1,10,0:0:0:0:
402,192,117559,1,0,0:0:0:0:
256,192,117694,1,2,0:0:0:0:
475,192,117784,1,2,0:0:0:0:
256,192,117874,1,2,0:0:0:0:
36,192,117964,1,10,0:0:0:0:
402,192,118234,1,2,0:0:0:0:
402,192,118436,1,2,0:0:0:0:
109,192,118639,1,2,0:0:0:0:
36,192,118774,1,2,0:0:0:0:
36,192,118909,1,0,0:0:0:0:
182,192,119044,1,10,0:0:0:0:
182,192,119179,1,0,0:0:0:0:
402,192,119314,1,2,0:0:0:0:
402,192,119449,1,0,0:0:0:0:
256,192,119584,1,10,0:0:0:0:
256,192,119719,1,0,0:0:0:0:
475,192,119854,1,2,0:0:0:0:
475,192,119989,1,0,0:0:0:0:
329,192,120124,1,10,0:0:0:0:
329,192,120259,1,0,0:0:0:0:
109,192,120394,1,2,0:0:0:0:
109,192,120529,1,0,0:0:0:0:
182,192,120664,1,10,0:0:0:0:
182,192,120799,1,0,0:0:0:0:
475,192,120934,1,2,0:0:0:0:
475,192,121136,1,2,0:0:0:0:
475,192,121339,1,2,0:0:0:0:
36,192,121541,1,2,0:0:0:0:
36,192,121744,1,10,0:0:0:0:
256,192,121879,1,2,0:0:0:0:
329,192,122014,1,2,0:0:0:0:
329,192,122149,1,0,0:0:0:0:
182,192,122284,1,10,0:0:0:0:
182,192,122419,1,0,0:0:0:0:
256,192,122554,1,2,0:0:0:0:
402,192,122756,1,2,0:0:0:0:
109,192,122959,1,2,0:0:0:0:
329,192,123094,1,2,0:0:0:0:
329,192,123296,1,2,0:0:0:0:
329,192,123499,1,2,0:0:0:0:
182,192,123701,1,2,0:0:0:0:
329,192,123904,1,10,0:0:0:0:
182,192,124039,1,2,0:0:0:0:
475,192,124174,1,10,0:0:0:0:
475,192,124309,1,0,0:0:0:0:
402,192,124444,1,10,0:0:0:0:
402,192,124579,1,0,0:0:0:0:
256,192,124714,1,10,0:0:0:0:
256,192,124849,1,0,0:0:0:0:
182,192,124984,1,10,0:0:0:0:
182,192,125119,1,0,0:0:0:0:
36,192,125254,1,2,0:0:0:0:
475,192,125254,1,0,0:0:0:0:
475,192,125456,1,2,0:0:0:0:
36,192,125524,1,8,0:0:0:0:
475,192,125659,1,2,0:0:0:0:
402,192,125861,1,2,0:0:0:0:
402,192,126064,1,10,0:0:0:0:
109,192,126064,1,0,0:0:0:0:
402,192,126199,1,2,0:0:0:0:
182,192,126334,1,2,0:0:0:0:
182,192,126536,1,2,0:0:0:0:
329,192,126604,1,8,0:0:0:0:
182,192,126739,1,2,0:0:0:0:
36,192,126941,1,2,0:0:0:0:
36,192,127144,1,10,0:0:0:0:
475,192,127144,1,0,0:0:0:0:
36,192,127279,1,2,0:0:0:0:
329,192,127414,1,2,0:0:0:0:
329,192,127616,1,2,0:0:0:0:
182,192,127684,1,8,0:0:0:0:
329,192,127819,1,2,0:0:0:0:
256,192,128021,1,2,0:0:0:0:
256,192,128224,1,10,0:0:0:0:
402,192,128224,1,0,0:0:0:0:
256,192,128359,1,2,0:0:0:0:
109,192,128494,1,2,0:0:0:0:
109,192,128696,1,2,0:0:0:0:
329,192,128764,1,8,0:0:0:0:
36,192,128899,1,2,0:0:0:0:
109,192,129034,1,2,0:0:0:0:
182,192,129169,1,2,0:0:0:0:
329,192,129304,1,10,0:0:0:0:
36,192,129304,1,0,0:0:0:0:
402,192,129439,1,2,0:0:0:0:
475,192,129574,1,2,0:0:0:0:
475,192,129776,1,2,0:0:0:0:
256,192,129844,1,8,0:0:0:0:
475,192,129979,1,2,0:0:0:0:
36,192,130114,1,2,0:0:0:0:
36,192,130249,1,0,0:0:0:0:
182,192,130384,1,10,0:0:0:0:
329,192,130384,1,0,0:0:0:0:
182,192,130519,1,0,0:0:0:0:
475,192,130654,1,2,0:0:0:0:
475,192,130789,1,0,0:0:0:0:
329,192,130924,1,10,0:0:0:0:
36,192,130924,1,0,0:0:0:0:
329,192,131059,1,0,0:0:0:0:
182,192,131194,1,2,0:0:0:0:
182,192,131329,1,0,0:0:0:0:
109,192,131464,1,10,0:0:0:0:
475,192,131464,1,0,0:0:0:0:
109,192,131599,1,0,0:0:0:0:
402,192,131734,1,2,0:0:0:0:
402,192,131869,1,0,0:0:0:0:
256,192,132004,1,10,0:0:0:0:
109,192,132004,1,0,0:0:0:0:
256,192,132139,1,0,0:0:0:0:
36,192,132274,1,2,0:0:0:0:
36,192,132409,1,0,0:0:0:0:
329,192,132544,1,10,0:0:0:0:
109,192,132544,1,0,0:0:0:0:
329,192,132679,1,0,0:0:0:0:
182,192,132814,1,2,0:0:0:0:
182,192,133016,1,2,0:0:0:0:
402,192,133084,1,8,0:0:0:0:
182,192,133219,1,2,0:0:0:0:
475,192,133354,1,8,0:0:0:0:
109,192,133421,1,2,0:0:0:0:
109,192,133624,1,10,0:0:0:0:
402,192,133624,1,0,0:0:0:0:
109,192,133759,1,2,0:0:0:0:
36,192,133894,1,2,0:0:0:0:
36,192,134029,1,0,0:0:0:0:
329,192,134164,1,10,0:0:0:0:
256,192,134164,1,0,0:0:0:0:
329,192,134299,1,0,0:0:0:0:
182,192,134434,1,2,0:0:0:0:
182,192,134569,1,0,0:0:0:0:
475,192,134704,1,10,0:0:0:0:
36,192,134704,1,0,0:0:0:0:
475,192,134839,1,0,0:0:0:0:
329,192,134974,1,2,0:0:0:0:
402,192,135064,1,2,0:0:0:0:
256,192,135154,1,2,0:0:0:0:
109,192,135244,1,10,0:0:0:0:
182,192,135244,1,0,0:0:0:0:
329,192,135514,1,2,0:0:0:0:
329,192,135716,1,0,0:0:0:0:
256,192,135784,1,8,0:0:0:0:
182,192,135919,1,2,0:0:0:0:
36,192,136054,1,2,0:0:0:0:
36,192,136189,1,0,0:0:0:0:
329,192,136324,1,10,0:0:0:0:
109,192,136324,1,0,0:0:0:0:
329,192,136459,1,0,0:0:0:0:
475,192,136594,1,2,0:0:0:0:
475,192,136729,1,0,0:0:0:0:
182,192,136864,1,10,0:0:0:0:
402,192,136864,1,0,0:0:0:0:
182,192,136999,1,0,0:0:0:0:
402,192,137134,1,2,0:0:0:0:
402,192,137269,1,0,0:0:0:0:
256,192,137404,1,10,0:0:0:0:
36,192,137404,1,0,0:0:0:0:
256,192,137539,1,0,0:0:0:0:
109,192,137674,1,2,0:0:0:0:
109,192,137809,1,0,0:0:0:0:
256,192,137944,1,10,0:0:0:0:
475,192,137944,1,0,0:0:0:0:
256,192,138079,1,0,0:0:0:0:
329,192,138214,1,2,0:0:0:0:
329,192,138416,1,0,0:0:0:0:
182,192,138484,1,8,0:0:0:0:
329,192,138619,1,2,0:0:0:0:
36,192,138821,1,0,0:0:0:0:
36,192,139024,1,10,0:0:0:0:
475,192,139024,1,0,0:0:0:0:
182,192,139159,1,2,0:0:0:0:
402,192,139294,1,2,0:0:0:0:
402,192,139429,1,0,0:0:0:0:
109,192,139564,1,10,0:0:0:0:
256,192,139564,1,0,0:0:0:0:
109,192,139699,1,0,0:0:0:0:
402,192,139834,1,2,0:0:0:0:
475,192,140036,1,0,0:0:0:0:
36,192,140104,1,8,0:0:0:0:
182,192,140239,1,2,0:0:0:0:
475,192,140374,1,2,0:0:0:0:
475,192,140576,1,0,0:0:0:0:
475,192,140779,1,2,0:0:0:0:
182,192,140981,1,0,0:0:0:0:
475,192,141184,1,10,0:0:0:0:
182,192,141319,1,2,0:0:0:0:
475,192,141454,1,2,0:0:0:0:
256,192,141454,1,0,0:0:0:0:
475,192,141589,1,0,0:0:0:0:
402,192,141724,1,10,0:0:0:0:
182,192,141724,1,0,0:0:0:0:
402,192,141859,1,0,0:0:0:0:
329,192,141994,1,2,0:0:0:0:
109,192,141994,1,0,0:0:0:0:
329,192,142129,1,0,0:0:0:0:
256,192,142264,1,10,0:0:0:0:
36,192,142264,1,0,0:0:0:0:
256,192,142399,1,0,0:0:0:0:
36,192,142534,1,4,0:0:0:0:
109,192,142669,1,0,0:0:0:0:
182,192,142804,1,0,0:0:0:0:
256,192,142939,1,0,0:0:0:0:
109,192,143074,1,4,0:0:0:0:
182,192,143209,1,0,0:0:0:0:
256,192,143344,1,0,0:0:0:0:
329,192,143479,1,0,0:0:0:0:
182,192,143614,1,4,0:0:0:0:
256,192,143749,1,0,0:0:0:0:
329,192,143884,1,0,0:0:0:0:
402,192,144019,1,0,0:0:0:0:
256,192,144154,1,4,0:0:0:0:
329,192,144289,1,0,0:0:0:0:
402,192,144424,1,0,0:0:0:0:
475,192,144559,1,0,0:0:0:0:
109,192,144694,1,4,0:0:0:0:
182,192,144829,1,0,0:0:0:0:
329,192,144964,1,0,0:0:0:0:
402,192,145099,1,0,0:0:0:0:
36,192,145234,1,4,0:0:0:0:
109,192,145369,1,0,0:0:0:0:
402,192,145504,1,0,0:0:0:0:
475,192,145639,1,0,0:0:0:0:
36,192,145774,1,4,0:0:0:0:
182,192,145909,1,0,0:0:0:0:
329,192,146044,1,4,0:0:0:0:
475,192,146179,1,0,0:0:0:0:
109,192,146314,1,4,0:0:0:0:
182,192,146449,1,0,0:0:0:0:
329,192,146584,1,4,0:0:0:0:
402,192,146719,1,0,0:0:0:0:
36,192,146854,128,4,149014:0:0:0:0:
475,192,146854,128,0,149014:0:0:0:0:
256,192,147124,1,8,0:0:0:0:
256,192,147664,1,8,0:0:0:0:
256,192,148204,1,8,0:0:0:0:
256,192,148744,1,8,0:0:0:0:
109,192,149014,1,4,0:0:0:0:
402,192,149014,1,0,0:0:0:0:
256,192,149284,1,8,0:0:0:0:
256,192,149824,1,8,0:0:0:0:
256,192,150364,1,12,0:0:0:0:
182,192,150634,1,4,0:0:0:0:
329,192,150836,1,0,0:0:0:0:
182,192,151039,1,4,0:0:0:0:
109,192,151174,1,4,0:0:0:0:
256,192,151444,1,8,0:0:0:0:
36,192,151984,1,12,0:0:0:0:
475,192,152119,1,4,0:0:0:0:
109,192,152389,1,4,0:0:0:0:
402,192,152524,1,12,0:0:0:0:
182,192,152794,1,4,0:0:0:0:
256,192,152929,1,4,0:0:0:0:
329,192,153064,1,12,0:0:0:0:
36,192,153334,1,4,0:0:0:0:
475,192,153334,1,0,0:0:0:0:
109,192,153874,1,4,0:0:0:0:
402,192,153874,1,0,0:0:0:0:
36,192,154414,1,4,0:0:0:0:
475,192,154414,1,0,0:0:0:0:
182,192,154684,1,12,0:0:0:0:
109,192,154954,1,4,0:0:0:0:
402,192,154954,1,0,0:0:0:0:
329,192,155224,1,12,0:0:0:0:
36,192,155494,1,4,0:0:0:0:
256,192,155494,1,0,0:0:0:0:
182,192,155764,1,8,0:0:0:0:
329,192,156034,1,0,0:0:0:0:
475,192,156304,1,8,0:0:0:0:
36,192,156574,1,0,0:0:0:0:
182,192,156844,1,8,0:0:0:0:
329,192,157114,1,0,0:0:0:0:
475,192,157384,1,8,0:0:0:0:
109,192,157654,1,4,0:0:0:0:
256,192,157654,1,0,0:0:0:0:
182,192,157924,1,8,0:0:0:0:
329,192,158194,1,0,0:0:0:0:
402,192,158464,1,8,0:0:0:0:
109,192,158734,1,0,0:0:0:0:
182,192,159004,1,12,0:0:0:0:
329,192,159274,1,4,0:0:0:0:
402,192,159477,1,0,0:0:0:0:
329,192,159679,1,4,0:0:0:0:
36,192,159814,1,4,0:0:0:0:
256,192,159814,1,0,0:0:0:0:
109,192,160084,1,8,0:0:0:0:
402,192,160354,1,0,0:0:0:0:
256,192,160624,1,12,0:0:0:0:
475,192,160759,1,4,0:0:0:0:
109,192,161029,1,4,0:0:0:0:
182,192,161164,1,12,0:0:0:0:
256,192,161434,1,4,0:0:0:0:
329,192,161569,1,4,0:0:0:0:
402,192,161704,1,12,0:0:0:0:
36,192,161974,1,4,0:0:0:0:
182,192,162244,1,8,0:0:0:0:
475,192,162514,1,4,0:0:0:0:
329,192,162784,1,8,0:0:0:0:
36,192,163054,1,4,0:0:0:0:
475,192,163054,1,0,0:0:0:0:
36,192,163324,1,12,0:0:0:0:
475,192,163324,1,0,0:0:0:0:
109,192,163594,1,4,0:0:0:0:
402,192,163594,1,0,0:0:0:0:
36,192,163864,1,12,0:0:0:0:
475,192,163864,1,0,0:0:0:0:
36,192,164134,5,6,0:0:0:0:
475,192,164134,1,0,0:0:0:0:
109,192,164269,1,0,0:0:0:0:
182,192,164404,1,10,0:0:0:0:
256,192,164539,1,0,0:0:0:0:
182,192,164674,1,2,0:0:0:0:
256,192,164809,1,0,0:0:0:0:
329,192,164944,1,10,0:0:0:0:
402,192,165079,1,2,0:0:0:0:
475,192,165282,1,0,0:0:0:0:
402,192,165484,1,10,0:0:0:0:
329,192,165687,1,0,0:0:0:0:
256,192,165889,1,2,0:0:0:0:
182,192,166092,1,0,0:0:0:0:
329,192,166294,1,2,0:0:0:0:
36,192,166429,1,0,0:0:0:0:
329,192,166564,1,10,0:0:0:0:
36,192,166699,1,0,0:0:0:0:
182,192,166834,1,2,0:0:0:0:
475,192,166969,1,0,0:0:0:0:
182,192,167104,1,10,0:0:0:0:
475,192,167239,1,2,0:0:0:0:
402,192,167509,1,0,0:0:0:0:
329,192,167644,1,10,0:0:0:0:
256,192,167914,1,2,0:0:0:0:
182,192,168117,1,0,0:0:0:0:
109,192,168319,1,2,0:0:0:0:
36,192,168454,1,2,0:0:0:0:
109,192,168589,1,0,0:0:0:0:
182,192,168724,1,8,0:0:0:0:
256,192,168859,1,2,0:0:0:0:
109,192,168994,1,0,0:0:0:0:
182,192,169129,1,0,0:0:0:0:
256,192,169264,1,10,0:0:0:0:
329,192,169399,1,0,0:0:0:0:
402,192,169534,1,2,0:0:0:0:
109,192,169669,1,0,0:0:0:0:
402,192,169804,1,10,0:0:0:0:
109,192,169939,1,0,0:0:0:0:
402,192,170074,1,2,0:0:0:0:
182,192,170209,1,0,0:0:0:0:
256,192,170344,1,10,0:0:0:0:
329,192,170479,1,2,0:0:0:0:
475,192,170614,1,2,0:0:0:0:
402,192,170884,1,10,0:0:0:0:
329,192,171154,1,2,0:0:0:0:
402,192,171357,1,0,0:0:0:0:
256,192,171559,1,2,0:0:0:0:
329,192,171762,1,0,0:0:0:0:
256,192,171964,1,14,0:0:0:0:
182,192,172167,1,0,0:0:0:0:
109,192,172369,1,2,0:0:0:0:
36,192,172572,1,0,0:0:0:0:
182,192,172774,1,6,0:0:0:0:
36,192,172909,1,0,0:0:0:0:
109,192,173044,1,10,0:0:0:0:
182,192,173179,1,0,0:0:0:0:
109,192,173314,1,2,0:0:0:0:
256,192,173449,1,0,0:0:0:0:
402,192,173584,1,10,0:0:0:0:
475,192,173719,1,2,0:0:0:0:
36,192,173989,1,0,0:0:0:0:
182,192,174124,1,10,0:0:0:0:
256,192,174259,1,0,0:0:0:0:
329,192,174394,1,2,0:0:0:0:
402,192,174529,1,0,0:0:0:0:
475,192,174664,1,10,0:0:0:0:
109,192,174799,1,0,0:0:0:0:
182,192,174934,1,2,0:0:0:0:
36,192,175069,1,0,0:0:0:0:
256,192,175204,1,10,0:0:0:0:
109,192,175339,1,0,0:0:0:0:
329,192,175474,1,2,0:0:0:0:
182,192,175609,1,0,0:0:0:0:
402,192,175744,1,10,0:0:0:0:
475,192,175879,1,2,0:0:0:0:
36,192,176149,1,2,0:0:0:0:
109,192,176284,1,10,0:0:0:0:
182,192,176419,1,0,0:0:0:0:
256,192,176554,1,2,0:0:0:0:
329,192,176689,1,2,0:0:0:0:
475,192,176824,1,10,0:0:0:0:
402,192,176959,1,0,0:0:0:0:
329,192,177094,1,2,0:0:0:0:
182,192,177229,1,0,0:0:0:0:
36,192,177364,1,8,0:0:0:0:
402,192,177499,1,2,0:0:0:0:
256,192,177634,1,0,0:0:0:0:
109,192,177769,1,0,0:0:0:0:
475,192,177904,1,10,0:0:0:0:
329,192,178039,1,0,0:0:0:0:
182,192,178174,1,0,0:0:0:0:
402,192,178309,1,2,0:0:0:0:
402,192,178444,1,10,0:0:0:0:
109,192,178579,1,0,0:0:0:0:
402,192,178714,1,2,0:0:0:0:
109,192,178849,1,0,0:0:0:0:
475,192,178984,1,10,0:0:0:0:
329,192,179119,1,0,0:0:0:0:
182,192,179254,1,2,0:0:0:0:
36,192,179389,1,0,0:0:0:0:
36,192,179524,1,8,0:0:0:0:
182,192,179794,1,2,0:0:0:0:
36,192,179929,1,0,0:0:0:0:
256,192,180064,1,8,0:0:0:0:
109,192,180199,1,0,0:0:0:0:
182,192,180334,1,6,0:0:0:0:
329,192,180469,1,0,0:0:0:0:
256,192,180604,1,14,0:0:0:0:
402,192,180739,1,0,0:0:0:0:
475,192,180874,1,6,0:0:0:0:
36,192,181009,1,0,0:0:0:0:
329,192,181144,1,14,0:0:0:0:
182,192,181279,1,0,0:0:0:0:
36,192,181414,1,6,0:0:0:0:
182,192,181549,1,0,0:0:0:0:
329,192,181684,1,10,0:0:0:0:
109,192,181819,1,2,0:0:0:0:
256,192,181954,1,0,0:0:0:0:
402,192,182089,1,2,0:0:0:0:
329,192,182224,1,10,0:0:0:0:
475,192,182359,1,2,0:0:0:0:
36,192,182494,1,2,0:0:0:0:
109,192,182629,1,0,0:0:0:0:
182,192,182764,1,10,0:0:0:0:
256,192,182899,1,0,0:0:0:0:
475,192,183034,1,2,0:0:0:0:
402,192,183169,1,0,0:0:0:0:
329,192,183304,1,10,0:0:0:0:
256,192,183439,1,0,0:0:0:0:
109,192,183574,1,2,0:0:0:0:
182,192,183709,1,0,0:0:0:0:
256,192,183844,1,10,0:0:0:0:
182,192,183979,1,2,0:0:0:0:
256,192,184114,1,0,0:0:0:0:
329,192,184249,1,2,0:0:0:0:
256,192,184384,1,10,0:0:0:0:
402,192,184519,1,2,0:0:0:0:
36,192,184654,1,2,0:0:0:0:
109,192,184789,1,0,0:0:0:0:
256,192,184924,1,10,0:0:0:0:
329,192,185059,1,0,0:0:0:0:
475,192,185194,1,0,0:0:0:0:
402,192,185329,1,0,0:0:0:0:
256,192,185464,1,0,0:0:0:0:
182,192,185599,1,0,0:0:0:0:
36,192,185734,1,0,0:0:0:0:
109,192,185869,1,0,0:0:0:0:
182,192,186004,1,0,0:0:0:0:
256,192,186274,1,0,0:0:0:0:
329,192,186477,1,0,0:0:0:0:
402,192,186679,1,0,0:0:0:0:
36,192,186882,1,0,0:0:0:0:
182,192,187084,1,0,0:0:0:0:
256,192,187287,1,0,0:0:0:0:
402,192,187489,1,0,0:0:0:0:
109,192,187624,1,0,0:0:0:0:
329,192,187759,1,0,0:0:0:0:
475,192,187894,1,0,0:0:0:0:
256,192,188029,1,0,0:0:0:0:
402,192,188164,1,0,0:0:0:0:
182,192,188299,1,0,0:0:0:0:
329,192,188434,1,0,0:0:0:0:
109,192,188569,1,0,0:0:0:0:
256,192,188704,1,0,0:0:0:0:
36,192,188839,1,0,0:0:0:0:
475,192,189042,1,0,0:0:0:0:
402,192,189244,1,0,0:0:0:0:
256,192,189447,1,0,0:0:0:0:
109,192,189649,1,0,0:0:0:0:
36,192,189852,1,0,0:0:0:0:
329,192,190054,1,6,0:0:0:0:
182,192,190189,1,0,0:0:0:0:
36,192,190324,1,0,0:0:0:0:
182,192,190459,1,0,0:0:0:0:
329,192,190594,1,0,0:0:0:0:
182,192,190729,1,0,0:0:0:0:
109,192,190864,1,0,0:0:0:0:
256,192,190999,1,0,0:0:0:0:
402,192,191134,1,0,0:0:0:0:
109,192,191269,1,0,0:0:0:0:
402,192,191404,1,0,0:0:0:0:
109,192,191539,1,0,0:0:0:0:
402,192,191674,1,0,0:0:0:0:
109,192,191809,1,0,0:0:0:0:
182,192,191944,1,0,0:0:0:0:
475,192,192079,1,0,0:0:0:0:
475,192,192349,1,0,0:0:0:0:
36,192,192349,1,0,0:0:0:0:
402,192,192484,1,0,0:0:0:0:
109,192,192484,1,0,0:0:0:0:
329,192,192754,1,0,0:0:0:0:
182,192,192754,1,0,0:0:0:0:
402,192,192957,1,0,0:0:0:0:
109,192,192957,1,0,0:0:0:0:
475,192,193294,1,0,0:0:0:0:
256,192,193429,1,0,0:0:0:0:
402,192,193564,1,0,0:0:0:0:
182,192,193699,1,0,0:0:0:0:
329,192,193834,1,0,0:0:0:0:
109,192,193969,1,0,0:0:0:0:
402,192,194104,1,0,0:0:0:0:
36,192,194239,1,0,0:0:0:0:
182,192,194374,1,0,0:0:0:0:
475,192,194509,1,0,0:0:0:0:
329,192,194644,1,0,0:0:0:0:
182,192,194779,1,0,0:0:0:0:
475,192,194914,1,0,0:0:0:0:
329,192,195049,1,0,0:0:0:0:
36,192,195184,1,0,0:0:0:0:
329,192,195319,1,0,0:0:0:0:
182,192,195454,1,0,0:0:0:0:
36,192,195589,1,0,0:0:0:0:
182,192,195724,1,0,0:0:0:0:
329,192,195859,1,0,0:0:0:0:
402,192,195994,1,0,0:0:0:0:
109,192,196129,1,0,0:0:0:0:
256,192,196264,1,0,0:0:0:0:
475,192,196399,1,0,0:0:0:0:
36,192,196534,1,0,0:0:0:0:
109,192,196669,1,0,0:0:0:0:
182,192,196804,1,0,0:0:0:0:
256,192,196939,1,0,0:0:0:0:
109,192,197074,1,0,0:0:0:0:
182,192,197209,1,0,0:0:0:0:
256,192,197344,1,0,0:0:0:0:
329,192,197479,1,0,0:0:0:0:
182,192,197614,1,0,0:0:0:0:
256,192,197749,1,0,0:0:0:0:
329,192,197884,1,0,0:0:0:0:
402,192,198019,1,0,0:0:0:0:
475,192,198154,1,0,0:0:0:0:
256,192,198289,1,0,0:0:0:0:
329,192,198424,1,0,0:0:0:0:
402,192,198559,1,0,0:0:0:0:
36,192,198694,1,0,0:0:0:0:
182,192,198829,1,0,0:0:0:0:
329,192,198964,1,0,0:0:0:0:
475,192,199099,1,0,0:0:0:0:
109,192,199234,1,0,0:0:0:0:
182,192,199369,1,0,0:0:0:0:
329,192,199504,1,0,0:0:0:0:
402,192,199639,1,0,0:0:0:0:
36,192,199774,1,0,0:0:0:0:
182,192,199909,1,0,0:0:0:0:
256,192,200044,1,0,0:0:0:0:
329,192,200179,1,0,0:0:0:0:
475,192,200314,1,0,0:0:0:0:
109,192,200449,1,0,0:0:0:0:
256,192,200584,1,0,0:0:0:0:
402,192,200719,1,0,0:0:0:0:
475,192,200854,1,0,0:0:0:0:
36,192,200854,1,0,0:0:0:0:
256,192,201934,1,0,0:0:0:0:
182,192,203015,1,0,0:0:0:0:
402,192,204095,1,0,0:0:0:0:
329,192,204635,1,0,0:0:0:0:
109,192,205175,1,0,0:0:0:0:
475,192,206255,1,0,0:0:0:0:
329,192,206795,1,0,0:0:0:0:
182,192,207335,1,0,0:0:0:0:
109,192,208415,1,0,0:0:0:0:
36,192,208955,1,0,0:0:0:0:
109,192,209495,1,0,0:0:0:0:
402,192,209495,1,0,0:0:0:0:
475,192,210575,1,0,0:0:0:0:
402,192,211115,1,0,0:0:0:0:
329,192,211655,1,0,0:0:0:0:
182,192,211655,1,0,0:0:0:0:
475,192,212735,1,0,0:0:0:0:
256,192,213275,1,0,0:0:0:0:
36,192,213815,1,0,0:0:0:0:
475,192,213815,1,0,0:0:0:0:
182,192,214422,1,0,0:0:0:0:
256,192,214760,1,0,0:0:0:0:
109,192,214895,1,0,0:0:0:0:
402,192,214895,1,0,0:0:0:0:
329,192,215165,1,0,0:0:0:0:
402,192,215435,1,0,0:0:0:0:
109,192,215435,1,0,0:0:0:0:
475,192,215637,1,0,0:0:0:0:
36,192,215840,1,0,0:0:0:0:
182,192,215975,1,0,0:0:0:0:
329,192,215975,1,0,0:0:0:0:
182,192,216515,1,0,0:0:0:0:
329,192,216515,1,0,0:0:0:0:
182,192,216785,1,0,0:0:0:0:
329,192,216785,1,0,0:0:0:0:
475,192,217055,128,0,217325:0:0:0:0:
36,192,217055,128,0,217325:0:0:0:0:
402,192,217325,128,0,217595:0:0:0:0:
109,192,217325,128,0,217595:0:0:0:0:
329,192,217595,128,0,217865:0:0:0:0:
182,192,217595,128,0,217865:0:0:0:0:
109,192,217865,128,0,218135:0:0:0:0:
402,192,217865,128,0,218135:0:0:0:0:
475,192,218135,1,0,0:0:0:0:
36,192,218135,1,0,0:0:0:0:
475,192,218337,1,0,0:0:0:0:
109,192,218405,1,0,0:0:0:0:
475,192,218540,1,0,0:0:0:0:
329,192,218742,1,0,0:0:0:0:
329,192,218945,1,0,0:0:0:0:
109,192,218945,1,0,0:0:0:0:
329,192,219080,1,0,0:0:0:0:
182,192,219215,1,0,0:0:0:0:
182,192,219417,1,0,0:0:0:0:
402,192,219485,1,0,0:0:0:0:
182,192,219620,1,0,0:0:0:0:
36,192,219822,1,0,0:0:0:0:
36,192,220025,1,0,0:0:0:0:
402,192,220025,1,0,0:0:0:0:
36,192,220160,1,0,0:0:0:0:
402,192,220295,1,0,0:0:0:0:
402,192,220497,1,0,0:0:0:0:
36,192,220565,1,0,0:0:0:0:
402,192,220700,1,0,0:0:0:0:
256,192,220902,1,0,0:0:0:0:
256,192,221105,1,0,0:0:0:0:
475,192,221105,1,0,0:0:0:0:
256,192,221240,1,0,0:0:0:0:
109,192,221375,1,0,0:0:0:0:
109,192,221577,1,0,0:0:0:0:
329,192,221645,1,0,0:0:0:0:
36,192,221780,1,0,0:0:0:0:
109,192,221915,1,0,0:0:0:0:
182,192,222050,1,0,0:0:0:0:
256,192,222185,1,0,0:0:0:0:
475,192,222185,1,0,0:0:0:0:
329,192,222320,1,0,0:0:0:0:
402,192,222455,1,0,0:0:0:0:
402,192,222657,1,0,0:0:0:0:
109,192,222725,1,0,0:0:0:0:
402,192,222860,1,0,0:0:0:0:
329,192,222995,1,0,0:0:0:0:
329,192,223130,1,0,0:0:0:0:
402,192,223265,1,0,0:0:0:0:
109,192,223265,1,0,0:0:0:0:
402,192,223400,1,0,0:0:0:0:
475,192,223535,1,0,0:0:0:0:
475,192,223670,1,0,0:0:0:0:
402,192,223805,1,0,0:0:0:0:
36,192,223805,1,0,0:0:0:0:
402,192,223940,1,0,0:0:0:0:
256,192,224075,1,0,0:0:0:0:
256,192,224210,1,0,0:0:0:0:
182,192,224345,1,0,0:0:0:0:
475,192,224345,1,0,0:0:0:0:
182,192,224480,1,0,0:0:0:0:
329,192,224615,1,0,0:0:0:0:
329,192,224750,1,0,0:0:0:0:
109,192,224885,1,0,0:0:0:0:
402,192,224885,1,0,0:0:0:0:
109,192,225020,1,0,0:0:0:0:
36,192,225155,1,0,0:0:0:0:
36,192,225290,1,0,0:0:0:0:
402,192,225425,1,0,0:0:0:0:
182,192,225425,1,0,0:0:0:0:
402,192,225560,1,0,0:0:0:0:
256,192,225695,1,0,0:0:0:0:
256,192,225897,1,0,0:0:0:0:
36,192,225965,1,0,0:0:0:0:
256,192,226100,1,0,0:0:0:0:
475,192,226235,1,0,0:0:0:0:
109,192,226302,1,0,0:0:0:0:
109,192,226505,1,0,0:0:0:0:
329,192,226505,1,0,0:0:0:0:
109,192,226640,1,0,0:0:0:0:
182,192,226775,1,0,0:0:0:0:
182,192,226910,1,0,0:0:0:0:
329,192,227045,1,0,0:0:0:0:
36,192,227045,1,0,0:0:0:0:
329,192,227180,1,0,0:0:0:0:
402,192,227315,1,0,0:0:0:0:
402,192,227450,1,0,0:0:0:0:
475,192,227585,1,0,0:0:0:0:
109,192,227585,1,0,0:0:0:0:
475,192,227720,1,0,0:0:0:0:
182,192,227855,1,0,0:0:0:0:
402,192,227945,1,0,0:0:0:0:
329,192,228035,1,0,0:0:0:0:
109,192,228125,1,0,0:0:0:0:
36,192,228125,1,0,0:0:0:0:
256,192,228395,1,0,0:0:0:0:
256,192,228597,1,0,0:0:0:0:
402,192,228665,1,0,0:0:0:0:
182,192,228800,1,0,0:0:0:0:
36,192,228935,1,0,0:0:0:0:
36,192,229070,1,0,0:0:0:0:
109,192,229205,1,0,0:0:0:0:
329,192,229205,1,0,0:0:0:0:
109,192,229340,1,0,0:0:0:0:
402,192,229475,1,0,0:0:0:0:
402,192,229610,1,0,0:0:0:0:
182,192,229745,1,0,0:0:0:0:
329,192,229745,1,0,0:0:0:0:
182,192,229880,1,0,0:0:0:0:
475,192,230015,1,0,0:0:0:0:
475,192,230150,1,0,0:0:0:0:
329,192,230285,1,0,0:0:0:0:
109,192,230285,1,0,0:0:0:0:
329,192,230420,1,0,0:0:0:0:
256,192,230555,1,0,0:0:0:0:
256,192,230690,1,0,0:0:0:0:
329,192,230825,1,0,0:0:0:0:
36,192,230825,1,0,0:0:0:0:
329,192,230960,1,0,0:0:0:0:
475,192,231095,1,0,0:0:0:0:
475,192,231297,1,0,0:0:0:0:
109,192,231365,1,0,0:0:0:0:
475,192,231500,1,0,0:0:0:0:
36,192,231702,1,0,0:0:0:0:
36,192,231905,1,0,0:0:0:0:
329,192,231905,1,0,0:0:0:0:
256,192,232040,1,0,0:0:0:0:
402,192,232175,1,0,0:0:0:0:
402,192,232310,1,0,0:0:0:0:
109,192,232445,1,0,0:0:0:0:
256,192,232445,1,0,0:0:0:0:
109,192,232580,1,0,0:0:0:0:
182,192,232715,1,0,0:0:0:0:
329,192,232917,1,0,0:0:0:0:
36,192,232985,1,0,0:0:0:0:
182,192,233120,1,0,0:0:0:0:
402,192,233255,1,0,0:0:0:0:
402,192,233457,1,0,0:0:0:0:
182,192,233525,1,0,0:0:0:0:
402,192,233660,1,0,0:0:0:0:
109,192,233862,1,0,0:0:0:0:
256,192,234065,1,0,0:0:0:0:
329,192,234065,1,0,0:0:0:0:
109,192,234200,1,0,0:0:0:0:
475,192,234335,5,0,0:0:0:0:
36,192,234335,1,0,0:0:0:0:
475,192,234470,1,0,0:0:0:0:
329,192,234605,1,0,0:0:0:0:
109,192,234605,1,0,0:0:0:0:
329,192,234740,1,0,0:0:0:0:
182,192,234875,1,0,0:0:0:0:
402,192,234875,1,0,0:0:0:0:
182,192,235010,1,0,0:0:0:0:
36,192,235145,1,0,0:0:0:0:
475,192,235145,1,0,0:0:0:0:
36,192,235280,1,0,0:0:0:0:
475,192,235415,5,0,0:0:0:0:
256,192,235415,1,0,0:0:0:0:
182,192,235550,1,0,0:0:0:0:
475,192,235617,1,0,0:0:0:0:
182,192,235752,1,0,0:0:0:0:
475,192,235820,1,0,0:0:0:0:
109,192,235955,1,0,0:0:0:0:
402,192,236022,1,0,0:0:0:0:
109,192,236157,1,0,0:0:0:0:
402,192,236225,1,0,0:0:0:0:
402,192,236360,1,0,0:0:0:0:
329,192,236495,1,0,0:0:0:0:
182,192,236495,1,0,0:0:0:0:
36,192,236630,1,0,0:0:0:0:
329,192,236697,1,0,0:0:0:0:
36,192,236832,1,0,0:0:0:0:
329,192,236900,1,0,0:0:0:0:
109,192,237035,1,0,0:0:0:0:
256,192,237035,1,0,0:0:0:0:
402,192,237102,1,0,0:0:0:0:
109,192,237237,1,0,0:0:0:0:
402,192,237305,1,0,0:0:0:0:
402,192,237440,1,0,0:0:0:0:
475,192,237575,1,0,0:0:0:0:
329,192,237575,1,0,0:0:0:0:
182,192,237710,1,0,0:0:0:0:
475,192,237777,1,0,0:0:0:0:
182,192,237912,1,0,0:0:0:0:
475,192,237980,1,0,0:0:0:0:
36,192,238115,1,0,0:0:0:0:
329,192,238182,1,0,0:0:0:0:
36,192,238317,1,0,0:0:0:0:
329,192,238385,1,0,0:0:0:0:
329,192,238520,1,0,0:0:0:0:
256,192,238655,1,0,0:0:0:0:
475,192,238655,1,0,0:0:0:0:
109,192,238790,1,0,0:0:0:0:
256,192,238857,1,0,0:0:0:0:
109,192,238992,1,0,0:0:0:0:
256,192,239060,1,0,0:0:0:0:
36,192,239195,1,0,0:0:0:0:
402,192,239195,1,0,0:0:0:0:
182,192,239330,1,0,0:0:0:0:
329,192,239465,1,0,0:0:0:0:
256,192,239465,1,0,0:0:0:0:
402,192,239600,1,0,0:0:0:0:
475,192,239735,1,0,0:0:0:0:
182,192,239735,1,0,0:0:0:0:
36,192,239870,1,0,0:0:0:0:
475,192,239937,1,0,0:0:0:0:
36,192,240072,1,0,0:0:0:0:
475,192,240140,1,0,0:0:0:0:
109,192,240275,1,0,0:0:0:0:
109,192,240410,1,0,0:0:0:0:
182,192,240545,1,0,0:0:0:0:
182,192,240680,1,0,0:0:0:0:
475,192,240815,1,0,0:0:0:0:
256,192,240815,1,0,0:0:0:0:
475,192,240950,1,0,0:0:0:0:
402,192,241085,1,0,0:0:0:0:
402,192,241220,1,0,0:0:0:0:
329,192,241355,1,0,0:0:0:0:
109,192,241355,1,0,0:0:0:0:
329,192,241490,1,0,0:0:0:0:
256,192,241625,1,0,0:0:0:0:
256,192,241760,1,0,0:0:0:0:
182,192,241895,1,0,0:0:0:0:
475,192,241895,1,0,0:0:0:0:
182,192,242030,1,0,0:0:0:0:
109,192,242165,1,0,0:0:0:0:
109,192,242300,1,0,0:0:0:0:
36,192,242435,1,0,0:0:0:0:
36,192,242570,1,0,0:0:0:0:
475,192,242705,1,0,0:0:0:0:
475,192,242840,1,0,0:0:0:0:
402,192,242975,1,0,0:0:0:0:
256,192,242975,1,0,0:0:0:0:
109,192,243110,1,0,0:0:0:0:
402,192,243177,1,0,0:0:0:0:
109,192,243312,1,0,0:0:0:0:
402,192,243380,1,0,0:0:0:0:
36,192,243515,1,0,0:0:0:0:
182,192,243515,1,0,0:0:0:0:
329,192,243582,1,0,0:0:0:0:
36,192,243717,1,0,0:0:0:0:
329,192,243785,1,0,0:0:0:0:
329,192,243920,1,0,0:0:0:0:
109,192,244055,1,0,0:0:0:0:
475,192,244055,1,0,0:0:0:0:
109,192,244190,1,0,0:0:0:0:
182,192,244325,1,0,0:0:0:0:
182,192,244460,1,0,0:0:0:0:
329,192,244595,1,0,0:0:0:0:
329,192,244730,1,0,0:0:0:0:
475,192,244865,1,0,0:0:0:0:
475,192,245000,1,0,0:0:0:0:
182,192,245135,1,0,0:0:0:0:
109,192,245135,1,0,0:0:0:0:
402,192,245225,1,0,0:0:0:0:
329,192,245315,1,0,0:0:0:0:
256,192,245405,1,0,0:0:0:0:
329,192,245675,1,0,0:0:0:0:
36,192,245675,1,0,0:0:0:0:
182,192,245810,1,0,0:0:0:0:
329,192,245877,1,0,0:0:0:0:
109,192,246012,1,0,0:0:0:0:
256,192,246080,1,0,0:0:0:0:
36,192,246215,1,0,0:0:0:0:
475,192,246215,1,0,0:0:0:0:
36,192,246350,1,0,0:0:0:0:
109,192,246485,1,0,0:0:0:0:
109,192,246620,1,0,0:0:0:0:
402,192,246755,1,0,0:0:0:0:
402,192,246890,1,0,0:0:0:0:
256,192,247025,1,0,0:0:0:0:
256,192,247160,1,0,0:0:0:0:
475,192,247295,1,0,0:0:0:0:
182,192,247295,1,0,0:0:0:0:
475,192,247430,1,0,0:0:0:0:
256,192,247565,1,0,0:0:0:0:
256,192,247700,1,0,0:0:0:0:
109,192,247835,1,0,0:0:0:0:
402,192,247835,1,0,0:0:0:0:
109,192,247970,1,0,0:0:0:0:
402,192,248105,1,0,0:0:0:0:
402,192,248240,1,0,0:0:0:0:
475,192,248375,1,0,0:0:0:0:
36,192,248375,1,0,0:0:0:0:
182,192,248510,1,0,0:0:0:0:
475,192,248577,1,0,0:0:0:0:
182,192,248712,1,0,0:0:0:0:
475,192,248780,1,0,0:0:0:0:
36,192,248915,1,0,0:0:0:0:
329,192,248982,1,0,0:0:0:0:
36,192,249117,1,0,0:0:0:0:
329,192,249185,1,0,0:0:0:0:
402,192,249320,1,0,0:0:0:0:
475,192,249455,1,0,0:0:0:0:
182,192,249455,1,0,0:0:0:0:
475,192,249590,1,0,0:0:0:0:
36,192,249725,1,0,0:0:0:0:
256,192,249725,1,0,0:0:0:0:
36,192,249860,1,0,0:0:0:0:
329,192,249995,1,0,0:0:0:0:
109,192,250130,1,0,0:0:0:0:
402,192,250197,1,0,0:0:0:0:
182,192,250332,1,0,0:0:0:0:
256,192,250400,1,0,0:0:0:0:
475,192,250535,1,0,0:0:0:0:
329,192,250535,1,0,0:0:0:0:
182,192,250670,1,0,0:0:0:0:
475,192,250737,1,0,0:0:0:0:
182,192,250872,1,0,0:0:0:0:
475,192,250940,1,0,0:0:0:0:
36,192,251075,1,0,0:0:0:0:
329,192,251142,1,0,0:0:0:0:
109,192,251277,1,0,0:0:0:0:
402,192,251345,1,0,0:0:0:0:
329,192,251480,1,0,0:0:0:0:
475,192,251615,5,0,0:0:0:0:
182,192,251615,1,0,0:0:0:0:
256,192,251615,1,0,0:0:0:0:
475,192,251750,1,0,0:0:0:0:
329,192,251885,1,0,0:0:0:0:
36,192,251885,1,0,0:0:0:0:
329,192,252020,1,0,0:0:0:0:
182,192,252155,1,0,0:0:0:0:
475,192,252155,1,0,0:0:0:0:
182,192,252290,1,0,0:0:0:0:
109,192,252425,1,0,0:0:0:0:
402,192,252425,1,0,0:0:0:0:
109,192,252560,1,0,0:0:0:0:
36,192,252695,5,0,0:0:0:0:
329,192,252695,1,0,0:0:0:0:
109,192,252830,1,0,0:0:0:0:
182,192,252965,1,0,0:0:0:0:
402,192,252965,1,0,0:0:0:0:
256,192,253100,1,0,0:0:0:0:
109,192,253235,1,0,0:0:0:0:
475,192,253235,1,0,0:0:0:0:
182,192,253370,1,0,0:0:0:0:
256,192,253505,1,0,0:0:0:0:
402,192,253505,1,0,0:0:0:0:
329,192,253640,1,0,0:0:0:0:
182,192,253775,1,0,0:0:0:0:
36,192,253775,1,0,0:0:0:0:
256,192,253910,1,0,0:0:0:0:
329,192,254045,1,0,0:0:0:0:
109,192,254045,1,0,0:0:0:0:
402,192,254180,1,0,0:0:0:0:
256,192,254315,1,0,0:0:0:0:
182,192,254315,1,0,0:0:0:0:
329,192,254450,1,0,0:0:0:0:
402,192,254585,1,0,0:0:0:0:
109,192,254585,1,0,0:0:0:0:
475,192,254720,1,0,0:0:0:0:
36,192,254855,1,0,0:0:0:0:
182,192,254855,1,0,0:0:0:0:
109,192,254990,1,0,0:0:0:0:
402,192,255125,1,0,0:0:0:0:
329,192,255125,1,0,0:0:0:0:
475,192,255260,1,0,0:0:0:0:
109,192,255395,1,0,0:0:0:0:
36,192,255395,1,0,0:0:0:0:
182,192,255530,1,0,0:0:0:0:
329,192,255665,1,0,0:0:0:0:
475,192,255665,1,0,0:0:0:0:
402,192,255800,1,0,0:0:0:0:
36,192,255935,1,0,0:0:0:0:
109,192,255935,1,0,0:0:0:0:
182,192,256070,1,0,0:0:0:0:
329,192,256205,1,0,0:0:0:0:
402,192,256205,1,0,0:0:0:0:
475,192,256340,1,0,0:0:0:0:
109,192,256475,1,0,0:0:0:0:
36,192,256475,1,0,0:0:0:0:
182,192,256610,1,0,0:0:0:0:
329,192,256745,1,0,0:0:0:0:
256,192,256745,1,0,0:0:0:0:
402,192,256880,1,0,0:0:0:0:
36,192,257015,128,0,261335:0:0:0:0:
182,192,257015,128,0,261335:0:0:0:0:
329,192,257015,128,0,261335:0:0:0:0:
475,192,257015,128,0,261335:0:0:0:0:
