osu file format v13

[General]
AudioFilename: Freedom Dive.mp3
AudioLeadIn: 0
PreviewTime: 108027
Countdown: 0
SampleSet: Normal
StackLeniency: 0.7
Mode: 3
LetterboxInBreaks: 0
SpecialStyle: 0
WidescreenStoryboard: 1

[Editor]
DistanceSpacing: 0.8
BeatDivisor: 4
GridSize: 8
TimelineZoom: 0.9

[Metadata]
Title:FREEDOM DiVE
TitleUnicode:FREEDOM DiVE
Artist:xi
ArtistUnicode:xi
Creator:razlteh
Version:Blocko's 7K Another
Source:Cytus
Tags:bms blocko fullerene- tear dainesl
BeatmapID:421369
BeatmapSetID:173612

[Difficulty]
HPDrainRate:8
CircleSize:7
OverallDifficulty:8
ApproachRate:5
SliderMultiplier:1.4
SliderTickRate:1

[Events]
//Background and Video events
0,0,"background desuuu.jpg",0,0
//Break Periods
//Storyboard Layer 0 (Background)
//Storyboard Layer 1 (Fail)
//Storyboard Layer 2 (Pass)
//Storyboard Layer 3 (Foreground)
//Storyboard Sound Samples
//Background Colour Transformations
3,100,163,162,255

[TimingPoints]
2133,270.002700027,4,1,0,30,1,0
10772,-100,4,1,0,30,0,0
28052,-100,4,1,0,30,0,0
47492,-100,4,1,0,30,0,0
64772,-100,4,1,0,30,0,1
82052,-125,4,1,0,30,0,0
98252,-121.212121212121,4,1,0,30,0,0
98253,-121.212121212121,4,1,0,5,0,0
99332,-117.647058823529,4,1,0,5,0,0
99333,-117.647058823529,4,1,0,10,0,0
100412,-113.636363636364,4,1,0,10,0,0
100413,-113.636363636364,4,1,0,15,0,0
101492,-111.111111111111,4,1,0,15,0,0
101493,-111.111111111111,4,1,0,20,0,0
102572,-107.52688172043,4,1,0,20,0,0
102574,-107.52688172043,4,1,0,25,0,0
103652,-105.263157894737,4,1,0,25,0,0
103654,-105.263157894737,4,1,0,30,0,0
104732,-103.092783505155,4,1,0,30,0,0
104734,-103.092783505155,4,1,0,40,0,0
105812,-100,4,1,0,40,0,0
105814,-100,4,1,0,50,0,0
106084,-100,4,1,0,60,0,0
106352,-90.9090909090909,4,1,0,60,0,0
106354,-90.9090909090909,4,1,0,70,0,0
106624,-90.9090909090909,4,1,0,85,0,0
106892,-66.6666666666667,4,1,0,85,0,0
106894,-66.6666666666667,4,1,0,100,0,0
107567,-86.9565217391304,4,1,0,100,0,0
107635,-125,4,1,0,100,0,0
107702,-200,4,1,0,100,0,0
107704,-200,4,1,0,30,0,0
107972,-100,4,1,0,30,0,1
146853,-100,4,1,0,30,0,0
218133,-100,4,1,0,30,0,1
257013,-100,4,1,0,30,0,0

[HitObjects]
256,192,1322,128,0,2132:0:0:0:0:
36,192,2132,128,4,3212:0:0:0:0:
109,192,2132,1,0,0:0:0:0:
402,192,2132,1,0,0:0:0:0:
475,192,2132,128,0,3212:0:0:0:0:
329,192,2267,1,0,0:0:0:0:
182,192,2267,1,0,0:0:0:0:
109,192,2335,1,2,0:0:0:0:
402,192,2537,1,2,0:0:0:0:
182,192,2537,1,0,0:0:0:0:
329,192,2807,1,2,0:0:0:0:
109,192,2807,1,0,0:0:0:0:
182,192,2942,1,2,0:0:0:0:
402,192,3077,1,2,0:0:0:0:
109,192,3077,1,0,0:0:0:0:
182,192,3212,1,4,0:0:0:0:
329,192,3347,1,0,0:0:0:0:
109,192,3347,1,0,0:0:0:0:
36,192,3415,1,2,0:0:0:0:
475,192,3617,1,2,0:0:0:0:
109,192,3617,1,0,0:0:0:0:
182,192,3752,1,0,0:0:0:0:
329,192,3887,1,2,0:0:0:0:
109,192,3887,1,0,0:0:0:0:
36,192,4022,1,0,0:0:0:0:
475,192,4157,1,0,0:0:0:0:
256,192,4292,1,4,0:0:0:0:
36,192,4292,1,0,0:0:0:0:
402,192,4427,1,0,0:0:0:0:
109,192,4427,1,0,0:0:0:0:
182,192,4495,1,2,0:0:0:0:
475,192,4697,1,2,0:0:0:0:
109,192,4697,1,0,0:0:0:0:
402,192,4967,1,2,0:0:0:0:
36,192,4967,1,0,0:0:0:0:
109,192,5102,1,2,0:0:0:0:
475,192,5237,1,2,0:0:0:0:
182,192,5237,1,0,0:0:0:0:
109,192,5372,1,4,0:0:0:0:
329,192,5507,1,0,0:0:0:0:
36,192,5507,1,0,0:0:0:0:
109,192,5575,1,2,0:0:0:0:
402,192,5777,1,2,0:0:0:0:
182,192,5777,1,0,0:0:0:0:
109,192,5912,1,4,0:0:0:0:
36,192,5980,1,0,0:0:0:0:
329,192,6047,1,2,0:0:0:0:
402,192,6047,1,0,0:0:0:0:
256,192,6081,1,0,0:0:0:0:
182,192,6115,1,0,0:0:0:0:
109,192,6149,1,0,0:0:0:0:
36,192,6182,1,2,0:0:0:0:
402,192,6317,1,2,0:0:0:0:
109,192,6317,1,0,0:0:0:0:
256,192,6452,1,4,0:0:0:0:
329,192,6452,1,0,0:0:0:0:
402,192,6587,1,0,0:0:0:0:
36,192,6587,1,0,0:0:0:0:
475,192,6655,1,2,0:0:0:0:
402,192,6857,1,2,0:0:0:0:
109,192,6857,1,0,0:0:0:0:
329,192,7127,1,2,0:0:0:0:
182,192,7127,1,0,0:0:0:0:
402,192,7262,1,2,0:0:0:0:
475,192,7397,1,2,0:0:0:0:
109,192,7397,1,0,0:0:0:0:
402,192,7532,1,4,0:0:0:0:
329,192,7667,1,0,0:0:0:0:
36,192,7667,1,0,0:0:0:0:
402,192,7735,1,2,0:0:0:0:
475,192,7937,1,2,0:0:0:0:
109,192,7937,1,0,0:0:0:0:
402,192,8072,1,0,0:0:0:0:
329,192,8207,1,2,0:0:0:0:
182,192,8207,1,0,0:0:0:0:
402,192,8342,1,0,0:0:0:0:
109,192,8477,1,0,0:0:0:0:
256,192,8612,1,4,0:0:0:0:
475,192,8612,1,0,0:0:0:0:
402,192,8747,1,0,0:0:0:0:
36,192,8747,1,0,0:0:0:0:
329,192,8815,1,2,0:0:0:0:
402,192,9017,1,2,0:0:0:0:
109,192,9017,1,0,0:0:0:0:
256,192,9152,1,4,0:0:0:0:
475,192,9287,1,2,0:0:0:0:
182,192,9287,1,0,0:0:0:0:
402,192,9422,1,2,0:0:0:0:
329,192,9557,1,2,0:0:0:0:
109,192,9557,1,0,0:0:0:0:
256,192,9692,5,4,0:0:0:0:
402,192,9692,1,0,0:0:0:0:
36,192,9692,1,0,0:0:0:0:
475,192,9827,1,2,0:0:0:0:
109,192,9827,1,0,0:0:0:0:
402,192,9895,1,0,0:0:0:0:
256,192,9962,1,4,0:0:0:0:
329,192,9962,1,0,0:0:0:0:
182,192,9962,1,0,0:0:0:0:
402,192,10097,1,2,0:0:0:0:
109,192,10097,1,0,0:0:0:0:
475,192,10165,1,0,0:0:0:0:
256,192,10232,1,6,0:0:0:0:
36,192,10232,1,0,0:0:0:0:
402,192,10300,1,0,0:0:0:0:
329,192,10367,1,6,0:0:0:0:
109,192,10367,1,0,0:0:0:0:
256,192,10502,1,6,0:0:0:0:
402,192,10502,1,0,0:0:0:0:
182,192,10502,1,0,0:0:0:0:
475,192,10570,1,0,0:0:0:0:
402,192,10637,1,2,0:0:0:0:
109,192,10637,1,0,0:0:0:0:
329,192,10705,1,0,0:0:0:0:
36,192,10772,5,4,0:0:0:0:
256,192,10772,1,0,0:0:0:0:
109,192,10840,1,0,0:0:0:0:
182,192,10907,1,0,0:0:0:0:
256,192,10975,1,0,0:0:0:0:
475,192,11042,1,8,0:0:0:0:
109,192,11042,1,0,0:0:0:0:
402,192,11110,1,0,0:0:0:0:
329,192,11177,1,0,0:0:0:0:
256,192,11245,1,0,0:0:0:0:
36,192,11312,1,0,0:0:0:0:
109,192,11380,1,0,0:0:0:0:
182,192,11447,1,0,0:0:0:0:
256,192,11515,1,0,0:0:0:0:
475,192,11582,1,8,0:0:0:0:
109,192,11582,1,0,0:0:0:0:
402,192,11650,1,0,0:0:0:0:
329,192,11717,1,0,0:0:0:0:
256,192,11785,1,0,0:0:0:0:
36,192,11852,1,0,0:0:0:0:
109,192,11920,1,0,0:0:0:0:
182,192,11987,1,0,0:0:0:0:
256,192,12055,1,0,0:0:0:0:
329,192,12122,1,8,0:0:0:0:
475,192,12122,1,0,0:0:0:0:
256,192,12190,1,0,0:0:0:0:
182,192,12257,1,0,0:0:0:0:
109,192,12325,1,0,0:0:0:0:
36,192,12392,1,0,0:0:0:0:
109,192,12460,1,0,0:0:0:0:
182,192,12527,1,0,0:0:0:0:
256,192,12595,1,0,0:0:0:0:
329,192,12662,1,8,0:0:0:0:
475,192,12662,1,0,0:0:0:0:
256,192,12730,1,0,0:0:0:0:
182,192,12797,1,0,0:0:0:0:
109,192,12865,1,0,0:0:0:0:
182,192,12932,1,4,0:0:0:0:
256,192,13000,1,0,0:0:0:0:
329,192,13067,1,0,0:0:0:0:
402,192,13135,1,0,0:0:0:0:
475,192,13202,1,8,0:0:0:0:
36,192,13202,1,0,0:0:0:0:
402,192,13270,1,0,0:0:0:0:
329,192,13337,1,0,0:0:0:0:
256,192,13405,1,0,0:0:0:0:
182,192,13472,1,0,0:0:0:0:
256,192,13540,1,0,0:0:0:0:
329,192,13607,1,0,0:0:0:0:
402,192,13675,1,0,0:0:0:0:
475,192,13742,1,8,0:0:0:0:
36,192,13742,1,0,0:0:0:0:
402,192,13810,1,0,0:0:0:0:
329,192,13877,1,0,0:0:0:0:
256,192,13945,1,0,0:0:0:0:
109,192,14012,1,0,0:0:0:0:
182,192,14080,1,0,0:0:0:0:
256,192,14147,1,0,0:0:0:0:
329,192,14215,1,0,0:0:0:0:
402,192,14282,1,12,0:0:0:0:
36,192,14282,1,0,0:0:0:0:
329,192,14350,1,0,0:0:0:0:
256,192,14417,1,0,0:0:0:0:
182,192,14485,1,0,0:0:0:0:
36,192,14552,1,12,0:0:0:0:
475,192,14552,1,0,0:0:0:0:
109,192,14620,1,0,0:0:0:0:
182,192,14687,1,0,0:0:0:0:
256,192,14755,1,12,0:0:0:0:
329,192,14755,1,0,0:0:0:0:
402,192,14822,1,0,0:0:0:0:
475,192,14890,1,0,0:0:0:0:
329,192,14957,1,12,0:0:0:0:
256,192,14957,1,0,0:0:0:0:
402,192,15025,1,0,0:0:0:0:
36,192,15092,1,4,0:0:0:0:
182,192,15092,1,0,0:0:0:0:
109,192,15160,1,0,0:0:0:0:
256,192,15227,1,0,0:0:0:0:
329,192,15295,1,0,0:0:0:0:
475,192,15362,1,8,0:0:0:0:
109,192,15362,1,0,0:0:0:0:
402,192,15430,1,0,0:0:0:0:
256,192,15497,1,0,0:0:0:0:
182,192,15565,1,0,0:0:0:0:
36,192,15632,1,0,0:0:0:0:
109,192,15700,1,0,0:0:0:0:
256,192,15767,1,0,0:0:0:0:
329,192,15835,1,0,0:0:0:0:
475,192,15902,1,12,0:0:0:0:
109,192,15902,1,0,0:0:0:0:
402,192,15970,1,0,0:0:0:0:
256,192,16037,1,4,0:0:0:0:
182,192,16105,1,0,0:0:0:0:
36,192,16172,1,0,0:0:0:0:
109,192,16240,1,0,0:0:0:0:
182,192,16307,1,4,0:0:0:0:
329,192,16375,1,0,0:0:0:0:
475,192,16442,1,12,0:0:0:0:
256,192,16442,1,0,0:0:0:0:
402,192,16510,1,0,0:0:0:0:
329,192,16577,1,0,0:0:0:0:
182,192,16645,1,0,0:0:0:0:
36,192,16712,1,4,0:0:0:0:
182,192,16780,1,0,0:0:0:0:
329,192,16847,1,4,0:0:0:0:
402,192,16915,1,0,0:0:0:0:
475,192,16982,1,12,0:0:0:0:
256,192,16982,1,0,0:0:0:0:
329,192,17050,1,0,0:0:0:0:
182,192,17117,1,0,0:0:0:0:
109,192,17185,1,0,0:0:0:0:
36,192,17252,1,4,0:0:0:0:
182,192,17320,1,0,0:0:0:0:
256,192,17387,1,0,0:0:0:0:
329,192,17455,1,0,0:0:0:0:
475,192,17522,1,8,0:0:0:0:
402,192,17522,1,0,0:0:0:0:
329,192,17590,1,0,0:0:0:0:
256,192,17657,1,0,0:0:0:0:
182,192,17725,1,0,0:0:0:0:
36,192,17792,1,4,0:0:0:0:
182,192,17860,1,0,0:0:0:0:
256,192,17927,1,0,0:0:0:0:
329,192,17995,1,0,0:0:0:0:
475,192,18062,1,8,0:0:0:0:
402,192,18062,1,0,0:0:0:0:
329,192,18130,1,0,0:0:0:0:
256,192,18197,1,0,0:0:0:0:
182,192,18265,1,0,0:0:0:0:
109,192,18332,1,12,0:0:0:0:
402,192,18332,1,0,0:0:0:0:
182,192,18400,1,0,0:0:0:0:
256,192,18467,1,0,0:0:0:0:
329,192,18535,1,0,0:0:0:0:
402,192,18602,1,12,0:0:0:0:
475,192,18602,1,0,0:0:0:0:
329,192,18670,1,0,0:0:0:0:
256,192,18737,1,0,0:0:0:0:
182,192,18805,1,0,0:0:0:0:
36,192,18872,1,12,0:0:0:0:
402,192,18872,1,0,0:0:0:0:
109,192,18940,1,0,0:0:0:0:
182,192,19007,1,0,0:0:0:0:
256,192,19075,1,0,0:0:0:0:
402,192,19142,1,12,0:0:0:0:
109,192,19142,1,0,0:0:0:0:
475,192,19210,1,0,0:0:0:0:
329,192,19277,1,0,0:0:0:0:
402,192,19345,1,0,0:0:0:0:
36,192,19412,1,4,0:0:0:0:
329,192,19412,1,0,0:0:0:0:
109,192,19480,1,0,0:0:0:0:
256,192,19547,1,0,0:0:0:0:
402,192,19615,1,0,0:0:0:0:
475,192,19682,1,8,0:0:0:0:
182,192,19682,1,0,0:0:0:0:
402,192,19750,1,0,0:0:0:0:
256,192,19817,1,0,0:0:0:0:
109,192,19885,1,0,0:0:0:0:
36,192,19952,1,0,0:0:0:0:
329,192,19952,1,0,0:0:0:0:
109,192,20020,1,0,0:0:0:0:
256,192,20087,1,0,0:0:0:0:
402,192,20155,1,0,0:0:0:0:
475,192,20222,1,8,0:0:0:0:
182,192,20222,1,0,0:0:0:0:
402,192,20290,1,0,0:0:0:0:
256,192,20357,1,0,0:0:0:0:
109,192,20425,1,0,0:0:0:0:
36,192,20492,1,0,0:0:0:0:
329,192,20492,1,0,0:0:0:0:
182,192,20560,1,0,0:0:0:0:
256,192,20627,1,0,0:0:0:0:
402,192,20695,1,0,0:0:0:0:
475,192,20762,1,8,0:0:0:0:
182,192,20762,1,0,0:0:0:0:
329,192,20830,1,0,0:0:0:0:
256,192,20897,1,0,0:0:0:0:
109,192,20965,1,0,0:0:0:0:
36,192,21032,1,0,0:0:0:0:
329,192,21032,1,0,0:0:0:0:
182,192,21100,1,0,0:0:0:0:
256,192,21167,1,0,0:0:0:0:
402,192,21235,1,0,0:0:0:0:
475,192,21302,1,8,0:0:0:0:
182,192,21302,1,0,0:0:0:0:
329,192,21370,1,0,0:0:0:0:
256,192,21437,1,0,0:0:0:0:
402,192,21437,1,0,0:0:0:0:
109,192,21505,1,0,0:0:0:0:
36,192,21572,1,4,0:0:0:0:
475,192,21572,1,0,0:0:0:0:
182,192,21640,1,0,0:0:0:0:
329,192,21707,1,0,0:0:0:0:
402,192,21775,1,0,0:0:0:0:
475,192,21842,1,8,0:0:0:0:
256,192,21842,1,0,0:0:0:0:
329,192,21910,1,0,0:0:0:0:
182,192,21977,1,0,0:0:0:0:
109,192,22045,1,0,0:0:0:0:
36,192,22112,1,0,0:0:0:0:
256,192,22112,1,0,0:0:0:0:
182,192,22180,1,0,0:0:0:0:
329,192,22247,1,0,0:0:0:0:
402,192,22315,1,0,0:0:0:0:
475,192,22382,1,8,0:0:0:0:
256,192,22382,1,0,0:0:0:0:
329,192,22450,1,0,0:0:0:0:
182,192,22517,1,0,0:0:0:0:
402,192,22517,1,0,0:0:0:0:
109,192,22585,1,0,0:0:0:0:
36,192,22652,1,0,0:0:0:0:
475,192,22652,1,0,0:0:0:0:
109,192,22720,1,0,0:0:0:0:
182,192,22787,1,0,0:0:0:0:
329,192,22855,1,0,0:0:0:0:
475,192,22922,1,12,0:0:0:0:
109,192,22922,1,0,0:0:0:0:
402,192,22990,1,0,0:0:0:0:
329,192,23057,1,0,0:0:0:0:
256,192,23057,1,0,0:0:0:0:
182,192,23125,1,0,0:0:0:0:
36,192,23192,1,12,0:0:0:0:
475,192,23192,1,0,0:0:0:0:
109,192,23260,1,0,0:0:0:0:
182,192,23327,1,0,0:0:0:0:
329,192,23395,1,12,0:0:0:0:
256,192,23395,1,0,0:0:0:0:
402,192,23462,1,0,0:0:0:0:
475,192,23530,1,0,0:0:0:0:
329,192,23597,1,12,0:0:0:0:
36,192,23597,1,0,0:0:0:0:
402,192,23665,1,0,0:0:0:0:
109,192,23732,1,4,0:0:0:0:
475,192,23732,1,0,0:0:0:0:
182,192,23800,1,0,0:0:0:0:
256,192,23867,1,0,0:0:0:0:
329,192,23935,1,0,0:0:0:0:
475,192,24002,1,8,0:0:0:0:
109,192,24002,1,0,0:0:0:0:
402,192,24070,1,0,0:0:0:0:
329,192,24137,1,0,0:0:0:0:
256,192,24205,1,0,0:0:0:0:
36,192,24272,1,0,0:0:0:0:
475,192,24272,1,0,0:0:0:0:
109,192,24340,1,0,0:0:0:0:
182,192,24407,1,0,0:0:0:0:
256,192,24475,1,0,0:0:0:0:
402,192,24542,1,12,0:0:0:0:
36,192,24542,1,0,0:0:0:0:
329,192,24610,1,0,0:0:0:0:
256,192,24677,1,4,0:0:0:0:
475,192,24677,1,0,0:0:0:0:
182,192,24745,5,0,0:0:0:0:
36,192,24812,5,0,0:0:0:0:
109,192,24880,1,0,0:0:0:0:
182,192,24947,1,4,0:0:0:0:
402,192,24947,1,0,0:0:0:0:
256,192,25015,1,0,0:0:0:0:
475,192,25082,1,12,0:0:0:0:
109,192,25082,1,0,0:0:0:0:
402,192,25150,1,0,0:0:0:0:
329,192,25217,1,0,0:0:0:0:
256,192,25285,1,0,0:0:0:0:
36,192,25352,1,4,0:0:0:0:
475,192,25352,1,0,0:0:0:0:
109,192,25420,1,0,0:0:0:0:
182,192,25487,1,4,0:0:0:0:
402,192,25487,1,0,0:0:0:0:
256,192,25555,1,0,0:0:0:0:
475,192,25622,1,12,0:0:0:0:
109,192,25622,1,0,0:0:0:0:
402,192,25690,1,0,0:0:0:0:
329,192,25757,1,0,0:0:0:0:
256,192,25825,1,0,0:0:0:0:
36,192,25892,128,4,26162:0:0:0:0:
109,192,25893,1,0,0:0:0:0:
182,192,25960,1,0,0:0:0:0:
256,192,26028,1,0,0:0:0:0:
329,192,26095,1,0,0:0:0:0:
109,192,26162,128,8,26432:0:0:0:0:
182,192,26163,1,0,0:0:0:0:
256,192,26230,1,0,0:0:0:0:
329,192,26298,1,0,0:0:0:0:
402,192,26365,1,0,0:0:0:0:
256,192,26433,1,0,0:0:0:0:
182,192,26433,128,4,26703:0:0:0:0:
329,192,26500,1,0,0:0:0:0:
402,192,26568,1,0,0:0:0:0:
475,192,26635,1,0,0:0:0:0:
256,192,26703,1,0,0:0:0:0:
109,192,26703,128,8,26973:0:0:0:0:
329,192,26770,1,0,0:0:0:0:
402,192,26838,1,0,0:0:0:0:
475,192,26905,1,0,0:0:0:0:
329,192,26973,128,4,27243:0:0:0:0:
36,192,26973,1,0,0:0:0:0:
109,192,27040,1,0,0:0:0:0:
182,192,27108,1,0,0:0:0:0:
256,192,27175,1,0,0:0:0:0:
402,192,27243,128,12,27513:0:0:0:0:
109,192,27243,1,0,0:0:0:0:
182,192,27310,1,0,0:0:0:0:
256,192,27378,1,0,0:0:0:0:
329,192,27445,1,0,0:0:0:0:
475,192,27513,128,4,27783:0:0:0:0:
109,192,27513,1,0,0:0:0:0:
182,192,27580,1,0,0:0:0:0:
256,192,27648,1,0,0:0:0:0:
329,192,27715,1,0,0:0:0:0:
402,192,27782,128,12,28052:0:0:0:0:
36,192,27783,1,0,0:0:0:0:
109,192,27850,1,0,0:0:0:0:
182,192,27918,1,0,0:0:0:0:
256,192,27985,1,0,0:0:0:0:
475,192,28052,5,4,0:0:0:0:
36,192,28052,128,0,29132:0:0:0:0:
109,192,28053,1,4,0:0:0:0:
329,192,28053,1,0,0:0:0:0:
475,192,28254,1,0,0:0:0:0:
475,192,28457,1,0,0:0:0:0:
402,192,28659,1,0,0:0:0:0:
402,192,28862,1,0,0:0:0:0:
402,192,28997,1,0,0:0:0:0:
256,192,29132,1,0,0:0:0:0:
256,192,29334,1,0,0:0:0:0:
256,192,29537,1,0,0:0:0:0:
109,192,29739,1,0,0:0:0:0:
109,192,29942,1,0,0:0:0:0:
109,192,30077,1,0,0:0:0:0:
329,192,30212,1,0,0:0:0:0:
329,192,30414,1,0,0:0:0:0:
329,192,30617,1,0,0:0:0:0:
182,192,30819,1,0,0:0:0:0:
182,192,31022,1,0,0:0:0:0:
182,192,31157,1,0,0:0:0:0:
36,192,31292,1,0,0:0:0:0:
36,192,31494,1,0,0:0:0:0:
109,192,31697,1,0,0:0:0:0:
182,192,31832,1,0,0:0:0:0:
256,192,31967,1,0,0:0:0:0:
329,192,32102,1,0,0:0:0:0:
402,192,32237,1,0,0:0:0:0:
475,192,32372,1,0,0:0:0:0:
475,192,32574,1,0,0:0:0:0:
475,192,32777,1,0,0:0:0:0:
182,192,32912,1,0,0:0:0:0:
182,192,33047,1,0,0:0:0:0:
329,192,33182,1,0,0:0:0:0:
329,192,33317,1,0,0:0:0:0:
475,192,33452,1,0,0:0:0:0:
475,192,33587,1,0,0:0:0:0:
402,192,33722,1,0,0:0:0:0:
402,192,33857,1,0,0:0:0:0:
256,192,33992,1,0,0:0:0:0:
256,192,34127,1,0,0:0:0:0:
182,192,34262,1,0,0:0:0:0:
182,192,34397,1,0,0:0:0:0:
182,192,34532,1,0,0:0:0:0:
182,192,34667,1,0,0:0:0:0:
109,192,34802,1,0,0:0:0:0:
109,192,34937,1,0,0:0:0:0:
36,192,35072,1,0,0:0:0:0:
36,192,35207,1,0,0:0:0:0:
475,192,35342,1,0,0:0:0:0:
475,192,35477,1,0,0:0:0:0:
329,192,35612,1,0,0:0:0:0:
329,192,35814,1,0,0:0:0:0:
329,192,36017,1,0,0:0:0:0:
182,192,36219,1,0,0:0:0:0:
182,192,36422,1,0,0:0:0:0:
182,192,36557,1,0,0:0:0:0:
329,192,36557,1,0,0:0:0:0:
402,192,36624,1,0,0:0:0:0:
475,192,36692,1,4,0:0:0:0:
256,192,36692,1,0,0:0:0:0:
36,192,36692,1,0,0:0:0:0:
256,192,36827,1,0,0:0:0:0:
329,192,36962,1,0,0:0:0:0:
329,192,37097,1,0,0:0:0:0:
402,192,37232,1,0,0:0:0:0:
402,192,37367,1,0,0:0:0:0:
475,192,37502,1,0,0:0:0:0:
475,192,37637,1,0,0:0:0:0:
402,192,37772,1,0,0:0:0:0:
475,192,37862,1,0,0:0:0:0:
402,192,37952,1,0,0:0:0:0:
329,192,38042,1,0,0:0:0:0:
329,192,38177,1,0,0:0:0:0:
256,192,38312,1,0,0:0:0:0:
256,192,38514,1,0,0:0:0:0:
109,192,38717,1,0,0:0:0:0:
402,192,38852,1,4,0:0:0:0:
475,192,38852,1,0,0:0:0:0:
36,192,38852,1,0,0:0:0:0:
36,192,38987,1,0,0:0:0:0:
109,192,39122,1,0,0:0:0:0:
109,192,39257,1,0,0:0:0:0:
182,192,39392,1,0,0:0:0:0:
182,192,39527,1,0,0:0:0:0:
36,192,39662,1,0,0:0:0:0:
36,192,39797,1,0,0:0:0:0:
475,192,39932,1,0,0:0:0:0:
475,192,40067,1,0,0:0:0:0:
256,192,40202,1,0,0:0:0:0:
256,192,40337,1,0,0:0:0:0:
109,192,40472,1,0,0:0:0:0:
109,192,40607,1,0,0:0:0:0:
256,192,40742,1,0,0:0:0:0:
256,192,40877,1,0,0:0:0:0:
36,192,41012,1,4,0:0:0:0:
182,192,41012,1,0,0:0:0:0:
475,192,41012,1,0,0:0:0:0:
475,192,41214,1,0,0:0:0:0:
475,192,41417,1,0,0:0:0:0:
36,192,41619,1,0,0:0:0:0:
36,192,41822,1,0,0:0:0:0:
256,192,41957,1,0,0:0:0:0:
109,192,41957,1,0,0:0:0:0:
182,192,42024,1,0,0:0:0:0:
402,192,42092,1,4,0:0:0:0:
329,192,42092,1,0,0:0:0:0:
475,192,42092,1,0,0:0:0:0:
402,192,42227,1,0,0:0:0:0:
109,192,42362,1,0,0:0:0:0:
109,192,42497,1,0,0:0:0:0:
402,192,42632,1,4,0:0:0:0:
256,192,42632,1,0,0:0:0:0:
182,192,42632,1,0,0:0:0:0:
475,192,42834,1,0,0:0:0:0:
36,192,43037,1,0,0:0:0:0:
329,192,43172,1,4,0:0:0:0:
109,192,43172,1,0,0:0:0:0:
402,192,43172,1,0,0:0:0:0:
329,192,43374,1,0,0:0:0:0:
329,192,43577,1,0,0:0:0:0:
109,192,43712,1,4,0:0:0:0:
402,192,43712,1,0,0:0:0:0:
182,192,43779,1,0,0:0:0:0:
329,192,43982,1,4,0:0:0:0:
402,192,43982,1,0,0:0:0:0:
109,192,43982,1,0,0:0:0:0:
182,192,44117,1,0,0:0:0:0:
475,192,44252,1,4,0:0:0:0:
475,192,44387,1,0,0:0:0:0:
402,192,44522,1,4,0:0:0:0:
109,192,44522,1,0,0:0:0:0:
402,192,44657,1,0,0:0:0:0:
329,192,44792,1,4,0:0:0:0:
36,192,44792,1,0,0:0:0:0:
329,192,44927,1,0,0:0:0:0:
256,192,45062,1,4,0:0:0:0:
109,192,45062,1,0,0:0:0:0:
256,192,45197,1,0,0:0:0:0:
36,192,45197,1,0,0:0:0:0:
109,192,45265,1,0,0:0:0:0:
182,192,45332,128,4,45467:0:0:0:0:
402,192,45332,1,0,0:0:0:0:
475,192,45467,1,0,0:0:0:0:
256,192,45602,128,0,45737:0:0:0:0:
402,192,45602,1,0,0:0:0:0:
36,192,45737,1,0,0:0:0:0:
109,192,45805,1,0,0:0:0:0:
329,192,45872,128,4,46007:0:0:0:0:
182,192,45872,1,0,0:0:0:0:
109,192,46007,1,0,0:0:0:0:
402,192,46142,128,0,46277:0:0:0:0:
36,192,46142,1,0,0:0:0:0:
182,192,46277,1,0,0:0:0:0:
109,192,46345,1,0,0:0:0:0:
256,192,46412,128,4,46547:0:0:0:0:
36,192,46412,1,0,0:0:0:0:
36,192,46547,1,0,0:0:0:0:
109,192,46615,1,0,0:0:0:0:
329,192,46682,128,4,46817:0:0:0:0:
182,192,46682,1,0,0:0:0:0:
182,192,46817,1,0,0:0:0:0:
109,192,46885,1,0,0:0:0:0:
402,192,46952,128,4,47087:0:0:0:0:
36,192,46952,1,0,0:0:0:0:
182,192,47020,1,0,0:0:0:0:
36,192,47087,1,0,0:0:0:0:
109,192,47121,1,0,0:0:0:0:
182,192,47155,1,0,0:0:0:0:
256,192,47189,1,0,0:0:0:0:
475,192,47222,128,4,47357:0:0:0:0:
329,192,47222,1,0,0:0:0:0:
256,192,47290,1,0,0:0:0:0:
182,192,47357,1,0,0:0:0:0:
109,192,47425,1,0,0:0:0:0:
36,192,47492,128,4,48032:0:0:0:0:
475,192,47492,128,0,48032:0:0:0:0:
329,192,47492,128,0,47627:0:0:0:0:
182,192,47492,1,0,0:0:0:0:
329,192,47762,128,8,47897:0:0:0:0:
182,192,47762,1,0,0:0:0:0:
256,192,47762,1,0,0:0:0:0:
402,192,48032,128,0,48167:0:0:0:0:
109,192,48032,1,0,0:0:0:0:
329,192,48302,128,8,48437:0:0:0:0:
36,192,48302,1,0,0:0:0:0:
182,192,48302,1,0,0:0:0:0:
256,192,48572,128,0,48707:0:0:0:0:
475,192,48572,1,0,0:0:0:0:
182,192,48842,128,8,48977:0:0:0:0:
402,192,48842,1,0,0:0:0:0:
329,192,48842,1,0,0:0:0:0:
109,192,49112,128,0,49247:0:0:0:0:
475,192,49112,1,0,0:0:0:0:
36,192,49382,128,8,49517:0:0:0:0:
402,192,49382,1,0,0:0:0:0:
256,192,49382,1,0,0:0:0:0:
329,192,49517,1,0,0:0:0:0:
182,192,49652,128,0,49787:0:0:0:0:
475,192,49652,1,0,0:0:0:0:
329,192,49922,128,8,50057:0:0:0:0:
109,192,49922,1,0,0:0:0:0:
36,192,49922,1,0,0:0:0:0:
402,192,50192,128,0,50327:0:0:0:0:
182,192,50192,1,0,0:0:0:0:
402,192,50462,128,8,50597:0:0:0:0:
109,192,50462,1,0,0:0:0:0:
36,192,50462,1,0,0:0:0:0:
475,192,50732,128,0,50867:0:0:0:0:
182,192,50732,1,0,0:0:0:0:
402,192,51002,128,8,51137:0:0:0:0:
109,192,51002,1,0,0:0:0:0:
256,192,51002,1,0,0:0:0:0:
329,192,51272,128,0,51407:0:0:0:0:
182,192,51272,1,0,0:0:0:0:
36,192,51542,128,8,51677:0:0:0:0:
402,192,51542,1,0,0:0:0:0:
256,192,51542,1,0,0:0:0:0:
329,192,51677,1,0,0:0:0:0:
182,192,51812,128,0,51947:0:0:0:0:
475,192,51812,1,0,0:0:0:0:
329,192,52082,128,8,52217:0:0:0:0:
109,192,52082,1,0,0:0:0:0:
256,192,52082,1,0,0:0:0:0:
475,192,52352,128,0,52487:0:0:0:0:
402,192,52352,1,0,0:0:0:0:
109,192,52622,128,8,52757:0:0:0:0:
329,192,52622,1,0,0:0:0:0:
182,192,52622,1,0,0:0:0:0:
36,192,52892,128,0,53027:0:0:0:0:
256,192,52892,1,0,0:0:0:0:
475,192,53162,128,8,53297:0:0:0:0:
182,192,53162,1,0,0:0:0:0:
329,192,53162,1,0,0:0:0:0:
402,192,53432,128,0,53567:0:0:0:0:
109,192,53432,1,0,0:0:0:0:
182,192,53702,128,8,53837:0:0:0:0:
329,192,53702,1,0,0:0:0:0:
36,192,53702,1,0,0:0:0:0:
256,192,53837,1,0,0:0:0:0:
109,192,53972,128,0,54107:0:0:0:0:
402,192,53972,1,0,0:0:0:0:
329,192,54242,128,8,54377:0:0:0:0:
256,192,54242,1,0,0:0:0:0:
182,192,54242,1,0,0:0:0:0:
109,192,54377,1,0,0:0:0:0:
402,192,54512,128,0,54647:0:0:0:0:
256,192,54512,1,0,0:0:0:0:
36,192,54782,128,8,54917:0:0:0:0:
329,192,54782,1,0,0:0:0:0:
109,192,54782,1,0,0:0:0:0:
182,192,54917,1,0,0:0:0:0:
475,192,55052,128,0,55187:0:0:0:0:
256,192,55052,1,0,0:0:0:0:
182,192,55187,1,0,0:0:0:0:
329,192,55322,128,12,55457:0:0:0:0:
109,192,55322,1,0,0:0:0:0:
36,192,55322,1,0,0:0:0:0:
402,192,55457,1,0,0:0:0:0:
256,192,55525,1,0,0:0:0:0:
182,192,55592,128,12,55727:0:0:0:0:
36,192,55592,1,0,0:0:0:0:
475,192,55592,1,0,0:0:0:0:
109,192,55660,1,0,0:0:0:0:
256,192,55727,1,0,0:0:0:0:
329,192,55761,1,0,0:0:0:0:
402,192,55795,1,0,0:0:0:0:
475,192,55829,1,0,0:0:0:0:
256,192,55862,128,12,55997:0:0:0:0:
36,192,55862,1,0,0:0:0:0:
329,192,55862,1,0,0:0:0:0:
109,192,55930,1,0,0:0:0:0:
182,192,55997,1,0,0:0:0:0:
109,192,56065,1,0,0:0:0:0:
329,192,56132,128,4,56267:0:0:0:0:
36,192,56132,1,0,0:0:0:0:
109,192,56267,1,0,0:0:0:0:
329,192,56402,128,8,56537:0:0:0:0:
182,192,56402,1,0,0:0:0:0:
256,192,56402,1,0,0:0:0:0:
109,192,56537,1,0,0:0:0:0:
475,192,56672,128,0,56807:0:0:0:0:
36,192,56672,1,0,0:0:0:0:
109,192,56807,1,0,0:0:0:0:
402,192,56942,128,8,57077:0:0:0:0:
182,192,56942,1,0,0:0:0:0:
256,192,56942,1,0,0:0:0:0:
109,192,57077,1,0,0:0:0:0:
329,192,57212,128,0,57347:0:0:0:0:
36,192,57212,1,0,0:0:0:0:
109,192,57347,1,0,0:0:0:0:
182,192,57482,128,8,57617:0:0:0:0:
475,192,57482,1,0,0:0:0:0:
256,192,57482,1,0,0:0:0:0:
402,192,57617,1,0,0:0:0:0:
109,192,57752,128,0,57887:0:0:0:0:
329,192,57752,1,0,0:0:0:0:
402,192,57887,1,0,0:0:0:0:
36,192,58022,128,8,58157:0:0:0:0:
475,192,58022,1,0,0:0:0:0:
256,192,58022,1,0,0:0:0:0:
402,192,58157,1,0,0:0:0:0:
109,192,58292,128,0,58427:0:0:0:0:
329,192,58292,1,0,0:0:0:0:
402,192,58427,1,0,0:0:0:0:
182,192,58562,128,8,58697:0:0:0:0:
475,192,58562,1,0,0:0:0:0:
256,192,58562,1,0,0:0:0:0:
402,192,58697,1,0,0:0:0:0:
329,192,58832,128,0,58967:0:0:0:0:
36,192,58832,1,0,0:0:0:0:
109,192,58967,1,0,0:0:0:0:
329,192,59102,128,8,59237:0:0:0:0:
182,192,59102,1,0,0:0:0:0:
256,192,59102,1,0,0:0:0:0:
109,192,59237,1,0,0:0:0:0:
402,192,59372,128,0,59507:0:0:0:0:
36,192,59372,1,0,0:0:0:0:
109,192,59507,1,0,0:0:0:0:
329,192,59642,128,8,59777:0:0:0:0:
182,192,59642,1,0,0:0:0:0:
256,192,59642,1,0,0:0:0:0:
109,192,59777,1,0,0:0:0:0:
182,192,59912,128,0,60047:0:0:0:0:
329,192,59912,1,0,0:0:0:0:
402,192,60047,1,0,0:0:0:0:
109,192,60182,128,8,60317:0:0:0:0:
475,192,60182,1,0,0:0:0:0:
256,192,60182,1,0,0:0:0:0:
402,192,60317,1,0,0:0:0:0:
182,192,60452,128,0,60587:0:0:0:0:
329,192,60452,1,0,0:0:0:0:
402,192,60587,1,0,0:0:0:0:
329,192,60722,128,8,60857:0:0:0:0:
182,192,60722,1,0,0:0:0:0:
256,192,60722,1,0,0:0:0:0:
109,192,60857,1,0,0:0:0:0:
402,192,60992,128,0,61127:0:0:0:0:
36,192,60992,1,0,0:0:0:0:
109,192,61127,1,0,0:0:0:0:
182,192,61262,128,8,61397:0:0:0:0:
475,192,61262,1,0,0:0:0:0:
256,192,61262,1,0,0:0:0:0:
402,192,61397,1,0,0:0:0:0:
36,192,61532,128,0,61667:0:0:0:0:
329,192,61532,1,0,0:0:0:0:
402,192,61667,1,0,0:0:0:0:
475,192,61802,128,8,61937:0:0:0:0:
182,192,61802,1,0,0:0:0:0:
256,192,61802,1,0,0:0:0:0:
109,192,61937,1,0,0:0:0:0:
329,192,62072,128,0,62207:0:0:0:0:
36,192,62072,1,0,0:0:0:0:
109,192,62207,1,0,0:0:0:0:
475,192,62342,1,8,0:0:0:0:
256,192,62342,128,0,62477:0:0:0:0:
182,192,62342,1,0,0:0:0:0:
402,192,62477,1,0,0:0:0:0:
36,192,62612,128,0,62747:0:0:0:0:
182,192,62612,1,0,0:0:0:0:
109,192,62747,128,0,62882:0:0:0:0:
256,192,62747,1,0,0:0:0:0:
182,192,62882,128,8,63017:0:0:0:0:
329,192,62882,1,0,0:0:0:0:
256,192,63017,128,0,63152:0:0:0:0:
402,192,63017,1,0,0:0:0:0:
329,192,63152,128,0,63287:0:0:0:0:
475,192,63152,1,0,0:0:0:0:
109,192,63287,128,0,63422:0:0:0:0:
182,192,63287,1,0,0:0:0:0:
402,192,63355,1,0,0:0:0:0:
182,192,63422,128,8,63557:0:0:0:0:
475,192,63422,1,0,0:0:0:0:
256,192,63557,128,0,63692:0:0:0:0:
36,192,63557,1,0,0:0:0:0:
109,192,63625,1,0,0:0:0:0:
329,192,63692,128,8,63827:0:0:0:0:
475,192,63692,1,0,0:0:0:0:
256,192,63827,128,0,63962:0:0:0:0:
182,192,63827,1,0,0:0:0:0:
109,192,63895,1,0,0:0:0:0:
329,192,63962,128,12,64097:0:0:0:0:
36,192,63962,1,0,0:0:0:0:
109,192,64030,1,0,0:0:0:0:
402,192,64097,128,0,64232:0:0:0:0:
182,192,64097,1,0,0:0:0:0:
109,192,64165,1,0,0:0:0:0:
475,192,64232,128,4,64367:0:0:0:0:
36,192,64232,1,0,0:0:0:0:
109,192,64300,1,0,0:0:0:0:
402,192,64367,128,0,64502:0:0:0:0:
256,192,64367,1,0,0:0:0:0:
182,192,64401,1,0,0:0:0:0:
109,192,64435,1,0,0:0:0:0:
36,192,64469,1,0,0:0:0:0:
329,192,64502,128,12,64637:0:0:0:0:
182,192,64502,1,0,0:0:0:0:
109,192,64570,1,0,0:0:0:0:
256,192,64637,128,0,64772:0:0:0:0:
36,192,64637,1,0,0:0:0:0:
182,192,64705,1,0,0:0:0:0:
475,192,64772,5,6,0:0:0:0:
109,192,64772,1,0,0:0:0:0:
402,192,64772,1,0,0:0:0:0:
36,192,64772,1,0,0:0:0:0:
329,192,64840,1,0,0:0:0:0:
182,192,64907,1,0,0:0:0:0:
475,192,64975,1,2,0:0:0:0:
329,192,65042,1,8,0:0:0:0:
36,192,65042,1,0,0:0:0:0:
182,192,65110,1,0,0:0:0:0:
475,192,65177,1,2,0:0:0:0:
329,192,65245,1,0,0:0:0:0:
182,192,65312,1,0,0:0:0:0:
402,192,65380,1,2,0:0:0:0:
256,192,65447,1,0,0:0:0:0:
109,192,65515,1,0,0:0:0:0:
402,192,65582,1,10,0:0:0:0:
256,192,65582,1,0,0:0:0:0:
109,192,65650,1,0,0:0:0:0:
402,192,65717,1,2,0:0:0:0:
109,192,65785,1,0,0:0:0:0:
329,192,65852,1,2,0:0:0:0:
182,192,65920,1,0,0:0:0:0:
36,192,65987,1,0,0:0:0:0:
329,192,66055,1,2,0:0:0:0:
182,192,66122,1,8,0:0:0:0:
475,192,66122,1,0,0:0:0:0:
36,192,66190,1,0,0:0:0:0:
329,192,66257,1,2,0:0:0:0:
182,192,66325,1,0,0:0:0:0:
36,192,66392,1,0,0:0:0:0:
402,192,66460,1,2,0:0:0:0:
256,192,66527,1,0,0:0:0:0:
109,192,66595,1,0,0:0:0:0:
402,192,66662,1,10,0:0:0:0:
256,192,66662,1,0,0:0:0:0:
109,192,66730,1,0,0:0:0:0:
402,192,66797,1,2,0:0:0:0:
109,192,66865,1,0,0:0:0:0:
475,192,66932,1,2,0:0:0:0:
329,192,67000,1,0,0:0:0:0:
182,192,67067,1,0,0:0:0:0:
475,192,67135,1,2,0:0:0:0:
329,192,67202,1,8,0:0:0:0:
36,192,67202,1,0,0:0:0:0:
182,192,67270,1,0,0:0:0:0:
475,192,67337,1,2,0:0:0:0:
329,192,67405,1,0,0:0:0:0:
182,192,67472,1,0,0:0:0:0:
329,192,67540,1,2,0:0:0:0:
182,192,67607,1,0,0:0:0:0:
36,192,67675,1,0,0:0:0:0:
329,192,67742,1,10,0:0:0:0:
182,192,67742,1,0,0:0:0:0:
36,192,67810,1,0,0:0:0:0:
329,192,67877,1,2,0:0:0:0:
36,192,67945,1,0,0:0:0:0:
402,192,68012,1,2,0:0:0:0:
256,192,68080,1,0,0:0:0:0:
109,192,68147,1,2,0:0:0:0:
402,192,68215,1,0,0:0:0:0:
256,192,68282,1,8,0:0:0:0:
475,192,68282,1,0,0:0:0:0:
109,192,68350,1,0,0:0:0:0:
36,192,68417,1,2,0:0:0:0:
182,192,68417,1,0,0:0:0:0:
109,192,68552,1,0,0:0:0:0:
256,192,68552,1,0,0:0:0:0:
182,192,68687,1,2,0:0:0:0:
329,192,68687,1,0,0:0:0:0:
256,192,68822,1,8,0:0:0:0:
402,192,68822,1,0,0:0:0:0:
36,192,68822,1,0,0:0:0:0:
329,192,68957,1,2,0:0:0:0:
475,192,68957,1,0,0:0:0:0:
402,192,69092,1,2,0:0:0:0:
256,192,69160,1,0,0:0:0:0:
109,192,69227,1,0,0:0:0:0:
402,192,69295,1,2,0:0:0:0:
256,192,69362,1,8,0:0:0:0:
329,192,69362,1,0,0:0:0:0:
109,192,69430,1,0,0:0:0:0:
402,192,69497,1,2,0:0:0:0:
109,192,69565,1,0,0:0:0:0:
36,192,69632,1,2,0:0:0:0:
329,192,69632,1,0,0:0:0:0:
36,192,69767,1,0,0:0:0:0:
329,192,69767,1,0,0:0:0:0:
109,192,69902,1,10,0:0:0:0:
402,192,69902,1,0,0:0:0:0:
256,192,69902,1,0,0:0:0:0:
109,192,70037,1,0,0:0:0:0:
402,192,70037,1,0,0:0:0:0:
475,192,70172,1,2,0:0:0:0:
329,192,70172,1,0,0:0:0:0:
329,192,70307,1,0,0:0:0:0:
475,192,70307,1,0,0:0:0:0:
402,192,70442,1,10,0:0:0:0:
256,192,70442,1,0,0:0:0:0:
109,192,70442,1,0,0:0:0:0:
256,192,70577,1,0,0:0:0:0:
402,192,70577,1,0,0:0:0:0:
329,192,70712,1,2,0:0:0:0:
182,192,70712,1,0,0:0:0:0:
182,192,70847,1,0,0:0:0:0:
329,192,70847,1,0,0:0:0:0:
109,192,70982,1,10,0:0:0:0:
256,192,70982,1,0,0:0:0:0:
402,192,70982,1,0,0:0:0:0:
256,192,71117,1,0,0:0:0:0:
109,192,71117,1,0,0:0:0:0:
475,192,71252,1,2,0:0:0:0:
36,192,71252,1,0,0:0:0:0:
475,192,71387,1,0,0:0:0:0:
36,192,71387,1,0,0:0:0:0:
109,192,71522,1,10,0:0:0:0:
402,192,71522,1,0,0:0:0:0:
256,192,71522,1,0,0:0:0:0:
109,192,71657,1,0,0:0:0:0:
402,192,71657,1,0,0:0:0:0:
329,192,71792,1,2,0:0:0:0:
182,192,71792,1,0,0:0:0:0:
329,192,71927,1,0,0:0:0:0:
182,192,71927,1,0,0:0:0:0:
36,192,72062,1,10,0:0:0:0:
475,192,72062,1,0,0:0:0:0:
256,192,72062,1,0,0:0:0:0:
36,192,72197,1,0,0:0:0:0:
475,192,72197,1,0,0:0:0:0:
402,192,72332,1,2,0:0:0:0:
256,192,72400,1,0,0:0:0:0:
109,192,72467,1,0,0:0:0:0:
402,192,72535,1,2,0:0:0:0:
256,192,72602,1,12,0:0:0:0:
329,192,72602,1,0,0:0:0:0:
109,192,72670,1,0,0:0:0:0:
402,192,72737,1,2,0:0:0:0:
256,192,72805,1,0,0:0:0:0:
109,192,72872,1,12,0:0:0:0:
475,192,72872,1,0,0:0:0:0:
329,192,72940,1,2,0:0:0:0:
182,192,73007,1,0,0:0:0:0:
36,192,73075,1,0,0:0:0:0:
329,192,73142,1,14,0:0:0:0:
182,192,73142,1,0,0:0:0:0:
36,192,73210,1,0,0:0:0:0:
329,192,73277,1,0,0:0:0:0:
36,192,73345,1,0,0:0:0:0:
109,192,73412,1,6,0:0:0:0:
256,192,73412,1,0,0:0:0:0:
402,192,73412,1,4,0:0:0:0:
256,192,73547,1,0,0:0:0:0:
109,192,73547,1,0,0:0:0:0:
182,192,73682,1,10,0:0:0:0:
329,192,73682,1,0,0:0:0:0:
475,192,73682,1,0,0:0:0:0:
329,192,73817,1,0,0:0:0:0:
182,192,73817,1,0,0:0:0:0:
256,192,73952,1,2,0:0:0:0:
402,192,73952,1,0,0:0:0:0:
402,192,74087,1,0,0:0:0:0:
256,192,74087,1,0,0:0:0:0:
329,192,74222,1,10,0:0:0:0:
475,192,74222,1,0,0:0:0:0:
36,192,74222,1,0,0:0:0:0:
475,192,74357,1,0,0:0:0:0:
329,192,74357,1,0,0:0:0:0:
109,192,74492,1,2,0:0:0:0:
402,192,74492,1,0,0:0:0:0:
36,192,74582,1,2,0:0:0:0:
475,192,74582,1,0,0:0:0:0:
109,192,74672,1,2,0:0:0:0:
402,192,74672,1,0,0:0:0:0:
182,192,74762,1,10,0:0:0:0:
329,192,74762,1,0,0:0:0:0:
256,192,74762,1,0,0:0:0:0:
182,192,74897,1,0,0:0:0:0:
329,192,74897,1,0,0:0:0:0:
402,192,75032,1,2,0:0:0:0:
256,192,75100,1,0,0:0:0:0:
109,192,75167,1,0,0:0:0:0:
402,192,75235,1,2,0:0:0:0:
256,192,75302,1,8,0:0:0:0:
475,192,75302,1,0,0:0:0:0:
109,192,75370,1,0,0:0:0:0:
329,192,75437,1,2,0:0:0:0:
36,192,75505,1,0,0:0:0:0:
109,192,75572,1,2,0:0:0:0:
256,192,75572,1,0,0:0:0:0:
109,192,75707,1,0,0:0:0:0:
256,192,75707,1,0,0:0:0:0:
182,192,75842,1,10,0:0:0:0:
329,192,75842,1,0,0:0:0:0:
475,192,75842,1,0,0:0:0:0:
182,192,75977,1,0,0:0:0:0:
329,192,75977,1,0,0:0:0:0:
256,192,76112,1,0,0:0:0:0:
402,192,76112,1,0,0:0:0:0:
256,192,76247,1,0,0:0:0:0:
402,192,76247,1,0,0:0:0:0:
182,192,76382,1,10,0:0:0:0:
36,192,76382,1,0,0:0:0:0:
329,192,76382,1,0,0:0:0:0:
182,192,76517,1,0,0:0:0:0:
36,192,76517,1,0,0:0:0:0:
475,192,76652,1,2,0:0:0:0:
329,192,76652,1,0,0:0:0:0:
329,192,76787,1,0,0:0:0:0:
475,192,76787,1,0,0:0:0:0:
402,192,76922,1,10,0:0:0:0:
256,192,76922,1,0,0:0:0:0:
109,192,76922,1,0,0:0:0:0:
402,192,77057,1,0,0:0:0:0:
256,192,77057,1,0,0:0:0:0:
182,192,77192,1,2,0:0:0:0:
329,192,77192,1,0,0:0:0:0:
329,192,77327,1,0,0:0:0:0:
182,192,77327,1,0,0:0:0:0:
109,192,77462,1,10,0:0:0:0:
402,192,77462,1,0,0:0:0:0:
256,192,77462,1,0,0:0:0:0:
402,192,77597,1,0,0:0:0:0:
109,192,77597,1,0,0:0:0:0:
475,192,77732,1,2,0:0:0:0:
329,192,77800,1,0,0:0:0:0:
182,192,77867,1,0,0:0:0:0:
475,192,77935,1,2,0:0:0:0:
329,192,78002,1,8,0:0:0:0:
36,192,78002,1,0,0:0:0:0:
182,192,78070,1,0,0:0:0:0:
475,192,78137,1,2,0:0:0:0:
329,192,78205,1,0,0:0:0:0:
182,192,78272,1,2,0:0:0:0:
329,192,78340,1,0,0:0:0:0:
182,192,78407,1,0,0:0:0:0:
36,192,78475,1,2,0:0:0:0:
329,192,78542,1,8,0:0:0:0:
256,192,78542,1,0,0:0:0:0:
36,192,78610,1,0,0:0:0:0:
402,192,78677,1,2,0:0:0:0:
109,192,78745,1,0,0:0:0:0:
475,192,78812,1,2,0:0:0:0:
182,192,78812,1,0,0:0:0:0:
475,192,78947,1,0,0:0:0:0:
182,192,78947,1,0,0:0:0:0:
36,192,79082,1,10,0:0:0:0:
329,192,79082,1,0,0:0:0:0:
256,192,79082,1,0,0:0:0:0:
36,192,79217,1,0,0:0:0:0:
329,192,79217,1,0,0:0:0:0:
402,192,79352,1,2,0:0:0:0:
256,192,79420,1,0,0:0:0:0:
109,192,79487,1,0,0:0:0:0:
475,192,79555,1,2,0:0:0:0:
329,192,79622,1,8,0:0:0:0:
182,192,79690,1,0,0:0:0:0:
329,192,79757,1,2,0:0:0:0:
36,192,79825,1,0,0:0:0:0:
402,192,79892,1,2,0:0:0:0:
256,192,79960,1,0,0:0:0:0:
109,192,80027,1,0,0:0:0:0:
402,192,80095,1,2,0:0:0:0:
256,192,80162,1,8,0:0:0:0:
475,192,80162,1,0,0:0:0:0:
109,192,80230,1,0,0:0:0:0:
402,192,80297,1,2,0:0:0:0:
256,192,80365,1,0,0:0:0:0:
109,192,80432,1,2,0:0:0:0:
182,192,80500,1,0,0:0:0:0:
36,192,80567,1,2,0:0:0:0:
109,192,80635,1,0,0:0:0:0:
402,192,80702,1,10,0:0:0:0:
475,192,80702,1,0,0:0:0:0:
256,192,80770,1,0,0:0:0:0:
329,192,80837,1,0,0:0:0:0:
182,192,80905,1,0,0:0:0:0:
36,192,80972,1,14,0:0:0:0:
475,192,80972,1,0,0:0:0:0:
256,192,80972,1,0,0:0:0:0:
36,192,81107,1,0,0:0:0:0:
475,192,81107,1,0,0:0:0:0:
109,192,81242,1,14,0:0:0:0:
402,192,81242,1,0,0:0:0:0:
256,192,81242,1,0,0:0:0:0:
109,192,81377,1,0,0:0:0:0:
402,192,81377,1,0,0:0:0:0:
182,192,81512,1,14,0:0:0:0:
329,192,81512,1,0,0:0:0:0:
256,192,81512,1,0,0:0:0:0:
182,192,81647,1,0,0:0:0:0:
329,192,81647,1,0,0:0:0:0:
109,192,81782,1,14,0:0:0:0:
402,192,81782,1,0,0:0:0:0:
256,192,81782,1,0,0:0:0:0:
109,192,81917,1,0,0:0:0:0:
402,192,81917,1,0,0:0:0:0:
36,192,82052,128,14,84212:0:0:0:0:
475,192,82052,128,0,84212:0:0:0:0:
182,192,82052,1,0,0:0:0:0:
329,192,82052,1,0,0:0:0:0:
256,192,82052,1,0,0:0:0:0:
109,192,82187,1,0,0:0:0:0:
182,192,82322,1,0,0:0:0:0:
256,192,82457,1,0,0:0:0:0:
329,192,82592,1,0,0:0:0:0:
256,192,82727,1,0,0:0:0:0:
329,192,82862,1,0,0:0:0:0:
182,192,82997,1,0,0:0:0:0:
329,192,83132,1,0,0:0:0:0:
256,192,83267,1,0,0:0:0:0:
329,192,83402,1,0,0:0:0:0:
402,192,83537,1,0,0:0:0:0:
256,192,83672,1,0,0:0:0:0:
329,192,83807,1,0,0:0:0:0:
256,192,83942,1,0,0:0:0:0:
109,192,84077,1,0,0:0:0:0:
182,192,84212,1,0,0:0:0:0:
109,192,84347,1,0,0:0:0:0:
36,192,84482,1,0,0:0:0:0:
109,192,84617,1,0,0:0:0:0:
182,192,84752,1,0,0:0:0:0:
109,192,84887,1,0,0:0:0:0:
182,192,85022,1,0,0:0:0:0:
256,192,85157,1,0,0:0:0:0:
182,192,85292,1,0,0:0:0:0:
256,192,85427,1,0,0:0:0:0:
329,192,85562,1,0,0:0:0:0:
402,192,85697,1,0,0:0:0:0:
475,192,85832,1,0,0:0:0:0:
402,192,85967,1,0,0:0:0:0:
329,192,86102,1,0,0:0:0:0:
256,192,86237,1,0,0:0:0:0:
182,192,86372,1,0,0:0:0:0:
36,192,86507,1,0,0:0:0:0:
182,192,86642,1,0,0:0:0:0:
256,192,86777,1,0,0:0:0:0:
329,192,86912,1,0,0:0:0:0:
109,192,87047,1,0,0:0:0:0:
256,192,87182,1,0,0:0:0:0:
182,192,87317,1,0,0:0:0:0:
402,192,87452,1,0,0:0:0:0:
329,192,87587,1,0,0:0:0:0:
402,192,87722,1,0,0:0:0:0:
475,192,87857,1,0,0:0:0:0:
402,192,87992,1,0,0:0:0:0:
475,192,88127,1,0,0:0:0:0:
402,192,88262,1,0,0:0:0:0:
329,192,88397,1,0,0:0:0:0:
256,192,88532,1,0,0:0:0:0:
182,192,88667,1,0,0:0:0:0:
109,192,88802,1,0,0:0:0:0:
36,192,88937,1,0,0:0:0:0:
109,192,89072,1,0,0:0:0:0:
182,192,89207,1,0,0:0:0:0:
256,192,89342,1,0,0:0:0:0:
329,192,89477,1,0,0:0:0:0:
475,192,89612,1,0,0:0:0:0:
329,192,89747,1,0,0:0:0:0:
36,192,89882,1,0,0:0:0:0:
182,192,90017,1,0,0:0:0:0:
109,192,90152,1,0,0:0:0:0:
402,192,90152,1,0,0:0:0:0:
256,192,90152,1,0,0:0:0:0:
329,192,90422,1,0,0:0:0:0:
182,192,90422,1,0,0:0:0:0:
256,192,90422,1,0,0:0:0:0:
109,192,90692,1,0,0:0:0:0:
402,192,90692,1,0,0:0:0:0:
475,192,90692,1,0,0:0:0:0:
182,192,90692,1,0,0:0:0:0:
36,192,90827,1,0,0:0:0:0:
256,192,90827,1,0,0:0:0:0:
109,192,90962,1,0,0:0:0:0:
182,192,91097,1,0,0:0:0:0:
402,192,91097,1,0,0:0:0:0:
329,192,91232,1,0,0:0:0:0:
182,192,91367,1,0,0:0:0:0:
402,192,91367,1,0,0:0:0:0:
256,192,91502,1,0,0:0:0:0:
329,192,91637,1,0,0:0:0:0:
109,192,91637,1,0,0:0:0:0:
402,192,91772,1,0,0:0:0:0:
256,192,91907,1,0,0:0:0:0:
109,192,91907,1,0,0:0:0:0:
402,192,92042,1,0,0:0:0:0:
475,192,92177,1,0,0:0:0:0:
329,192,92177,1,0,0:0:0:0:
36,192,92312,1,0,0:0:0:0:
475,192,92447,1,0,0:0:0:0:
182,192,92447,1,0,0:0:0:0:
329,192,92582,1,0,0:0:0:0:
182,192,92717,1,0,0:0:0:0:
256,192,92717,1,0,0:0:0:0:
329,192,92852,1,0,0:0:0:0:
402,192,92852,1,0,0:0:0:0:
36,192,92852,1,0,0:0:0:0:
109,192,92987,1,0,0:0:0:0:
256,192,92987,1,0,0:0:0:0:
36,192,93122,1,0,0:0:0:0:
182,192,93257,1,0,0:0:0:0:
402,192,93257,1,0,0:0:0:0:
256,192,93392,1,0,0:0:0:0:
182,192,93527,1,0,0:0:0:0:
402,192,93527,1,0,0:0:0:0:
256,192,93662,1,0,0:0:0:0:
329,192,93797,1,0,0:0:0:0:
109,192,93797,1,0,0:0:0:0:
36,192,93932,1,0,0:0:0:0:
109,192,94067,1,0,0:0:0:0:
329,192,94067,1,0,0:0:0:0:
182,192,94202,1,0,0:0:0:0:
256,192,94337,1,0,0:0:0:0:
402,192,94337,1,0,0:0:0:0:
475,192,94472,1,0,0:0:0:0:
402,192,94607,1,0,0:0:0:0:
182,192,94607,1,0,0:0:0:0:
329,192,94742,1,0,0:0:0:0:
109,192,94742,1,0,0:0:0:0:
256,192,94877,1,0,0:0:0:0:
36,192,94877,1,0,0:0:0:0:
109,192,95012,1,0,0:0:0:0:
182,192,95012,1,0,0:0:0:0:
402,192,95012,1,0,0:0:0:0:
36,192,95147,1,0,0:0:0:0:
256,192,95147,1,0,0:0:0:0:
109,192,95282,1,0,0:0:0:0:
182,192,95417,1,0,0:0:0:0:
402,192,95417,1,0,0:0:0:0:
329,192,95552,1,0,0:0:0:0:
256,192,95687,1,0,0:0:0:0:
475,192,95687,1,0,0:0:0:0:
329,192,95822,1,0,0:0:0:0:
182,192,95957,1,0,0:0:0:0:
475,192,95957,1,0,0:0:0:0:
402,192,96092,1,0,0:0:0:0:
109,192,96092,1,0,0:0:0:0:
256,192,96092,1,0,0:0:0:0:
329,192,96227,1,0,0:0:0:0:
36,192,96227,1,0,0:0:0:0:
402,192,96362,1,0,0:0:0:0:
475,192,96497,1,0,0:0:0:0:
36,192,96497,1,0,0:0:0:0:
402,192,96632,1,0,0:0:0:0:
109,192,96632,1,0,0:0:0:0:
256,192,96632,1,0,0:0:0:0:
475,192,96767,1,0,0:0:0:0:
36,192,96767,1,0,0:0:0:0:
402,192,96902,1,0,0:0:0:0:
329,192,97037,1,0,0:0:0:0:
36,192,97037,1,0,0:0:0:0:
182,192,97172,1,0,0:0:0:0:
402,192,97172,1,0,0:0:0:0:
256,192,97172,1,0,0:0:0:0:
109,192,97307,1,0,0:0:0:0:
475,192,97307,1,0,0:0:0:0:
36,192,97442,1,0,0:0:0:0:
402,192,97442,1,0,0:0:0:0:
256,192,97442,1,0,0:0:0:0:
109,192,97577,1,0,0:0:0:0:
475,192,97577,1,0,0:0:0:0:
182,192,97712,1,0,0:0:0:0:
402,192,97712,1,0,0:0:0:0:
329,192,97712,1,0,0:0:0:0:
256,192,97847,1,0,0:0:0:0:
475,192,97847,1,0,0:0:0:0:
36,192,97982,1,0,0:0:0:0:
402,192,97982,1,0,0:0:0:0:
109,192,98016,1,0,0:0:0:0:
182,192,98050,1,0,0:0:0:0:
256,192,98084,1,0,0:0:0:0:
329,192,98117,1,0,0:0:0:0:
182,192,98117,1,0,0:0:0:0:
256,192,98151,1,0,0:0:0:0:
329,192,98185,1,0,0:0:0:0:
402,192,98219,1,0,0:0:0:0:
475,192,98252,1,0,0:0:0:0:
36,192,98252,1,0,0:0:0:0:
182,192,98253,1,0,0:0:0:0:
109,192,98253,1,0,0:0:0:0:
256,192,98321,1,0,0:0:0:0:
329,192,98388,1,0,0:0:0:0:
402,192,98456,1,0,0:0:0:0:
475,192,98523,1,0,0:0:0:0:
36,192,98523,1,0,0:0:0:0:
402,192,98591,1,0,0:0:0:0:
329,192,98658,1,0,0:0:0:0:
256,192,98726,1,0,0:0:0:0:
36,192,98793,1,0,0:0:0:0:
182,192,98794,1,0,0:0:0:0:
256,192,98862,1,0,0:0:0:0:
329,192,98929,1,0,0:0:0:0:
402,192,98997,1,0,0:0:0:0:
36,192,99063,1,0,0:0:0:0:
475,192,99064,1,0,0:0:0:0:
402,192,99132,1,0,0:0:0:0:
329,192,99199,1,0,0:0:0:0:
256,192,99267,1,0,0:0:0:0:
109,192,99333,1,0,0:0:0:0:
36,192,99333,1,0,0:0:0:0:
182,192,99334,1,0,0:0:0:0:
256,192,99402,1,0,0:0:0:0:
329,192,99469,1,0,0:0:0:0:
402,192,99537,1,0,0:0:0:0:
109,192,99603,1,0,0:0:0:0:
475,192,99604,1,0,0:0:0:0:
402,192,99672,1,0,0:0:0:0:
329,192,99739,1,0,0:0:0:0:
256,192,99807,1,0,0:0:0:0:
182,192,99873,1,0,0:0:0:0:
109,192,99873,1,0,0:0:0:0:
256,192,99941,1,0,0:0:0:0:
329,192,100008,1,0,0:0:0:0:
402,192,100076,1,0,0:0:0:0:
475,192,100143,1,0,0:0:0:0:
109,192,100143,1,0,0:0:0:0:
402,192,100211,1,0,0:0:0:0:
329,192,100278,1,0,0:0:0:0:
256,192,100346,1,0,0:0:0:0:
475,192,100413,1,0,0:0:0:0:
36,192,100413,1,0,0:0:0:0:
402,192,100413,1,0,0:0:0:0:
109,192,100481,1,0,0:0:0:0:
182,192,100548,1,0,0:0:0:0:
256,192,100616,1,0,0:0:0:0:
329,192,100683,1,0,0:0:0:0:
402,192,100683,1,0,0:0:0:0:
256,192,100751,1,0,0:0:0:0:
182,192,100818,1,0,0:0:0:0:
109,192,100886,1,0,0:0:0:0:
36,192,100953,1,0,0:0:0:0:
402,192,100953,1,0,0:0:0:0:
109,192,101021,1,0,0:0:0:0:
182,192,101088,1,0,0:0:0:0:
256,192,101156,1,0,0:0:0:0:
329,192,101223,1,0,0:0:0:0:
402,192,101223,1,0,0:0:0:0:
256,192,101291,1,0,0:0:0:0:
182,192,101358,1,0,0:0:0:0:
109,192,101426,1,0,0:0:0:0:
36,192,101493,1,0,0:0:0:0:
402,192,101493,1,0,0:0:0:0:
475,192,101493,1,0,0:0:0:0:
109,192,101561,1,0,0:0:0:0:
182,192,101628,1,0,0:0:0:0:
256,192,101696,1,0,0:0:0:0:
329,192,101763,1,0,0:0:0:0:
475,192,101763,1,0,0:0:0:0:
256,192,101831,1,0,0:0:0:0:
182,192,101898,1,0,0:0:0:0:
109,192,101966,1,0,0:0:0:0:
36,192,102033,1,0,0:0:0:0:
475,192,102033,1,0,0:0:0:0:
109,192,102101,1,0,0:0:0:0:
182,192,102169,1,0,0:0:0:0:
256,192,102236,1,0,0:0:0:0:
329,192,102304,1,0,0:0:0:0:
475,192,102304,1,0,0:0:0:0:
256,192,102371,1,0,0:0:0:0:
182,192,102439,1,0,0:0:0:0:
475,192,102439,1,0,0:0:0:0:
36,192,102506,1,0,0:0:0:0:
109,192,102574,1,0,0:0:0:0:
475,192,102574,1,0,0:0:0:0:
402,192,102574,1,0,0:0:0:0:
182,192,102641,1,0,0:0:0:0:
256,192,102709,1,0,0:0:0:0:
329,192,102776,1,0,0:0:0:0:
402,192,102844,1,0,0:0:0:0:
36,192,102844,1,0,0:0:0:0:
329,192,102911,1,0,0:0:0:0:
256,192,102979,1,0,0:0:0:0:
182,192,103046,1,0,0:0:0:0:
109,192,103114,1,0,0:0:0:0:
475,192,103114,1,0,0:0:0:0:
182,192,103181,1,0,0:0:0:0:
256,192,103249,1,0,0:0:0:0:
329,192,103316,1,0,0:0:0:0:
402,192,103384,1,0,0:0:0:0:
36,192,103384,1,0,0:0:0:0:
329,192,103451,1,0,0:0:0:0:
256,192,103519,1,0,0:0:0:0:
182,192,103586,1,0,0:0:0:0:
109,192,103654,1,0,0:0:0:0:
36,192,103654,1,0,0:0:0:0:
475,192,103654,1,0,0:0:0:0:
182,192,103721,1,0,0:0:0:0:
256,192,103789,1,0,0:0:0:0:
329,192,103856,1,0,0:0:0:0:
402,192,103924,1,0,0:0:0:0:
475,192,103924,1,0,0:0:0:0:
329,192,103991,1,0,0:0:0:0:
256,192,104059,1,0,0:0:0:0:
182,192,104126,1,0,0:0:0:0:
109,192,104194,1,0,0:0:0:0:
36,192,104194,1,0,0:0:0:0:
182,192,104261,1,0,0:0:0:0:
256,192,104329,1,0,0:0:0:0:
329,192,104396,1,0,0:0:0:0:
402,192,104464,1,0,0:0:0:0:
475,192,104464,1,0,0:0:0:0:
329,192,104531,1,0,0:0:0:0:
256,192,104599,1,0,0:0:0:0:
182,192,104666,1,0,0:0:0:0:
36,192,104734,1,0,0:0:0:0:
329,192,104734,1,0,0:0:0:0:
402,192,104734,1,0,0:0:0:0:
109,192,104801,1,0,0:0:0:0:
182,192,104869,1,0,0:0:0:0:
475,192,104869,1,0,0:0:0:0:
256,192,104936,1,0,0:0:0:0:
402,192,105004,1,0,0:0:0:0:
36,192,105004,1,0,0:0:0:0:
329,192,105071,1,0,0:0:0:0:
256,192,105139,1,0,0:0:0:0:
475,192,105139,1,0,0:0:0:0:
182,192,105206,1,0,0:0:0:0:
109,192,105274,1,0,0:0:0:0:
36,192,105274,1,0,0:0:0:0:
182,192,105341,1,0,0:0:0:0:
256,192,105409,1,0,0:0:0:0:
402,192,105409,1,0,0:0:0:0:
329,192,105476,1,0,0:0:0:0:
475,192,105544,1,0,0:0:0:0:
109,192,105544,1,0,0:0:0:0:
402,192,105611,1,0,0:0:0:0:
329,192,105679,1,0,0:0:0:0:
182,192,105679,1,0,0:0:0:0:
256,192,105746,1,0,0:0:0:0:
36,192,105814,1,0,0:0:0:0:
475,192,105814,1,0,0:0:0:0:
402,192,105814,1,0,0:0:0:0:
109,192,105881,1,0,0:0:0:0:
182,192,105949,1,0,0:0:0:0:
329,192,105949,1,0,0:0:0:0:
256,192,106016,1,0,0:0:0:0:
475,192,106084,1,0,0:0:0:0:
36,192,106084,1,0,0:0:0:0:
109,192,106084,1,0,0:0:0:0:
402,192,106151,1,0,0:0:0:0:
329,192,106219,1,0,0:0:0:0:
182,192,106219,1,0,0:0:0:0:
256,192,106286,1,0,0:0:0:0:
36,192,106354,1,0,0:0:0:0:
475,192,106354,1,0,0:0:0:0:
402,192,106354,1,0,0:0:0:0:
109,192,106421,1,0,0:0:0:0:
182,192,106489,1,0,0:0:0:0:
329,192,106489,1,0,0:0:0:0:
256,192,106556,1,0,0:0:0:0:
475,192,106624,1,0,0:0:0:0:
36,192,106624,1,0,0:0:0:0:
109,192,106624,1,0,0:0:0:0:
402,192,106691,1,0,0:0:0:0:
329,192,106759,1,0,0:0:0:0:
182,192,106759,1,0,0:0:0:0:
256,192,106826,1,0,0:0:0:0:
36,192,106892,128,0,107702:0:0:0:0:
475,192,106892,128,0,107702:0:0:0:0:
109,192,106892,1,0,0:0:0:0:
402,192,106892,1,0,0:0:0:0:
182,192,107702,1,0,0:0:0:0:
329,192,107702,1,0,0:0:0:0:
36,192,107972,1,0,0:0:0:0:
475,192,107972,1,0,0:0:0:0:
109,192,107972,1,0,0:0:0:0:
402,192,107972,1,0,0:0:0:0:
329,192,108040,1,0,0:0:0:0:
182,192,108107,1,0,0:0:0:0:
475,192,108175,1,2,0:0:0:0:
329,192,108242,1,0,0:0:0:0:
36,192,108242,1,0,0:0:0:0:
182,192,108310,1,0,0:0:0:0:
475,192,108377,1,0,0:0:0:0:
329,192,108445,1,0,0:0:0:0:
182,192,108512,1,0,0:0:0:0:
329,192,108580,1,2,0:0:0:0:
182,192,108647,1,0,0:0:0:0:
36,192,108715,1,0,0:0:0:0:
329,192,108782,1,0,0:0:0:0:
475,192,108782,1,0,0:0:0:0:
36,192,108850,1,0,0:0:0:0:
329,192,108917,1,0,0:0:0:0:
36,192,108985,1,0,0:0:0:0:
402,192,109052,1,0,0:0:0:0:
256,192,109120,1,0,0:0:0:0:
109,192,109187,1,0,0:0:0:0:
402,192,109255,1,2,0:0:0:0:
256,192,109322,1,0,0:0:0:0:
475,192,109322,1,0,0:0:0:0:
109,192,109390,1,0,0:0:0:0:
402,192,109457,1,0,0:0:0:0:
256,192,109525,1,0,0:0:0:0:
109,192,109592,1,0,0:0:0:0:
329,192,109660,1,2,0:0:0:0:
182,192,109727,1,0,0:0:0:0:
36,192,109795,1,0,0:0:0:0:
329,192,109862,1,0,0:0:0:0:
475,192,109862,1,0,0:0:0:0:
36,192,109930,1,0,0:0:0:0:
329,192,109997,1,0,0:0:0:0:
36,192,110065,1,0,0:0:0:0:
475,192,110132,1,0,0:0:0:0:
329,192,110200,1,0,0:0:0:0:
182,192,110267,1,0,0:0:0:0:
475,192,110335,1,2,0:0:0:0:
329,192,110402,1,0,0:0:0:0:
36,192,110402,1,0,0:0:0:0:
182,192,110470,1,0,0:0:0:0:
475,192,110537,1,0,0:0:0:0:
329,192,110605,1,0,0:0:0:0:
182,192,110672,1,0,0:0:0:0:
402,192,110740,1,2,0:0:0:0:
256,192,110807,1,0,0:0:0:0:
109,192,110875,1,0,0:0:0:0:
402,192,110942,1,0,0:0:0:0:
475,192,110942,1,0,0:0:0:0:
109,192,111010,1,0,0:0:0:0:
402,192,111077,1,0,0:0:0:0:
109,192,111145,1,0,0:0:0:0:
329,192,111212,1,0,0:0:0:0:
182,192,111280,1,0,0:0:0:0:
36,192,111347,1,0,0:0:0:0:
329,192,111415,1,2,0:0:0:0:
182,192,111482,1,0,0:0:0:0:
402,192,111482,1,0,0:0:0:0:
36,192,111550,1,0,0:0:0:0:
109,192,111617,1,0,0:0:0:0:
256,192,111617,1,0,0:0:0:0:
182,192,111752,1,0,0:0:0:0:
329,192,111752,1,0,0:0:0:0:
256,192,111887,1,0,0:0:0:0:
402,192,111887,1,0,0:0:0:0:
329,192,112022,1,0,0:0:0:0:
475,192,112022,1,0,0:0:0:0:
109,192,112022,1,0,0:0:0:0:
402,192,112157,1,0,0:0:0:0:
256,192,112157,1,0,0:0:0:0:
329,192,112292,1,0,0:0:0:0:
182,192,112360,1,0,0:0:0:0:
36,192,112427,1,0,0:0:0:0:
329,192,112495,1,2,0:0:0:0:
182,192,112562,1,0,0:0:0:0:
475,192,112562,1,0,0:0:0:0:
36,192,112630,1,0,0:0:0:0:
329,192,112697,1,0,0:0:0:0:
182,192,112765,1,0,0:0:0:0:
109,192,112832,1,0,0:0:0:0:
256,192,112832,1,0,0:0:0:0:
109,192,112967,1,0,0:0:0:0:
256,192,112967,1,0,0:0:0:0:
182,192,113102,1,0,0:0:0:0:
329,192,113102,1,0,0:0:0:0:
475,192,113102,1,0,0:0:0:0:
329,192,113237,1,0,0:0:0:0:
182,192,113237,1,0,0:0:0:0:
256,192,113372,1,0,0:0:0:0:
475,192,113372,1,0,0:0:0:0:
256,192,113507,1,0,0:0:0:0:
475,192,113507,1,0,0:0:0:0:
182,192,113642,1,0,0:0:0:0:
402,192,113642,1,0,0:0:0:0:
36,192,113642,1,0,0:0:0:0:
182,192,113777,1,0,0:0:0:0:
402,192,113777,1,0,0:0:0:0:
109,192,113912,1,0,0:0:0:0:
329,192,113912,1,0,0:0:0:0:
109,192,114047,1,0,0:0:0:0:
329,192,114047,1,0,0:0:0:0:
36,192,114182,1,0,0:0:0:0:
256,192,114182,1,0,0:0:0:0:
402,192,114182,1,0,0:0:0:0:
36,192,114317,1,0,0:0:0:0:
256,192,114317,1,0,0:0:0:0:
182,192,114452,1,0,0:0:0:0:
475,192,114452,1,0,0:0:0:0:
182,192,114587,1,0,0:0:0:0:
475,192,114587,1,0,0:0:0:0:
109,192,114722,1,0,0:0:0:0:
402,192,114722,1,0,0:0:0:0:
256,192,114722,1,0,0:0:0:0:
109,192,114857,1,0,0:0:0:0:
402,192,114857,1,0,0:0:0:0:
36,192,114992,1,0,0:0:0:0:
329,192,114992,1,0,0:0:0:0:
36,192,115127,1,0,0:0:0:0:
329,192,115127,1,0,0:0:0:0:
182,192,115262,1,0,0:0:0:0:
475,192,115262,1,0,0:0:0:0:
109,192,115262,1,0,0:0:0:0:
182,192,115397,1,0,0:0:0:0:
475,192,115397,1,0,0:0:0:0:
402,192,115532,1,0,0:0:0:0:
256,192,115600,1,0,0:0:0:0:
109,192,115667,1,0,0:0:0:0:
402,192,115735,1,0,0:0:0:0:
256,192,115803,1,12,0:0:0:0:
475,192,115803,1,0,0:0:0:0:
109,192,115870,1,0,0:0:0:0:
402,192,115938,1,0,0:0:0:0:
256,192,116005,1,0,0:0:0:0:
109,192,116073,1,12,0:0:0:0:
36,192,116073,1,0,0:0:0:0:
329,192,116140,1,0,0:0:0:0:
256,192,116208,1,0,0:0:0:0:
182,192,116275,1,0,0:0:0:0:
329,192,116343,1,12,0:0:0:0:
475,192,116343,1,0,0:0:0:0:
182,192,116410,1,0,0:0:0:0:
329,192,116478,1,0,0:0:0:0:
182,192,116545,1,0,0:0:0:0:
36,192,116613,1,6,0:0:0:0:
256,192,116613,1,0,0:0:0:0:
402,192,116613,1,0,0:0:0:0:
36,192,116748,1,0,0:0:0:0:
256,192,116748,1,0,0:0:0:0:
109,192,116883,1,10,0:0:0:0:
329,192,116883,1,0,0:0:0:0:
475,192,116883,1,0,0:0:0:0:
109,192,117018,1,0,0:0:0:0:
329,192,117018,1,0,0:0:0:0:
182,192,117153,1,2,0:0:0:0:
402,192,117153,1,0,0:0:0:0:
182,192,117288,1,0,0:0:0:0:
402,192,117288,1,0,0:0:0:0:
256,192,117423,1,10,0:0:0:0:
475,192,117423,1,0,0:0:0:0:
36,192,117423,1,0,0:0:0:0:
475,192,117558,1,0,0:0:0:0:
256,192,117558,1,0,0:0:0:0:
109,192,117693,1,2,0:0:0:0:
402,192,117693,1,0,0:0:0:0:
182,192,117783,1,2,0:0:0:0:
475,192,117783,1,0,0:0:0:0:
109,192,117873,1,2,0:0:0:0:
402,192,117873,1,0,0:0:0:0:
36,192,117963,1,10,0:0:0:0:
329,192,117963,1,0,0:0:0:0:
256,192,117963,1,0,0:0:0:0:
36,192,118098,1,0,0:0:0:0:
329,192,118098,1,0,0:0:0:0:
475,192,118233,1,2,0:0:0:0:
256,192,118300,1,0,0:0:0:0:
36,192,118368,1,0,0:0:0:0:
475,192,118435,1,2,0:0:0:0:
256,192,118503,1,8,0:0:0:0:
329,192,118503,1,0,0:0:0:0:
36,192,118570,1,0,0:0:0:0:
402,192,118638,1,2,0:0:0:0:
109,192,118705,1,0,0:0:0:0:
36,192,118773,1,2,0:0:0:0:
182,192,118773,1,0,0:0:0:0:
36,192,118908,1,0,0:0:0:0:
182,192,118908,1,0,0:0:0:0:
109,192,119043,1,10,0:0:0:0:
256,192,119043,1,0,0:0:0:0:
475,192,119043,1,0,0:0:0:0:
256,192,119178,1,0,0:0:0:0:
109,192,119178,1,0,0:0:0:0:
182,192,119313,1,2,0:0:0:0:
402,192,119313,1,0,0:0:0:0:
182,192,119448,1,0,0:0:0:0:
402,192,119448,1,0,0:0:0:0:
36,192,119583,1,10,0:0:0:0:
256,192,119583,1,0,0:0:0:0:
329,192,119583,1,0,0:0:0:0:
36,192,119718,1,0,0:0:0:0:
256,192,119718,1,0,0:0:0:0:
182,192,119853,1,2,0:0:0:0:
475,192,119853,1,0,0:0:0:0:
182,192,119988,1,0,0:0:0:0:
475,192,119988,1,0,0:0:0:0:
109,192,120123,1,10,0:0:0:0:
402,192,120123,1,0,0:0:0:0:
256,192,120123,1,0,0:0:0:0:
109,192,120258,1,0,0:0:0:0:
402,192,120258,1,0,0:0:0:0:
36,192,120393,1,2,0:0:0:0:
256,192,120393,1,0,0:0:0:0:
36,192,120528,1,0,0:0:0:0:
256,192,120528,1,0,0:0:0:0:
109,192,120663,1,10,0:0:0:0:
329,192,120663,1,0,0:0:0:0:
402,192,120663,1,0,0:0:0:0:
109,192,120798,1,0,0:0:0:0:
329,192,120798,1,0,0:0:0:0:
475,192,120933,1,2,0:0:0:0:
256,192,121000,1,0,0:0:0:0:
36,192,121068,1,0,0:0:0:0:
475,192,121135,1,2,0:0:0:0:
256,192,121203,1,8,0:0:0:0:
109,192,121203,1,0,0:0:0:0:
36,192,121270,1,0,0:0:0:0:
329,192,121338,1,2,0:0:0:0:
256,192,121405,1,0,0:0:0:0:
182,192,121473,1,0,0:0:0:0:
329,192,121540,1,2,0:0:0:0:
256,192,121608,1,0,0:0:0:0:
182,192,121675,1,0,0:0:0:0:
329,192,121743,1,10,0:0:0:0:
36,192,121743,1,0,0:0:0:0:
109,192,121810,1,0,0:0:0:0:
402,192,121878,1,2,0:0:0:0:
182,192,121945,1,0,0:0:0:0:
109,192,122013,1,2,0:0:0:0:
475,192,122013,1,0,0:0:0:0:
109,192,122148,1,0,0:0:0:0:
475,192,122148,1,0,0:0:0:0:
36,192,122283,1,10,0:0:0:0:
329,192,122283,1,0,0:0:0:0:
182,192,122283,1,0,0:0:0:0:
36,192,122418,1,0,0:0:0:0:
329,192,122418,1,0,0:0:0:0:
402,192,122553,1,2,0:0:0:0:
256,192,122620,1,0,0:0:0:0:
109,192,122688,1,0,0:0:0:0:
475,192,122755,1,2,0:0:0:0:
329,192,122823,1,8,0:0:0:0:
256,192,122823,1,0,0:0:0:0:
182,192,122890,1,0,0:0:0:0:
329,192,122958,1,2,0:0:0:0:
36,192,123025,1,0,0:0:0:0:
402,192,123093,1,2,0:0:0:0:
256,192,123160,1,0,0:0:0:0:
109,192,123228,1,0,0:0:0:0:
402,192,123295,1,2,0:0:0:0:
256,192,123363,1,8,0:0:0:0:
36,192,123363,1,0,0:0:0:0:
109,192,123430,1,0,0:0:0:0:
402,192,123498,1,2,0:0:0:0:
256,192,123565,1,0,0:0:0:0:
109,192,123633,1,0,0:0:0:0:
329,192,123700,1,2,0:0:0:0:
182,192,123768,1,0,0:0:0:0:
36,192,123835,1,0,0:0:0:0:
475,192,123903,1,10,0:0:0:0:
402,192,123903,1,0,0:0:0:0:
182,192,123970,1,0,0:0:0:0:
329,192,124038,1,2,0:0:0:0:
36,192,124105,1,0,0:0:0:0:
475,192,124173,1,10,0:0:0:0:
182,192,124173,1,0,0:0:0:0:
329,192,124173,1,0,0:0:0:0:
182,192,124308,1,0,0:0:0:0:
475,192,124308,1,0,0:0:0:0:
109,192,124443,1,10,0:0:0:0:
402,192,124443,1,0,0:0:0:0:
256,192,124443,1,0,0:0:0:0:
109,192,124578,1,0,0:0:0:0:
402,192,124578,1,0,0:0:0:0:
36,192,124713,1,10,0:0:0:0:
329,192,124713,1,0,0:0:0:0:
182,192,124713,1,0,0:0:0:0:
36,192,124848,1,0,0:0:0:0:
329,192,124848,1,0,0:0:0:0:
109,192,124983,1,10,0:0:0:0:
402,192,124983,1,0,0:0:0:0:
256,192,124983,1,0,0:0:0:0:
109,192,125118,1,0,0:0:0:0:
402,192,125118,1,0,0:0:0:0:
475,192,125253,1,2,0:0:0:0:
329,192,125253,1,0,0:0:0:0:
256,192,125320,1,0,0:0:0:0:
36,192,125388,1,0,0:0:0:0:
475,192,125455,1,2,0:0:0:0:
256,192,125523,1,8,0:0:0:0:
182,192,125523,1,0,0:0:0:0:
36,192,125590,1,0,0:0:0:0:
475,192,125658,1,2,0:0:0:0:
256,192,125725,1,0,0:0:0:0:
36,192,125793,1,0,0:0:0:0:
329,192,125793,1,0,0:0:0:0:
402,192,125860,1,2,0:0:0:0:
256,192,125928,1,0,0:0:0:0:
109,192,125995,1,0,0:0:0:0:
402,192,126063,1,10,0:0:0:0:
182,192,126063,1,0,0:0:0:0:
109,192,126130,1,0,0:0:0:0:
402,192,126198,1,2,0:0:0:0:
109,192,126265,1,0,0:0:0:0:
329,192,126333,1,2,0:0:0:0:
475,192,126333,1,0,0:0:0:0:
256,192,126400,1,0,0:0:0:0:
182,192,126468,1,0,0:0:0:0:
329,192,126535,1,2,0:0:0:0:
256,192,126603,1,8,0:0:0:0:
36,192,126603,1,0,0:0:0:0:
182,192,126670,1,0,0:0:0:0:
329,192,126738,1,2,0:0:0:0:
256,192,126805,1,0,0:0:0:0:
182,192,126873,1,0,0:0:0:0:
475,192,126873,1,0,0:0:0:0:
402,192,126940,1,2,0:0:0:0:
256,192,127008,1,0,0:0:0:0:
109,192,127075,1,0,0:0:0:0:
402,192,127143,1,10,0:0:0:0:
36,192,127143,1,0,0:0:0:0:
109,192,127210,1,0,0:0:0:0:
402,192,127278,1,2,0:0:0:0:
256,192,127278,1,0,0:0:0:0:
109,192,127345,1,0,0:0:0:0:
475,192,127413,1,2,0:0:0:0:
36,192,127413,1,0,0:0:0:0:
329,192,127480,1,0,0:0:0:0:
182,192,127548,1,0,0:0:0:0:
475,192,127615,1,2,0:0:0:0:
329,192,127683,1,8,0:0:0:0:
36,192,127683,1,0,0:0:0:0:
182,192,127750,1,0,0:0:0:0:
475,192,127818,1,2,0:0:0:0:
329,192,127885,1,0,0:0:0:0:
182,192,127953,1,0,0:0:0:0:
109,192,127953,1,0,0:0:0:0:
329,192,128020,1,2,0:0:0:0:
182,192,128088,1,0,0:0:0:0:
36,192,128155,1,0,0:0:0:0:
329,192,128223,1,10,0:0:0:0:
402,192,128223,1,0,0:0:0:0:
36,192,128290,1,0,0:0:0:0:
329,192,128358,1,2,0:0:0:0:
36,192,128425,1,0,0:0:0:0:
402,192,128493,1,2,0:0:0:0:
475,192,128493,1,0,0:0:0:0:
256,192,128560,1,0,0:0:0:0:
109,192,128628,1,0,0:0:0:0:
36,192,128628,1,0,0:0:0:0:
402,192,128695,1,2,0:0:0:0:
329,192,128695,1,0,0:0:0:0:
256,192,128763,1,8,0:0:0:0:
182,192,128763,1,0,0:0:0:0:
109,192,128830,1,0,0:0:0:0:
182,192,128898,1,2,0:0:0:0:
329,192,128898,1,0,0:0:0:0:
475,192,128898,1,0,0:0:0:0:
109,192,129033,1,2,0:0:0:0:
402,192,129033,1,0,0:0:0:0:
256,192,129033,1,0,0:0:0:0:
36,192,129168,1,2,0:0:0:0:
475,192,129168,1,0,0:0:0:0:
329,192,129168,1,0,0:0:0:0:
182,192,129303,1,10,0:0:0:0:
402,192,129303,1,0,0:0:0:0:
109,192,129303,1,0,0:0:0:0:
36,192,129438,1,2,0:0:0:0:
256,192,129438,1,0,0:0:0:0:
329,192,129438,1,0,0:0:0:0:
475,192,129573,1,2,0:0:0:0:
402,192,129573,1,0,0:0:0:0:
256,192,129640,1,0,0:0:0:0:
109,192,129708,1,0,0:0:0:0:
475,192,129775,1,2,0:0:0:0:
256,192,129843,1,8,0:0:0:0:
182,192,129843,1,0,0:0:0:0:
109,192,129910,1,0,0:0:0:0:
475,192,129978,1,2,0:0:0:0:
109,192,130045,1,0,0:0:0:0:
36,192,130113,1,2,0:0:0:0:
329,192,130113,1,0,0:0:0:0:
182,192,130113,1,0,0:0:0:0:
36,192,130248,1,0,0:0:0:0:
329,192,130248,1,0,0:0:0:0:
109,192,130383,1,10,0:0:0:0:
402,192,130383,1,0,0:0:0:0:
182,192,130383,1,0,0:0:0:0:
109,192,130518,1,0,0:0:0:0:
402,192,130518,1,0,0:0:0:0:
329,192,130518,1,0,0:0:0:0:
256,192,130653,1,2,0:0:0:0:
475,192,130653,1,0,0:0:0:0:
475,192,130788,1,0,0:0:0:0:
256,192,130788,1,0,0:0:0:0:
109,192,130788,1,0,0:0:0:0:
182,192,130923,1,10,0:0:0:0:
402,192,130923,1,0,0:0:0:0:
36,192,130923,1,0,0:0:0:0:
182,192,131058,1,0,0:0:0:0:
402,192,131058,1,0,0:0:0:0:
329,192,131193,1,2,0:0:0:0:
109,192,131193,1,0,0:0:0:0:
475,192,131193,1,0,0:0:0:0:
329,192,131328,1,0,0:0:0:0:
109,192,131328,1,0,0:0:0:0:
475,192,131328,1,0,0:0:0:0:
36,192,131463,1,10,0:0:0:0:
256,192,131463,1,0,0:0:0:0:
402,192,131463,1,0,0:0:0:0:
36,192,131598,1,0,0:0:0:0:
256,192,131598,1,0,0:0:0:0:
329,192,131733,1,2,0:0:0:0:
475,192,131733,1,0,0:0:0:0:
182,192,131733,1,0,0:0:0:0:
475,192,131868,1,0,0:0:0:0:
329,192,131868,1,0,0:0:0:0:
402,192,132003,1,10,0:0:0:0:
256,192,132003,1,0,0:0:0:0:
109,192,132003,1,0,0:0:0:0:
256,192,132138,1,0,0:0:0:0:
402,192,132138,1,0,0:0:0:0:
182,192,132273,1,2,0:0:0:0:
329,192,132273,1,0,0:0:0:0:
36,192,132273,1,0,0:0:0:0:
329,192,132408,1,0,0:0:0:0:
182,192,132408,1,0,0:0:0:0:
475,192,132543,1,10,0:0:0:0:
329,192,132543,1,0,0:0:0:0:
109,192,132543,1,0,0:0:0:0:
329,192,132678,1,0,0:0:0:0:
475,192,132678,1,0,0:0:0:0:
36,192,132678,1,0,0:0:0:0:
109,192,132745,1,0,0:0:0:0:
402,192,132813,1,2,0:0:0:0:
182,192,132813,1,0,0:0:0:0:
256,192,132880,1,0,0:0:0:0:
109,192,132948,1,0,0:0:0:0:
36,192,132948,1,0,0:0:0:0:
402,192,133015,1,2,0:0:0:0:
256,192,133083,1,8,0:0:0:0:
475,192,133083,1,0,0:0:0:0:
109,192,133150,1,0,0:0:0:0:
402,192,133218,1,2,0:0:0:0:
182,192,133218,1,0,0:0:0:0:
256,192,133285,1,0,0:0:0:0:
329,192,133285,1,0,0:0:0:0:
109,192,133353,1,8,0:0:0:0:
475,192,133353,1,0,0:0:0:0:
329,192,133420,1,2,0:0:0:0:
402,192,133420,1,0,0:0:0:0:
109,192,133488,1,0,0:0:0:0:
182,192,133488,1,0,0:0:0:0:
256,192,133521,1,0,0:0:0:0:
36,192,133555,1,0,0:0:0:0:
329,192,133555,1,0,0:0:0:0:
402,192,133589,1,0,0:0:0:0:
109,192,133623,1,10,0:0:0:0:
475,192,133623,1,0,0:0:0:0:
36,192,133690,1,0,0:0:0:0:
256,192,133691,1,0,0:0:0:0:
182,192,133758,1,2,0:0:0:0:
329,192,133758,1,0,0:0:0:0:
36,192,133825,1,0,0:0:0:0:
402,192,133825,1,0,0:0:0:0:
109,192,133893,1,2,0:0:0:0:
256,192,133893,1,0,0:0:0:0:
475,192,133893,1,0,0:0:0:0:
329,192,133893,1,0,0:0:0:0:
109,192,134028,1,0,0:0:0:0:
256,192,134028,1,0,0:0:0:0:
182,192,134163,1,10,0:0:0:0:
329,192,134163,1,0,0:0:0:0:
475,192,134163,1,0,0:0:0:0:
182,192,134298,1,0,0:0:0:0:
329,192,134298,1,0,0:0:0:0:
256,192,134433,1,2,0:0:0:0:
402,192,134433,1,0,0:0:0:0:
36,192,134433,1,0,0:0:0:0:
402,192,134568,1,0,0:0:0:0:
256,192,134568,1,0,0:0:0:0:
329,192,134703,1,10,0:0:0:0:
475,192,134703,1,0,0:0:0:0:
36,192,134703,1,0,0:0:0:0:
475,192,134838,1,0,0:0:0:0:
329,192,134838,1,0,0:0:0:0:
109,192,134838,1,0,0:0:0:0:
182,192,134973,1,2,0:0:0:0:
402,192,134973,1,0,0:0:0:0:
36,192,134973,1,0,0:0:0:0:
256,192,135063,1,2,0:0:0:0:
475,192,135063,1,0,0:0:0:0:
182,192,135153,1,2,0:0:0:0:
402,192,135153,1,0,0:0:0:0:
109,192,135243,1,10,0:0:0:0:
329,192,135243,1,0,0:0:0:0:
36,192,135243,1,0,0:0:0:0:
109,192,135378,1,0,0:0:0:0:
329,192,135378,1,0,0:0:0:0:
329,192,135513,1,2,0:0:0:0:
475,192,135513,1,0,0:0:0:0:
182,192,135580,1,0,0:0:0:0:
36,192,135648,1,0,0:0:0:0:
402,192,135648,1,0,0:0:0:0:
329,192,135715,1,0,0:0:0:0:
182,192,135783,1,8,0:0:0:0:
475,192,135783,1,0,0:0:0:0:
36,192,135850,1,0,0:0:0:0:
329,192,135918,1,2,0:0:0:0:
402,192,135918,1,0,0:0:0:0:
36,192,135985,1,0,0:0:0:0:
256,192,135985,1,0,0:0:0:0:
109,192,136053,1,2,0:0:0:0:
182,192,136053,1,0,0:0:0:0:
475,192,136053,1,0,0:0:0:0:
109,192,136188,1,0,0:0:0:0:
182,192,136188,1,0,0:0:0:0:
256,192,136323,1,10,0:0:0:0:
329,192,136323,1,0,0:0:0:0:
36,192,136323,1,0,0:0:0:0:
256,192,136458,1,0,0:0:0:0:
329,192,136458,1,0,0:0:0:0:
475,192,136593,1,2,0:0:0:0:
402,192,136593,1,0,0:0:0:0:
182,192,136593,1,0,0:0:0:0:
475,192,136728,1,0,0:0:0:0:
402,192,136728,1,0,0:0:0:0:
36,192,136863,1,10,0:0:0:0:
109,192,136863,1,0,0:0:0:0:
329,192,136863,1,0,0:0:0:0:
109,192,136998,1,0,0:0:0:0:
36,192,136998,1,0,0:0:0:0:
329,192,136998,1,0,0:0:0:0:
475,192,137133,1,2,0:0:0:0:
256,192,137133,1,0,0:0:0:0:
182,192,137133,1,0,0:0:0:0:
256,192,137268,1,0,0:0:0:0:
475,192,137268,1,0,0:0:0:0:
109,192,137268,1,0,0:0:0:0:
402,192,137403,1,10,0:0:0:0:
182,192,137403,1,0,0:0:0:0:
36,192,137403,1,0,0:0:0:0:
182,192,137538,1,0,0:0:0:0:
402,192,137538,1,0,0:0:0:0:
36,192,137673,1,2,0:0:0:0:
256,192,137673,1,0,0:0:0:0:
475,192,137673,1,0,0:0:0:0:
36,192,137808,1,0,0:0:0:0:
256,192,137808,1,0,0:0:0:0:
475,192,137808,1,0,0:0:0:0:
109,192,137943,1,10,0:0:0:0:
329,192,137943,1,0,0:0:0:0:
402,192,137943,1,0,0:0:0:0:
109,192,138078,1,0,0:0:0:0:
329,192,138078,1,0,0:0:0:0:
475,192,138213,1,2,0:0:0:0:
36,192,138213,1,0,0:0:0:0:
329,192,138280,1,0,0:0:0:0:
182,192,138348,1,0,0:0:0:0:
402,192,138415,1,0,0:0:0:0:
256,192,138483,1,8,0:0:0:0:
475,192,138483,1,0,0:0:0:0:
109,192,138550,1,0,0:0:0:0:
329,192,138618,1,2,0:0:0:0:
182,192,138685,1,0,0:0:0:0:
36,192,138753,1,0,0:0:0:0:
475,192,138753,1,0,0:0:0:0:
402,192,138820,1,0,0:0:0:0:
256,192,138888,1,0,0:0:0:0:
109,192,138955,1,0,0:0:0:0:
329,192,139023,1,10,0:0:0:0:
36,192,139023,1,0,0:0:0:0:
182,192,139090,1,0,0:0:0:0:
402,192,139158,1,2,0:0:0:0:
109,192,139158,1,0,0:0:0:0:
256,192,139225,1,0,0:0:0:0:
182,192,139293,1,2,0:0:0:0:
475,192,139293,1,0,0:0:0:0:
182,192,139428,1,0,0:0:0:0:
475,192,139428,1,0,0:0:0:0:
109,192,139428,1,0,0:0:0:0:
36,192,139563,1,10,0:0:0:0:
329,192,139563,1,0,0:0:0:0:
402,192,139563,1,0,0:0:0:0:
36,192,139698,1,0,0:0:0:0:
329,192,139698,1,0,0:0:0:0:
402,192,139833,1,2,0:0:0:0:
475,192,139833,1,0,0:0:0:0:
256,192,139900,1,0,0:0:0:0:
109,192,139968,1,0,0:0:0:0:
36,192,139968,1,0,0:0:0:0:
475,192,140035,1,0,0:0:0:0:
256,192,140103,1,8,0:0:0:0:
182,192,140103,1,0,0:0:0:0:
36,192,140170,1,0,0:0:0:0:
329,192,140238,1,2,0:0:0:0:
182,192,140305,1,0,0:0:0:0:
402,192,140373,1,2,0:0:0:0:
256,192,140440,1,0,0:0:0:0:
109,192,140508,1,0,0:0:0:0:
402,192,140575,1,0,0:0:0:0:
256,192,140643,1,8,0:0:0:0:
109,192,140710,1,0,0:0:0:0:
402,192,140778,1,2,0:0:0:0:
256,192,140845,1,0,0:0:0:0:
109,192,140913,1,2,0:0:0:0:
329,192,140980,1,0,0:0:0:0:
256,192,141048,1,2,0:0:0:0:
182,192,141115,1,0,0:0:0:0:
475,192,141183,1,10,0:0:0:0:
36,192,141250,1,0,0:0:0:0:
402,192,141318,1,2,0:0:0:0:
109,192,141385,5,0,0:0:0:0:
475,192,141453,1,2,0:0:0:0:
36,192,141453,1,0,0:0:0:0:
256,192,141453,1,0,0:0:0:0:
475,192,141588,1,0,0:0:0:0:
36,192,141588,1,0,0:0:0:0:
329,192,141588,1,0,0:0:0:0:
256,192,141655,1,0,0:0:0:0:
109,192,141723,1,10,0:0:0:0:
402,192,141723,1,0,0:0:0:0:
182,192,141723,1,0,0:0:0:0:
109,192,141858,1,0,0:0:0:0:
402,192,141858,1,0,0:0:0:0:
475,192,141858,1,0,0:0:0:0:
256,192,141925,1,0,0:0:0:0:
182,192,141993,1,2,0:0:0:0:
329,192,141993,1,0,0:0:0:0:
36,192,141993,1,0,0:0:0:0:
182,192,142128,1,0,0:0:0:0:
329,192,142128,1,0,0:0:0:0:
475,192,142128,1,0,0:0:0:0:
109,192,142195,1,0,0:0:0:0:
256,192,142263,1,10,0:0:0:0:
402,192,142263,1,0,0:0:0:0:
36,192,142263,1,0,0:0:0:0:
109,192,142330,1,0,0:0:0:0:
256,192,142398,1,0,0:0:0:0:
402,192,142398,1,0,0:0:0:0:
182,192,142398,1,0,0:0:0:0:
475,192,142465,1,0,0:0:0:0:
36,192,142533,5,4,0:0:0:0:
109,192,142533,1,0,0:0:0:0:
329,192,142533,1,0,0:0:0:0:
36,192,142668,1,0,0:0:0:0:
109,192,142668,1,0,0:0:0:0:
182,192,142803,1,0,0:0:0:0:
256,192,142803,1,0,0:0:0:0:
475,192,142803,1,0,0:0:0:0:
182,192,142938,1,0,0:0:0:0:
256,192,142938,1,0,0:0:0:0:
256,192,143073,1,4,0:0:0:0:
329,192,143073,1,0,0:0:0:0:
36,192,143073,1,0,0:0:0:0:
256,192,143208,1,0,0:0:0:0:
329,192,143208,1,0,0:0:0:0:
402,192,143343,1,0,0:0:0:0:
475,192,143343,1,0,0:0:0:0:
182,192,143343,1,0,0:0:0:0:
475,192,143478,1,0,0:0:0:0:
402,192,143478,1,0,0:0:0:0:
36,192,143613,1,4,0:0:0:0:
182,192,143613,1,0,0:0:0:0:
329,192,143613,1,0,0:0:0:0:
36,192,143748,1,0,0:0:0:0:
182,192,143748,1,0,0:0:0:0:
109,192,143883,1,0,0:0:0:0:
256,192,143883,1,0,0:0:0:0:
402,192,143883,1,0,0:0:0:0:
109,192,144018,1,0,0:0:0:0:
256,192,144018,1,0,0:0:0:0:
182,192,144153,1,4,0:0:0:0:
329,192,144153,1,0,0:0:0:0:
475,192,144153,1,0,0:0:0:0:
329,192,144288,1,0,0:0:0:0:
182,192,144288,1,0,0:0:0:0:
256,192,144423,1,0,0:0:0:0:
402,192,144423,1,0,0:0:0:0:
109,192,144423,1,0,0:0:0:0:
402,192,144558,1,0,0:0:0:0:
256,192,144558,1,0,0:0:0:0:
36,192,144693,1,4,0:0:0:0:
256,192,144693,1,0,0:0:0:0:
475,192,144693,1,0,0:0:0:0:
36,192,144828,1,0,0:0:0:0:
256,192,144828,1,0,0:0:0:0:
109,192,144963,1,0,0:0:0:0:
329,192,144963,1,0,0:0:0:0:
475,192,144963,1,0,0:0:0:0:
109,192,145098,1,0,0:0:0:0:
329,192,145098,1,0,0:0:0:0:
182,192,145233,1,4,0:0:0:0:
402,192,145233,1,0,0:0:0:0:
36,192,145233,1,0,0:0:0:0:
182,192,145368,1,0,0:0:0:0:
402,192,145368,1,0,0:0:0:0:
256,192,145503,1,0,0:0:0:0:
475,192,145503,1,0,0:0:0:0:
36,192,145503,1,0,0:0:0:0:
256,192,145638,1,0,0:0:0:0:
475,192,145638,1,0,0:0:0:0:
36,192,145773,1,4,0:0:0:0:
329,192,145773,1,0,0:0:0:0:
182,192,145773,1,0,0:0:0:0:
36,192,145908,1,0,0:0:0:0:
329,192,145908,1,0,0:0:0:0:
109,192,146043,1,4,0:0:0:0:
402,192,146043,1,0,0:0:0:0:
256,192,146043,1,0,0:0:0:0:
109,192,146178,1,0,0:0:0:0:
402,192,146178,1,0,0:0:0:0:
475,192,146313,1,4,0:0:0:0:
182,192,146313,1,0,0:0:0:0:
329,192,146313,1,0,0:0:0:0:
182,192,146448,1,0,0:0:0:0:
475,192,146448,1,0,0:0:0:0:
109,192,146583,1,4,0:0:0:0:
402,192,146583,1,0,0:0:0:0:
256,192,146583,1,0,0:0:0:0:
109,192,146718,1,0,0:0:0:0:
402,192,146718,1,0,0:0:0:0:
36,192,146853,128,4,149013:0:0:0:0:
109,192,146853,1,0,0:0:0:0:
329,192,146853,1,0,0:0:0:0:
475,192,146853,128,0,149013:0:0:0:0:
402,192,146853,1,0,0:0:0:0:
182,192,146920,1,0,0:0:0:0:
256,192,146988,1,0,0:0:0:0:
329,192,147055,1,0,0:0:0:0:
402,192,147123,1,8,0:0:0:0:
329,192,147190,1,0,0:0:0:0:
256,192,147258,1,0,0:0:0:0:
182,192,147325,1,0,0:0:0:0:
109,192,147393,1,0,0:0:0:0:
182,192,147460,1,0,0:0:0:0:
256,192,147528,1,0,0:0:0:0:
329,192,147595,1,0,0:0:0:0:
402,192,147663,1,8,0:0:0:0:
329,192,147730,1,0,0:0:0:0:
256,192,147798,1,0,0:0:0:0:
182,192,147865,1,0,0:0:0:0:
109,192,147933,1,0,0:0:0:0:
182,192,148000,1,0,0:0:0:0:
256,192,148068,1,0,0:0:0:0:
329,192,148135,1,0,0:0:0:0:
402,192,148203,1,8,0:0:0:0:
329,192,148270,1,0,0:0:0:0:
256,192,148338,1,0,0:0:0:0:
182,192,148405,1,0,0:0:0:0:
109,192,148473,1,0,0:0:0:0:
182,192,148540,1,0,0:0:0:0:
256,192,148608,1,0,0:0:0:0:
329,192,148675,1,0,0:0:0:0:
402,192,148743,1,8,0:0:0:0:
329,192,148810,1,0,0:0:0:0:
256,192,148878,1,0,0:0:0:0:
182,192,148945,1,0,0:0:0:0:
402,192,149013,1,4,0:0:0:0:
109,192,149013,1,0,0:0:0:0:
182,192,149080,1,0,0:0:0:0:
256,192,149148,1,0,0:0:0:0:
329,192,149215,1,0,0:0:0:0:
402,192,149283,1,8,0:0:0:0:
329,192,149350,1,0,0:0:0:0:
256,192,149418,1,0,0:0:0:0:
182,192,149485,1,0,0:0:0:0:
109,192,149553,1,0,0:0:0:0:
182,192,149620,1,0,0:0:0:0:
256,192,149688,1,0,0:0:0:0:
329,192,149755,1,0,0:0:0:0:
402,192,149823,1,8,0:0:0:0:
329,192,149890,1,0,0:0:0:0:
256,192,149958,1,0,0:0:0:0:
182,192,150025,1,0,0:0:0:0:
109,192,150093,1,0,0:0:0:0:
182,192,150160,1,0,0:0:0:0:
256,192,150228,1,0,0:0:0:0:
329,192,150295,1,0,0:0:0:0:
402,192,150363,1,12,0:0:0:0:
36,192,150363,1,0,0:0:0:0:
329,192,150430,1,0,0:0:0:0:
256,192,150498,1,0,0:0:0:0:
182,192,150565,1,0,0:0:0:0:
36,192,150633,1,4,0:0:0:0:
475,192,150633,1,0,0:0:0:0:
109,192,150700,1,0,0:0:0:0:
182,192,150768,1,0,0:0:0:0:
329,192,150835,1,0,0:0:0:0:
256,192,150835,1,0,0:0:0:0:
402,192,150903,1,8,0:0:0:0:
475,192,150970,1,0,0:0:0:0:
109,192,151038,1,4,0:0:0:0:
182,192,151038,1,0,0:0:0:0:
402,192,151105,1,0,0:0:0:0:
36,192,151173,1,4,0:0:0:0:
329,192,151173,1,0,0:0:0:0:
109,192,151240,1,0,0:0:0:0:
182,192,151308,1,0,0:0:0:0:
256,192,151375,1,0,0:0:0:0:
329,192,151443,1,8,0:0:0:0:
256,192,151510,1,0,0:0:0:0:
182,192,151578,1,0,0:0:0:0:
109,192,151645,1,0,0:0:0:0:
36,192,151713,1,0,0:0:0:0:
109,192,151780,1,0,0:0:0:0:
182,192,151848,1,0,0:0:0:0:
256,192,151915,1,0,0:0:0:0:
329,192,151983,1,12,0:0:0:0:
402,192,151983,1,0,0:0:0:0:
256,192,152050,1,0,0:0:0:0:
182,192,152118,1,4,0:0:0:0:
475,192,152118,1,0,0:0:0:0:
109,192,152185,1,0,0:0:0:0:
36,192,152253,1,0,0:0:0:0:
109,192,152320,1,0,0:0:0:0:
182,192,152388,1,4,0:0:0:0:
475,192,152388,1,0,0:0:0:0:
256,192,152455,1,0,0:0:0:0:
329,192,152523,1,12,0:0:0:0:
402,192,152523,1,0,0:0:0:0:
256,192,152590,1,0,0:0:0:0:
182,192,152658,1,0,0:0:0:0:
109,192,152725,1,0,0:0:0:0:
36,192,152793,1,4,0:0:0:0:
475,192,152793,1,0,0:0:0:0:
109,192,152860,1,0,0:0:0:0:
182,192,152928,1,4,0:0:0:0:
402,192,152928,1,0,0:0:0:0:
256,192,152995,1,0,0:0:0:0:
329,192,153063,1,12,0:0:0:0:
475,192,153063,1,0,0:0:0:0:
256,192,153130,1,0,0:0:0:0:
182,192,153198,1,0,0:0:0:0:
109,192,153265,1,0,0:0:0:0:
182,192,153333,1,4,0:0:0:0:
36,192,153333,1,0,0:0:0:0:
256,192,153400,1,0,0:0:0:0:
329,192,153468,1,0,0:0:0:0:
402,192,153535,1,0,0:0:0:0:
475,192,153603,1,8,0:0:0:0:
402,192,153670,1,0,0:0:0:0:
329,192,153738,1,0,0:0:0:0:
256,192,153805,1,0,0:0:0:0:
182,192,153873,1,4,0:0:0:0:
109,192,153873,1,0,0:0:0:0:
256,192,153940,1,0,0:0:0:0:
329,192,154008,1,0,0:0:0:0:
402,192,154075,1,0,0:0:0:0:
475,192,154143,1,8,0:0:0:0:
402,192,154210,1,0,0:0:0:0:
329,192,154278,1,0,0:0:0:0:
256,192,154345,1,0,0:0:0:0:
182,192,154413,1,4,0:0:0:0:
36,192,154413,1,0,0:0:0:0:
256,192,154480,1,0,0:0:0:0:
329,192,154548,1,0,0:0:0:0:
402,192,154615,1,0,0:0:0:0:
475,192,154683,1,12,0:0:0:0:
109,192,154683,1,0,0:0:0:0:
402,192,154750,1,0,0:0:0:0:
329,192,154818,1,0,0:0:0:0:
256,192,154885,1,0,0:0:0:0:
36,192,154953,1,4,0:0:0:0:
475,192,154953,1,0,0:0:0:0:
109,192,155020,1,0,0:0:0:0:
182,192,155088,1,0,0:0:0:0:
329,192,155155,1,0,0:0:0:0:
402,192,155223,1,12,0:0:0:0:
36,192,155223,1,0,0:0:0:0:
475,192,155290,1,0,0:0:0:0:
182,192,155358,1,0,0:0:0:0:
329,192,155425,1,0,0:0:0:0:
36,192,155493,1,4,0:0:0:0:
402,192,155493,1,0,0:0:0:0:
475,192,155493,1,0,0:0:0:0:
109,192,155560,1,0,0:0:0:0:
182,192,155628,1,0,0:0:0:0:
256,192,155695,1,0,0:0:0:0:
475,192,155763,1,8,0:0:0:0:
109,192,155763,1,0,0:0:0:0:
402,192,155830,1,0,0:0:0:0:
329,192,155898,1,0,0:0:0:0:
256,192,155965,1,0,0:0:0:0:
36,192,156033,1,0,0:0:0:0:
402,192,156033,1,0,0:0:0:0:
109,192,156100,1,0,0:0:0:0:
182,192,156168,1,0,0:0:0:0:
256,192,156235,1,0,0:0:0:0:
475,192,156303,1,8,0:0:0:0:
109,192,156303,1,0,0:0:0:0:
402,192,156370,1,0,0:0:0:0:
329,192,156438,1,0,0:0:0:0:
256,192,156505,1,0,0:0:0:0:
36,192,156573,1,0,0:0:0:0:
402,192,156573,1,0,0:0:0:0:
109,192,156640,1,0,0:0:0:0:
182,192,156708,1,0,0:0:0:0:
256,192,156775,1,0,0:0:0:0:
475,192,156843,1,8,0:0:0:0:
109,192,156843,1,0,0:0:0:0:
402,192,156910,1,0,0:0:0:0:
329,192,156978,1,0,0:0:0:0:
256,192,157045,1,0,0:0:0:0:
36,192,157113,1,0,0:0:0:0:
402,192,157113,1,0,0:0:0:0:
109,192,157180,1,0,0:0:0:0:
182,192,157248,1,0,0:0:0:0:
256,192,157315,1,0,0:0:0:0:
475,192,157383,1,8,0:0:0:0:
109,192,157383,1,0,0:0:0:0:
402,192,157450,1,0,0:0:0:0:
329,192,157518,1,0,0:0:0:0:
182,192,157518,1,0,0:0:0:0:
256,192,157585,1,0,0:0:0:0:
36,192,157653,1,4,0:0:0:0:
475,192,157653,1,0,0:0:0:0:
109,192,157720,1,0,0:0:0:0:
182,192,157788,1,0,0:0:0:0:
256,192,157855,1,0,0:0:0:0:
402,192,157923,1,8,0:0:0:0:
109,192,157923,1,0,0:0:0:0:
329,192,157990,1,0,0:0:0:0:
256,192,158058,1,0,0:0:0:0:
182,192,158125,1,0,0:0:0:0:
36,192,158193,1,0,0:0:0:0:
475,192,158193,1,0,0:0:0:0:
109,192,158260,1,0,0:0:0:0:
182,192,158328,1,0,0:0:0:0:
256,192,158395,1,0,0:0:0:0:
402,192,158463,1,8,0:0:0:0:
109,192,158463,1,0,0:0:0:0:
329,192,158530,1,0,0:0:0:0:
256,192,158598,1,0,0:0:0:0:
36,192,158598,1,0,0:0:0:0:
182,192,158665,1,0,0:0:0:0:
109,192,158733,1,0,0:0:0:0:
402,192,158733,1,0,0:0:0:0:
182,192,158800,1,0,0:0:0:0:
256,192,158868,1,0,0:0:0:0:
329,192,158935,1,0,0:0:0:0:
475,192,159003,1,12,0:0:0:0:
182,192,159003,1,0,0:0:0:0:
402,192,159070,1,0,0:0:0:0:
329,192,159138,1,0,0:0:0:0:
36,192,159138,1,0,0:0:0:0:
256,192,159205,1,0,0:0:0:0:
109,192,159273,1,4,0:0:0:0:
475,192,159273,1,0,0:0:0:0:
182,192,159340,1,0,0:0:0:0:
256,192,159408,1,0,0:0:0:0:
36,192,159408,1,0,0:0:0:0:
329,192,159475,1,0,0:0:0:0:
109,192,159475,1,0,0:0:0:0:
402,192,159543,1,8,0:0:0:0:
475,192,159610,1,0,0:0:0:0:
109,192,159610,1,0,0:0:0:0:
256,192,159678,1,4,0:0:0:0:
182,192,159678,1,0,0:0:0:0:
329,192,159745,1,0,0:0:0:0:
36,192,159813,1,4,0:0:0:0:
402,192,159813,1,0,0:0:0:0:
109,192,159880,1,0,0:0:0:0:
256,192,159948,1,0,0:0:0:0:
329,192,160015,1,0,0:0:0:0:
475,192,160083,1,8,0:0:0:0:
182,192,160083,1,0,0:0:0:0:
402,192,160150,1,0,0:0:0:0:
256,192,160218,1,0,0:0:0:0:
182,192,160285,1,0,0:0:0:0:
36,192,160353,1,0,0:0:0:0:
329,192,160353,1,0,0:0:0:0:
109,192,160420,1,0,0:0:0:0:
256,192,160488,1,0,0:0:0:0:
329,192,160555,1,0,0:0:0:0:
475,192,160623,1,12,0:0:0:0:
182,192,160623,1,0,0:0:0:0:
402,192,160690,1,0,0:0:0:0:
256,192,160758,1,4,0:0:0:0:
329,192,160758,1,0,0:0:0:0:
182,192,160825,1,0,0:0:0:0:
36,192,160893,1,0,0:0:0:0:
109,192,160960,1,0,0:0:0:0:
256,192,161028,1,4,0:0:0:0:
182,192,161028,1,0,0:0:0:0:
329,192,161095,1,0,0:0:0:0:
109,192,161095,1,0,0:0:0:0:
475,192,161163,1,12,0:0:0:0:
36,192,161163,1,0,0:0:0:0:
402,192,161230,1,0,0:0:0:0:
256,192,161298,1,0,0:0:0:0:
329,192,161298,1,0,0:0:0:0:
182,192,161365,1,0,0:0:0:0:
36,192,161433,1,4,0:0:0:0:
475,192,161433,1,0,0:0:0:0:
109,192,161500,1,0,0:0:0:0:
256,192,161568,1,4,0:0:0:0:
182,192,161568,1,0,0:0:0:0:
329,192,161635,1,0,0:0:0:0:
109,192,161635,1,0,0:0:0:0:
475,192,161703,1,12,0:0:0:0:
36,192,161703,1,0,0:0:0:0:
402,192,161770,1,0,0:0:0:0:
256,192,161838,1,0,0:0:0:0:
329,192,161838,1,0,0:0:0:0:
182,192,161905,1,0,0:0:0:0:
109,192,161905,1,0,0:0:0:0:
36,192,161973,1,4,0:0:0:0:
109,192,162040,1,0,0:0:0:0:
182,192,162108,1,0,0:0:0:0:
402,192,162108,1,0,0:0:0:0:
256,192,162175,1,0,0:0:0:0:
329,192,162175,1,0,0:0:0:0:
475,192,162243,1,8,0:0:0:0:
36,192,162243,1,0,0:0:0:0:
402,192,162310,1,0,0:0:0:0:
329,192,162378,1,0,0:0:0:0:
109,192,162378,1,0,0:0:0:0:
256,192,162445,1,0,0:0:0:0:
182,192,162445,1,0,0:0:0:0:
36,192,162513,1,4,0:0:0:0:
475,192,162513,1,0,0:0:0:0:
109,192,162580,1,0,0:0:0:0:
182,192,162648,1,0,0:0:0:0:
402,192,162648,1,0,0:0:0:0:
256,192,162715,1,0,0:0:0:0:
329,192,162715,1,0,0:0:0:0:
475,192,162783,1,8,0:0:0:0:
36,192,162783,1,0,0:0:0:0:
402,192,162850,1,0,0:0:0:0:
329,192,162918,1,0,0:0:0:0:
109,192,162918,1,0,0:0:0:0:
256,192,162985,1,0,0:0:0:0:
182,192,162985,1,0,0:0:0:0:
109,192,163053,1,4,0:0:0:0:
402,192,163053,1,0,0:0:0:0:
182,192,163120,1,0,0:0:0:0:
256,192,163188,1,0,0:0:0:0:
475,192,163188,1,0,0:0:0:0:
329,192,163255,1,0,0:0:0:0:
256,192,163323,1,12,0:0:0:0:
36,192,163323,1,0,0:0:0:0:
329,192,163390,1,0,0:0:0:0:
402,192,163458,1,0,0:0:0:0:
109,192,163458,1,0,0:0:0:0:
475,192,163525,1,0,0:0:0:0:
36,192,163593,1,4,0:0:0:0:
256,192,163593,1,0,0:0:0:0:
109,192,163660,1,0,0:0:0:0:
256,192,163728,5,0,0:0:0:0:
182,192,163728,1,0,0:0:0:0:
329,192,163761,1,0,0:0:0:0:
402,192,163795,1,0,0:0:0:0:
109,192,163795,1,0,0:0:0:0:
475,192,163829,1,0,0:0:0:0:
182,192,163863,5,12,0:0:0:0:
36,192,163863,1,0,0:0:0:0:
256,192,163930,1,0,0:0:0:0:
109,192,163930,1,0,0:0:0:0:
329,192,163998,1,0,0:0:0:0:
182,192,163998,1,0,0:0:0:0:
402,192,164065,1,0,0:0:0:0:
256,192,164065,1,0,0:0:0:0:
475,192,164133,1,6,0:0:0:0:
36,192,164133,1,0,0:0:0:0:
329,192,164133,1,0,0:0:0:0:
109,192,164268,1,0,0:0:0:0:
182,192,164335,1,0,0:0:0:0:
256,192,164403,1,10,0:0:0:0:
402,192,164403,1,0,0:0:0:0:
182,192,164470,1,0,0:0:0:0:
256,192,164538,1,0,0:0:0:0:
329,192,164605,1,0,0:0:0:0:
402,192,164673,1,2,0:0:0:0:
475,192,164673,1,0,0:0:0:0:
36,192,164740,1,0,0:0:0:0:
256,192,164808,1,0,0:0:0:0:
329,192,164875,1,0,0:0:0:0:
402,192,164943,1,10,0:0:0:0:
475,192,164943,1,0,0:0:0:0:
109,192,165010,1,0,0:0:0:0:
256,192,165078,1,2,0:0:0:0:
402,192,165145,1,0,0:0:0:0:
36,192,165213,1,0,0:0:0:0:
329,192,165280,1,0,0:0:0:0:
475,192,165280,1,0,0:0:0:0:
256,192,165483,1,10,0:0:0:0:
402,192,165483,1,0,0:0:0:0:
36,192,165483,1,0,0:0:0:0:
329,192,165685,1,0,0:0:0:0:
182,192,165685,1,0,0:0:0:0:
36,192,165753,1,0,0:0:0:0:
256,192,165888,1,2,0:0:0:0:
109,192,165888,1,0,0:0:0:0:
475,192,166023,1,8,0:0:0:0:
182,192,166090,1,0,0:0:0:0:
36,192,166090,1,0,0:0:0:0:
402,192,166158,1,0,0:0:0:0:
256,192,166293,1,2,0:0:0:0:
475,192,166293,1,0,0:0:0:0:
329,192,166360,1,0,0:0:0:0:
182,192,166428,1,0,0:0:0:0:
36,192,166495,1,0,0:0:0:0:
256,192,166563,1,10,0:0:0:0:
475,192,166563,1,0,0:0:0:0:
329,192,166630,1,0,0:0:0:0:
182,192,166698,1,0,0:0:0:0:
36,192,166765,1,0,0:0:0:0:
402,192,166833,1,2,0:0:0:0:
256,192,166833,1,0,0:0:0:0:
109,192,166900,1,0,0:0:0:0:
402,192,166968,1,0,0:0:0:0:
109,192,167035,1,0,0:0:0:0:
402,192,167103,1,10,0:0:0:0:
256,192,167103,1,0,0:0:0:0:
109,192,167170,1,0,0:0:0:0:
402,192,167238,1,2,0:0:0:0:
475,192,167305,1,0,0:0:0:0:
256,192,167373,1,0,0:0:0:0:
36,192,167508,1,0,0:0:0:0:
475,192,167508,1,0,0:0:0:0:
109,192,167643,1,10,0:0:0:0:
402,192,167643,1,0,0:0:0:0:
256,192,167643,1,0,0:0:0:0:
182,192,167913,1,2,0:0:0:0:
329,192,167913,1,0,0:0:0:0:
256,192,167913,1,0,0:0:0:0:
402,192,168115,1,0,0:0:0:0:
109,192,168115,1,0,0:0:0:0:
256,192,168183,1,8,0:0:0:0:
182,192,168318,1,2,0:0:0:0:
329,192,168318,1,0,0:0:0:0:
256,192,168318,1,0,0:0:0:0:
36,192,168453,1,2,0:0:0:0:
402,192,168453,1,0,0:0:0:0:
109,192,168520,1,0,0:0:0:0:
182,192,168588,1,0,0:0:0:0:
256,192,168655,1,0,0:0:0:0:
329,192,168723,1,8,0:0:0:0:
475,192,168723,1,0,0:0:0:0:
182,192,168790,1,0,0:0:0:0:
256,192,168858,1,2,0:0:0:0:
36,192,168858,1,0,0:0:0:0:
109,192,168925,1,0,0:0:0:0:
36,192,168993,1,0,0:0:0:0:
402,192,168993,1,0,0:0:0:0:
109,192,169060,1,0,0:0:0:0:
182,192,169128,1,0,0:0:0:0:
256,192,169195,1,0,0:0:0:0:
182,192,169263,1,10,0:0:0:0:
475,192,169263,1,0,0:0:0:0:
256,192,169330,1,0,0:0:0:0:
329,192,169398,1,0,0:0:0:0:
402,192,169465,1,0,0:0:0:0:
329,192,169533,1,2,0:0:0:0:
475,192,169533,1,0,0:0:0:0:
182,192,169600,1,0,0:0:0:0:
36,192,169668,1,0,0:0:0:0:
182,192,169735,1,0,0:0:0:0:
329,192,169803,1,10,0:0:0:0:
475,192,169803,1,0,0:0:0:0:
182,192,169870,1,0,0:0:0:0:
36,192,169938,1,0,0:0:0:0:
182,192,170005,1,0,0:0:0:0:
329,192,170073,1,2,0:0:0:0:
475,192,170073,1,0,0:0:0:0:
109,192,170140,1,0,0:0:0:0:
256,192,170208,1,0,0:0:0:0:
402,192,170275,1,0,0:0:0:0:
475,192,170343,1,10,0:0:0:0:
109,192,170343,1,0,0:0:0:0:
182,192,170410,1,0,0:0:0:0:
329,192,170478,1,2,0:0:0:0:
36,192,170478,1,0,0:0:0:0:
402,192,170545,1,0,0:0:0:0:
475,192,170613,1,2,0:0:0:0:
109,192,170613,1,0,0:0:0:0:
402,192,170680,1,0,0:0:0:0:
329,192,170748,1,0,0:0:0:0:
256,192,170815,1,0,0:0:0:0:
329,192,170883,1,10,0:0:0:0:
36,192,170883,1,0,0:0:0:0:
256,192,170950,1,0,0:0:0:0:
182,192,171018,1,0,0:0:0:0:
109,192,171085,1,0,0:0:0:0:
256,192,171153,1,2,0:0:0:0:
402,192,171153,1,0,0:0:0:0:
36,192,171153,1,0,0:0:0:0:
475,192,171355,1,0,0:0:0:0:
329,192,171355,1,0,0:0:0:0:
36,192,171423,1,8,0:0:0:0:
256,192,171558,1,2,0:0:0:0:
402,192,171558,1,0,0:0:0:0:
36,192,171558,1,0,0:0:0:0:
109,192,171625,1,0,0:0:0:0:
475,192,171693,1,0,0:0:0:0:
182,192,171760,1,0,0:0:0:0:
329,192,171760,1,0,0:0:0:0:
402,192,171828,1,0,0:0:0:0:
256,192,171963,1,14,0:0:0:0:
109,192,171963,1,0,0:0:0:0:
329,192,171963,1,0,0:0:0:0:
36,192,171963,1,0,0:0:0:0:
402,192,172098,1,0,0:0:0:0:
36,192,172165,1,0,0:0:0:0:
182,192,172165,1,0,0:0:0:0:
109,192,172167,1,0,0:0:0:0:
475,192,172233,1,4,0:0:0:0:
402,192,172302,1,0,0:0:0:0:
109,192,172368,1,2,0:0:0:0:
256,192,172368,1,0,0:0:0:0:
182,192,172368,1,0,0:0:0:0:
329,192,172401,1,0,0:0:0:0:
402,192,172435,1,0,0:0:0:0:
475,192,172469,1,0,0:0:0:0:
182,192,172503,1,10,0:0:0:0:
256,192,172503,1,0,0:0:0:0:
36,192,172570,1,0,0:0:0:0:
329,192,172570,1,0,0:0:0:0:
109,192,172570,1,0,0:0:0:0:
402,192,172638,1,4,0:0:0:0:
475,192,172705,1,0,0:0:0:0:
109,192,172773,1,6,0:0:0:0:
402,192,172773,1,0,0:0:0:0:
256,192,172773,1,0,0:0:0:0:
36,192,172840,1,0,0:0:0:0:
109,192,172908,1,0,0:0:0:0:
182,192,172975,1,0,0:0:0:0:
256,192,173043,1,10,0:0:0:0:
402,192,173043,1,0,0:0:0:0:
109,192,173110,1,0,0:0:0:0:
182,192,173178,1,0,0:0:0:0:
256,192,173245,1,0,0:0:0:0:
329,192,173313,1,2,0:0:0:0:
475,192,173313,1,0,0:0:0:0:
182,192,173380,1,0,0:0:0:0:
256,192,173448,1,0,0:0:0:0:
329,192,173515,1,0,0:0:0:0:
402,192,173583,1,10,0:0:0:0:
109,192,173583,1,0,0:0:0:0:
36,192,173583,1,0,0:0:0:0:
182,192,173718,1,2,0:0:0:0:
475,192,173718,1,0,0:0:0:0:
329,192,173853,1,0,0:0:0:0:
36,192,173988,1,0,0:0:0:0:
182,192,173988,1,0,0:0:0:0:
109,192,174123,1,10,0:0:0:0:
256,192,174123,1,0,0:0:0:0:
475,192,174124,1,0,0:0:0:0:
182,192,174258,1,0,0:0:0:0:
329,192,174258,1,0,0:0:0:0:
256,192,174393,1,2,0:0:0:0:
402,192,174393,1,0,0:0:0:0:
36,192,174393,1,0,0:0:0:0:
329,192,174528,1,0,0:0:0:0:
402,192,174595,1,0,0:0:0:0:
475,192,174663,1,10,0:0:0:0:
182,192,174663,1,0,0:0:0:0:
402,192,174730,1,0,0:0:0:0:
329,192,174798,1,0,0:0:0:0:
109,192,174798,1,0,0:0:0:0:
256,192,174865,1,0,0:0:0:0:
182,192,174933,1,2,0:0:0:0:
402,192,174933,1,0,0:0:0:0:
36,192,175000,1,0,0:0:0:0:
109,192,175068,1,0,0:0:0:0:
256,192,175135,1,0,0:0:0:0:
329,192,175203,1,10,0:0:0:0:
475,192,175203,1,0,0:0:0:0:
109,192,175270,1,0,0:0:0:0:
182,192,175338,1,0,0:0:0:0:
329,192,175405,1,0,0:0:0:0:
402,192,175473,1,2,0:0:0:0:
36,192,175473,1,0,0:0:0:0:
182,192,175540,1,0,0:0:0:0:
256,192,175608,1,0,0:0:0:0:
402,192,175675,1,0,0:0:0:0:
109,192,175743,1,10,0:0:0:0:
329,192,175743,1,0,0:0:0:0:
475,192,175743,1,0,0:0:0:0:
182,192,175878,1,2,0:0:0:0:
402,192,175878,1,0,0:0:0:0:
109,192,176013,1,0,0:0:0:0:
36,192,176148,1,2,0:0:0:0:
256,192,176148,1,0,0:0:0:0:
109,192,176283,1,10,0:0:0:0:
329,192,176283,1,0,0:0:0:0:
475,192,176283,1,0,0:0:0:0:
182,192,176418,1,0,0:0:0:0:
402,192,176418,1,0,0:0:0:0:
256,192,176553,1,2,0:0:0:0:
475,192,176553,1,0,0:0:0:0:
36,192,176553,1,0,0:0:0:0:
109,192,176688,1,2,0:0:0:0:
182,192,176755,1,0,0:0:0:0:
402,192,176823,1,10,0:0:0:0:
475,192,176823,1,0,0:0:0:0:
329,192,176890,1,0,0:0:0:0:
256,192,176958,1,0,0:0:0:0:
109,192,176958,1,0,0:0:0:0:
182,192,177025,1,0,0:0:0:0:
475,192,177093,1,2,0:0:0:0:
36,192,177093,1,0,0:0:0:0:
109,192,177094,1,0,0:0:0:0:
402,192,177160,1,0,0:0:0:0:
329,192,177228,1,0,0:0:0:0:
256,192,177295,1,0,0:0:0:0:
182,192,177363,1,8,0:0:0:0:
36,192,177363,1,0,0:0:0:0:
109,192,177430,1,0,0:0:0:0:
475,192,177498,1,2,0:0:0:0:
256,192,177499,1,0,0:0:0:0:
402,192,177565,1,0,0:0:0:0:
329,192,177633,1,0,0:0:0:0:
36,192,177633,1,0,0:0:0:0:
256,192,177700,1,0,0:0:0:0:
182,192,177768,1,0,0:0:0:0:
109,192,177835,1,0,0:0:0:0:
475,192,177903,1,10,0:0:0:0:
36,192,177903,1,0,0:0:0:0:
256,192,177904,1,0,0:0:0:0:
402,192,177970,1,0,0:0:0:0:
329,192,178038,1,0,0:0:0:0:
256,192,178105,1,0,0:0:0:0:
182,192,178173,1,0,0:0:0:0:
36,192,178173,1,0,0:0:0:0:
109,192,178240,1,0,0:0:0:0:
475,192,178308,1,2,0:0:0:0:
256,192,178309,1,0,0:0:0:0:
402,192,178375,1,0,0:0:0:0:
475,192,178443,1,10,0:0:0:0:
36,192,178443,1,0,0:0:0:0:
182,192,178444,1,0,0:0:0:0:
402,192,178510,1,0,0:0:0:0:
329,192,178578,1,0,0:0:0:0:
256,192,178645,1,0,0:0:0:0:
475,192,178713,1,2,0:0:0:0:
36,192,178713,1,0,0:0:0:0:
109,192,178714,1,0,0:0:0:0:
402,192,178780,1,0,0:0:0:0:
329,192,178848,1,0,0:0:0:0:
256,192,178915,1,0,0:0:0:0:
475,192,178983,1,10,0:0:0:0:
329,192,178983,1,0,0:0:0:0:
36,192,178983,1,0,0:0:0:0:
402,192,179118,1,0,0:0:0:0:
256,192,179118,1,0,0:0:0:0:
36,192,179118,1,0,0:0:0:0:
182,192,179253,1,2,0:0:0:0:
329,192,179253,1,0,0:0:0:0:
475,192,179253,1,0,0:0:0:0:
256,192,179388,1,0,0:0:0:0:
109,192,179388,1,0,0:0:0:0:
36,192,179388,1,0,0:0:0:0:
402,192,179455,1,0,0:0:0:0:
256,192,179523,1,8,0:0:0:0:
109,192,179523,1,0,0:0:0:0:
475,192,179523,1,0,0:0:0:0:
329,192,179658,1,0,0:0:0:0:
475,192,179793,1,0,0:0:0:0:
256,192,179794,1,2,0:0:0:0:
36,192,179860,1,0,0:0:0:0:
109,192,179928,1,0,0:0:0:0:
182,192,179929,1,0,0:0:0:0:
256,192,179995,1,0,0:0:0:0:
402,192,179995,1,0,0:0:0:0:
329,192,180063,1,8,0:0:0:0:
475,192,180063,1,0,0:0:0:0:
109,192,180130,1,0,0:0:0:0:
182,192,180198,1,0,0:0:0:0:
402,192,180198,1,0,0:0:0:0:
329,192,180265,1,0,0:0:0:0:
36,192,180333,1,6,0:0:0:0:
475,192,180333,1,0,0:0:0:0:
256,192,180333,1,0,0:0:0:0:
109,192,180400,1,0,0:0:0:0:
182,192,180468,1,0,0:0:0:0:
329,192,180468,1,0,0:0:0:0:
256,192,180535,1,0,0:0:0:0:
402,192,180535,1,0,0:0:0:0:
182,192,180603,1,14,0:0:0:0:
475,192,180603,1,0,0:0:0:0:
109,192,180603,1,0,0:0:0:0:
256,192,180670,1,0,0:0:0:0:
329,192,180738,1,0,0:0:0:0:
36,192,180738,1,0,0:0:0:0:
402,192,180805,1,0,0:0:0:0:
109,192,180805,1,0,0:0:0:0:
475,192,180873,1,6,0:0:0:0:
182,192,180873,1,0,0:0:0:0:
256,192,180873,1,0,0:0:0:0:
402,192,180940,1,0,0:0:0:0:
109,192,180940,1,0,0:0:0:0:
329,192,181008,1,0,0:0:0:0:
256,192,181008,1,0,0:0:0:0:
182,192,181041,1,0,0:0:0:0:
402,192,181075,1,0,0:0:0:0:
109,192,181075,1,0,0:0:0:0:
36,192,181109,1,0,0:0:0:0:
329,192,181143,1,14,0:0:0:0:
182,192,181143,1,0,0:0:0:0:
475,192,181143,1,0,0:0:0:0:
109,192,181210,1,0,0:0:0:0:
402,192,181210,1,0,0:0:0:0:
182,192,181278,1,0,0:0:0:0:
329,192,181278,1,0,0:0:0:0:
109,192,181345,1,0,0:0:0:0:
402,192,181345,1,0,0:0:0:0:
36,192,181413,1,6,0:0:0:0:
256,192,181413,1,0,0:0:0:0:
475,192,181413,1,0,0:0:0:0:
109,192,181480,1,0,0:0:0:0:
182,192,181548,1,0,0:0:0:0:
256,192,181615,1,0,0:0:0:0:
329,192,181683,1,10,0:0:0:0:
402,192,181683,1,0,0:0:0:0:
475,192,181818,1,2,0:0:0:0:
109,192,181818,1,0,0:0:0:0:
182,192,181885,1,0,0:0:0:0:
256,192,181953,1,0,0:0:0:0:
36,192,181953,1,0,0:0:0:0:
329,192,182020,1,0,0:0:0:0:
402,192,182088,1,2,0:0:0:0:
109,192,182088,1,0,0:0:0:0:
182,192,182223,1,10,0:0:0:0:
256,192,182223,1,0,0:0:0:0:
475,192,182223,1,0,0:0:0:0:
329,192,182358,1,2,0:0:0:0:
402,192,182358,1,0,0:0:0:0:
36,192,182493,1,2,0:0:0:0:
475,192,182493,1,0,0:0:0:0:
109,192,182560,1,0,0:0:0:0:
182,192,182628,1,0,0:0:0:0:
256,192,182695,1,0,0:0:0:0:
109,192,182763,1,10,0:0:0:0:
402,192,182763,1,0,0:0:0:0:
182,192,182830,1,0,0:0:0:0:
256,192,182898,1,0,0:0:0:0:
329,192,182965,1,0,0:0:0:0:
475,192,183033,1,2,0:0:0:0:
36,192,183033,1,0,0:0:0:0:
402,192,183100,1,0,0:0:0:0:
329,192,183168,1,0,0:0:0:0:
256,192,183235,1,0,0:0:0:0:
402,192,183303,1,10,0:0:0:0:
109,192,183303,1,0,0:0:0:0:
329,192,183370,1,0,0:0:0:0:
256,192,183438,1,0,0:0:0:0:
475,192,183438,1,0,0:0:0:0:
182,192,183505,1,0,0:0:0:0:
36,192,183573,1,2,0:0:0:0:
109,192,183573,1,0,0:0:0:0:
402,192,183573,1,0,0:0:0:0:
182,192,183640,1,0,0:0:0:0:
256,192,183708,1,0,0:0:0:0:
329,192,183775,1,0,0:0:0:0:
475,192,183843,1,10,0:0:0:0:
402,192,183843,1,0,0:0:0:0:
109,192,183843,1,0,0:0:0:0:
36,192,183978,1,2,0:0:0:0:
182,192,183978,1,0,0:0:0:0:
109,192,184045,1,0,0:0:0:0:
256,192,184113,1,0,0:0:0:0:
329,192,184113,1,0,0:0:0:0:
402,192,184180,1,0,0:0:0:0:
329,192,184248,1,2,0:0:0:0:
475,192,184248,1,0,0:0:0:0:
109,192,184383,1,10,0:0:0:0:
36,192,184383,1,0,0:0:0:0:
182,192,184383,1,0,0:0:0:0:
402,192,184518,1,2,0:0:0:0:
475,192,184518,1,0,0:0:0:0:
36,192,184653,1,2,0:0:0:0:
182,192,184653,1,0,0:0:0:0:
109,192,184720,1,0,0:0:0:0:
256,192,184788,1,0,0:0:0:0:
329,192,184855,1,0,0:0:0:0:
109,192,184923,1,10,0:0:0:0:
256,192,184923,1,0,0:0:0:0:
182,192,184990,1,0,0:0:0:0:
329,192,185058,1,0,0:0:0:0:
402,192,185125,1,0,0:0:0:0:
475,192,185193,1,0,0:0:0:0:
36,192,185193,1,0,0:0:0:0:
402,192,185260,1,0,0:0:0:0:
256,192,185328,1,0,0:0:0:0:
182,192,185395,1,0,0:0:0:0:
402,192,185463,1,0,0:0:0:0:
109,192,185463,1,0,0:0:0:0:
329,192,185530,1,0,0:0:0:0:
182,192,185598,1,0,0:0:0:0:
402,192,185598,1,0,0:0:0:0:
109,192,185665,1,0,0:0:0:0:
36,192,185733,1,0,0:0:0:0:
475,192,185733,1,0,0:0:0:0:
109,192,185800,1,0,0:0:0:0:
182,192,185868,1,0,0:0:0:0:
256,192,185935,1,0,0:0:0:0:
329,192,186003,1,0,0:0:0:0:
402,192,186003,1,0,0:0:0:0:
475,192,186003,1,0,0:0:0:0:
36,192,186205,1,0,0:0:0:0:
256,192,186273,1,0,0:0:0:0:
329,192,186273,1,0,0:0:0:0:
475,192,186273,1,0,0:0:0:0:
109,192,186408,1,0,0:0:0:0:
402,192,186475,1,0,0:0:0:0:
329,192,186475,1,0,0:0:0:0:
256,192,186543,1,0,0:0:0:0:
182,192,186610,1,0,0:0:0:0:
402,192,186678,1,0,0:0:0:0:
475,192,186678,1,0,0:0:0:0:
36,192,186813,1,0,0:0:0:0:
109,192,186813,1,0,0:0:0:0:
182,192,186880,1,0,0:0:0:0:
329,192,186880,1,0,0:0:0:0:
109,192,187015,1,0,0:0:0:0:
256,192,187083,1,0,0:0:0:0:
402,192,187083,1,0,0:0:0:0:
182,192,187083,1,0,0:0:0:0:
182,192,187218,1,0,0:0:0:0:
329,192,187285,1,0,0:0:0:0:
475,192,187285,1,0,0:0:0:0:
36,192,187353,1,0,0:0:0:0:
256,192,187420,1,0,0:0:0:0:
402,192,187488,1,0,0:0:0:0:
109,192,187488,1,0,0:0:0:0:
329,192,187623,1,0,0:0:0:0:
182,192,187623,1,0,0:0:0:0:
256,192,187690,1,0,0:0:0:0:
329,192,187758,1,0,0:0:0:0:
109,192,187758,1,0,0:0:0:0:
402,192,187825,1,0,0:0:0:0:
475,192,187893,1,0,0:0:0:0:
36,192,187893,1,0,0:0:0:0:
402,192,187960,1,0,0:0:0:0:
329,192,188028,1,0,0:0:0:0:
256,192,188095,1,0,0:0:0:0:
402,192,188163,1,0,0:0:0:0:
109,192,188163,1,0,0:0:0:0:
329,192,188230,1,0,0:0:0:0:
256,192,188298,1,0,0:0:0:0:
182,192,188365,1,0,0:0:0:0:
329,192,188433,1,0,0:0:0:0:
36,192,188433,1,0,0:0:0:0:
256,192,188500,1,0,0:0:0:0:
182,192,188568,1,0,0:0:0:0:
109,192,188635,1,0,0:0:0:0:
256,192,188703,1,0,0:0:0:0:
402,192,188703,1,0,0:0:0:0:
182,192,188770,1,0,0:0:0:0:
109,192,188838,1,0,0:0:0:0:
329,192,188838,1,0,0:0:0:0:
36,192,188905,1,0,0:0:0:0:
402,192,188905,1,0,0:0:0:0:
256,192,188973,1,0,0:0:0:0:
402,192,189040,1,0,0:0:0:0:
329,192,189108,1,0,0:0:0:0:
475,192,189108,1,0,0:0:0:0:
36,192,189108,1,0,0:0:0:0:
329,192,189243,1,0,0:0:0:0:
109,192,189243,1,0,0:0:0:0:
182,192,189243,1,0,0:0:0:0:
256,192,189310,1,0,0:0:0:0:
402,192,189310,1,0,0:0:0:0:
36,192,189378,1,0,0:0:0:0:
256,192,189445,1,0,0:0:0:0:
109,192,189445,1,0,0:0:0:0:
182,192,189513,1,0,0:0:0:0:
329,192,189513,1,0,0:0:0:0:
402,192,189513,1,0,0:0:0:0:
475,192,189582,1,0,0:0:0:0:
109,192,189648,1,0,0:0:0:0:
256,192,189648,1,0,0:0:0:0:
329,192,189681,1,0,0:0:0:0:
36,192,189715,1,0,0:0:0:0:
182,192,189715,1,0,0:0:0:0:
402,192,189715,1,0,0:0:0:0:
475,192,189749,1,0,0:0:0:0:
329,192,189783,1,0,0:0:0:0:
256,192,189783,1,0,0:0:0:0:
182,192,189850,1,0,0:0:0:0:
402,192,189850,1,0,0:0:0:0:
36,192,189918,1,0,0:0:0:0:
109,192,189918,1,0,0:0:0:0:
475,192,189918,1,0,0:0:0:0:
402,192,189985,1,0,0:0:0:0:
256,192,190053,1,6,0:0:0:0:
329,192,190053,1,0,0:0:0:0:
36,192,190053,1,0,0:0:0:0:
182,192,190120,1,0,0:0:0:0:
109,192,190188,1,0,0:0:0:0:
182,192,190257,1,0,0:0:0:0:
475,192,190324,1,0,0:0:0:0:
256,192,190324,1,0,0:0:0:0:
36,192,190390,1,0,0:0:0:0:
109,192,190458,1,0,0:0:0:0:
182,192,190525,1,0,0:0:0:0:
256,192,190593,1,0,0:0:0:0:
402,192,190593,1,0,0:0:0:0:
109,192,190660,1,0,0:0:0:0:
182,192,190728,1,0,0:0:0:0:
256,192,190795,1,0,0:0:0:0:
329,192,190863,1,0,0:0:0:0:
475,192,190863,1,0,0:0:0:0:
182,192,190930,1,0,0:0:0:0:
256,192,190998,1,0,0:0:0:0:
329,192,191065,1,0,0:0:0:0:
475,192,191133,1,0,0:0:0:0:
402,192,191133,1,0,0:0:0:0:
36,192,191200,1,0,0:0:0:0:
182,192,191268,1,0,0:0:0:0:
329,192,191335,1,0,0:0:0:0:
475,192,191403,1,0,0:0:0:0:
256,192,191403,1,0,0:0:0:0:
36,192,191470,1,0,0:0:0:0:
182,192,191538,1,0,0:0:0:0:
329,192,191605,1,0,0:0:0:0:
475,192,191673,1,0,0:0:0:0:
109,192,191673,1,0,0:0:0:0:
36,192,191740,1,0,0:0:0:0:
182,192,191808,1,0,0:0:0:0:
329,192,191875,1,0,0:0:0:0:
402,192,191943,1,0,0:0:0:0:
256,192,191943,1,0,0:0:0:0:
475,192,192010,1,0,0:0:0:0:
402,192,192078,1,0,0:0:0:0:
109,192,192078,1,0,0:0:0:0:
475,192,192145,1,0,0:0:0:0:
36,192,192213,1,0,0:0:0:0:
329,192,192348,1,0,0:0:0:0:
475,192,192348,1,0,0:0:0:0:
182,192,192348,1,0,0:0:0:0:
402,192,192483,1,0,0:0:0:0:
256,192,192483,1,0,0:0:0:0:
109,192,192483,1,0,0:0:0:0:
36,192,192483,1,0,0:0:0:0:
36,192,192753,1,0,0:0:0:0:
182,192,192753,1,0,0:0:0:0:
329,192,192753,1,0,0:0:0:0:
475,192,192753,1,0,0:0:0:0:
109,192,192955,1,0,0:0:0:0:
402,192,192955,1,0,0:0:0:0:
256,192,192955,1,0,0:0:0:0:
182,192,193023,1,0,0:0:0:0:
475,192,193293,1,0,0:0:0:0:
402,192,193293,1,0,0:0:0:0:
329,192,193360,1,0,0:0:0:0:
36,192,193428,1,0,0:0:0:0:
182,192,193495,1,0,0:0:0:0:
402,192,193563,1,0,0:0:0:0:
256,192,193563,1,0,0:0:0:0:
329,192,193630,1,0,0:0:0:0:
109,192,193698,1,0,0:0:0:0:
182,192,193765,1,0,0:0:0:0:
475,192,193833,1,0,0:0:0:0:
402,192,193833,1,0,0:0:0:0:
329,192,193900,1,0,0:0:0:0:
36,192,193968,1,0,0:0:0:0:
182,192,194035,1,0,0:0:0:0:
475,192,194103,1,0,0:0:0:0:
256,192,194103,1,0,0:0:0:0:
402,192,194170,1,0,0:0:0:0:
36,192,194238,1,0,0:0:0:0:
182,192,194238,1,0,0:0:0:0:
109,192,194305,1,0,0:0:0:0:
256,192,194373,1,0,0:0:0:0:
329,192,194440,1,0,0:0:0:0:
402,192,194508,1,0,0:0:0:0:
109,192,194508,1,0,0:0:0:0:
475,192,194575,1,0,0:0:0:0:
402,192,194643,1,0,0:0:0:0:
256,192,194778,1,0,0:0:0:0:
109,192,194778,1,0,0:0:0:0:
329,192,194845,1,0,0:0:0:0:
402,192,194913,1,0,0:0:0:0:
475,192,194980,1,0,0:0:0:0:
402,192,195048,1,0,0:0:0:0:
109,192,195048,1,0,0:0:0:0:
36,192,195183,1,0,0:0:0:0:
109,192,195250,1,0,0:0:0:0:
182,192,195318,1,0,0:0:0:0:
402,192,195318,1,0,0:0:0:0:
256,192,195385,1,0,0:0:0:0:
182,192,195453,1,0,0:0:0:0:
475,192,195453,1,0,0:0:0:0:
36,192,195588,1,0,0:0:0:0:
402,192,195588,1,0,0:0:0:0:
109,192,195655,1,0,0:0:0:0:
36,192,195723,1,0,0:0:0:0:
109,192,195790,1,0,0:0:0:0:
182,192,195858,1,0,0:0:0:0:
402,192,195858,1,0,0:0:0:0:
256,192,195925,1,0,0:0:0:0:
329,192,195993,1,0,0:0:0:0:
475,192,195993,1,0,0:0:0:0:
182,192,196060,1,0,0:0:0:0:
256,192,196128,1,0,0:0:0:0:
109,192,196128,1,0,0:0:0:0:
329,192,196195,1,0,0:0:0:0:
402,192,196263,1,0,0:0:0:0:
329,192,196330,1,0,0:0:0:0:
402,192,196398,1,0,0:0:0:0:
109,192,196398,1,0,0:0:0:0:
475,192,196465,1,0,0:0:0:0:
402,192,196533,1,0,0:0:0:0:
36,192,196533,1,0,0:0:0:0:
329,192,196533,1,0,0:0:0:0:
109,192,196600,1,0,0:0:0:0:
182,192,196668,1,0,0:0:0:0:
475,192,196668,1,0,0:0:0:0:
256,192,196735,1,0,0:0:0:0:
109,192,196803,1,0,0:0:0:0:
402,192,196803,1,0,0:0:0:0:
182,192,196870,1,0,0:0:0:0:
256,192,196938,1,0,0:0:0:0:
475,192,196938,1,0,0:0:0:0:
329,192,197005,1,0,0:0:0:0:
182,192,197073,1,0,0:0:0:0:
402,192,197073,1,0,0:0:0:0:
109,192,197073,1,0,0:0:0:0:
256,192,197140,1,0,0:0:0:0:
329,192,197208,1,0,0:0:0:0:
36,192,197208,1,0,0:0:0:0:
402,192,197275,1,0,0:0:0:0:
256,192,197343,1,0,0:0:0:0:
109,192,197343,1,0,0:0:0:0:
329,192,197410,1,0,0:0:0:0:
402,192,197478,1,0,0:0:0:0:
109,192,197478,1,0,0:0:0:0:
475,192,197545,1,0,0:0:0:0:
182,192,197545,1,0,0:0:0:0:
36,192,197613,1,0,0:0:0:0:
256,192,197613,1,0,0:0:0:0:
329,192,197613,1,0,0:0:0:0:
109,192,197680,1,0,0:0:0:0:
256,192,197748,1,0,0:0:0:0:
402,192,197748,1,0,0:0:0:0:
329,192,197815,1,0,0:0:0:0:
109,192,197883,1,0,0:0:0:0:
475,192,197883,1,0,0:0:0:0:
182,192,197950,1,0,0:0:0:0:
329,192,198018,1,0,0:0:0:0:
256,192,198018,1,0,0:0:0:0:
402,192,198085,1,0,0:0:0:0:
475,192,198153,1,0,0:0:0:0:
36,192,198153,1,0,0:0:0:0:
109,192,198153,1,0,0:0:0:0:
182,192,198153,1,0,0:0:0:0:
402,192,198220,1,0,0:0:0:0:
256,192,198288,1,0,0:0:0:0:
182,192,198288,1,0,0:0:0:0:
329,192,198321,1,0,0:0:0:0:
109,192,198355,1,0,0:0:0:0:
402,192,198355,1,0,0:0:0:0:
475,192,198389,1,0,0:0:0:0:
36,192,198423,1,0,0:0:0:0:
329,192,198423,1,0,0:0:0:0:
182,192,198490,1,0,0:0:0:0:
256,192,198490,1,0,0:0:0:0:
329,192,198558,1,0,0:0:0:0:
109,192,198558,1,0,0:0:0:0:
475,192,198625,1,0,0:0:0:0:
402,192,198625,1,0,0:0:0:0:
36,192,198693,1,0,0:0:0:0:
329,192,198693,1,0,0:0:0:0:
256,192,198693,1,0,0:0:0:0:
109,192,198760,1,0,0:0:0:0:
182,192,198828,1,0,0:0:0:0:
329,192,198828,1,0,0:0:0:0:
256,192,198895,1,0,0:0:0:0:
402,192,198895,1,0,0:0:0:0:
182,192,198963,1,0,0:0:0:0:
475,192,198963,1,0,0:0:0:0:
256,192,199030,1,0,0:0:0:0:
329,192,199098,1,0,0:0:0:0:
36,192,199098,1,0,0:0:0:0:
402,192,199165,1,0,0:0:0:0:
182,192,199165,1,0,0:0:0:0:
109,192,199233,1,0,0:0:0:0:
475,192,199233,1,0,0:0:0:0:
182,192,199300,1,0,0:0:0:0:
256,192,199368,1,0,0:0:0:0:
36,192,199368,1,0,0:0:0:0:
329,192,199435,1,0,0:0:0:0:
109,192,199435,1,0,0:0:0:0:
256,192,199503,1,0,0:0:0:0:
182,192,199503,1,0,0:0:0:0:
329,192,199570,1,0,0:0:0:0:
402,192,199638,1,0,0:0:0:0:
109,192,199638,1,0,0:0:0:0:
475,192,199705,1,0,0:0:0:0:
182,192,199705,1,0,0:0:0:0:
36,192,199773,1,0,0:0:0:0:
256,192,199773,1,0,0:0:0:0:
402,192,199773,1,0,0:0:0:0:
109,192,199840,1,0,0:0:0:0:
329,192,199840,1,0,0:0:0:0:
182,192,199908,1,0,0:0:0:0:
402,192,199908,1,0,0:0:0:0:
256,192,199975,1,0,0:0:0:0:
475,192,199975,1,0,0:0:0:0:
36,192,200043,1,0,0:0:0:0:
329,192,200043,1,0,0:0:0:0:
109,192,200110,1,0,0:0:0:0:
402,192,200110,1,0,0:0:0:0:
182,192,200178,1,0,0:0:0:0:
475,192,200178,1,0,0:0:0:0:
109,192,200245,1,0,0:0:0:0:
402,192,200245,1,0,0:0:0:0:
36,192,200313,1,0,0:0:0:0:
329,192,200313,1,0,0:0:0:0:
256,192,200313,1,0,0:0:0:0:
402,192,200380,1,0,0:0:0:0:
109,192,200448,1,0,0:0:0:0:
256,192,200448,1,0,0:0:0:0:
329,192,200481,1,0,0:0:0:0:
182,192,200515,1,0,0:0:0:0:
402,192,200515,1,0,0:0:0:0:
475,192,200549,1,0,0:0:0:0:
329,192,200583,1,0,0:0:0:0:
36,192,200583,1,0,0:0:0:0:
182,192,200650,1,0,0:0:0:0:
109,192,200650,1,0,0:0:0:0:
256,192,200718,1,0,0:0:0:0:
402,192,200718,1,0,0:0:0:0:
329,192,200785,1,0,0:0:0:0:
182,192,200785,1,0,0:0:0:0:
475,192,200853,1,0,0:0:0:0:
402,192,200853,1,0,0:0:0:0:
109,192,200853,1,0,0:0:0:0:
36,192,200853,1,0,0:0:0:0:
256,192,200853,1,0,0:0:0:0:
402,192,201393,1,0,0:0:0:0:
329,192,201933,1,0,0:0:0:0:
256,192,202473,1,0,0:0:0:0:
182,192,203013,1,0,0:0:0:0:
109,192,203553,1,0,0:0:0:0:
36,192,204093,1,0,0:0:0:0:
109,192,204363,1,0,0:0:0:0:
182,192,204633,1,0,0:0:0:0:
256,192,204768,1,0,0:0:0:0:
329,192,204903,1,0,0:0:0:0:
402,192,205038,1,0,0:0:0:0:
475,192,205173,1,0,0:0:0:0:
329,192,205713,1,0,0:0:0:0:
402,192,205983,1,0,0:0:0:0:
475,192,206253,1,0,0:0:0:0:
402,192,206523,1,0,0:0:0:0:
329,192,206793,1,0,0:0:0:0:
256,192,207063,1,0,0:0:0:0:
182,192,207333,1,0,0:0:0:0:
109,192,207603,1,0,0:0:0:0:
36,192,207873,1,0,0:0:0:0:
475,192,208143,1,0,0:0:0:0:
329,192,208413,1,0,0:0:0:0:
182,192,208953,1,0,0:0:0:0:
36,192,209358,1,0,0:0:0:0:
36,192,209425,1,0,0:0:0:0:
256,192,209493,1,0,0:0:0:0:
36,192,209493,1,0,0:0:0:0:
475,192,209493,1,0,0:0:0:0:
182,192,209763,1,0,0:0:0:0:
329,192,210033,1,0,0:0:0:0:
475,192,210303,1,0,0:0:0:0:
256,192,210573,1,0,0:0:0:0:
402,192,210663,1,0,0:0:0:0:
256,192,210753,1,0,0:0:0:0:
109,192,210843,1,0,0:0:0:0:
402,192,211113,1,0,0:0:0:0:
109,192,211518,1,0,0:0:0:0:
36,192,211653,1,0,0:0:0:0:
475,192,211653,1,0,0:0:0:0:
256,192,211653,1,0,0:0:0:0:
182,192,211923,1,0,0:0:0:0:
329,192,212193,1,0,0:0:0:0:
109,192,212463,1,0,0:0:0:0:
475,192,212733,1,0,0:0:0:0:
329,192,213003,1,0,0:0:0:0:
182,192,213273,1,0,0:0:0:0:
402,192,213543,1,0,0:0:0:0:
256,192,213813,1,0,0:0:0:0:
475,192,213813,1,0,0:0:0:0:
36,192,213813,1,0,0:0:0:0:
475,192,214015,1,0,0:0:0:0:
475,192,214218,1,0,0:0:0:0:
36,192,214420,1,0,0:0:0:0:
36,192,214623,1,0,0:0:0:0:
475,192,214758,1,0,0:0:0:0:
182,192,214758,1,0,0:0:0:0:
475,192,214825,1,0,0:0:0:0:
475,192,214893,1,0,0:0:0:0:
36,192,214893,1,0,0:0:0:0:
329,192,214893,1,0,0:0:0:0:
329,192,215028,1,0,0:0:0:0:
182,192,215163,1,0,0:0:0:0:
182,192,215298,1,0,0:0:0:0:
256,192,215433,1,0,0:0:0:0:
475,192,215433,1,0,0:0:0:0:
36,192,215433,1,0,0:0:0:0:
402,192,215635,1,0,0:0:0:0:
109,192,215838,1,0,0:0:0:0:
36,192,215973,1,0,0:0:0:0:
256,192,215973,1,0,0:0:0:0:
475,192,215973,1,0,0:0:0:0:
402,192,216175,1,0,0:0:0:0:
182,192,216378,1,0,0:0:0:0:
36,192,216513,1,0,0:0:0:0:
256,192,216513,1,0,0:0:0:0:
475,192,216513,1,0,0:0:0:0:
329,192,216648,1,0,0:0:0:0:
475,192,216783,1,0,0:0:0:0:
256,192,216783,1,0,0:0:0:0:
36,192,216783,1,0,0:0:0:0:
109,192,216918,1,0,0:0:0:0:
475,192,217053,1,0,0:0:0:0:
182,192,217053,1,0,0:0:0:0:
475,192,217188,1,0,0:0:0:0:
182,192,217188,1,0,0:0:0:0:
109,192,217323,1,0,0:0:0:0:
402,192,217323,1,0,0:0:0:0:
256,192,217323,1,0,0:0:0:0:
109,192,217458,1,0,0:0:0:0:
402,192,217458,1,0,0:0:0:0:
36,192,217593,1,0,0:0:0:0:
329,192,217593,1,0,0:0:0:0:
182,192,217593,1,0,0:0:0:0:
36,192,217728,1,0,0:0:0:0:
329,192,217728,1,0,0:0:0:0:
109,192,217863,1,0,0:0:0:0:
256,192,217863,1,0,0:0:0:0:
182,192,217863,1,0,0:0:0:0:
475,192,217863,1,0,0:0:0:0:
329,192,217930,1,0,0:0:0:0:
109,192,217998,1,0,0:0:0:0:
182,192,217998,1,0,0:0:0:0:
402,192,217998,1,0,0:0:0:0:
36,192,217998,1,0,0:0:0:0:
475,192,218065,1,0,0:0:0:0:
256,192,218065,1,0,0:0:0:0:
402,192,218133,1,0,0:0:0:0:
329,192,218133,1,0,0:0:0:0:
109,192,218133,1,0,0:0:0:0:
36,192,218133,1,0,0:0:0:0:
182,192,218200,1,0,0:0:0:0:
36,192,218268,1,0,0:0:0:0:
402,192,218335,1,0,0:0:0:0:
182,192,218403,1,0,0:0:0:0:
329,192,218403,1,0,0:0:0:0:
36,192,218470,1,0,0:0:0:0:
402,192,218538,1,0,0:0:0:0:
182,192,218605,1,0,0:0:0:0:
36,192,218673,1,0,0:0:0:0:
256,192,218673,1,0,0:0:0:0:
475,192,218740,1,0,0:0:0:0:
329,192,218808,1,0,0:0:0:0:
109,192,218875,1,0,0:0:0:0:
475,192,218943,1,0,0:0:0:0:
256,192,218943,1,0,0:0:0:0:
109,192,219010,1,0,0:0:0:0:
475,192,219078,1,0,0:0:0:0:
109,192,219145,1,0,0:0:0:0:
402,192,219213,1,0,0:0:0:0:
36,192,219213,1,0,0:0:0:0:
256,192,219280,1,0,0:0:0:0:
182,192,219348,1,0,0:0:0:0:
402,192,219415,1,0,0:0:0:0:
256,192,219483,1,0,0:0:0:0:
36,192,219483,1,0,0:0:0:0:
182,192,219550,1,0,0:0:0:0:
402,192,219618,1,0,0:0:0:0:
256,192,219685,1,0,0:0:0:0:
182,192,219753,1,0,0:0:0:0:
36,192,219753,1,0,0:0:0:0:
329,192,219820,1,0,0:0:0:0:
182,192,219888,1,0,0:0:0:0:
109,192,219955,1,0,0:0:0:0:
329,192,220023,1,0,0:0:0:0:
402,192,220023,1,0,0:0:0:0:
109,192,220090,1,0,0:0:0:0:
329,192,220158,1,0,0:0:0:0:
402,192,220158,1,0,0:0:0:0:
109,192,220225,1,0,0:0:0:0:
475,192,220293,1,0,0:0:0:0:
182,192,220293,1,0,0:0:0:0:
256,192,220360,1,0,0:0:0:0:
36,192,220428,1,0,0:0:0:0:
475,192,220495,1,0,0:0:0:0:
256,192,220563,1,0,0:0:0:0:
329,192,220563,1,0,0:0:0:0:
36,192,220630,1,0,0:0:0:0:
475,192,220698,1,0,0:0:0:0:
256,192,220765,1,0,0:0:0:0:
36,192,220833,1,0,0:0:0:0:
182,192,220833,1,0,0:0:0:0:
402,192,220900,1,0,0:0:0:0:
256,192,220968,1,0,0:0:0:0:
109,192,221035,1,0,0:0:0:0:
402,192,221103,1,0,0:0:0:0:
256,192,221103,1,0,0:0:0:0:
109,192,221170,1,0,0:0:0:0:
402,192,221238,1,0,0:0:0:0:
109,192,221305,1,0,0:0:0:0:
329,192,221373,1,0,0:0:0:0:
36,192,221373,1,0,0:0:0:0:
256,192,221440,1,0,0:0:0:0:
182,192,221508,1,0,0:0:0:0:
329,192,221575,1,0,0:0:0:0:
109,192,221575,1,0,0:0:0:0:
256,192,221643,1,0,0:0:0:0:
475,192,221643,1,0,0:0:0:0:
182,192,221710,1,0,0:0:0:0:
36,192,221778,1,0,0:0:0:0:
256,192,221778,1,0,0:0:0:0:
402,192,221778,1,0,0:0:0:0:
109,192,221913,1,0,0:0:0:0:
329,192,221913,1,0,0:0:0:0:
475,192,221913,1,0,0:0:0:0:
182,192,222048,1,0,0:0:0:0:
402,192,222048,1,0,0:0:0:0:
36,192,222048,1,0,0:0:0:0:
475,192,222183,1,0,0:0:0:0:
256,192,222183,1,0,0:0:0:0:
329,192,222183,1,0,0:0:0:0:
402,192,222318,1,0,0:0:0:0:
109,192,222318,1,0,0:0:0:0:
475,192,222453,1,0,0:0:0:0:
36,192,222453,1,0,0:0:0:0:
329,192,222520,1,0,0:0:0:0:
182,192,222588,1,0,0:0:0:0:
475,192,222655,1,0,0:0:0:0:
329,192,222723,1,0,0:0:0:0:
36,192,222723,1,0,0:0:0:0:
182,192,222790,1,0,0:0:0:0:
475,192,222858,1,0,0:0:0:0:
36,192,222925,1,0,0:0:0:0:
182,192,222993,1,0,0:0:0:0:
329,192,222993,1,0,0:0:0:0:
256,192,222993,1,0,0:0:0:0:
182,192,223128,1,0,0:0:0:0:
329,192,223128,1,0,0:0:0:0:
109,192,223263,1,0,0:0:0:0:
402,192,223263,1,0,0:0:0:0:
256,192,223263,1,0,0:0:0:0:
402,192,223398,1,0,0:0:0:0:
109,192,223398,1,0,0:0:0:0:
256,192,223398,1,0,0:0:0:0:
36,192,223533,1,0,0:0:0:0:
475,192,223533,1,0,0:0:0:0:
36,192,223668,1,0,0:0:0:0:
475,192,223668,1,0,0:0:0:0:
256,192,223668,1,0,0:0:0:0:
109,192,223803,1,0,0:0:0:0:
402,192,223803,1,0,0:0:0:0:
256,192,223803,1,0,0:0:0:0:
109,192,223938,1,0,0:0:0:0:
402,192,223938,1,0,0:0:0:0:
329,192,224073,1,0,0:0:0:0:
182,192,224073,1,0,0:0:0:0:
256,192,224073,1,0,0:0:0:0:
329,192,224208,1,0,0:0:0:0:
182,192,224208,1,0,0:0:0:0:
256,192,224208,1,0,0:0:0:0:
109,192,224343,1,0,0:0:0:0:
402,192,224343,1,0,0:0:0:0:
256,192,224343,1,0,0:0:0:0:
109,192,224478,1,0,0:0:0:0:
402,192,224478,1,0,0:0:0:0:
475,192,224613,1,0,0:0:0:0:
182,192,224613,1,0,0:0:0:0:
329,192,224613,1,0,0:0:0:0:
475,192,224748,1,0,0:0:0:0:
182,192,224748,1,0,0:0:0:0:
402,192,224883,1,0,0:0:0:0:
109,192,224883,1,0,0:0:0:0:
256,192,224883,1,0,0:0:0:0:
402,192,225018,1,0,0:0:0:0:
109,192,225018,1,0,0:0:0:0:
329,192,225153,1,0,0:0:0:0:
36,192,225153,1,0,0:0:0:0:
182,192,225153,1,0,0:0:0:0:
329,192,225288,1,0,0:0:0:0:
36,192,225288,1,0,0:0:0:0:
182,192,225423,1,0,0:0:0:0:
475,192,225423,1,0,0:0:0:0:
329,192,225423,1,0,0:0:0:0:
182,192,225558,1,0,0:0:0:0:
475,192,225558,1,0,0:0:0:0:
256,192,225558,1,0,0:0:0:0:
329,192,225625,1,0,0:0:0:0:
402,192,225693,1,0,0:0:0:0:
256,192,225760,1,0,0:0:0:0:
109,192,225828,1,0,0:0:0:0:
475,192,225828,1,0,0:0:0:0:
329,192,225895,1,0,0:0:0:0:
182,192,225963,1,0,0:0:0:0:
256,192,225963,1,0,0:0:0:0:
36,192,226030,1,0,0:0:0:0:
402,192,226098,1,0,0:0:0:0:
475,192,226098,1,0,0:0:0:0:
256,192,226165,1,0,0:0:0:0:
329,192,226165,1,0,0:0:0:0:
109,192,226233,1,0,0:0:0:0:
182,192,226233,1,0,0:0:0:0:
475,192,226300,1,0,0:0:0:0:
36,192,226300,1,0,0:0:0:0:
329,192,226368,1,0,0:0:0:0:
402,192,226368,1,0,0:0:0:0:
256,192,226401,1,0,0:0:0:0:
182,192,226435,1,0,0:0:0:0:
109,192,226435,1,0,0:0:0:0:
36,192,226469,1,0,0:0:0:0:
402,192,226503,1,0,0:0:0:0:
475,192,226503,1,0,0:0:0:0:
109,192,226570,1,0,0:0:0:0:
256,192,226570,1,0,0:0:0:0:
329,192,226638,1,0,0:0:0:0:
402,192,226638,1,0,0:0:0:0:
36,192,226705,1,0,0:0:0:0:
475,192,226705,1,0,0:0:0:0:
109,192,226773,1,0,0:0:0:0:
182,192,226773,1,0,0:0:0:0:
402,192,226773,1,0,0:0:0:0:
329,192,226773,1,0,0:0:0:0:
109,192,226908,1,0,0:0:0:0:
182,192,226908,1,0,0:0:0:0:
329,192,227043,1,0,0:0:0:0:
402,192,227043,1,0,0:0:0:0:
256,192,227043,1,0,0:0:0:0:
329,192,227178,1,0,0:0:0:0:
402,192,227178,1,0,0:0:0:0:
36,192,227313,1,0,0:0:0:0:
109,192,227313,1,0,0:0:0:0:
182,192,227313,1,0,0:0:0:0:
36,192,227448,1,0,0:0:0:0:
109,192,227448,1,0,0:0:0:0:
402,192,227583,1,0,0:0:0:0:
475,192,227583,1,0,0:0:0:0:
329,192,227583,1,0,0:0:0:0:
475,192,227718,1,0,0:0:0:0:
402,192,227718,1,0,0:0:0:0:
329,192,227718,1,0,0:0:0:0:
182,192,227853,1,0,0:0:0:0:
329,192,227853,1,0,0:0:0:0:
36,192,227853,1,0,0:0:0:0:
256,192,227943,1,0,0:0:0:0:
402,192,227943,1,0,0:0:0:0:
182,192,228033,1,0,0:0:0:0:
329,192,228033,1,0,0:0:0:0:
109,192,228123,1,0,0:0:0:0:
256,192,228123,1,0,0:0:0:0:
475,192,228123,1,0,0:0:0:0:
109,192,228258,1,0,0:0:0:0:
256,192,228258,1,0,0:0:0:0:
475,192,228393,1,0,0:0:0:0:
329,192,228393,1,0,0:0:0:0:
256,192,228460,1,0,0:0:0:0:
36,192,228528,1,0,0:0:0:0:
182,192,228528,1,0,0:0:0:0:
402,192,228595,1,0,0:0:0:0:
256,192,228663,1,0,0:0:0:0:
475,192,228663,1,0,0:0:0:0:
109,192,228730,1,0,0:0:0:0:
329,192,228798,1,0,0:0:0:0:
402,192,228798,1,0,0:0:0:0:
182,192,228865,1,0,0:0:0:0:
475,192,228865,1,0,0:0:0:0:
36,192,228933,1,0,0:0:0:0:
256,192,228933,1,0,0:0:0:0:
329,192,228933,1,0,0:0:0:0:
36,192,229068,1,0,0:0:0:0:
256,192,229068,1,0,0:0:0:0:
109,192,229203,1,0,0:0:0:0:
402,192,229203,1,0,0:0:0:0:
329,192,229203,1,0,0:0:0:0:
402,192,229338,1,0,0:0:0:0:
109,192,229338,1,0,0:0:0:0:
475,192,229473,1,0,0:0:0:0:
256,192,229473,1,0,0:0:0:0:
182,192,229473,1,0,0:0:0:0:
475,192,229608,1,0,0:0:0:0:
256,192,229608,1,0,0:0:0:0:
109,192,229743,1,0,0:0:0:0:
402,192,229743,1,0,0:0:0:0:
36,192,229743,1,0,0:0:0:0:
109,192,229878,1,0,0:0:0:0:
402,192,229878,1,0,0:0:0:0:
36,192,229878,1,0,0:0:0:0:
475,192,230013,1,0,0:0:0:0:
329,192,230013,1,0,0:0:0:0:
182,192,230013,1,0,0:0:0:0:
475,192,230148,1,0,0:0:0:0:
329,192,230148,1,0,0:0:0:0:
182,192,230148,1,0,0:0:0:0:
256,192,230283,1,0,0:0:0:0:
402,192,230283,1,0,0:0:0:0:
109,192,230283,1,0,0:0:0:0:
256,192,230418,1,0,0:0:0:0:
402,192,230418,1,0,0:0:0:0:
36,192,230553,1,0,0:0:0:0:
182,192,230553,1,0,0:0:0:0:
329,192,230553,1,0,0:0:0:0:
36,192,230688,1,0,0:0:0:0:
182,192,230688,1,0,0:0:0:0:
329,192,230688,1,0,0:0:0:0:
109,192,230823,1,0,0:0:0:0:
256,192,230823,1,0,0:0:0:0:
402,192,230823,1,0,0:0:0:0:
109,192,230958,1,0,0:0:0:0:
256,192,230958,1,0,0:0:0:0:
475,192,231093,1,0,0:0:0:0:
36,192,231093,1,0,0:0:0:0:
329,192,231160,1,0,0:0:0:0:
182,192,231228,1,0,0:0:0:0:
475,192,231295,1,0,0:0:0:0:
329,192,231363,1,0,0:0:0:0:
36,192,231363,1,0,0:0:0:0:
182,192,231430,1,0,0:0:0:0:
475,192,231498,1,0,0:0:0:0:
329,192,231565,1,0,0:0:0:0:
182,192,231633,1,0,0:0:0:0:
36,192,231633,1,0,0:0:0:0:
329,192,231700,1,0,0:0:0:0:
182,192,231768,1,0,0:0:0:0:
36,192,231835,1,0,0:0:0:0:
329,192,231903,1,0,0:0:0:0:
475,192,231903,1,0,0:0:0:0:
36,192,231970,1,0,0:0:0:0:
402,192,232038,1,0,0:0:0:0:
256,192,232038,1,0,0:0:0:0:
109,192,232105,1,0,0:0:0:0:
36,192,232173,1,0,0:0:0:0:
475,192,232173,1,0,0:0:0:0:
36,192,232308,1,0,0:0:0:0:
475,192,232308,1,0,0:0:0:0:
256,192,232308,1,0,0:0:0:0:
182,192,232443,1,0,0:0:0:0:
329,192,232443,1,0,0:0:0:0:
256,192,232443,1,0,0:0:0:0:
329,192,232578,1,0,0:0:0:0:
182,192,232578,1,0,0:0:0:0:
402,192,232713,1,0,0:0:0:0:
475,192,232713,1,0,0:0:0:0:
256,192,232780,1,0,0:0:0:0:
109,192,232848,1,0,0:0:0:0:
36,192,232848,1,0,0:0:0:0:
475,192,232915,1,0,0:0:0:0:
256,192,232983,1,0,0:0:0:0:
402,192,232983,1,0,0:0:0:0:
36,192,233050,1,0,0:0:0:0:
329,192,233118,1,0,0:0:0:0:
256,192,233118,1,0,0:0:0:0:
182,192,233185,1,0,0:0:0:0:
109,192,233185,1,0,0:0:0:0:
402,192,233253,1,0,0:0:0:0:
475,192,233253,1,0,0:0:0:0:
256,192,233320,1,0,0:0:0:0:
109,192,233388,1,0,0:0:0:0:
36,192,233388,1,0,0:0:0:0:
329,192,233455,1,0,0:0:0:0:
402,192,233455,1,0,0:0:0:0:
182,192,233523,1,0,0:0:0:0:
256,192,233523,1,0,0:0:0:0:
36,192,233590,1,0,0:0:0:0:
402,192,233658,1,0,0:0:0:0:
475,192,233658,1,0,0:0:0:0:
256,192,233725,1,0,0:0:0:0:
109,192,233793,1,0,0:0:0:0:
36,192,233793,1,0,0:0:0:0:
475,192,233860,1,0,0:0:0:0:
329,192,233928,1,0,0:0:0:0:
256,192,233928,1,0,0:0:0:0:
182,192,233995,1,0,0:0:0:0:
109,192,233995,1,0,0:0:0:0:
402,192,234063,1,0,0:0:0:0:
36,192,234063,1,0,0:0:0:0:
109,192,234130,1,0,0:0:0:0:
329,192,234198,1,0,0:0:0:0:
182,192,234198,1,0,0:0:0:0:
36,192,234265,1,0,0:0:0:0:
256,192,234333,1,0,0:0:0:0:
475,192,234333,1,0,0:0:0:0:
109,192,234333,1,0,0:0:0:0:
256,192,234468,1,0,0:0:0:0:
475,192,234468,1,0,0:0:0:0:
109,192,234468,1,0,0:0:0:0:
36,192,234535,1,0,0:0:0:0:
182,192,234603,1,0,0:0:0:0:
402,192,234603,1,0,0:0:0:0:
109,192,234603,1,0,0:0:0:0:
182,192,234738,1,0,0:0:0:0:
402,192,234738,1,0,0:0:0:0:
36,192,234738,1,0,0:0:0:0:
475,192,234805,1,0,0:0:0:0:
109,192,234873,1,0,0:0:0:0:
329,192,234873,1,0,0:0:0:0:
402,192,234873,1,0,0:0:0:0:
256,192,234940,1,0,0:0:0:0:
109,192,235008,1,0,0:0:0:0:
36,192,235008,1,0,0:0:0:0:
182,192,235008,1,0,0:0:0:0:
256,192,235041,1,0,0:0:0:0:
329,192,235075,1,0,0:0:0:0:
402,192,235109,1,0,0:0:0:0:
36,192,235143,1,0,0:0:0:0:
475,192,235143,1,0,0:0:0:0:
182,192,235143,1,0,0:0:0:0:
402,192,235210,1,0,0:0:0:0:
36,192,235278,1,0,0:0:0:0:
182,192,235278,1,0,0:0:0:0:
329,192,235278,1,0,0:0:0:0:
256,192,235345,1,0,0:0:0:0:
475,192,235413,1,0,0:0:0:0:
109,192,235413,1,0,0:0:0:0:
402,192,235413,1,0,0:0:0:0:
36,192,235413,1,0,0:0:0:0:
329,192,235480,1,0,0:0:0:0:
182,192,235548,1,0,0:0:0:0:
475,192,235615,1,0,0:0:0:0:
329,192,235683,1,0,0:0:0:0:
36,192,235683,1,0,0:0:0:0:
256,192,235683,1,0,0:0:0:0:
182,192,235750,1,0,0:0:0:0:
475,192,235818,1,0,0:0:0:0:
329,192,235885,1,0,0:0:0:0:
182,192,235953,1,0,0:0:0:0:
36,192,235953,1,0,0:0:0:0:
329,192,236020,1,0,0:0:0:0:
182,192,236088,1,0,0:0:0:0:
36,192,236155,1,0,0:0:0:0:
329,192,236223,1,0,0:0:0:0:
475,192,236223,1,0,0:0:0:0:
402,192,236223,1,0,0:0:0:0:
36,192,236290,1,0,0:0:0:0:
329,192,236358,1,0,0:0:0:0:
36,192,236425,1,0,0:0:0:0:
402,192,236493,1,0,0:0:0:0:
475,192,236493,1,0,0:0:0:0:
256,192,236560,1,0,0:0:0:0:
109,192,236628,1,0,0:0:0:0:
402,192,236695,1,0,0:0:0:0:
256,192,236763,1,0,0:0:0:0:
329,192,236763,1,0,0:0:0:0:
182,192,236763,1,0,0:0:0:0:
109,192,236830,1,0,0:0:0:0:
402,192,236898,1,0,0:0:0:0:
256,192,236965,1,0,0:0:0:0:
109,192,237033,1,0,0:0:0:0:
36,192,237033,1,0,0:0:0:0:
329,192,237100,1,0,0:0:0:0:
182,192,237168,1,0,0:0:0:0:
36,192,237235,1,0,0:0:0:0:
329,192,237303,1,0,0:0:0:0:
475,192,237303,1,0,0:0:0:0:
256,192,237303,1,0,0:0:0:0:
36,192,237370,1,0,0:0:0:0:
329,192,237438,1,0,0:0:0:0:
182,192,237438,1,0,0:0:0:0:
36,192,237505,1,0,0:0:0:0:
475,192,237573,1,0,0:0:0:0:
256,192,237573,1,0,0:0:0:0:
329,192,237640,1,0,0:0:0:0:
182,192,237708,1,0,0:0:0:0:
475,192,237775,1,0,0:0:0:0:
329,192,237843,1,0,0:0:0:0:
36,192,237843,1,0,0:0:0:0:
256,192,237843,1,0,0:0:0:0:
182,192,237910,1,0,0:0:0:0:
475,192,237978,1,0,0:0:0:0:
329,192,238045,1,0,0:0:0:0:
182,192,238113,1,0,0:0:0:0:
36,192,238113,1,0,0:0:0:0:
402,192,238180,1,0,0:0:0:0:
256,192,238248,1,0,0:0:0:0:
109,192,238315,1,0,0:0:0:0:
402,192,238383,1,0,0:0:0:0:
329,192,238383,1,0,0:0:0:0:
182,192,238383,1,0,0:0:0:0:
109,192,238450,1,0,0:0:0:0:
402,192,238518,1,0,0:0:0:0:
109,192,238585,1,0,0:0:0:0:
329,192,238653,1,0,0:0:0:0:
475,192,238653,1,0,0:0:0:0:
182,192,238720,1,0,0:0:0:0:
36,192,238788,1,0,0:0:0:0:
402,192,238855,1,0,0:0:0:0:
256,192,238855,1,0,0:0:0:0:
182,192,238923,1,0,0:0:0:0:
475,192,238923,1,0,0:0:0:0:
329,192,238923,1,0,0:0:0:0:
36,192,238990,1,0,0:0:0:0:
109,192,239058,1,0,0:0:0:0:
402,192,239058,1,0,0:0:0:0:
256,192,239058,1,0,0:0:0:0:
182,192,239193,1,0,0:0:0:0:
329,192,239193,1,0,0:0:0:0:
36,192,239193,1,0,0:0:0:0:
109,192,239328,1,0,0:0:0:0:
402,192,239328,1,0,0:0:0:0:
256,192,239328,1,0,0:0:0:0:
475,192,239463,1,0,0:0:0:0:
329,192,239463,1,0,0:0:0:0:
182,192,239463,1,0,0:0:0:0:
36,192,239463,1,0,0:0:0:0:
109,192,239598,1,0,0:0:0:0:
402,192,239598,1,0,0:0:0:0:
256,192,239598,1,0,0:0:0:0:
475,192,239733,1,0,0:0:0:0:
36,192,239733,1,0,0:0:0:0:
329,192,239800,1,0,0:0:0:0:
182,192,239868,1,0,0:0:0:0:
475,192,239935,1,0,0:0:0:0:
329,192,240003,1,0,0:0:0:0:
36,192,240003,1,0,0:0:0:0:
256,192,240003,1,0,0:0:0:0:
182,192,240070,1,0,0:0:0:0:
475,192,240138,1,0,0:0:0:0:
182,192,240205,1,0,0:0:0:0:
36,192,240273,1,0,0:0:0:0:
329,192,240273,1,0,0:0:0:0:
256,192,240273,1,0,0:0:0:0:
36,192,240408,1,0,0:0:0:0:
329,192,240408,1,0,0:0:0:0:
109,192,240543,1,0,0:0:0:0:
402,192,240543,1,0,0:0:0:0:
256,192,240543,1,0,0:0:0:0:
475,192,240543,1,0,0:0:0:0:
109,192,240678,1,0,0:0:0:0:
402,192,240678,1,0,0:0:0:0:
256,192,240678,1,0,0:0:0:0:
475,192,240813,1,0,0:0:0:0:
36,192,240813,1,0,0:0:0:0:
36,192,240948,1,0,0:0:0:0:
475,192,240948,1,0,0:0:0:0:
256,192,240948,1,0,0:0:0:0:
109,192,241083,1,0,0:0:0:0:
402,192,241083,1,0,0:0:0:0:
182,192,241083,1,0,0:0:0:0:
329,192,241083,1,0,0:0:0:0:
109,192,241218,1,0,0:0:0:0:
402,192,241218,1,0,0:0:0:0:
182,192,241353,1,0,0:0:0:0:
329,192,241353,1,0,0:0:0:0:
475,192,241353,1,0,0:0:0:0:
182,192,241488,1,0,0:0:0:0:
329,192,241488,1,0,0:0:0:0:
475,192,241488,1,0,0:0:0:0:
109,192,241623,1,0,0:0:0:0:
256,192,241623,1,0,0:0:0:0:
402,192,241623,1,0,0:0:0:0:
36,192,241623,1,0,0:0:0:0:
109,192,241758,1,0,0:0:0:0:
256,192,241758,1,0,0:0:0:0:
182,192,241893,1,0,0:0:0:0:
402,192,241893,1,0,0:0:0:0:
36,192,241893,1,0,0:0:0:0:
182,192,242028,1,0,0:0:0:0:
402,192,242028,1,0,0:0:0:0:
109,192,242163,1,0,0:0:0:0:
329,192,242163,1,0,0:0:0:0:
475,192,242163,1,0,0:0:0:0:
36,192,242163,1,0,0:0:0:0:
109,192,242298,1,0,0:0:0:0:
329,192,242298,1,0,0:0:0:0:
36,192,242433,1,0,0:0:0:0:
256,192,242433,1,0,0:0:0:0:
402,192,242433,1,0,0:0:0:0:
36,192,242568,1,0,0:0:0:0:
256,192,242568,1,0,0:0:0:0:
182,192,242703,1,0,0:0:0:0:
475,192,242703,1,0,0:0:0:0:
329,192,242703,1,0,0:0:0:0:
402,192,242703,1,0,0:0:0:0:
182,192,242838,1,0,0:0:0:0:
475,192,242838,1,0,0:0:0:0:
36,192,242838,1,0,0:0:0:0:
109,192,242905,1,0,0:0:0:0:
402,192,242973,1,0,0:0:0:0:
329,192,242973,1,0,0:0:0:0:
256,192,243040,1,0,0:0:0:0:
109,192,243108,1,0,0:0:0:0:
182,192,243108,1,0,0:0:0:0:
402,192,243175,1,0,0:0:0:0:
256,192,243243,1,0,0:0:0:0:
329,192,243243,1,0,0:0:0:0:
36,192,243243,1,0,0:0:0:0:
109,192,243310,1,0,0:0:0:0:
402,192,243378,1,0,0:0:0:0:
475,192,243378,1,0,0:0:0:0:
256,192,243445,1,0,0:0:0:0:
329,192,243445,1,0,0:0:0:0:
36,192,243513,1,0,0:0:0:0:
109,192,243513,1,0,0:0:0:0:
475,192,243513,1,0,0:0:0:0:
329,192,243580,1,0,0:0:0:0:
182,192,243580,1,0,0:0:0:0:
36,192,243648,1,0,0:0:0:0:
109,192,243648,1,0,0:0:0:0:
256,192,243681,1,0,0:0:0:0:
182,192,243715,1,0,0:0:0:0:
329,192,243715,1,0,0:0:0:0:
402,192,243749,1,0,0:0:0:0:
475,192,243783,1,0,0:0:0:0:
109,192,243783,1,0,0:0:0:0:
36,192,243783,1,0,0:0:0:0:
182,192,243850,1,0,0:0:0:0:
402,192,243850,1,0,0:0:0:0:
329,192,243918,1,0,0:0:0:0:
109,192,243918,1,0,0:0:0:0:
475,192,243985,1,0,0:0:0:0:
36,192,243985,1,0,0:0:0:0:
402,192,244053,1,0,0:0:0:0:
109,192,244053,1,0,0:0:0:0:
182,192,244053,1,0,0:0:0:0:
329,192,244053,1,0,0:0:0:0:
402,192,244188,1,0,0:0:0:0:
109,192,244188,1,0,0:0:0:0:
182,192,244323,1,0,0:0:0:0:
329,192,244323,1,0,0:0:0:0:
475,192,244323,1,0,0:0:0:0:
36,192,244323,1,0,0:0:0:0:
182,192,244458,1,0,0:0:0:0:
329,192,244458,1,0,0:0:0:0:
109,192,244593,1,0,0:0:0:0:
402,192,244593,1,0,0:0:0:0:
256,192,244593,1,0,0:0:0:0:
109,192,244728,1,0,0:0:0:0:
402,192,244728,1,0,0:0:0:0:
36,192,244863,1,0,0:0:0:0:
475,192,244863,1,0,0:0:0:0:
329,192,244863,1,0,0:0:0:0:
182,192,244863,1,0,0:0:0:0:
36,192,244998,1,0,0:0:0:0:
475,192,244998,1,0,0:0:0:0:
256,192,244998,1,0,0:0:0:0:
402,192,245133,1,0,0:0:0:0:
109,192,245133,1,0,0:0:0:0:
256,192,245133,1,0,0:0:0:0:
475,192,245223,1,0,0:0:0:0:
36,192,245223,1,0,0:0:0:0:
402,192,245313,1,0,0:0:0:0:
109,192,245313,1,0,0:0:0:0:
329,192,245403,1,0,0:0:0:0:
182,192,245403,1,0,0:0:0:0:
256,192,245403,1,0,0:0:0:0:
36,192,245403,1,0,0:0:0:0:
182,192,245538,1,0,0:0:0:0:
329,192,245538,1,0,0:0:0:0:
402,192,245673,1,0,0:0:0:0:
475,192,245673,1,0,0:0:0:0:
256,192,245740,1,0,0:0:0:0:
109,192,245808,1,0,0:0:0:0:
36,192,245808,1,0,0:0:0:0:
402,192,245875,1,0,0:0:0:0:
256,192,245943,1,0,0:0:0:0:
182,192,245943,1,0,0:0:0:0:
475,192,245943,1,0,0:0:0:0:
109,192,246010,1,0,0:0:0:0:
329,192,246078,1,0,0:0:0:0:
475,192,246078,1,0,0:0:0:0:
182,192,246145,1,0,0:0:0:0:
36,192,246213,1,0,0:0:0:0:
329,192,246213,1,0,0:0:0:0:
475,192,246213,1,0,0:0:0:0:
36,192,246348,1,0,0:0:0:0:
329,192,246348,1,0,0:0:0:0:
109,192,246483,1,0,0:0:0:0:
402,192,246483,1,0,0:0:0:0:
256,192,246483,1,0,0:0:0:0:
182,192,246483,1,0,0:0:0:0:
109,192,246618,1,0,0:0:0:0:
402,192,246618,1,0,0:0:0:0:
182,192,246753,1,0,0:0:0:0:
475,192,246753,1,0,0:0:0:0:
329,192,246753,1,0,0:0:0:0:
182,192,246888,1,0,0:0:0:0:
475,192,246888,1,0,0:0:0:0:
109,192,247023,1,0,0:0:0:0:
402,192,247023,1,0,0:0:0:0:
256,192,247023,1,0,0:0:0:0:
36,192,247023,1,0,0:0:0:0:
109,192,247158,1,0,0:0:0:0:
402,192,247158,1,0,0:0:0:0:
256,192,247158,1,0,0:0:0:0:
36,192,247293,1,0,0:0:0:0:
475,192,247293,1,0,0:0:0:0:
329,192,247293,1,0,0:0:0:0:
36,192,247428,1,0,0:0:0:0:
475,192,247428,1,0,0:0:0:0:
109,192,247563,1,0,0:0:0:0:
402,192,247563,1,0,0:0:0:0:
256,192,247563,1,0,0:0:0:0:
182,192,247563,1,0,0:0:0:0:
109,192,247698,1,0,0:0:0:0:
402,192,247698,1,0,0:0:0:0:
182,192,247833,1,0,0:0:0:0:
329,192,247833,1,0,0:0:0:0:
36,192,247833,1,0,0:0:0:0:
182,192,247968,1,0,0:0:0:0:
329,192,247968,1,0,0:0:0:0:
36,192,247968,1,0,0:0:0:0:
109,192,248103,1,0,0:0:0:0:
402,192,248103,1,0,0:0:0:0:
256,192,248103,1,0,0:0:0:0:
475,192,248103,1,0,0:0:0:0:
109,192,248238,1,0,0:0:0:0:
402,192,248238,1,0,0:0:0:0:
475,192,248373,1,0,0:0:0:0:
329,192,248373,1,0,0:0:0:0:
256,192,248440,1,0,0:0:0:0:
36,192,248508,1,0,0:0:0:0:
475,192,248575,1,0,0:0:0:0:
256,192,248643,1,0,0:0:0:0:
182,192,248643,1,0,0:0:0:0:
329,192,248643,1,0,0:0:0:0:
36,192,248710,1,0,0:0:0:0:
475,192,248778,1,0,0:0:0:0:
256,192,248845,1,0,0:0:0:0:
36,192,248913,1,0,0:0:0:0:
402,192,248913,1,0,0:0:0:0:
329,192,248980,1,0,0:0:0:0:
256,192,249048,1,0,0:0:0:0:
182,192,249115,1,0,0:0:0:0:
329,192,249183,1,0,0:0:0:0:
109,192,249183,1,0,0:0:0:0:
475,192,249183,1,0,0:0:0:0:
182,192,249250,1,0,0:0:0:0:
402,192,249318,1,0,0:0:0:0:
256,192,249318,1,0,0:0:0:0:
109,192,249385,1,0,0:0:0:0:
36,192,249453,1,0,0:0:0:0:
475,192,249453,1,0,0:0:0:0:
36,192,249588,1,0,0:0:0:0:
475,192,249588,1,0,0:0:0:0:
256,192,249588,1,0,0:0:0:0:
182,192,249723,1,0,0:0:0:0:
329,192,249723,1,0,0:0:0:0:
109,192,249723,1,0,0:0:0:0:
402,192,249723,1,0,0:0:0:0:
182,192,249858,1,0,0:0:0:0:
329,192,249858,1,0,0:0:0:0:
402,192,249993,1,0,0:0:0:0:
475,192,249993,1,0,0:0:0:0:
256,192,250060,1,0,0:0:0:0:
109,192,250128,1,0,0:0:0:0:
36,192,250128,1,0,0:0:0:0:
475,192,250195,1,0,0:0:0:0:
256,192,250263,1,0,0:0:0:0:
182,192,250263,1,0,0:0:0:0:
402,192,250263,1,0,0:0:0:0:
36,192,250330,1,0,0:0:0:0:
329,192,250398,1,0,0:0:0:0:
182,192,250465,1,0,0:0:0:0:
475,192,250533,1,0,0:0:0:0:
256,192,250600,1,0,0:0:0:0:
109,192,250668,1,0,0:0:0:0:
475,192,250735,1,0,0:0:0:0:
256,192,250803,1,0,0:0:0:0:
36,192,250803,1,0,0:0:0:0:
109,192,250870,1,0,0:0:0:0:
475,192,250938,1,0,0:0:0:0:
256,192,251005,1,0,0:0:0:0:
109,192,251073,1,0,0:0:0:0:
402,192,251140,1,0,0:0:0:0:
256,192,251208,1,0,0:0:0:0:
36,192,251275,1,0,0:0:0:0:
475,192,251343,1,0,0:0:0:0:
329,192,251343,1,0,0:0:0:0:
109,192,251410,1,0,0:0:0:0:
402,192,251478,1,0,0:0:0:0:
36,192,251545,5,0,0:0:0:0:
475,192,251613,1,0,0:0:0:0:
329,192,251613,1,0,0:0:0:0:
182,192,251613,1,0,0:0:0:0:
475,192,251748,1,0,0:0:0:0:
329,192,251748,1,0,0:0:0:0:
182,192,251748,1,0,0:0:0:0:
109,192,251815,1,0,0:0:0:0:
402,192,251883,1,0,0:0:0:0:
256,192,251883,1,0,0:0:0:0:
36,192,251883,1,0,0:0:0:0:
402,192,252018,1,0,0:0:0:0:
256,192,252018,1,0,0:0:0:0:
36,192,252018,1,0,0:0:0:0:
109,192,252085,1,0,0:0:0:0:
329,192,252153,1,0,0:0:0:0:
182,192,252153,1,0,0:0:0:0:
475,192,252153,1,0,0:0:0:0:
329,192,252288,1,0,0:0:0:0:
182,192,252288,1,0,0:0:0:0:
475,192,252288,1,0,0:0:0:0:
402,192,252355,1,0,0:0:0:0:
256,192,252423,1,0,0:0:0:0:
109,192,252423,1,0,0:0:0:0:
36,192,252423,1,0,0:0:0:0:
329,192,252490,1,0,0:0:0:0:
256,192,252558,1,0,0:0:0:0:
109,192,252558,1,0,0:0:0:0:
402,192,252558,1,0,0:0:0:0:
475,192,252625,1,0,0:0:0:0:
36,192,252693,5,0,0:0:0:0:
182,192,252693,1,0,0:0:0:0:
329,192,252693,1,0,0:0:0:0:
36,192,252828,1,0,0:0:0:0:
182,192,252828,1,0,0:0:0:0:
329,192,252828,1,0,0:0:0:0:
109,192,252963,1,0,0:0:0:0:
256,192,252963,1,0,0:0:0:0:
402,192,252963,1,0,0:0:0:0:
109,192,253098,1,0,0:0:0:0:
256,192,253098,1,0,0:0:0:0:
402,192,253098,1,0,0:0:0:0:
182,192,253233,1,0,0:0:0:0:
329,192,253233,1,0,0:0:0:0:
475,192,253233,1,0,0:0:0:0:
182,192,253368,1,0,0:0:0:0:
329,192,253368,1,0,0:0:0:0:
475,192,253368,1,0,0:0:0:0:
256,192,253503,1,0,0:0:0:0:
402,192,253503,1,0,0:0:0:0:
36,192,253503,1,0,0:0:0:0:
256,192,253638,1,0,0:0:0:0:
402,192,253638,1,0,0:0:0:0:
36,192,253638,1,0,0:0:0:0:
182,192,253705,1,0,0:0:0:0:
109,192,253773,1,0,0:0:0:0:
256,192,253773,1,0,0:0:0:0:
475,192,253773,1,0,0:0:0:0:
109,192,253908,1,0,0:0:0:0:
256,192,253908,1,0,0:0:0:0:
475,192,253908,1,0,0:0:0:0:
182,192,254043,1,0,0:0:0:0:
329,192,254043,1,0,0:0:0:0:
36,192,254043,1,0,0:0:0:0:
182,192,254178,1,0,0:0:0:0:
329,192,254178,1,0,0:0:0:0:
36,192,254178,1,0,0:0:0:0:
256,192,254313,1,0,0:0:0:0:
402,192,254313,1,0,0:0:0:0:
109,192,254313,1,0,0:0:0:0:
256,192,254448,1,0,0:0:0:0:
402,192,254448,1,0,0:0:0:0:
36,192,254448,1,0,0:0:0:0:
109,192,254481,1,0,0:0:0:0:
182,192,254515,1,0,0:0:0:0:
256,192,254549,1,0,0:0:0:0:
329,192,254583,1,0,0:0:0:0:
475,192,254583,1,0,0:0:0:0:
36,192,254583,1,0,0:0:0:0:
109,192,254650,1,0,0:0:0:0:
475,192,254718,1,0,0:0:0:0:
329,192,254718,1,0,0:0:0:0:
182,192,254718,1,0,0:0:0:0:
109,192,254785,1,0,0:0:0:0:
36,192,254853,1,0,0:0:0:0:
256,192,254853,1,0,0:0:0:0:
402,192,254853,1,0,0:0:0:0:
256,192,254988,1,0,0:0:0:0:
402,192,254988,1,0,0:0:0:0:
36,192,254988,1,0,0:0:0:0:
182,192,255055,1,0,0:0:0:0:
329,192,255123,1,0,0:0:0:0:
475,192,255123,1,0,0:0:0:0:
109,192,255123,1,0,0:0:0:0:
329,192,255258,1,0,0:0:0:0:
475,192,255258,1,0,0:0:0:0:
109,192,255258,1,0,0:0:0:0:
256,192,255325,1,0,0:0:0:0:
182,192,255393,1,0,0:0:0:0:
402,192,255393,1,0,0:0:0:0:
36,192,255393,1,0,0:0:0:0:
182,192,255528,1,0,0:0:0:0:
36,192,255528,1,0,0:0:0:0:
402,192,255528,1,0,0:0:0:0:
475,192,255595,1,0,0:0:0:0:
329,192,255663,1,0,0:0:0:0:
256,192,255663,1,0,0:0:0:0:
109,192,255663,1,0,0:0:0:0:
402,192,255730,1,0,0:0:0:0:
256,192,255798,1,0,0:0:0:0:
475,192,255798,1,0,0:0:0:0:
109,192,255798,1,0,0:0:0:0:
402,192,255865,1,0,0:0:0:0:
36,192,255933,5,0,0:0:0:0:
109,192,255933,1,0,0:0:0:0:
256,192,255933,1,0,0:0:0:0:
329,192,256000,1,0,0:0:0:0:
36,192,256068,1,0,0:0:0:0:
109,192,256068,1,0,0:0:0:0:
402,192,256068,1,0,0:0:0:0:
475,192,256135,1,0,0:0:0:0:
109,192,256203,1,0,0:0:0:0:
182,192,256203,1,0,0:0:0:0:
256,192,256203,1,0,0:0:0:0:
329,192,256270,1,0,0:0:0:0:
109,192,256338,1,0,0:0:0:0:
182,192,256338,1,0,0:0:0:0:
402,192,256338,1,0,0:0:0:0:
475,192,256405,1,0,0:0:0:0:
329,192,256473,1,0,0:0:0:0:
402,192,256473,1,0,0:0:0:0:
36,192,256473,1,0,0:0:0:0:
109,192,256540,1,0,0:0:0:0:
329,192,256608,1,0,0:0:0:0:
402,192,256608,1,0,0:0:0:0:
36,192,256608,1,0,0:0:0:0:
109,192,256641,1,0,0:0:0:0:
182,192,256675,1,0,0:0:0:0:
256,192,256709,1,0,0:0:0:0:
475,192,256743,1,0,0:0:0:0:
402,192,256743,1,0,0:0:0:0:
36,192,256743,1,0,0:0:0:0:
109,192,256810,1,0,0:0:0:0:
402,192,256878,1,0,0:0:0:0:
475,192,256878,1,0,0:0:0:0:
36,192,256878,1,0,0:0:0:0:
109,192,256911,1,0,0:0:0:0:
182,192,256945,1,0,0:0:0:0:
256,192,256979,1,0,0:0:0:0:
475,192,257013,128,0,261333:0:0:0:0:
182,192,257013,128,0,261333:0:0:0:0:
329,192,257013,128,0,261333:0:0:0:0:
36,192,257013,128,0,261333:0:0:0:0:
109,192,257013,128,0,261333:0:0:0:0:
402,192,257013,128,0,261333:0:0:0:0:
