osu file format v13

[General]
AudioFilename: Freedom Dive.mp3
AudioLeadIn: 0
PreviewTime: 107974
Countdown: 0
SampleSet: Normal
StackLeniency: 0.7
Mode: 3
LetterboxInBreaks: 0
SpecialStyle: 0
WidescreenStoryboard: 1

[Editor]
DistanceSpacing: 0.8
BeatDivisor: 4
GridSize: 8
TimelineZoom: 2

[Metadata]
Title:FREEDOM DiVE
TitleUnicode:FREEDOM DiVE
Artist:xi
ArtistUnicode:xi
Creator:razlteh
Version:4K Normal
Source:Cytus
Tags:bms blocko fullerene- tear dainesl
BeatmapID:423649
BeatmapSetID:173612

[Difficulty]
HPDrainRate:7
CircleSize:4
OverallDifficulty:8
ApproachRate:5
SliderMultiplier:1.4
SliderTickRate:1

[Events]
//Background and Video events
0,0,"background desuuu.jpg",0,0
//Break Periods
//Storyboard Layer 0 (Background)
//Storyboard Layer 1 (Fail)
//Storyboard Layer 2 (Pass)
//Storyboard Layer 3 (Foreground)
//Storyboard Sound Samples
//Background Colour Transformations
3,100,163,162,255

[TimingPoints]
2133,270.002700027,4,1,0,30,1,0
98253,-125,4,1,0,5,0,0
98307,-121.212121212121,4,1,0,5,0,0
99333,-121.212121212121,4,1,0,10,0,0
99387,-117.647058823529,4,1,0,10,0,0
100413,-117.647058823529,4,1,0,15,0,0
100467,-113.636363636364,4,1,0,15,0,0
101493,-113.636363636364,4,1,0,20,0,0
101547,-111.111111111111,4,1,0,20,0,0
102572,-107.52688172043,4,1,0,20,0,0
102574,-107.52688172043,4,1,0,25,0,0
103652,-105.263157894737,4,1,0,25,0,0
103654,-105.263157894737,4,1,0,30,0,0
104732,-103.092783505155,4,1,0,30,0,0
104734,-103.092783505155,4,1,0,40,0,0
105812,-100,4,1,0,40,0,0
105814,-100,4,1,0,50,0,0
106084,-100,4,1,0,60,0,0
106352,-90.9090909090909,4,1,0,60,0,0
106354,-90.9090909090909,4,1,0,70,0,0
106624,-90.9090909090909,4,1,0,85,0,0
106892,-66.6666666666667,4,1,0,85,0,0
106894,-66.6666666666667,4,1,0,100,0,0
107567,-86.9565217391304,4,1,0,100,0,0
107635,-125,4,1,0,100,0,0
107702,-200,4,1,0,100,0,0
107704,-200,4,1,0,30,0,0
107974,-100,4,1,0,30,0,1
146853,-100,4,1,0,30,0,0
218135,-100,4,1,0,30,0,1
257015,-100,4,1,0,30,0,0

[HitObjects]
64,192,2133,5,4,0:0:0:0:
448,192,2133,1,0,0:0:0:0:
320,192,2335,1,2,0:0:0:0:
64,192,2538,1,2,0:0:0:0:
192,192,2808,128,2,2943:0:0:0:0:
320,192,3078,128,2,3213:0:0:0:0:
192,192,3415,1,2,0:0:0:0:
64,192,3618,1,2,0:0:0:0:
192,192,3753,1,0,0:0:0:0:
320,192,3888,1,2,0:0:0:0:
448,192,4023,1,0,0:0:0:0:
64,192,4293,1,4,0:0:0:0:
448,192,4293,1,0,0:0:0:0:
320,192,4495,1,2,0:0:0:0:
192,192,4698,1,2,0:0:0:0:
64,192,4968,128,2,5103:0:0:0:0:
448,192,5238,128,2,5373:0:0:0:0:
192,192,5575,1,2,0:0:0:0:
320,192,5778,1,2,0:0:0:0:
448,192,5913,128,4,6048:0:0:0:0:
320,192,6183,128,2,6318:0:0:0:0:
64,192,6453,1,4,0:0:0:0:
192,192,6453,1,0,0:0:0:0:
320,192,6655,1,2,0:0:0:0:
192,192,6858,1,2,0:0:0:0:
64,192,7128,1,2,0:0:0:0:
192,192,7263,1,2,0:0:0:0:
320,192,7398,1,2,0:0:0:0:
448,192,7533,1,4,0:0:0:0:
64,192,7735,128,2,7938:0:0:0:0:
320,192,8073,128,0,8208:0:0:0:0:
320,192,8343,1,0,0:0:0:0:
64,192,8613,1,4,0:0:0:0:
448,192,8613,1,0,0:0:0:0:
192,192,8883,1,0,0:0:0:0:
64,192,9153,1,4,0:0:0:0:
448,192,9153,1,0,0:0:0:0:
320,192,9423,1,2,0:0:0:0:
64,192,9693,1,4,0:0:0:0:
320,192,9693,1,0,0:0:0:0:
192,192,9963,1,4,0:0:0:0:
448,192,9963,1,0,0:0:0:0:
64,192,10233,1,6,0:0:0:0:
320,192,10233,1,0,0:0:0:0:
192,192,10503,1,6,0:0:0:0:
448,192,10503,1,0,0:0:0:0:
64,192,10773,1,4,0:0:0:0:
192,192,11043,1,8,0:0:0:0:
448,192,11043,1,0,0:0:0:0:
320,192,11313,1,0,0:0:0:0:
192,192,11583,1,8,0:0:0:0:
64,192,11583,1,0,0:0:0:0:
448,192,11853,1,0,0:0:0:0:
320,192,12123,1,8,0:0:0:0:
192,192,12123,1,0,0:0:0:0:
64,192,12393,1,0,0:0:0:0:
448,192,12663,1,8,0:0:0:0:
64,192,12663,1,0,0:0:0:0:
192,192,12933,1,4,0:0:0:0:
320,192,12933,1,0,0:0:0:0:
64,192,13203,1,8,0:0:0:0:
448,192,13203,1,0,0:0:0:0:
320,192,13473,1,0,0:0:0:0:
192,192,13743,1,8,0:0:0:0:
64,192,13743,1,0,0:0:0:0:
448,192,14013,1,0,0:0:0:0:
320,192,14283,1,12,0:0:0:0:
64,192,14283,1,0,0:0:0:0:
192,192,14553,1,12,0:0:0:0:
448,192,14553,1,0,0:0:0:0:
320,192,14755,1,12,0:0:0:0:
192,192,14958,1,12,0:0:0:0:
320,192,15093,1,4,0:0:0:0:
64,192,15363,1,8,0:0:0:0:
448,192,15363,1,0,0:0:0:0:
192,192,15633,1,0,0:0:0:0:
320,192,15903,1,12,0:0:0:0:
192,192,16038,1,4,0:0:0:0:
192,192,16308,1,4,0:0:0:0:
320,192,16443,1,12,0:0:0:0:
64,192,16713,1,4,0:0:0:0:
448,192,16848,1,4,0:0:0:0:
64,192,16983,1,12,0:0:0:0:
64,192,17253,1,4,0:0:0:0:
448,192,17253,1,0,0:0:0:0:
192,192,17523,1,8,0:0:0:0:
64,192,17793,1,4,0:0:0:0:
448,192,17793,1,0,0:0:0:0:
320,192,18063,1,8,0:0:0:0:
64,192,18333,1,12,0:0:0:0:
192,192,18333,1,0,0:0:0:0:
320,192,18603,1,12,0:0:0:0:
448,192,18603,1,0,0:0:0:0:
64,192,18873,1,12,0:0:0:0:
192,192,19008,1,0,0:0:0:0:
320,192,19143,1,12,0:0:0:0:
448,192,19278,1,0,0:0:0:0:
64,192,19413,1,4,0:0:0:0:
320,192,19683,1,8,0:0:0:0:
448,192,19683,1,0,0:0:0:0:
192,192,19953,1,0,0:0:0:0:
64,192,20223,1,8,0:0:0:0:
320,192,20223,1,0,0:0:0:0:
320,192,20493,1,0,0:0:0:0:
320,192,20763,1,8,0:0:0:0:
192,192,20763,1,0,0:0:0:0:
64,192,21033,1,0,0:0:0:0:
192,192,21303,1,8,0:0:0:0:
448,192,21303,1,0,0:0:0:0:
64,192,21573,1,4,0:0:0:0:
320,192,21573,1,0,0:0:0:0:
192,192,21843,1,8,0:0:0:0:
448,192,21843,1,0,0:0:0:0:
320,192,22113,1,0,0:0:0:0:
192,192,22383,1,8,0:0:0:0:
64,192,22383,1,0,0:0:0:0:
448,192,22653,1,0,0:0:0:0:
320,192,22923,1,12,0:0:0:0:
192,192,22923,1,0,0:0:0:0:
192,192,23193,1,12,0:0:0:0:
320,192,23395,1,12,0:0:0:0:
448,192,23598,1,12,0:0:0:0:
320,192,23733,1,4,0:0:0:0:
64,192,24003,1,8,0:0:0:0:
192,192,24003,1,0,0:0:0:0:
320,192,24273,1,0,0:0:0:0:
64,192,24543,1,12,0:0:0:0:
192,192,24678,1,4,0:0:0:0:
448,192,24948,1,4,0:0:0:0:
320,192,25083,1,12,0:0:0:0:
64,192,25353,1,4,0:0:0:0:
320,192,25488,1,4,0:0:0:0:
192,192,25623,1,12,0:0:0:0:
448,192,25758,1,0,0:0:0:0:
64,192,25893,1,4,0:0:0:0:
192,192,25893,1,0,0:0:0:0:
320,192,26163,1,8,0:0:0:0:
448,192,26163,1,0,0:0:0:0:
192,192,26433,1,4,0:0:0:0:
64,192,26433,1,0,0:0:0:0:
320,192,26703,1,8,0:0:0:0:
448,192,26703,1,0,0:0:0:0:
64,192,26973,128,4,27243:0:0:0:0:
448,192,26973,128,0,27243:0:0:0:0:
192,192,27513,128,4,27783:0:0:0:0:
320,192,27513,128,0,27783:0:0:0:0:
64,192,28053,1,4,0:0:0:0:
64,192,28255,1,0,0:0:0:0:
64,192,28458,1,0,0:0:0:0:
192,192,28660,1,0,0:0:0:0:
192,192,28863,1,0,0:0:0:0:
192,192,28998,1,0,0:0:0:0:
320,192,29133,1,0,0:0:0:0:
320,192,29335,1,0,0:0:0:0:
320,192,29538,1,0,0:0:0:0:
448,192,29740,1,0,0:0:0:0:
448,192,29943,1,0,0:0:0:0:
448,192,30078,1,0,0:0:0:0:
64,192,30213,1,0,0:0:0:0:
64,192,30415,1,0,0:0:0:0:
64,192,30618,1,0,0:0:0:0:
192,192,30820,1,0,0:0:0:0:
192,192,31023,1,0,0:0:0:0:
192,192,31158,1,0,0:0:0:0:
320,192,31293,1,0,0:0:0:0:
320,192,31495,1,0,0:0:0:0:
320,192,31698,1,0,0:0:0:0:
448,192,31833,128,0,31968:0:0:0:0:
192,192,32103,128,0,32238:0:0:0:0:
64,192,32373,1,0,0:0:0:0:
448,192,32575,1,0,0:0:0:0:
64,192,32778,1,0,0:0:0:0:
448,192,32913,128,0,33048:0:0:0:0:
320,192,33183,128,0,33318:0:0:0:0:
64,192,33453,128,0,33588:0:0:0:0:
192,192,33723,128,0,33858:0:0:0:0:
320,192,33993,128,0,34128:0:0:0:0:
448,192,34263,128,0,34398:0:0:0:0:
192,192,34533,128,0,34668:0:0:0:0:
320,192,34803,128,0,34938:0:0:0:0:
64,192,35073,128,0,35208:0:0:0:0:
448,192,35343,128,0,35478:0:0:0:0:
64,192,35613,1,0,0:0:0:0:
192,192,35613,1,0,0:0:0:0:
320,192,35883,1,0,0:0:0:0:
448,192,35883,1,0,0:0:0:0:
192,192,36153,1,0,0:0:0:0:
64,192,36153,1,0,0:0:0:0:
320,192,36423,1,0,0:0:0:0:
448,192,36423,1,0,0:0:0:0:
64,192,36693,1,4,0:0:0:0:
192,192,36963,1,0,0:0:0:0:
320,192,37233,1,0,0:0:0:0:
448,192,37503,1,0,0:0:0:0:
192,192,37773,1,0,0:0:0:0:
320,192,37863,1,0,0:0:0:0:
192,192,37953,1,0,0:0:0:0:
320,192,38043,1,0,0:0:0:0:
64,192,38313,1,0,0:0:0:0:
320,192,38583,1,0,0:0:0:0:
192,192,38853,1,4,0:0:0:0:
64,192,39123,1,0,0:0:0:0:
320,192,39393,1,0,0:0:0:0:
448,192,39663,1,0,0:0:0:0:
320,192,39933,1,0,0:0:0:0:
192,192,40203,1,0,0:0:0:0:
64,192,40473,1,0,0:0:0:0:
192,192,40743,1,0,0:0:0:0:
64,192,41013,1,4,0:0:0:0:
448,192,41013,1,0,0:0:0:0:
64,192,42093,1,4,0:0:0:0:
448,192,42093,1,0,0:0:0:0:
64,192,42633,1,4,0:0:0:0:
448,192,42633,1,0,0:0:0:0:
64,192,43173,1,4,0:0:0:0:
448,192,43173,1,0,0:0:0:0:
64,192,43713,1,4,0:0:0:0:
448,192,43713,1,0,0:0:0:0:
192,192,43983,1,4,0:0:0:0:
448,192,44253,128,4,44388:0:0:0:0:
320,192,44523,128,4,44658:0:0:0:0:
192,192,44793,128,4,44928:0:0:0:0:
64,192,45063,128,4,45198:0:0:0:0:
448,192,45333,128,4,45603:0:0:0:0:
320,192,45603,1,0,0:0:0:0:
64,192,45873,128,4,46143:0:0:0:0:
320,192,46143,1,0,0:0:0:0:
64,192,46413,1,4,0:0:0:0:
448,192,46413,1,0,0:0:0:0:
64,192,46683,1,4,0:0:0:0:
320,192,46683,1,0,0:0:0:0:
64,192,46953,1,4,0:0:0:0:
192,192,46953,1,0,0:0:0:0:
64,192,47223,1,4,0:0:0:0:
320,192,47223,1,0,0:0:0:0:
64,192,47493,128,4,48033:0:0:0:0:
448,192,47493,1,0,0:0:0:0:
192,192,47763,1,8,0:0:0:0:
448,192,48033,1,0,0:0:0:0:
320,192,48303,1,8,0:0:0:0:
192,192,48573,1,0,0:0:0:0:
64,192,48843,1,8,0:0:0:0:
192,192,49113,1,0,0:0:0:0:
448,192,49383,1,8,0:0:0:0:
64,192,49653,1,0,0:0:0:0:
192,192,49923,1,8,0:0:0:0:
320,192,50193,1,0,0:0:0:0:
320,192,50463,1,8,0:0:0:0:
448,192,50733,1,0,0:0:0:0:
320,192,51003,1,8,0:0:0:0:
192,192,51273,1,0,0:0:0:0:
64,192,51543,1,8,0:0:0:0:
192,192,51813,1,0,0:0:0:0:
320,192,52083,1,8,0:0:0:0:
448,192,52353,1,0,0:0:0:0:
320,192,52623,1,8,0:0:0:0:
64,192,52893,1,0,0:0:0:0:
448,192,53163,1,8,0:0:0:0:
320,192,53433,1,0,0:0:0:0:
192,192,53703,1,8,0:0:0:0:
64,192,53973,1,0,0:0:0:0:
192,192,54243,1,8,0:0:0:0:
320,192,54513,1,0,0:0:0:0:
448,192,54783,1,8,0:0:0:0:
448,192,55053,1,0,0:0:0:0:
64,192,55323,1,12,0:0:0:0:
320,192,55323,1,0,0:0:0:0:
192,192,55593,1,12,0:0:0:0:
448,192,55593,1,0,0:0:0:0:
320,192,55863,1,12,0:0:0:0:
192,192,55863,1,0,0:0:0:0:
448,192,56133,128,4,56673:0:0:0:0:
64,192,56133,1,0,0:0:0:0:
192,192,56403,1,8,0:0:0:0:
64,192,56673,1,0,0:0:0:0:
192,192,56943,1,8,0:0:0:0:
320,192,57213,1,0,0:0:0:0:
64,192,57483,1,8,0:0:0:0:
448,192,57753,1,0,0:0:0:0:
320,192,58023,1,8,0:0:0:0:
64,192,58293,1,0,0:0:0:0:
320,192,58563,1,8,0:0:0:0:
192,192,58833,1,0,0:0:0:0:
448,192,59103,1,8,0:0:0:0:
320,192,59373,1,0,0:0:0:0:
64,192,59643,1,8,0:0:0:0:
192,192,59913,1,0,0:0:0:0:
320,192,60183,1,8,0:0:0:0:
192,192,60453,1,0,0:0:0:0:
448,192,60723,1,8,0:0:0:0:
64,192,60993,1,0,0:0:0:0:
320,192,61263,1,8,0:0:0:0:
192,192,61533,1,0,0:0:0:0:
448,192,61803,1,8,0:0:0:0:
320,192,62073,1,0,0:0:0:0:
64,192,62343,1,8,0:0:0:0:
64,192,62613,1,0,0:0:0:0:
192,192,62748,1,0,0:0:0:0:
320,192,62883,1,8,0:0:0:0:
448,192,63018,1,0,0:0:0:0:
64,192,63153,1,0,0:0:0:0:
192,192,63288,1,0,0:0:0:0:
320,192,63423,1,8,0:0:0:0:
448,192,63558,1,0,0:0:0:0:
192,192,63693,1,8,0:0:0:0:
320,192,63693,1,0,0:0:0:0:
64,192,63963,1,12,0:0:0:0:
448,192,63963,1,0,0:0:0:0:
64,192,64233,1,4,0:0:0:0:
448,192,64233,1,0,0:0:0:0:
64,192,64503,1,12,0:0:0:0:
448,192,64503,1,0,0:0:0:0:
64,192,64773,1,6,0:0:0:0:
320,192,64773,1,0,0:0:0:0:
192,192,65043,1,8,0:0:0:0:
448,192,65043,1,0,0:0:0:0:
192,192,65313,1,0,0:0:0:0:
64,192,65583,1,10,0:0:0:0:
320,192,65583,1,0,0:0:0:0:
192,192,65853,1,2,0:0:0:0:
320,192,66123,1,8,0:0:0:0:
448,192,66123,1,0,0:0:0:0:
64,192,66393,1,0,0:0:0:0:
192,192,66663,1,10,0:0:0:0:
448,192,66663,1,0,0:0:0:0:
320,192,66933,1,2,0:0:0:0:
192,192,67203,1,8,0:0:0:0:
64,192,67203,1,0,0:0:0:0:
320,192,67473,1,0,0:0:0:0:
192,192,67743,1,10,0:0:0:0:
448,192,67743,1,0,0:0:0:0:
64,192,68013,1,2,0:0:0:0:
320,192,68283,1,8,0:0:0:0:
448,192,68283,1,0,0:0:0:0:
64,192,68553,1,0,0:0:0:0:
192,192,68688,1,2,0:0:0:0:
320,192,68823,1,8,0:0:0:0:
448,192,68958,1,2,0:0:0:0:
64,192,69093,1,2,0:0:0:0:
192,192,69093,1,0,0:0:0:0:
192,192,69363,1,8,0:0:0:0:
448,192,69363,1,0,0:0:0:0:
320,192,69633,1,2,0:0:0:0:
192,192,69903,1,10,0:0:0:0:
64,192,69903,1,0,0:0:0:0:
448,192,70173,1,2,0:0:0:0:
320,192,70443,1,10,0:0:0:0:
192,192,70443,1,0,0:0:0:0:
192,192,70713,1,2,0:0:0:0:
64,192,70983,1,10,0:0:0:0:
320,192,70983,1,0,0:0:0:0:
448,192,71253,1,2,0:0:0:0:
64,192,71523,1,10,0:0:0:0:
320,192,71523,1,0,0:0:0:0:
192,192,71793,1,2,0:0:0:0:
320,192,72063,1,10,0:0:0:0:
448,192,72063,1,0,0:0:0:0:
64,192,72333,1,2,0:0:0:0:
192,192,72603,1,12,0:0:0:0:
320,192,72603,1,0,0:0:0:0:
192,192,72873,1,12,0:0:0:0:
320,192,72873,1,0,0:0:0:0:
192,192,73143,1,14,0:0:0:0:
320,192,73143,1,0,0:0:0:0:
64,192,73413,1,6,0:0:0:0:
192,192,73683,1,10,0:0:0:0:
448,192,73683,1,0,0:0:0:0:
320,192,73953,1,2,0:0:0:0:
192,192,74223,1,10,0:0:0:0:
64,192,74223,1,0,0:0:0:0:
320,192,74493,1,2,0:0:0:0:
448,192,74583,1,2,0:0:0:0:
320,192,74673,1,2,0:0:0:0:
192,192,74763,1,10,0:0:0:0:
64,192,75033,1,2,0:0:0:0:
192,192,75303,1,8,0:0:0:0:
448,192,75303,1,0,0:0:0:0:
320,192,75573,1,2,0:0:0:0:
192,192,75843,1,10,0:0:0:0:
64,192,75843,1,0,0:0:0:0:
320,192,76113,1,0,0:0:0:0:
320,192,76383,1,10,0:0:0:0:
448,192,76383,1,0,0:0:0:0:
64,192,76653,1,2,0:0:0:0:
192,192,76923,1,10,0:0:0:0:
448,192,76923,1,0,0:0:0:0:
320,192,77193,1,2,0:0:0:0:
64,192,77463,1,10,0:0:0:0:
448,192,77463,1,0,0:0:0:0:
192,192,77733,1,2,0:0:0:0:
64,192,78003,1,8,0:0:0:0:
448,192,78003,1,0,0:0:0:0:
448,192,78273,1,2,0:0:0:0:
192,192,78543,1,8,0:0:0:0:
320,192,78543,1,0,0:0:0:0:
64,192,78813,1,2,0:0:0:0:
192,192,79083,1,10,0:0:0:0:
448,192,79083,1,0,0:0:0:0:
320,192,79353,1,2,0:0:0:0:
192,192,79623,1,8,0:0:0:0:
64,192,79623,1,0,0:0:0:0:
448,192,79893,128,2,80433:0:0:0:0:
64,192,80163,1,8,0:0:0:0:
192,192,80433,1,2,0:0:0:0:
320,192,80703,1,10,0:0:0:0:
64,192,80973,1,14,0:0:0:0:
192,192,81243,1,14,0:0:0:0:
320,192,81513,1,14,0:0:0:0:
448,192,81783,1,14,0:0:0:0:
64,192,82053,1,14,0:0:0:0:
448,192,82053,128,0,82323:0:0:0:0:
64,192,82593,128,0,82863:0:0:0:0:
192,192,83133,128,0,83403:0:0:0:0:
448,192,83673,128,0,83943:0:0:0:0:
64,192,84213,128,0,84483:0:0:0:0:
320,192,84753,128,0,85023:0:0:0:0:
64,192,85293,1,0,0:0:0:0:
192,192,85563,1,0,0:0:0:0:
320,192,85833,1,0,0:0:0:0:
448,192,86103,1,0,0:0:0:0:
64,192,86373,128,0,86643:0:0:0:0:
320,192,86913,128,0,87183:0:0:0:0:
192,192,87453,128,0,87723:0:0:0:0:
448,192,87993,128,0,88263:0:0:0:0:
64,192,88533,128,0,88803:0:0:0:0:
320,192,89073,128,0,89343:0:0:0:0:
320,192,89613,1,0,0:0:0:0:
192,192,89883,1,0,0:0:0:0:
64,192,90153,1,0,0:0:0:0:
448,192,90423,1,0,0:0:0:0:
64,192,90693,1,0,0:0:0:0:
448,192,90693,1,0,0:0:0:0:
192,192,90828,1,0,0:0:0:0:
192,192,91098,1,0,0:0:0:0:
192,192,91368,1,0,0:0:0:0:
192,192,91638,1,0,0:0:0:0:
192,192,91908,1,0,0:0:0:0:
192,192,92178,1,0,0:0:0:0:
192,192,92448,1,0,0:0:0:0:
192,192,92718,1,0,0:0:0:0:
320,192,92853,1,0,0:0:0:0:
192,192,92988,1,0,0:0:0:0:
192,192,93258,1,0,0:0:0:0:
192,192,93528,1,0,0:0:0:0:
192,192,93798,1,0,0:0:0:0:
192,192,94068,1,0,0:0:0:0:
192,192,94338,1,0,0:0:0:0:
192,192,94608,1,0,0:0:0:0:
192,192,94878,1,0,0:0:0:0:
64,192,95013,1,0,0:0:0:0:
320,192,95148,1,0,0:0:0:0:
320,192,95418,1,0,0:0:0:0:
320,192,95688,1,0,0:0:0:0:
320,192,95958,1,0,0:0:0:0:
448,192,96093,1,0,0:0:0:0:
192,192,96228,1,0,0:0:0:0:
192,192,96498,1,0,0:0:0:0:
64,192,96633,1,0,0:0:0:0:
320,192,96768,1,0,0:0:0:0:
320,192,97038,1,0,0:0:0:0:
64,192,97173,1,0,0:0:0:0:
448,192,97173,1,0,0:0:0:0:
64,192,97443,1,0,0:0:0:0:
448,192,97443,1,0,0:0:0:0:
64,192,97713,1,0,0:0:0:0:
448,192,97713,1,0,0:0:0:0:
64,192,97983,1,0,0:0:0:0:
448,192,97983,1,0,0:0:0:0:
320,192,98253,1,0,0:0:0:0:
192,192,98253,128,0,99333:0:0:0:0:
320,192,99333,1,0,0:0:0:0:
448,192,99333,128,0,100413:0:0:0:0:
320,192,100413,1,0,0:0:0:0:
64,192,100413,128,0,101493:0:0:0:0:
192,192,101493,1,0,0:0:0:0:
320,192,101493,128,0,102574:0:0:0:0:
64,192,102574,1,0,0:0:0:0:
64,192,102844,1,0,0:0:0:0:
64,192,103114,1,0,0:0:0:0:
64,192,103384,1,0,0:0:0:0:
448,192,103654,1,0,0:0:0:0:
448,192,103924,1,0,0:0:0:0:
448,192,104194,1,0,0:0:0:0:
448,192,104464,1,0,0:0:0:0:
64,192,104734,1,0,0:0:0:0:
192,192,105004,1,0,0:0:0:0:
320,192,105274,1,0,0:0:0:0:
448,192,105544,1,0,0:0:0:0:
64,192,105814,1,0,0:0:0:0:
192,192,105814,1,0,0:0:0:0:
320,192,106084,1,0,0:0:0:0:
448,192,106084,1,0,0:0:0:0:
64,192,106354,1,0,0:0:0:0:
320,192,106354,1,0,0:0:0:0:
192,192,106624,1,0,0:0:0:0:
448,192,106624,1,0,0:0:0:0:
64,192,106894,128,0,107704:0:0:0:0:
448,192,106894,128,0,107704:0:0:0:0:
192,192,107974,1,0,0:0:0:0:
64,192,108244,1,0,0:0:0:0:
320,192,108244,1,0,0:0:0:0:
320,192,108514,1,0,0:0:0:0:
192,192,108784,1,0,0:0:0:0:
448,192,108784,1,0,0:0:0:0:
64,192,109054,1,0,0:0:0:0:
192,192,109324,1,0,0:0:0:0:
320,192,109324,1,0,0:0:0:0:
448,192,109594,1,0,0:0:0:0:
320,192,109864,1,0,0:0:0:0:
64,192,109864,1,0,0:0:0:0:
448,192,110134,1,0,0:0:0:0:
320,192,110404,1,0,0:0:0:0:
192,192,110404,1,0,0:0:0:0:
64,192,110674,1,0,0:0:0:0:
192,192,110944,1,0,0:0:0:0:
448,192,110944,1,0,0:0:0:0:
320,192,111214,1,0,0:0:0:0:
64,192,111484,1,0,0:0:0:0:
192,192,111484,1,0,0:0:0:0:
448,192,111754,1,0,0:0:0:0:
320,192,111889,1,0,0:0:0:0:
192,192,112024,1,0,0:0:0:0:
64,192,112159,1,0,0:0:0:0:
192,192,112294,1,0,0:0:0:0:
192,192,112564,1,0,0:0:0:0:
448,192,112564,1,0,0:0:0:0:
320,192,112834,1,0,0:0:0:0:
64,192,113104,1,0,0:0:0:0:
192,192,113104,1,0,0:0:0:0:
320,192,113374,1,0,0:0:0:0:
192,192,113644,1,0,0:0:0:0:
448,192,113644,1,0,0:0:0:0:
64,192,113914,1,0,0:0:0:0:
320,192,114184,1,0,0:0:0:0:
448,192,114184,1,0,0:0:0:0:
192,192,114454,1,0,0:0:0:0:
64,192,114724,1,0,0:0:0:0:
192,192,114724,1,0,0:0:0:0:
448,192,114994,1,0,0:0:0:0:
320,192,115264,1,0,0:0:0:0:
192,192,115264,1,0,0:0:0:0:
64,192,115534,1,0,0:0:0:0:
64,192,115804,1,12,0:0:0:0:
448,192,115804,1,0,0:0:0:0:
448,192,116074,1,12,0:0:0:0:
64,192,116074,1,0,0:0:0:0:
64,192,116344,1,12,0:0:0:0:
448,192,116344,1,0,0:0:0:0:
192,192,116614,1,6,0:0:0:0:
320,192,116884,1,10,0:0:0:0:
448,192,116884,1,0,0:0:0:0:
64,192,117154,1,2,0:0:0:0:
192,192,117424,1,10,0:0:0:0:
448,192,117424,1,0,0:0:0:0:
320,192,117694,1,2,0:0:0:0:
192,192,117784,1,2,0:0:0:0:
64,192,117874,1,2,0:0:0:0:
192,192,117964,1,10,0:0:0:0:
320,192,118234,1,2,0:0:0:0:
192,192,118504,1,8,0:0:0:0:
448,192,118504,1,0,0:0:0:0:
64,192,118774,1,2,0:0:0:0:
320,192,119044,1,10,0:0:0:0:
448,192,119044,1,0,0:0:0:0:
64,192,119314,1,2,0:0:0:0:
192,192,119584,1,10,0:0:0:0:
320,192,119584,1,0,0:0:0:0:
320,192,119854,1,2,0:0:0:0:
448,192,120124,1,10,0:0:0:0:
64,192,120124,1,0,0:0:0:0:
192,192,120394,1,2,0:0:0:0:
320,192,120664,1,10,0:0:0:0:
448,192,120664,1,0,0:0:0:0:
64,192,120934,1,2,0:0:0:0:
192,192,121204,1,8,0:0:0:0:
448,192,121204,1,0,0:0:0:0:
320,192,121474,1,0,0:0:0:0:
192,192,121744,1,10,0:0:0:0:
64,192,121744,1,0,0:0:0:0:
448,192,122014,1,2,0:0:0:0:
192,192,122284,1,10,0:0:0:0:
448,192,122284,1,0,0:0:0:0:
320,192,122554,1,2,0:0:0:0:
192,192,122824,1,8,0:0:0:0:
64,192,122824,1,0,0:0:0:0:
320,192,123094,1,2,0:0:0:0:
192,192,123364,1,8,0:0:0:0:
448,192,123364,1,0,0:0:0:0:
64,192,123634,1,0,0:0:0:0:
192,192,123904,1,10,0:0:0:0:
448,192,123904,1,0,0:0:0:0:
320,192,124174,1,10,0:0:0:0:
192,192,124174,1,0,0:0:0:0:
192,192,124444,1,10,0:0:0:0:
64,192,124444,1,0,0:0:0:0:
448,192,124714,1,10,0:0:0:0:
320,192,124714,1,0,0:0:0:0:
320,192,124984,1,10,0:0:0:0:
192,192,124984,1,0,0:0:0:0:
64,192,125254,1,2,0:0:0:0:
192,192,125524,1,8,0:0:0:0:
448,192,125524,1,0,0:0:0:0:
320,192,125794,1,0,0:0:0:0:
192,192,126064,1,10,0:0:0:0:
64,192,126064,1,0,0:0:0:0:
320,192,126334,1,2,0:0:0:0:
192,192,126604,1,8,0:0:0:0:
448,192,126604,1,0,0:0:0:0:
192,192,126874,1,0,0:0:0:0:
192,192,127144,1,10,0:0:0:0:
448,192,127144,1,0,0:0:0:0:
64,192,127414,1,2,0:0:0:0:
192,192,127684,1,8,0:0:0:0:
320,192,127684,1,0,0:0:0:0:
320,192,127954,1,0,0:0:0:0:
192,192,128224,1,10,0:0:0:0:
448,192,128224,1,0,0:0:0:0:
64,192,128494,1,2,0:0:0:0:
192,192,128764,1,8,0:0:0:0:
320,192,128764,1,0,0:0:0:0:
448,192,129034,1,2,0:0:0:0:
320,192,129169,1,2,0:0:0:0:
192,192,129304,1,10,0:0:0:0:
64,192,129439,1,2,0:0:0:0:
192,192,129574,1,2,0:0:0:0:
192,192,129844,1,8,0:0:0:0:
448,192,129844,1,0,0:0:0:0:
64,192,130114,1,2,0:0:0:0:
192,192,130384,1,10,0:0:0:0:
320,192,130384,1,0,0:0:0:0:
448,192,130654,1,2,0:0:0:0:
320,192,130924,1,10,0:0:0:0:
64,192,130924,1,0,0:0:0:0:
192,192,131194,1,2,0:0:0:0:
192,192,131464,1,10,0:0:0:0:
448,192,131464,1,0,0:0:0:0:
320,192,131734,1,2,0:0:0:0:
320,192,132004,1,10,0:0:0:0:
192,192,132004,1,0,0:0:0:0:
64,192,132274,1,2,0:0:0:0:
192,192,132544,1,10,0:0:0:0:
448,192,132544,1,0,0:0:0:0:
320,192,132814,1,2,0:0:0:0:
64,192,133084,1,8,0:0:0:0:
448,192,133084,1,0,0:0:0:0:
64,192,133354,1,8,0:0:0:0:
448,192,133354,1,0,0:0:0:0:
64,192,133624,1,10,0:0:0:0:
448,192,133624,1,0,0:0:0:0:
192,192,133894,1,2,0:0:0:0:
320,192,134164,1,10,0:0:0:0:
448,192,134164,1,0,0:0:0:0:
64,192,134434,1,2,0:0:0:0:
192,192,134704,1,10,0:0:0:0:
448,192,134704,1,0,0:0:0:0:
192,192,134974,1,2,0:0:0:0:
64,192,135064,1,2,0:0:0:0:
192,192,135154,1,2,0:0:0:0:
320,192,135244,1,10,0:0:0:0:
192,192,135514,1,2,0:0:0:0:
64,192,135784,1,8,0:0:0:0:
448,192,135784,1,0,0:0:0:0:
320,192,136054,1,2,0:0:0:0:
192,192,136324,1,10,0:0:0:0:
448,192,136324,1,0,0:0:0:0:
64,192,136594,1,2,0:0:0:0:
64,192,136864,1,10,0:0:0:0:
320,192,136864,1,0,0:0:0:0:
192,192,137134,1,2,0:0:0:0:
320,192,137404,1,10,0:0:0:0:
448,192,137404,1,0,0:0:0:0:
64,192,137674,1,2,0:0:0:0:
192,192,137944,1,10,0:0:0:0:
448,192,137944,1,0,0:0:0:0:
320,192,138214,1,2,0:0:0:0:
192,192,138484,1,8,0:0:0:0:
64,192,138484,1,0,0:0:0:0:
448,192,138754,1,0,0:0:0:0:
320,192,139024,1,10,0:0:0:0:
192,192,139024,1,0,0:0:0:0:
64,192,139294,1,2,0:0:0:0:
192,192,139564,1,10,0:0:0:0:
448,192,139564,1,0,0:0:0:0:
320,192,139834,1,2,0:0:0:0:
192,192,140104,1,8,0:0:0:0:
64,192,140104,1,0,0:0:0:0:
192,192,140374,1,2,0:0:0:0:
192,192,140644,1,8,0:0:0:0:
448,192,140644,1,0,0:0:0:0:
320,192,140914,1,2,0:0:0:0:
64,192,141184,1,10,0:0:0:0:
448,192,141184,1,0,0:0:0:0:
192,192,141454,1,2,0:0:0:0:
448,192,141454,1,0,0:0:0:0:
320,192,141724,1,10,0:0:0:0:
448,192,141724,1,0,0:0:0:0:
192,192,141994,1,2,0:0:0:0:
320,192,141994,1,0,0:0:0:0:
192,192,142264,1,10,0:0:0:0:
64,192,142264,1,0,0:0:0:0:
64,192,142534,128,4,142804:0:0:0:0:
448,192,142534,1,0,0:0:0:0:
320,192,142804,1,0,0:0:0:0:
192,192,143074,128,4,143344:0:0:0:0:
448,192,143074,1,0,0:0:0:0:
64,192,143344,1,0,0:0:0:0:
64,192,143614,1,4,0:0:0:0:
320,192,143614,128,0,143884:0:0:0:0:
192,192,143884,1,0,0:0:0:0:
448,192,144154,128,4,144424:0:0:0:0:
64,192,144154,1,0,0:0:0:0:
320,192,144424,1,0,0:0:0:0:
64,192,144694,1,4,0:0:0:0:
192,192,144694,128,0,144964:0:0:0:0:
448,192,144964,1,0,0:0:0:0:
320,192,145234,1,4,0:0:0:0:
64,192,145234,128,0,145504:0:0:0:0:
192,192,145504,1,0,0:0:0:0:
64,192,145774,1,4,0:0:0:0:
320,192,145774,128,0,146044:0:0:0:0:
448,192,146044,1,4,0:0:0:0:
192,192,146314,128,4,146584:0:0:0:0:
448,192,146314,1,0,0:0:0:0:
64,192,146584,1,4,0:0:0:0:
448,192,146854,1,4,0:0:0:0:
64,192,146854,128,0,149014:0:0:0:0:
192,192,147124,1,8,0:0:0:0:
192,192,147664,1,8,0:0:0:0:
192,192,148204,1,8,0:0:0:0:
192,192,148744,1,8,0:0:0:0:
448,192,149014,1,4,0:0:0:0:
320,192,149284,1,8,0:0:0:0:
64,192,149284,1,0,0:0:0:0:
192,192,149824,1,8,0:0:0:0:
448,192,149824,1,0,0:0:0:0:
64,192,150364,1,12,0:0:0:0:
320,192,150364,1,0,0:0:0:0:
64,192,150634,1,4,0:0:0:0:
64,192,150836,1,0,0:0:0:0:
192,192,151039,1,4,0:0:0:0:
320,192,151174,1,4,0:0:0:0:
64,192,151444,1,8,0:0:0:0:
448,192,151444,1,0,0:0:0:0:
192,192,151714,1,0,0:0:0:0:
64,192,151984,1,12,0:0:0:0:
192,192,152119,1,4,0:0:0:0:
448,192,152389,1,4,0:0:0:0:
320,192,152524,1,12,0:0:0:0:
64,192,152794,1,4,0:0:0:0:
192,192,152929,1,4,0:0:0:0:
320,192,153064,1,12,0:0:0:0:
448,192,153199,1,0,0:0:0:0:
320,192,153334,1,4,0:0:0:0:
64,192,153334,1,0,0:0:0:0:
192,192,153874,1,4,0:0:0:0:
448,192,153874,1,0,0:0:0:0:
64,192,154414,1,4,0:0:0:0:
320,192,154414,1,0,0:0:0:0:
192,192,154684,1,12,0:0:0:0:
448,192,154954,1,4,0:0:0:0:
320,192,155089,1,0,0:0:0:0:
192,192,155224,1,12,0:0:0:0:
64,192,155359,1,0,0:0:0:0:
192,192,155494,1,4,0:0:0:0:
448,192,155494,1,0,0:0:0:0:
320,192,155764,1,8,0:0:0:0:
64,192,155764,1,0,0:0:0:0:
192,192,156034,1,0,0:0:0:0:
320,192,156304,1,8,0:0:0:0:
64,192,156574,1,0,0:0:0:0:
192,192,156844,1,8,0:0:0:0:
448,192,157114,1,0,0:0:0:0:
320,192,157384,1,8,0:0:0:0:
64,192,157654,1,4,0:0:0:0:
448,192,157654,1,0,0:0:0:0:
192,192,157924,1,8,0:0:0:0:
320,192,158194,1,0,0:0:0:0:
64,192,158464,1,8,0:0:0:0:
192,192,158734,1,0,0:0:0:0:
320,192,159004,1,12,0:0:0:0:
448,192,159004,1,0,0:0:0:0:
64,192,159274,1,4,0:0:0:0:
192,192,159477,1,0,0:0:0:0:
320,192,159679,1,4,0:0:0:0:
448,192,159814,1,4,0:0:0:0:
64,192,159814,1,0,0:0:0:0:
192,192,160084,1,8,0:0:0:0:
320,192,160354,1,0,0:0:0:0:
64,192,160624,1,12,0:0:0:0:
192,192,160759,1,4,0:0:0:0:
192,192,161029,1,4,0:0:0:0:
320,192,161164,1,12,0:0:0:0:
64,192,161434,1,4,0:0:0:0:
192,192,161569,1,4,0:0:0:0:
320,192,161704,1,12,0:0:0:0:
192,192,161839,1,0,0:0:0:0:
64,192,161974,1,4,0:0:0:0:
448,192,161974,1,0,0:0:0:0:
64,192,162514,1,4,0:0:0:0:
448,192,162514,1,0,0:0:0:0:
64,192,163054,1,4,0:0:0:0:
192,192,163324,1,12,0:0:0:0:
320,192,163594,1,4,0:0:0:0:
448,192,163864,1,12,0:0:0:0:
64,192,164134,1,6,0:0:0:0:
192,192,164269,1,0,0:0:0:0:
320,192,164404,1,10,0:0:0:0:
448,192,164539,1,0,0:0:0:0:
64,192,164674,1,2,0:0:0:0:
192,192,164809,1,0,0:0:0:0:
320,192,164944,1,10,0:0:0:0:
448,192,165079,1,2,0:0:0:0:
64,192,165282,1,0,0:0:0:0:
448,192,165484,1,10,0:0:0:0:
320,192,165687,1,0,0:0:0:0:
192,192,165889,1,2,0:0:0:0:
64,192,166092,1,0,0:0:0:0:
192,192,166294,1,2,0:0:0:0:
320,192,166429,1,0,0:0:0:0:
192,192,166564,1,10,0:0:0:0:
320,192,166699,1,0,0:0:0:0:
192,192,166834,1,2,0:0:0:0:
448,192,166969,1,0,0:0:0:0:
192,192,167104,1,10,0:0:0:0:
448,192,167239,1,2,0:0:0:0:
64,192,167374,1,0,0:0:0:0:
448,192,167509,128,0,167644:0:0:0:0:
320,192,167914,1,2,0:0:0:0:
192,192,168117,1,0,0:0:0:0:
64,192,168319,1,2,0:0:0:0:
448,192,168454,1,2,0:0:0:0:
320,192,168454,1,0,0:0:0:0:
64,192,168859,1,2,0:0:0:0:
320,192,168859,1,0,0:0:0:0:
64,192,169264,1,10,0:0:0:0:
192,192,169399,1,0,0:0:0:0:
320,192,169534,1,2,0:0:0:0:
448,192,169669,1,0,0:0:0:0:
320,192,169804,1,10,0:0:0:0:
448,192,169939,1,0,0:0:0:0:
320,192,170074,1,2,0:0:0:0:
192,192,170209,1,0,0:0:0:0:
64,192,170344,1,10,0:0:0:0:
192,192,170479,1,2,0:0:0:0:
320,192,170614,1,2,0:0:0:0:
448,192,170614,1,0,0:0:0:0:
64,192,170884,1,10,0:0:0:0:
192,192,170884,1,0,0:0:0:0:
192,192,171154,1,2,0:0:0:0:
448,192,171154,1,0,0:0:0:0:
64,192,171357,1,0,0:0:0:0:
320,192,171357,1,0,0:0:0:0:
192,192,171559,1,2,0:0:0:0:
448,192,171762,1,0,0:0:0:0:
320,192,171964,1,14,0:0:0:0:
192,192,172167,1,0,0:0:0:0:
64,192,172369,1,2,0:0:0:0:
192,192,172572,1,0,0:0:0:0:
448,192,172774,1,6,0:0:0:0:
320,192,172909,1,0,0:0:0:0:
192,192,173044,1,10,0:0:0:0:
64,192,173179,1,0,0:0:0:0:
448,192,173314,1,2,0:0:0:0:
320,192,173449,1,0,0:0:0:0:
192,192,173584,1,10,0:0:0:0:
64,192,173719,1,2,0:0:0:0:
448,192,173989,1,0,0:0:0:0:
320,192,174124,1,10,0:0:0:0:
192,192,174259,1,0,0:0:0:0:
64,192,174394,1,2,0:0:0:0:
192,192,174529,1,0,0:0:0:0:
320,192,174664,1,10,0:0:0:0:
64,192,174934,1,2,0:0:0:0:
192,192,175069,1,0,0:0:0:0:
320,192,175204,1,10,0:0:0:0:
448,192,175339,1,0,0:0:0:0:
64,192,175474,1,2,0:0:0:0:
192,192,175609,1,0,0:0:0:0:
320,192,175744,1,10,0:0:0:0:
448,192,175879,1,2,0:0:0:0:
64,192,176149,1,2,0:0:0:0:
192,192,176284,1,10,0:0:0:0:
320,192,176419,1,0,0:0:0:0:
448,192,176554,1,2,0:0:0:0:
64,192,176689,1,2,0:0:0:0:
320,192,176824,1,10,0:0:0:0:
320,192,177094,1,2,0:0:0:0:
320,192,177499,1,2,0:0:0:0:
320,192,177904,1,10,0:0:0:0:
192,192,178039,1,0,0:0:0:0:
192,192,178309,1,2,0:0:0:0:
320,192,178444,1,10,0:0:0:0:
320,192,178714,1,2,0:0:0:0:
64,192,178984,1,10,0:0:0:0:
192,192,179119,1,0,0:0:0:0:
320,192,179254,1,2,0:0:0:0:
448,192,179254,1,0,0:0:0:0:
64,192,179524,1,8,0:0:0:0:
192,192,179524,1,0,0:0:0:0:
320,192,179794,1,2,0:0:0:0:
448,192,179794,1,0,0:0:0:0:
192,192,180064,1,8,0:0:0:0:
64,192,180064,1,0,0:0:0:0:
448,192,180334,1,6,0:0:0:0:
64,192,180334,1,0,0:0:0:0:
64,192,180604,1,14,0:0:0:0:
448,192,180604,1,0,0:0:0:0:
448,192,180874,1,6,0:0:0:0:
64,192,180874,1,0,0:0:0:0:
64,192,181144,1,14,0:0:0:0:
448,192,181144,1,0,0:0:0:0:
64,192,181414,128,6,181684:0:0:0:0:
192,192,181684,1,10,0:0:0:0:
448,192,181819,128,2,182089:0:0:0:0:
192,192,182089,1,2,0:0:0:0:
64,192,182224,1,10,0:0:0:0:
192,192,182359,1,2,0:0:0:0:
448,192,182494,128,2,182764:0:0:0:0:
320,192,182764,128,10,183034:0:0:0:0:
192,192,183034,128,2,183304:0:0:0:0:
64,192,183304,128,10,183574:0:0:0:0:
448,192,183574,128,2,183844:0:0:0:0:
64,192,183844,1,10,0:0:0:0:
320,192,183979,128,2,184249:0:0:0:0:
192,192,184249,1,2,0:0:0:0:
64,192,184384,1,10,0:0:0:0:
320,192,184519,1,2,0:0:0:0:
64,192,184654,128,2,184924:0:0:0:0:
320,192,184924,128,10,185194:0:0:0:0:
192,192,185194,128,0,185464:0:0:0:0:
448,192,185464,128,0,185734:0:0:0:0:
64,192,185734,1,0,0:0:0:0:
192,192,185734,1,0,0:0:0:0:
320,192,186004,1,0,0:0:0:0:
448,192,186004,1,0,0:0:0:0:
64,192,186274,1,0,0:0:0:0:
192,192,186274,1,0,0:0:0:0:
320,192,186477,1,0,0:0:0:0:
192,192,186679,1,0,0:0:0:0:
448,192,186882,1,0,0:0:0:0:
64,192,187084,1,0,0:0:0:0:
192,192,187287,1,0,0:0:0:0:
320,192,187489,1,0,0:0:0:0:
192,192,187624,1,0,0:0:0:0:
320,192,187759,1,0,0:0:0:0:
192,192,187894,128,0,188164:0:0:0:0:
320,192,188164,128,0,188434:0:0:0:0:
64,192,188434,128,0,188704:0:0:0:0:
448,192,188704,128,0,188974:0:0:0:0:
64,192,188974,1,0,0:0:0:0:
192,192,188974,1,0,0:0:0:0:
64,192,189244,1,0,0:0:0:0:
320,192,189244,1,0,0:0:0:0:
64,192,189514,1,0,0:0:0:0:
448,192,189514,1,0,0:0:0:0:
64,192,189784,1,0,0:0:0:0:
448,192,189784,1,0,0:0:0:0:
64,192,190054,1,6,0:0:0:0:
448,192,190054,1,0,0:0:0:0:
192,192,190189,1,0,0:0:0:0:
320,192,190324,1,0,0:0:0:0:
448,192,190459,1,0,0:0:0:0:
64,192,190594,1,0,0:0:0:0:
192,192,190729,1,0,0:0:0:0:
320,192,190864,1,0,0:0:0:0:
448,192,190999,1,0,0:0:0:0:
64,192,191134,1,0,0:0:0:0:
64,192,191404,1,0,0:0:0:0:
64,192,191674,1,0,0:0:0:0:
320,192,191809,1,0,0:0:0:0:
192,192,191944,1,0,0:0:0:0:
448,192,192079,1,0,0:0:0:0:
64,192,192214,1,0,0:0:0:0:
448,192,192349,1,0,0:0:0:0:
320,192,192484,1,0,0:0:0:0:
192,192,192754,1,0,0:0:0:0:
320,192,192957,1,0,0:0:0:0:
64,192,193159,1,0,0:0:0:0:
448,192,193294,1,0,0:0:0:0:
320,192,193294,1,0,0:0:0:0:
64,192,193564,1,0,0:0:0:0:
192,192,193564,1,0,0:0:0:0:
320,192,193834,1,0,0:0:0:0:
448,192,193834,1,0,0:0:0:0:
192,192,194104,1,0,0:0:0:0:
64,192,194104,1,0,0:0:0:0:
448,192,194374,128,0,194644:0:0:0:0:
320,192,194644,1,0,0:0:0:0:
64,192,194779,128,0,195049:0:0:0:0:
320,192,195049,1,0,0:0:0:0:
192,192,195184,1,0,0:0:0:0:
64,192,195454,1,0,0:0:0:0:
448,192,195454,1,0,0:0:0:0:
320,192,195724,1,0,0:0:0:0:
64,192,195994,1,0,0:0:0:0:
448,192,195994,1,0,0:0:0:0:
192,192,196264,1,0,0:0:0:0:
64,192,196534,1,0,0:0:0:0:
320,192,196534,1,0,0:0:0:0:
448,192,196804,1,0,0:0:0:0:
320,192,197074,1,0,0:0:0:0:
192,192,197074,1,0,0:0:0:0:
64,192,197344,1,0,0:0:0:0:
192,192,197614,1,0,0:0:0:0:
448,192,197614,1,0,0:0:0:0:
320,192,197884,1,0,0:0:0:0:
64,192,198154,1,0,0:0:0:0:
448,192,198154,1,0,0:0:0:0:
192,192,198424,1,0,0:0:0:0:
320,192,198694,1,0,0:0:0:0:
448,192,198694,1,0,0:0:0:0:
192,192,198964,1,0,0:0:0:0:
64,192,199234,1,0,0:0:0:0:
320,192,199234,1,0,0:0:0:0:
192,192,199504,1,0,0:0:0:0:
64,192,199774,1,0,0:0:0:0:
448,192,199774,1,0,0:0:0:0:
192,192,200044,1,0,0:0:0:0:
64,192,200314,1,0,0:0:0:0:
448,192,200314,1,0,0:0:0:0:
320,192,200584,1,0,0:0:0:0:
64,192,200854,1,0,0:0:0:0:
448,192,200854,128,0,203015:0:0:0:0:
192,192,203015,128,0,204095:0:0:0:0:
320,192,204095,128,0,204635:0:0:0:0:
64,192,204635,128,0,205175:0:0:0:0:
192,192,205175,128,0,206255:0:0:0:0:
64,192,206255,128,0,206795:0:0:0:0:
192,192,206795,128,0,207335:0:0:0:0:
320,192,207335,128,0,208415:0:0:0:0:
448,192,208415,128,0,209495:0:0:0:0:
64,192,209495,1,0,0:0:0:0:
192,192,209495,1,0,0:0:0:0:
320,192,209765,1,0,0:0:0:0:
192,192,210035,1,0,0:0:0:0:
320,192,210305,1,0,0:0:0:0:
192,192,210575,1,0,0:0:0:0:
64,192,210665,1,0,0:0:0:0:
192,192,210755,1,0,0:0:0:0:
320,192,210845,1,0,0:0:0:0:
448,192,211115,1,0,0:0:0:0:
320,192,211385,1,0,0:0:0:0:
192,192,211655,1,0,0:0:0:0:
320,192,211925,1,0,0:0:0:0:
448,192,212195,1,0,0:0:0:0:
64,192,212465,1,0,0:0:0:0:
320,192,212735,1,0,0:0:0:0:
192,192,213005,1,0,0:0:0:0:
64,192,213275,1,0,0:0:0:0:
320,192,213545,1,0,0:0:0:0:
64,192,213815,1,0,0:0:0:0:
448,192,213815,1,0,0:0:0:0:
64,192,214895,1,0,0:0:0:0:
448,192,214895,1,0,0:0:0:0:
64,192,215435,1,0,0:0:0:0:
448,192,215435,1,0,0:0:0:0:
64,192,215975,1,0,0:0:0:0:
448,192,215975,1,0,0:0:0:0:
64,192,216515,1,0,0:0:0:0:
448,192,216515,1,0,0:0:0:0:
64,192,216785,1,0,0:0:0:0:
448,192,216785,1,0,0:0:0:0:
448,192,217055,1,0,0:0:0:0:
320,192,217190,1,0,0:0:0:0:
192,192,217325,1,0,0:0:0:0:
64,192,217460,1,0,0:0:0:0:
448,192,217595,1,0,0:0:0:0:
320,192,217730,1,0,0:0:0:0:
64,192,217865,1,0,0:0:0:0:
448,192,217865,1,0,0:0:0:0:
192,192,218135,1,0,0:0:0:0:
320,192,218135,1,0,0:0:0:0:
64,192,218405,1,0,0:0:0:0:
448,192,218405,1,0,0:0:0:0:
192,192,218675,1,0,0:0:0:0:
192,192,218945,1,0,0:0:0:0:
448,192,218945,1,0,0:0:0:0:
320,192,219215,1,0,0:0:0:0:
64,192,219485,1,0,0:0:0:0:
320,192,219485,1,0,0:0:0:0:
192,192,219755,1,0,0:0:0:0:
320,192,220025,1,0,0:0:0:0:
448,192,220025,1,0,0:0:0:0:
64,192,220295,1,0,0:0:0:0:
192,192,220565,1,0,0:0:0:0:
448,192,220565,1,0,0:0:0:0:
320,192,220835,1,0,0:0:0:0:
64,192,221105,1,0,0:0:0:0:
192,192,221105,1,0,0:0:0:0:
320,192,221375,1,0,0:0:0:0:
192,192,221645,1,0,0:0:0:0:
448,192,221645,1,0,0:0:0:0:
64,192,221915,1,0,0:0:0:0:
192,192,222050,1,0,0:0:0:0:
320,192,222185,1,0,0:0:0:0:
448,192,222320,1,0,0:0:0:0:
320,192,222455,1,0,0:0:0:0:
192,192,222455,1,0,0:0:0:0:
64,192,222725,1,0,0:0:0:0:
448,192,222725,1,0,0:0:0:0:
320,192,222995,1,0,0:0:0:0:
64,192,223265,1,0,0:0:0:0:
320,192,223265,1,0,0:0:0:0:
320,192,223535,1,0,0:0:0:0:
192,192,223805,1,0,0:0:0:0:
448,192,223805,1,0,0:0:0:0:
64,192,224075,1,0,0:0:0:0:
192,192,224345,1,0,0:0:0:0:
320,192,224345,1,0,0:0:0:0:
448,192,224615,1,0,0:0:0:0:
64,192,224885,1,0,0:0:0:0:
320,192,224885,1,0,0:0:0:0:
320,192,225155,1,0,0:0:0:0:
192,192,225425,1,0,0:0:0:0:
448,192,225425,1,0,0:0:0:0:
192,192,225695,1,0,0:0:0:0:
64,192,225965,1,0,0:0:0:0:
320,192,225965,1,0,0:0:0:0:
192,192,226235,1,0,0:0:0:0:
320,192,226235,1,0,0:0:0:0:
192,192,226505,1,0,0:0:0:0:
448,192,226505,1,0,0:0:0:0:
192,192,226775,1,0,0:0:0:0:
192,192,227045,1,0,0:0:0:0:
320,192,227045,1,0,0:0:0:0:
64,192,227315,1,0,0:0:0:0:
320,192,227585,1,0,0:0:0:0:
448,192,227585,1,0,0:0:0:0:
192,192,227855,1,0,0:0:0:0:
320,192,227945,1,0,0:0:0:0:
448,192,228035,1,0,0:0:0:0:
320,192,228125,1,0,0:0:0:0:
64,192,228125,1,0,0:0:0:0:
192,192,228395,1,0,0:0:0:0:
320,192,228665,1,0,0:0:0:0:
448,192,228665,1,0,0:0:0:0:
64,192,228935,1,0,0:0:0:0:
192,192,229205,1,0,0:0:0:0:
448,192,229205,1,0,0:0:0:0:
320,192,229475,1,0,0:0:0:0:
192,192,229745,1,0,0:0:0:0:
64,192,229745,1,0,0:0:0:0:
192,192,230015,1,0,0:0:0:0:
192,192,230285,1,0,0:0:0:0:
448,192,230285,1,0,0:0:0:0:
320,192,230555,1,0,0:0:0:0:
192,192,230825,1,0,0:0:0:0:
448,192,230825,1,0,0:0:0:0:
64,192,231095,1,0,0:0:0:0:
192,192,231365,1,0,0:0:0:0:
320,192,231365,1,0,0:0:0:0:
320,192,231635,1,0,0:0:0:0:
64,192,231905,1,0,0:0:0:0:
192,192,231905,1,0,0:0:0:0:
448,192,232175,1,0,0:0:0:0:
64,192,232445,1,0,0:0:0:0:
320,192,232445,1,0,0:0:0:0:
192,192,232715,1,0,0:0:0:0:
448,192,232985,1,0,0:0:0:0:
64,192,232985,1,0,0:0:0:0:
320,192,233255,1,0,0:0:0:0:
192,192,233525,1,0,0:0:0:0:
448,192,233525,1,0,0:0:0:0:
64,192,233795,1,0,0:0:0:0:
320,192,234065,1,0,0:0:0:0:
192,192,234065,1,0,0:0:0:0:
448,192,234335,1,0,0:0:0:0:
320,192,234335,1,0,0:0:0:0:
192,192,234605,1,0,0:0:0:0:
320,192,234605,1,0,0:0:0:0:
192,192,234875,1,0,0:0:0:0:
64,192,234875,1,0,0:0:0:0:
448,192,235145,1,0,0:0:0:0:
320,192,235280,1,0,0:0:0:0:
192,192,235415,1,0,0:0:0:0:
64,192,235685,1,0,0:0:0:0:
448,192,235685,1,0,0:0:0:0:
320,192,235955,1,0,0:0:0:0:
320,192,236225,1,0,0:0:0:0:
64,192,236225,1,0,0:0:0:0:
192,192,236495,1,0,0:0:0:0:
320,192,236765,1,0,0:0:0:0:
448,192,236765,1,0,0:0:0:0:
64,192,237035,1,0,0:0:0:0:
64,192,237305,1,0,0:0:0:0:
320,192,237305,1,0,0:0:0:0:
320,192,237575,1,0,0:0:0:0:
192,192,237845,1,0,0:0:0:0:
320,192,237845,1,0,0:0:0:0:
448,192,238115,1,0,0:0:0:0:
64,192,238385,1,0,0:0:0:0:
320,192,238385,1,0,0:0:0:0:
192,192,238655,1,0,0:0:0:0:
448,192,238925,1,0,0:0:0:0:
192,192,239060,1,0,0:0:0:0:
64,192,239195,1,0,0:0:0:0:
320,192,239330,1,0,0:0:0:0:
192,192,239465,1,0,0:0:0:0:
448,192,239600,1,0,0:0:0:0:
64,192,239735,1,0,0:0:0:0:
192,192,240005,1,0,0:0:0:0:
320,192,240005,1,0,0:0:0:0:
448,192,240275,1,0,0:0:0:0:
64,192,240545,1,0,0:0:0:0:
320,192,240545,1,0,0:0:0:0:
448,192,240815,1,0,0:0:0:0:
192,192,241085,1,0,0:0:0:0:
320,192,241085,1,0,0:0:0:0:
64,192,241355,1,0,0:0:0:0:
192,192,241625,1,0,0:0:0:0:
448,192,241625,1,0,0:0:0:0:
320,192,241895,1,0,0:0:0:0:
64,192,242165,1,0,0:0:0:0:
320,192,242165,1,0,0:0:0:0:
192,192,242435,1,0,0:0:0:0:
192,192,242705,1,0,0:0:0:0:
448,192,242705,1,0,0:0:0:0:
320,192,242975,1,0,0:0:0:0:
64,192,243245,1,0,0:0:0:0:
192,192,243245,1,0,0:0:0:0:
320,192,243515,1,0,0:0:0:0:
448,192,243515,1,0,0:0:0:0:
192,192,243785,1,0,0:0:0:0:
64,192,243785,1,0,0:0:0:0:
320,192,244055,1,0,0:0:0:0:
192,192,244325,1,0,0:0:0:0:
448,192,244325,1,0,0:0:0:0:
64,192,244595,1,0,0:0:0:0:
192,192,244865,1,0,0:0:0:0:
320,192,244865,1,0,0:0:0:0:
320,192,245135,1,0,0:0:0:0:
192,192,245225,1,0,0:0:0:0:
64,192,245315,1,0,0:0:0:0:
192,192,245405,1,0,0:0:0:0:
320,192,245405,1,0,0:0:0:0:
448,192,245675,1,0,0:0:0:0:
64,192,245945,1,0,0:0:0:0:
320,192,245945,1,0,0:0:0:0:
192,192,246215,1,0,0:0:0:0:
320,192,246485,1,0,0:0:0:0:
448,192,246485,1,0,0:0:0:0:
64,192,246755,1,0,0:0:0:0:
64,192,247025,1,0,0:0:0:0:
448,192,247025,1,0,0:0:0:0:
320,192,247295,1,0,0:0:0:0:
192,192,247565,1,0,0:0:0:0:
64,192,247565,1,0,0:0:0:0:
448,192,247835,1,0,0:0:0:0:
192,192,248105,1,0,0:0:0:0:
320,192,248105,1,0,0:0:0:0:
64,192,248375,1,0,0:0:0:0:
192,192,248645,1,0,0:0:0:0:
448,192,248645,1,0,0:0:0:0:
320,192,248915,1,0,0:0:0:0:
64,192,249185,1,0,0:0:0:0:
320,192,249185,1,0,0:0:0:0:
192,192,249455,1,0,0:0:0:0:
192,192,249725,1,0,0:0:0:0:
448,192,249725,1,0,0:0:0:0:
192,192,249995,1,0,0:0:0:0:
64,192,250265,1,0,0:0:0:0:
192,192,250265,1,0,0:0:0:0:
320,192,250535,1,0,0:0:0:0:
192,192,250805,1,0,0:0:0:0:
448,192,250805,1,0,0:0:0:0:
64,192,251075,1,0,0:0:0:0:
192,192,251345,1,0,0:0:0:0:
320,192,251345,1,0,0:0:0:0:
64,192,251615,1,0,0:0:0:0:
448,192,251615,1,0,0:0:0:0:
448,192,251885,1,0,0:0:0:0:
64,192,251885,1,0,0:0:0:0:
64,192,252155,1,0,0:0:0:0:
448,192,252155,1,0,0:0:0:0:
64,192,252425,1,0,0:0:0:0:
448,192,252425,1,0,0:0:0:0:
64,192,252695,1,0,0:0:0:0:
192,192,252695,1,0,0:0:0:0:
192,192,252965,1,0,0:0:0:0:
448,192,252965,1,0,0:0:0:0:
320,192,253235,1,0,0:0:0:0:
64,192,253235,1,0,0:0:0:0:
192,192,253505,1,0,0:0:0:0:
320,192,253505,1,0,0:0:0:0:
192,192,253775,1,0,0:0:0:0:
448,192,253775,1,0,0:0:0:0:
64,192,254045,1,0,0:0:0:0:
320,192,254045,1,0,0:0:0:0:
192,192,254315,1,0,0:0:0:0:
64,192,254315,1,0,0:0:0:0:
320,192,254585,1,0,0:0:0:0:
448,192,254585,1,0,0:0:0:0:
64,192,254855,1,0,0:0:0:0:
192,192,254990,1,0,0:0:0:0:
448,192,255125,1,0,0:0:0:0:
192,192,255260,1,0,0:0:0:0:
320,192,255395,1,0,0:0:0:0:
64,192,255530,1,0,0:0:0:0:
448,192,255665,1,0,0:0:0:0:
192,192,255800,1,0,0:0:0:0:
64,192,255935,1,0,0:0:0:0:
320,192,256070,1,0,0:0:0:0:
448,192,256205,1,0,0:0:0:0:
192,192,256340,1,0,0:0:0:0:
64,192,256475,1,0,0:0:0:0:
320,192,256610,1,0,0:0:0:0:
192,192,256745,1,0,0:0:0:0:
320,192,256880,1,0,0:0:0:0:
64,192,257015,128,0,261335:0:0:0:0:
448,192,257015,128,0,261335:0:0:0:0:
