osu file format v13

[General]
AudioFilename: Freedom Dive.mp3
AudioLeadIn: 0
PreviewTime: 108027
Countdown: 0
SampleSet: Normal
StackLeniency: 0.7
Mode: 3
LetterboxInBreaks: 0
SpecialStyle: 0
WidescreenStoryboard: 0

[Editor]
DistanceSpacing: 0.8
BeatDivisor: 4
GridSize: 8
TimelineZoom: 2

[Metadata]
Title:FREEDOM DiVE
TitleUnicode:FREEDOM DiVE
Artist:xi
ArtistUnicode:xi
Creator:razlteh
Version:4K Another
Source:Cytus
Tags:bms blocko fullerene- tear dainesl
BeatmapID:419485
BeatmapSetID:173612

[Difficulty]
HPDrainRate:8
CircleSize:4
OverallDifficulty:8
ApproachRate:5
SliderMultiplier:1.4
SliderTickRate:1

[Events]
//Background and Video events
0,0,"background desuuu.jpg",0,0
//Break Periods
//Storyboard Layer 0 (Background)
//Storyboard Layer 1 (Fail)
//Storyboard Layer 2 (Pass)
//Storyboard Layer 3 (Foreground)
//Storyboard Sound Samples
//Background Colour Transformations
3,100,163,162,255

[TimingPoints]
2133,270.002700027,4,1,0,30,1,0
10772,-100,4,1,0,30,0,0
28052,-100,4,1,0,30,0,0
47492,-100,4,1,0,30,0,0
64772,-100,4,1,0,30,0,1
82052,-125,4,1,0,30,0,0
98252,-121.212121212121,4,1,0,30,0,0
98253,-121.212121212121,4,1,0,5,0,0
99332,-117.647058823529,4,1,0,5,0,0
99333,-117.647058823529,4,1,0,10,0,0
100412,-113.636363636364,4,1,0,10,0,0
100413,-113.636363636364,4,1,0,15,0,0
101492,-111.111111111111,4,1,0,15,0,0
101493,-111.111111111111,4,1,0,20,0,0
102572,-107.52688172043,4,1,0,20,0,0
102574,-107.52688172043,4,1,0,25,0,0
103652,-105.263157894737,4,1,0,25,0,0
103654,-105.263157894737,4,1,0,30,0,0
104732,-103.092783505155,4,1,0,30,0,0
104734,-103.092783505155,4,1,0,40,0,0
105812,-100,4,1,0,40,0,0
105814,-100,4,1,0,50,0,0
106084,-100,4,1,0,60,0,0
106352,-90.9090909090909,4,1,0,60,0,0
106354,-90.9090909090909,4,1,0,70,0,0
106624,-90.9090909090909,4,1,0,85,0,0
106892,-66.6666666666667,4,1,0,85,0,0
106894,-66.6666666666667,4,1,0,100,0,0
107567,-86.9565217391304,4,1,0,100,0,0
107635,-125,4,1,0,100,0,0
107702,-200,4,1,0,100,0,0
107704,-200,4,1,0,30,0,0
107972,-100,4,1,0,30,0,1
146853,-100,4,1,0,30,0,0
218133,-100,4,1,0,30,0,1
257013,-100,4,1,0,30,0,0

[HitObjects]
64,192,2132,5,4,0:0:0:0:
192,192,2132,1,0,0:0:0:0:
320,192,2132,1,0,0:0:0:0:
192,192,2335,1,2,0:0:0:0:
448,192,2335,1,0,0:0:0:0:
64,192,2537,1,2,0:0:0:0:
320,192,2537,1,0,0:0:0:0:
192,192,2807,1,2,0:0:0:0:
320,192,2807,1,0,0:0:0:0:
64,192,2942,1,2,0:0:0:0:
192,192,2942,1,0,0:0:0:0:
448,192,3077,1,2,0:0:0:0:
320,192,3077,1,0,0:0:0:0:
64,192,3212,1,4,0:0:0:0:
320,192,3212,1,0,0:0:0:0:
192,192,3415,1,2,0:0:0:0:
448,192,3415,1,0,0:0:0:0:
64,192,3617,1,2,0:0:0:0:
192,192,3617,1,0,0:0:0:0:
320,192,3752,1,0,0:0:0:0:
448,192,3752,1,0,0:0:0:0:
192,192,3887,1,2,0:0:0:0:
320,192,3887,1,0,0:0:0:0:
64,192,4022,1,0,0:0:0:0:
320,192,4022,1,0,0:0:0:0:
64,192,4292,1,4,0:0:0:0:
320,192,4292,1,0,0:0:0:0:
448,192,4292,1,0,0:0:0:0:
192,192,4495,1,2,0:0:0:0:
320,192,4495,1,0,0:0:0:0:
64,192,4697,1,2,0:0:0:0:
320,192,4697,1,0,0:0:0:0:
320,192,4967,1,2,0:0:0:0:
448,192,4967,1,0,0:0:0:0:
64,192,5102,1,2,0:0:0:0:
320,192,5102,1,0,0:0:0:0:
192,192,5237,1,2,0:0:0:0:
448,192,5237,1,0,0:0:0:0:
320,192,5372,1,4,0:0:0:0:
192,192,5372,1,0,0:0:0:0:
320,192,5575,1,2,0:0:0:0:
448,192,5575,1,0,0:0:0:0:
64,192,5777,1,2,0:0:0:0:
192,192,5777,1,0,0:0:0:0:
448,192,5912,1,4,0:0:0:0:
192,192,5912,1,0,0:0:0:0:
320,192,5980,1,0,0:0:0:0:
192,192,6047,1,2,0:0:0:0:
64,192,6115,1,0,0:0:0:0:
192,192,6182,1,2,0:0:0:0:
448,192,6182,1,0,0:0:0:0:
320,192,6250,1,0,0:0:0:0:
448,192,6317,1,2,0:0:0:0:
320,192,6385,1,0,0:0:0:0:
64,192,6452,1,4,0:0:0:0:
192,192,6452,1,0,0:0:0:0:
448,192,6452,1,0,0:0:0:0:
320,192,6655,1,2,0:0:0:0:
448,192,6655,1,0,0:0:0:0:
64,192,6857,1,2,0:0:0:0:
320,192,6857,1,0,0:0:0:0:
192,192,7127,1,2,0:0:0:0:
448,192,7127,1,0,0:0:0:0:
320,192,7262,1,2,0:0:0:0:
192,192,7262,1,0,0:0:0:0:
64,192,7397,1,2,0:0:0:0:
448,192,7397,1,0,0:0:0:0:
64,192,7532,1,4,0:0:0:0:
320,192,7532,1,0,0:0:0:0:
192,192,7735,1,2,0:0:0:0:
448,192,7735,1,0,0:0:0:0:
64,192,7937,1,2,0:0:0:0:
320,192,7937,1,0,0:0:0:0:
192,192,8072,1,0,0:0:0:0:
320,192,8072,1,0,0:0:0:0:
192,192,8207,1,2,0:0:0:0:
448,192,8207,1,0,0:0:0:0:
64,192,8342,1,0,0:0:0:0:
192,192,8342,1,0,0:0:0:0:
64,192,8612,1,4,0:0:0:0:
320,192,8612,1,0,0:0:0:0:
448,192,8612,1,0,0:0:0:0:
64,192,8815,1,2,0:0:0:0:
192,192,8815,1,0,0:0:0:0:
192,192,9017,1,2,0:0:0:0:
448,192,9017,1,0,0:0:0:0:
320,192,9152,1,4,0:0:0:0:
192,192,9152,1,0,0:0:0:0:
448,192,9152,1,0,0:0:0:0:
64,192,9287,1,2,0:0:0:0:
320,192,9287,1,0,0:0:0:0:
192,192,9422,1,2,0:0:0:0:
320,192,9422,1,0,0:0:0:0:
192,192,9557,1,2,0:0:0:0:
448,192,9557,1,0,0:0:0:0:
64,192,9692,1,4,0:0:0:0:
192,192,9692,1,0,0:0:0:0:
448,192,9692,1,0,0:0:0:0:
320,192,9827,1,2,0:0:0:0:
64,192,9962,1,4,0:0:0:0:
192,192,9962,1,0,0:0:0:0:
448,192,9962,1,0,0:0:0:0:
320,192,10097,1,2,0:0:0:0:
64,192,10232,1,6,0:0:0:0:
192,192,10232,1,0,0:0:0:0:
448,192,10232,1,0,0:0:0:0:
320,192,10367,1,6,0:0:0:0:
64,192,10502,1,6,0:0:0:0:
192,192,10502,1,0,0:0:0:0:
448,192,10502,1,0,0:0:0:0:
320,192,10637,1,2,0:0:0:0:
64,192,10772,1,4,0:0:0:0:
320,192,10772,1,0,0:0:0:0:
448,192,10772,1,0,0:0:0:0:
192,192,10907,1,0,0:0:0:0:
64,192,11042,1,8,0:0:0:0:
320,192,11042,1,0,0:0:0:0:
448,192,11177,1,0,0:0:0:0:
320,192,11312,1,0,0:0:0:0:
192,192,11312,1,0,0:0:0:0:
64,192,11447,1,0,0:0:0:0:
192,192,11582,1,8,0:0:0:0:
448,192,11582,1,0,0:0:0:0:
448,192,11717,1,0,0:0:0:0:
64,192,11852,1,0,0:0:0:0:
320,192,11852,1,0,0:0:0:0:
192,192,11987,1,0,0:0:0:0:
320,192,12122,1,8,0:0:0:0:
448,192,12122,1,0,0:0:0:0:
192,192,12257,1,0,0:0:0:0:
64,192,12392,1,0,0:0:0:0:
192,192,12392,1,0,0:0:0:0:
448,192,12527,1,0,0:0:0:0:
320,192,12662,1,8,0:0:0:0:
192,192,12662,1,0,0:0:0:0:
448,192,12797,1,0,0:0:0:0:
64,192,12932,1,4,0:0:0:0:
192,192,12932,1,0,0:0:0:0:
448,192,12932,1,0,0:0:0:0:
320,192,13067,1,0,0:0:0:0:
192,192,13202,1,8,0:0:0:0:
448,192,13202,1,0,0:0:0:0:
64,192,13337,1,0,0:0:0:0:
192,192,13472,1,0,0:0:0:0:
320,192,13472,1,0,0:0:0:0:
320,192,13607,1,0,0:0:0:0:
192,192,13742,1,8,0:0:0:0:
448,192,13742,1,0,0:0:0:0:
64,192,13877,1,0,0:0:0:0:
320,192,14012,1,0,0:0:0:0:
448,192,14012,1,0,0:0:0:0:
192,192,14147,1,0,0:0:0:0:
64,192,14282,1,12,0:0:0:0:
320,192,14282,1,0,0:0:0:0:
448,192,14282,1,0,0:0:0:0:
64,192,14552,1,12,0:0:0:0:
320,192,14552,1,0,0:0:0:0:
448,192,14552,1,0,0:0:0:0:
64,192,14755,1,12,0:0:0:0:
320,192,14755,1,0,0:0:0:0:
448,192,14755,1,0,0:0:0:0:
64,192,14957,1,12,0:0:0:0:
320,192,14957,1,0,0:0:0:0:
448,192,14957,1,0,0:0:0:0:
64,192,15092,1,4,0:0:0:0:
320,192,15092,1,0,0:0:0:0:
448,192,15092,1,0,0:0:0:0:
192,192,15227,1,0,0:0:0:0:
320,192,15362,1,8,0:0:0:0:
448,192,15362,1,0,0:0:0:0:
64,192,15497,1,0,0:0:0:0:
192,192,15632,1,0,0:0:0:0:
448,192,15632,1,0,0:0:0:0:
320,192,15767,1,0,0:0:0:0:
192,192,15902,1,12,0:0:0:0:
448,192,15902,1,0,0:0:0:0:
64,192,16037,1,4,0:0:0:0:
320,192,16037,1,0,0:0:0:0:
192,192,16172,1,0,0:0:0:0:
320,192,16307,1,4,0:0:0:0:
448,192,16307,1,0,0:0:0:0:
64,192,16442,1,12,0:0:0:0:
192,192,16442,1,0,0:0:0:0:
448,192,16577,1,0,0:0:0:0:
320,192,16712,1,4,0:0:0:0:
192,192,16712,1,0,0:0:0:0:
64,192,16847,1,4,0:0:0:0:
448,192,16847,1,0,0:0:0:0:
192,192,16982,1,12,0:0:0:0:
320,192,16982,1,0,0:0:0:0:
448,192,17117,1,0,0:0:0:0:
64,192,17252,1,4,0:0:0:0:
192,192,17252,1,0,0:0:0:0:
320,192,17387,1,0,0:0:0:0:
192,192,17522,1,8,0:0:0:0:
448,192,17522,1,0,0:0:0:0:
320,192,17657,1,0,0:0:0:0:
192,192,17792,1,4,0:0:0:0:
448,192,17792,1,0,0:0:0:0:
64,192,17792,1,0,0:0:0:0:
320,192,17927,1,0,0:0:0:0:
192,192,18062,1,8,0:0:0:0:
64,192,18062,1,0,0:0:0:0:
448,192,18197,1,0,0:0:0:0:
320,192,18332,1,12,0:0:0:0:
192,192,18332,1,0,0:0:0:0:
64,192,18332,1,0,0:0:0:0:
448,192,18467,1,0,0:0:0:0:
64,192,18602,1,12,0:0:0:0:
320,192,18602,1,0,0:0:0:0:
448,192,18602,1,0,0:0:0:0:
192,192,18737,1,0,0:0:0:0:
320,192,18872,1,12,0:0:0:0:
448,192,18872,1,0,0:0:0:0:
64,192,18872,1,0,0:0:0:0:
192,192,18940,1,0,0:0:0:0:
320,192,19007,1,0,0:0:0:0:
448,192,19075,1,0,0:0:0:0:
64,192,19142,1,12,0:0:0:0:
320,192,19142,1,0,0:0:0:0:
448,192,19210,1,0,0:0:0:0:
192,192,19277,1,0,0:0:0:0:
320,192,19345,1,0,0:0:0:0:
192,192,19412,1,4,0:0:0:0:
64,192,19412,1,0,0:0:0:0:
448,192,19412,1,0,0:0:0:0:
320,192,19547,1,0,0:0:0:0:
192,192,19682,1,8,0:0:0:0:
64,192,19682,1,0,0:0:0:0:
448,192,19817,1,0,0:0:0:0:
320,192,19952,1,0,0:0:0:0:
192,192,19952,1,0,0:0:0:0:
192,192,20087,1,0,0:0:0:0:
192,192,20222,1,8,0:0:0:0:
448,192,20222,1,0,0:0:0:0:
320,192,20357,1,0,0:0:0:0:
64,192,20492,1,0,0:0:0:0:
192,192,20492,1,0,0:0:0:0:
448,192,20627,1,0,0:0:0:0:
192,192,20762,1,8,0:0:0:0:
320,192,20762,1,0,0:0:0:0:
64,192,20897,1,0,0:0:0:0:
192,192,21032,1,0,0:0:0:0:
448,192,21032,1,0,0:0:0:0:
448,192,21167,1,0,0:0:0:0:
320,192,21302,1,8,0:0:0:0:
192,192,21302,1,0,0:0:0:0:
64,192,21437,1,0,0:0:0:0:
192,192,21572,1,4,0:0:0:0:
320,192,21572,1,0,0:0:0:0:
448,192,21572,1,0,0:0:0:0:
64,192,21707,1,0,0:0:0:0:
192,192,21842,1,8,0:0:0:0:
320,192,21842,1,0,0:0:0:0:
448,192,21977,1,0,0:0:0:0:
320,192,22112,1,0,0:0:0:0:
64,192,22112,1,0,0:0:0:0:
192,192,22247,1,0,0:0:0:0:
448,192,22382,1,8,0:0:0:0:
320,192,22382,1,0,0:0:0:0:
64,192,22517,1,0,0:0:0:0:
192,192,22652,1,0,0:0:0:0:
448,192,22652,1,0,0:0:0:0:
320,192,22787,1,0,0:0:0:0:
64,192,22922,1,12,0:0:0:0:
192,192,22922,1,0,0:0:0:0:
320,192,22922,1,0,0:0:0:0:
64,192,23192,1,12,0:0:0:0:
192,192,23192,1,0,0:0:0:0:
320,192,23192,1,0,0:0:0:0:
64,192,23395,1,12,0:0:0:0:
320,192,23395,1,0,0:0:0:0:
192,192,23395,1,0,0:0:0:0:
64,192,23597,1,12,0:0:0:0:
192,192,23597,1,0,0:0:0:0:
320,192,23597,1,0,0:0:0:0:
64,192,23732,1,4,0:0:0:0:
192,192,23732,1,0,0:0:0:0:
320,192,23732,1,0,0:0:0:0:
448,192,23867,1,0,0:0:0:0:
192,192,24002,1,8,0:0:0:0:
320,192,24002,1,0,0:0:0:0:
192,192,24137,1,0,0:0:0:0:
192,192,24272,1,0,0:0:0:0:
448,192,24272,1,0,0:0:0:0:
320,192,24407,1,0,0:0:0:0:
192,192,24542,1,12,0:0:0:0:
448,192,24542,1,0,0:0:0:0:
64,192,24677,1,4,0:0:0:0:
320,192,24677,1,0,0:0:0:0:
448,192,24812,1,0,0:0:0:0:
320,192,24947,1,4,0:0:0:0:
192,192,24947,1,0,0:0:0:0:
64,192,25082,1,12,0:0:0:0:
448,192,25082,1,0,0:0:0:0:
192,192,25217,1,0,0:0:0:0:
320,192,25352,1,4,0:0:0:0:
448,192,25352,1,0,0:0:0:0:
192,192,25487,1,4,0:0:0:0:
64,192,25487,1,0,0:0:0:0:
320,192,25622,1,12,0:0:0:0:
448,192,25622,1,0,0:0:0:0:
64,192,25757,1,0,0:0:0:0:
448,192,25892,128,4,26162:0:0:0:0:
192,192,26162,128,8,26432:0:0:0:0:
320,192,26432,128,4,26702:0:0:0:0:
64,192,26702,128,8,26972:0:0:0:0:
448,192,26972,128,4,27242:0:0:0:0:
192,192,27242,128,12,27512:0:0:0:0:
320,192,27512,128,4,27782:0:0:0:0:
64,192,27782,128,12,28052:0:0:0:0:
448,192,28052,1,4,0:0:0:0:
448,192,28255,1,0,0:0:0:0:
448,192,28457,1,0,0:0:0:0:
64,192,28660,1,0,0:0:0:0:
64,192,28862,1,0,0:0:0:0:
64,192,28997,1,0,0:0:0:0:
320,192,29132,1,0,0:0:0:0:
320,192,29335,1,0,0:0:0:0:
320,192,29537,1,0,0:0:0:0:
192,192,29740,1,0,0:0:0:0:
192,192,29942,1,0,0:0:0:0:
192,192,30077,1,0,0:0:0:0:
448,192,30212,1,0,0:0:0:0:
448,192,30415,1,0,0:0:0:0:
448,192,30617,1,0,0:0:0:0:
320,192,30820,1,0,0:0:0:0:
320,192,31022,1,0,0:0:0:0:
320,192,31157,1,0,0:0:0:0:
64,192,31292,1,0,0:0:0:0:
64,192,31495,1,0,0:0:0:0:
64,192,31697,1,0,0:0:0:0:
192,192,31832,1,0,0:0:0:0:
320,192,31967,1,0,0:0:0:0:
448,192,32102,1,0,0:0:0:0:
320,192,32237,1,0,0:0:0:0:
192,192,32372,1,0,0:0:0:0:
192,192,32575,1,0,0:0:0:0:
192,192,32777,1,0,0:0:0:0:
320,192,32912,1,0,0:0:0:0:
320,192,33047,1,0,0:0:0:0:
448,192,33182,1,0,0:0:0:0:
448,192,33317,1,0,0:0:0:0:
192,192,33452,1,0,0:0:0:0:
192,192,33587,1,0,0:0:0:0:
448,192,33722,1,0,0:0:0:0:
448,192,33857,1,0,0:0:0:0:
64,192,33992,1,0,0:0:0:0:
64,192,34127,1,0,0:0:0:0:
320,192,34262,1,0,0:0:0:0:
320,192,34397,1,0,0:0:0:0:
64,192,34532,128,0,34802:0:0:0:0:
320,192,34802,128,0,35072:0:0:0:0:
192,192,35072,128,0,35342:0:0:0:0:
448,192,35342,128,0,35612:0:0:0:0:
64,192,35612,128,0,36152:0:0:0:0:
320,192,35815,1,0,0:0:0:0:
320,192,36017,1,0,0:0:0:0:
192,192,36152,1,0,0:0:0:0:
320,192,36287,1,0,0:0:0:0:
192,192,36422,1,0,0:0:0:0:
320,192,36557,1,0,0:0:0:0:
64,192,36692,1,4,0:0:0:0:
448,192,36692,1,0,0:0:0:0:
64,192,37772,1,0,0:0:0:0:
192,192,37772,1,0,0:0:0:0:
320,192,38717,1,0,0:0:0:0:
192,192,38785,1,0,0:0:0:0:
64,192,38852,1,4,0:0:0:0:
448,192,38852,1,0,0:0:0:0:
64,192,39932,1,0,0:0:0:0:
320,192,39932,1,0,0:0:0:0:
192,192,40202,1,0,0:0:0:0:
448,192,40202,1,0,0:0:0:0:
64,192,40472,1,0,0:0:0:0:
192,192,40472,1,0,0:0:0:0:
320,192,40742,1,0,0:0:0:0:
448,192,40742,1,0,0:0:0:0:
64,192,41012,1,4,0:0:0:0:
448,192,41012,1,0,0:0:0:0:
320,192,41957,1,0,0:0:0:0:
192,192,42025,1,0,0:0:0:0:
64,192,42092,1,4,0:0:0:0:
448,192,42092,1,0,0:0:0:0:
192,192,42632,1,4,0:0:0:0:
320,192,42632,1,0,0:0:0:0:
64,192,43172,1,4,0:0:0:0:
448,192,43172,1,0,0:0:0:0:
64,192,43712,1,4,0:0:0:0:
320,192,43712,1,0,0:0:0:0:
192,192,43982,1,4,0:0:0:0:
448,192,43982,1,0,0:0:0:0:
320,192,44252,1,4,0:0:0:0:
192,192,44252,1,0,0:0:0:0:
64,192,44522,1,4,0:0:0:0:
192,192,44522,1,0,0:0:0:0:
320,192,44792,1,4,0:0:0:0:
448,192,44792,1,0,0:0:0:0:
64,192,45062,1,4,0:0:0:0:
192,192,45062,1,0,0:0:0:0:
320,192,45197,1,0,0:0:0:0:
448,192,45265,1,0,0:0:0:0:
320,192,45332,1,4,0:0:0:0:
192,192,45332,1,0,0:0:0:0:
64,192,45467,1,0,0:0:0:0:
192,192,45602,1,0,0:0:0:0:
448,192,45602,1,0,0:0:0:0:
320,192,45737,1,0,0:0:0:0:
448,192,45872,1,4,0:0:0:0:
192,192,45872,1,0,0:0:0:0:
64,192,46007,1,0,0:0:0:0:
64,192,46142,1,0,0:0:0:0:
192,192,46142,1,0,0:0:0:0:
448,192,46277,1,0,0:0:0:0:
64,192,46412,1,4,0:0:0:0:
320,192,46412,1,0,0:0:0:0:
192,192,46480,1,0,0:0:0:0:
320,192,46547,1,0,0:0:0:0:
448,192,46615,1,0,0:0:0:0:
64,192,46682,1,4,0:0:0:0:
192,192,46750,1,0,0:0:0:0:
320,192,46817,1,0,0:0:0:0:
448,192,46885,1,0,0:0:0:0:
320,192,46952,1,4,0:0:0:0:
64,192,46952,1,0,0:0:0:0:
448,192,47020,1,0,0:0:0:0:
192,192,47087,1,0,0:0:0:0:
320,192,47155,1,0,0:0:0:0:
192,192,47222,1,4,0:0:0:0:
448,192,47290,1,0,0:0:0:0:
64,192,47357,1,0,0:0:0:0:
192,192,47425,1,0,0:0:0:0:
64,192,47492,1,4,0:0:0:0:
320,192,47492,1,0,0:0:0:0:
448,192,47627,1,0,0:0:0:0:
320,192,47762,1,8,0:0:0:0:
192,192,47762,1,0,0:0:0:0:
64,192,47897,1,0,0:0:0:0:
192,192,48032,1,0,0:0:0:0:
448,192,48032,1,0,0:0:0:0:
320,192,48167,1,0,0:0:0:0:
192,192,48302,1,8,0:0:0:0:
448,192,48302,1,0,0:0:0:0:
192,192,48437,1,0,0:0:0:0:
64,192,48572,1,0,0:0:0:0:
320,192,48572,1,0,0:0:0:0:
448,192,48707,1,0,0:0:0:0:
320,192,48842,1,8,0:0:0:0:
192,192,48842,1,0,0:0:0:0:
64,192,48977,1,0,0:0:0:0:
192,192,49112,1,0,0:0:0:0:
448,192,49112,1,0,0:0:0:0:
320,192,49247,1,0,0:0:0:0:
192,192,49382,1,8,0:0:0:0:
64,192,49382,1,0,0:0:0:0:
320,192,49517,1,0,0:0:0:0:
192,192,49652,1,0,0:0:0:0:
448,192,49652,1,0,0:0:0:0:
320,192,49787,1,0,0:0:0:0:
64,192,49922,1,8,0:0:0:0:
192,192,49922,1,0,0:0:0:0:
448,192,50057,1,0,0:0:0:0:
192,192,50192,1,0,0:0:0:0:
64,192,50192,1,0,0:0:0:0:
320,192,50327,1,0,0:0:0:0:
64,192,50462,1,8,0:0:0:0:
192,192,50462,1,0,0:0:0:0:
320,192,50597,1,0,0:0:0:0:
192,192,50732,1,0,0:0:0:0:
448,192,50732,1,0,0:0:0:0:
320,192,50867,1,0,0:0:0:0:
64,192,51002,1,8,0:0:0:0:
448,192,51002,1,0,0:0:0:0:
192,192,51137,1,0,0:0:0:0:
320,192,51272,1,0,0:0:0:0:
448,192,51272,1,0,0:0:0:0:
192,192,51407,1,0,0:0:0:0:
320,192,51542,1,8,0:0:0:0:
448,192,51542,1,0,0:0:0:0:
192,192,51677,1,0,0:0:0:0:
64,192,51812,1,0,0:0:0:0:
320,192,51812,1,0,0:0:0:0:
448,192,51947,1,0,0:0:0:0:
320,192,52082,1,8,0:0:0:0:
192,192,52082,1,0,0:0:0:0:
64,192,52217,1,0,0:0:0:0:
192,192,52352,1,0,0:0:0:0:
320,192,52352,1,0,0:0:0:0:
448,192,52487,1,0,0:0:0:0:
320,192,52622,1,8,0:0:0:0:
64,192,52622,1,0,0:0:0:0:
192,192,52757,1,0,0:0:0:0:
64,192,52892,1,0,0:0:0:0:
320,192,52892,1,0,0:0:0:0:
448,192,53027,1,0,0:0:0:0:
320,192,53162,1,8,0:0:0:0:
64,192,53162,1,0,0:0:0:0:
192,192,53297,1,0,0:0:0:0:
320,192,53432,1,0,0:0:0:0:
448,192,53432,1,0,0:0:0:0:
192,192,53567,1,0,0:0:0:0:
320,192,53702,1,8,0:0:0:0:
448,192,53702,1,0,0:0:0:0:
64,192,53837,1,0,0:0:0:0:
192,192,53972,1,0,0:0:0:0:
448,192,53972,1,0,0:0:0:0:
320,192,54107,1,0,0:0:0:0:
192,192,54242,1,8,0:0:0:0:
64,192,54242,1,0,0:0:0:0:
320,192,54377,1,0,0:0:0:0:
448,192,54512,1,0,0:0:0:0:
192,192,54512,1,0,0:0:0:0:
320,192,54647,1,0,0:0:0:0:
64,192,54782,1,8,0:0:0:0:
192,192,54782,1,0,0:0:0:0:
448,192,54917,1,0,0:0:0:0:
64,192,55052,1,0,0:0:0:0:
320,192,55052,1,0,0:0:0:0:
192,192,55187,1,0,0:0:0:0:
64,192,55322,1,12,0:0:0:0:
320,192,55322,1,0,0:0:0:0:
448,192,55322,1,0,0:0:0:0:
192,192,55457,1,0,0:0:0:0:
64,192,55592,1,12,0:0:0:0:
320,192,55592,1,0,0:0:0:0:
448,192,55592,1,0,0:0:0:0:
192,192,55727,1,0,0:0:0:0:
64,192,55862,1,12,0:0:0:0:
320,192,55862,1,0,0:0:0:0:
448,192,55862,1,0,0:0:0:0:
192,192,55997,1,0,0:0:0:0:
320,192,56132,1,4,0:0:0:0:
448,192,56132,128,0,56537:0:0:0:0:
64,192,56402,1,8,0:0:0:0:
192,192,56537,1,0,0:0:0:0:
320,192,56672,1,0,0:0:0:0:
448,192,56672,1,0,0:0:0:0:
64,192,56807,1,0,0:0:0:0:
192,192,56942,1,8,0:0:0:0:
320,192,56942,1,0,0:0:0:0:
448,192,57077,1,0,0:0:0:0:
64,192,57212,1,0,0:0:0:0:
192,192,57212,1,0,0:0:0:0:
448,192,57347,1,0,0:0:0:0:
320,192,57482,1,8,0:0:0:0:
192,192,57482,1,0,0:0:0:0:
64,192,57617,1,0,0:0:0:0:
192,192,57752,1,0,0:0:0:0:
448,192,57752,1,0,0:0:0:0:
320,192,57887,1,0,0:0:0:0:
64,192,58022,1,8,0:0:0:0:
448,192,58022,1,0,0:0:0:0:
320,192,58157,1,0,0:0:0:0:
192,192,58292,1,0,0:0:0:0:
448,192,58292,1,0,0:0:0:0:
64,192,58427,1,0,0:0:0:0:
192,192,58562,1,8,0:0:0:0:
320,192,58562,1,0,0:0:0:0:
448,192,58697,1,0,0:0:0:0:
320,192,58832,1,0,0:0:0:0:
64,192,58832,1,0,0:0:0:0:
192,192,58967,1,0,0:0:0:0:
64,192,59102,1,8,0:0:0:0:
448,192,59102,1,0,0:0:0:0:
320,192,59237,1,0,0:0:0:0:
192,192,59372,1,0,0:0:0:0:
448,192,59372,1,0,0:0:0:0:
64,192,59507,1,0,0:0:0:0:
192,192,59642,1,8,0:0:0:0:
320,192,59642,1,0,0:0:0:0:
448,192,59777,1,0,0:0:0:0:
320,192,59912,1,0,0:0:0:0:
64,192,59912,1,0,0:0:0:0:
448,192,60047,1,0,0:0:0:0:
192,192,60182,1,8,0:0:0:0:
64,192,60182,1,0,0:0:0:0:
320,192,60317,1,0,0:0:0:0:
192,192,60452,1,0,0:0:0:0:
448,192,60452,1,0,0:0:0:0:
64,192,60587,1,0,0:0:0:0:
192,192,60722,1,8,0:0:0:0:
320,192,60722,1,0,0:0:0:0:
448,192,60857,1,0,0:0:0:0:
320,192,60992,1,0,0:0:0:0:
64,192,60992,1,0,0:0:0:0:
192,192,61127,1,0,0:0:0:0:
320,192,61262,1,8,0:0:0:0:
448,192,61262,1,0,0:0:0:0:
192,192,61397,1,0,0:0:0:0:
64,192,61532,1,0,0:0:0:0:
320,192,61532,1,0,0:0:0:0:
448,192,61667,1,0,0:0:0:0:
192,192,61802,1,8,0:0:0:0:
64,192,61802,1,0,0:0:0:0:
448,192,61937,1,0,0:0:0:0:
320,192,62072,1,0,0:0:0:0:
192,192,62072,1,0,0:0:0:0:
64,192,62207,1,0,0:0:0:0:
192,192,62342,1,8,0:0:0:0:
448,192,62342,1,0,0:0:0:0:
320,192,62477,1,0,0:0:0:0:
64,192,62612,1,0,0:0:0:0:
192,192,62612,1,0,0:0:0:0:
320,192,62747,1,0,0:0:0:0:
448,192,62747,1,0,0:0:0:0:
192,192,62882,1,8,0:0:0:0:
64,192,62882,1,0,0:0:0:0:
320,192,63017,1,0,0:0:0:0:
448,192,63017,1,0,0:0:0:0:
64,192,63152,1,0,0:0:0:0:
320,192,63152,1,0,0:0:0:0:
192,192,63287,1,0,0:0:0:0:
448,192,63287,1,0,0:0:0:0:
64,192,63422,1,8,0:0:0:0:
320,192,63422,1,0,0:0:0:0:
192,192,63557,1,0,0:0:0:0:
448,192,63557,1,0,0:0:0:0:
64,192,63692,1,8,0:0:0:0:
448,192,63692,1,0,0:0:0:0:
192,192,63827,1,0,0:0:0:0:
320,192,63827,1,0,0:0:0:0:
64,192,63962,1,12,0:0:0:0:
448,192,63962,1,0,0:0:0:0:
192,192,64097,1,0,0:0:0:0:
320,192,64097,1,0,0:0:0:0:
64,192,64232,1,4,0:0:0:0:
448,192,64367,1,0,0:0:0:0:
192,192,64502,1,12,0:0:0:0:
320,192,64637,1,0,0:0:0:0:
64,192,64772,1,6,0:0:0:0:
192,192,64772,1,0,0:0:0:0:
448,192,64772,1,0,0:0:0:0:
320,192,64840,1,0,0:0:0:0:
192,192,64907,1,0,0:0:0:0:
448,192,64975,1,2,0:0:0:0:
192,192,65042,1,8,0:0:0:0:
320,192,65110,1,0,0:0:0:0:
64,192,65177,1,2,0:0:0:0:
320,192,65245,1,0,0:0:0:0:
192,192,65312,1,0,0:0:0:0:
448,192,65380,1,2,0:0:0:0:
192,192,65447,1,0,0:0:0:0:
320,192,65515,1,0,0:0:0:0:
448,192,65582,1,10,0:0:0:0:
64,192,65650,1,0,0:0:0:0:
320,192,65717,1,2,0:0:0:0:
192,192,65785,1,0,0:0:0:0:
448,192,65852,1,2,0:0:0:0:
320,192,65920,1,0,0:0:0:0:
192,192,65987,1,0,0:0:0:0:
448,192,66055,1,2,0:0:0:0:
64,192,66122,1,8,0:0:0:0:
320,192,66190,1,0,0:0:0:0:
192,192,66257,1,2,0:0:0:0:
320,192,66325,1,0,0:0:0:0:
448,192,66392,1,0,0:0:0:0:
192,192,66460,1,2,0:0:0:0:
64,192,66527,1,0,0:0:0:0:
320,192,66595,1,0,0:0:0:0:
192,192,66662,1,10,0:0:0:0:
448,192,66730,1,0,0:0:0:0:
320,192,66797,1,2,0:0:0:0:
192,192,66865,1,0,0:0:0:0:
64,192,66932,1,2,0:0:0:0:
192,192,67000,1,0,0:0:0:0:
64,192,67067,1,0,0:0:0:0:
448,192,67135,1,2,0:0:0:0:
320,192,67202,1,8,0:0:0:0:
64,192,67270,1,0,0:0:0:0:
192,192,67337,1,2,0:0:0:0:
320,192,67405,1,0,0:0:0:0:
192,192,67472,1,0,0:0:0:0:
448,192,67540,1,2,0:0:0:0:
320,192,67607,1,0,0:0:0:0:
192,192,67675,1,0,0:0:0:0:
64,192,67742,1,10,0:0:0:0:
320,192,67810,1,0,0:0:0:0:
192,192,67877,1,2,0:0:0:0:
448,192,67945,1,0,0:0:0:0:
320,192,68012,1,2,0:0:0:0:
192,192,68080,1,0,0:0:0:0:
64,192,68147,1,2,0:0:0:0:
320,192,68215,1,0,0:0:0:0:
64,192,68282,1,8,0:0:0:0:
192,192,68282,1,0,0:0:0:0:
192,192,68417,1,2,0:0:0:0:
320,192,68417,1,0,0:0:0:0:
320,192,68552,1,0,0:0:0:0:
448,192,68552,1,0,0:0:0:0:
192,192,68687,1,2,0:0:0:0:
448,192,68687,1,0,0:0:0:0:
192,192,68822,1,8,0:0:0:0:
320,192,68822,1,0,0:0:0:0:
64,192,68957,1,2,0:0:0:0:
320,192,68957,1,0,0:0:0:0:
64,192,69092,1,2,0:0:0:0:
192,192,69092,1,0,0:0:0:0:
320,192,69160,1,0,0:0:0:0:
192,192,69227,1,0,0:0:0:0:
448,192,69295,1,2,0:0:0:0:
320,192,69362,1,8,0:0:0:0:
64,192,69430,1,0,0:0:0:0:
192,192,69497,1,2,0:0:0:0:
320,192,69565,1,0,0:0:0:0:
192,192,69632,1,2,0:0:0:0:
448,192,69632,1,0,0:0:0:0:
192,192,69767,1,0,0:0:0:0:
448,192,69767,1,0,0:0:0:0:
64,192,69902,1,10,0:0:0:0:
320,192,69902,1,0,0:0:0:0:
64,192,70037,1,0,0:0:0:0:
320,192,70037,1,0,0:0:0:0:
192,192,70172,1,2,0:0:0:0:
320,192,70172,1,0,0:0:0:0:
192,192,70307,1,0,0:0:0:0:
320,192,70307,1,0,0:0:0:0:
448,192,70442,1,10,0:0:0:0:
64,192,70442,1,0,0:0:0:0:
64,192,70577,1,0,0:0:0:0:
448,192,70577,1,0,0:0:0:0:
320,192,70712,1,2,0:0:0:0:
448,192,70712,1,0,0:0:0:0:
320,192,70847,1,0,0:0:0:0:
448,192,70847,1,0,0:0:0:0:
64,192,70982,1,10,0:0:0:0:
192,192,70982,1,0,0:0:0:0:
64,192,71117,1,0,0:0:0:0:
192,192,71117,1,0,0:0:0:0:
192,192,71252,1,2,0:0:0:0:
448,192,71252,1,0,0:0:0:0:
320,192,71320,1,0,0:0:0:0:
192,192,71387,1,0,0:0:0:0:
64,192,71455,1,0,0:0:0:0:
192,192,71522,1,10,0:0:0:0:
64,192,71590,1,0,0:0:0:0:
448,192,71657,1,0,0:0:0:0:
320,192,71725,1,0,0:0:0:0:
64,192,71792,1,2,0:0:0:0:
192,192,71860,1,0,0:0:0:0:
320,192,71927,1,0,0:0:0:0:
192,192,71995,1,0,0:0:0:0:
448,192,72062,1,10,0:0:0:0:
320,192,72130,1,0,0:0:0:0:
64,192,72197,1,0,0:0:0:0:
192,192,72265,1,2,0:0:0:0:
320,192,72332,1,2,0:0:0:0:
448,192,72400,1,0,0:0:0:0:
320,192,72467,1,0,0:0:0:0:
192,192,72535,1,2,0:0:0:0:
64,192,72602,1,12,0:0:0:0:
320,192,72602,1,0,0:0:0:0:
448,192,72602,1,0,0:0:0:0:
64,192,72872,1,12,0:0:0:0:
192,192,72872,1,0,0:0:0:0:
320,192,72872,1,0,0:0:0:0:
192,192,73142,1,14,0:0:0:0:
320,192,73142,1,0,0:0:0:0:
448,192,73142,1,0,0:0:0:0:
64,192,73412,1,6,0:0:0:0:
448,192,73412,1,0,0:0:0:0:
192,192,73412,1,0,0:0:0:0:
320,192,73547,1,0,0:0:0:0:
192,192,73682,1,10,0:0:0:0:
448,192,73682,1,0,0:0:0:0:
64,192,73817,1,0,0:0:0:0:
192,192,73952,1,2,0:0:0:0:
320,192,73952,1,0,0:0:0:0:
448,192,74087,1,0,0:0:0:0:
320,192,74222,1,10,0:0:0:0:
64,192,74222,1,0,0:0:0:0:
192,192,74357,1,0,0:0:0:0:
320,192,74492,1,2,0:0:0:0:
448,192,74492,1,0,0:0:0:0:
192,192,74582,1,2,0:0:0:0:
64,192,74672,1,2,0:0:0:0:
192,192,74762,1,10,0:0:0:0:
448,192,74762,1,0,0:0:0:0:
320,192,74897,1,0,0:0:0:0:
64,192,75032,1,2,0:0:0:0:
192,192,75032,1,0,0:0:0:0:
320,192,75100,1,0,0:0:0:0:
448,192,75167,1,0,0:0:0:0:
320,192,75235,1,2,0:0:0:0:
192,192,75302,1,8,0:0:0:0:
448,192,75302,1,0,0:0:0:0:
64,192,75437,1,2,0:0:0:0:
192,192,75572,1,2,0:0:0:0:
320,192,75572,1,0,0:0:0:0:
448,192,75640,1,0,0:0:0:0:
320,192,75707,1,0,0:0:0:0:
64,192,75775,1,0,0:0:0:0:
192,192,75842,1,10,0:0:0:0:
320,192,75910,1,0,0:0:0:0:
192,192,75977,1,0,0:0:0:0:
448,192,76045,1,0,0:0:0:0:
320,192,76112,1,0,0:0:0:0:
192,192,76180,1,0,0:0:0:0:
64,192,76247,1,0,0:0:0:0:
320,192,76315,1,0,0:0:0:0:
192,192,76382,1,10,0:0:0:0:
448,192,76450,1,0,0:0:0:0:
320,192,76517,1,0,0:0:0:0:
192,192,76585,1,0,0:0:0:0:
64,192,76652,1,2,0:0:0:0:
320,192,76652,1,0,0:0:0:0:
64,192,76787,1,0,0:0:0:0:
320,192,76787,1,0,0:0:0:0:
192,192,76922,1,10,0:0:0:0:
448,192,76922,1,0,0:0:0:0:
192,192,77057,1,0,0:0:0:0:
448,192,77057,1,0,0:0:0:0:
192,192,77192,1,2,0:0:0:0:
320,192,77192,1,0,0:0:0:0:
64,192,77327,1,0,0:0:0:0:
448,192,77327,1,0,0:0:0:0:
192,192,77462,1,10,0:0:0:0:
320,192,77462,1,0,0:0:0:0:
64,192,77597,1,0,0:0:0:0:
448,192,77597,1,0,0:0:0:0:
192,192,77732,1,2,0:0:0:0:
448,192,77732,1,0,0:0:0:0:
320,192,77800,1,0,0:0:0:0:
192,192,77867,1,0,0:0:0:0:
448,192,77935,1,2,0:0:0:0:
320,192,78002,1,8,0:0:0:0:
192,192,78070,1,0,0:0:0:0:
64,192,78137,1,2,0:0:0:0:
192,192,78205,1,0,0:0:0:0:
320,192,78272,1,2,0:0:0:0:
64,192,78340,1,0,0:0:0:0:
192,192,78407,1,0,0:0:0:0:
448,192,78475,1,2,0:0:0:0:
320,192,78542,1,8,0:0:0:0:
192,192,78610,1,0,0:0:0:0:
320,192,78677,1,2,0:0:0:0:
64,192,78745,1,0,0:0:0:0:
192,192,78812,1,2,0:0:0:0:
320,192,78880,1,0,0:0:0:0:
64,192,78947,1,0,0:0:0:0:
192,192,79015,1,0,0:0:0:0:
448,192,79082,1,10,0:0:0:0:
320,192,79150,1,0,0:0:0:0:
192,192,79217,1,0,0:0:0:0:
320,192,79285,1,0,0:0:0:0:
448,192,79352,1,2,0:0:0:0:
64,192,79352,1,0,0:0:0:0:
64,192,79555,1,2,0:0:0:0:
320,192,79555,1,0,0:0:0:0:
192,192,79757,1,2,0:0:0:0:
448,192,79757,1,0,0:0:0:0:
64,192,79892,1,2,0:0:0:0:
320,192,79892,1,0,0:0:0:0:
192,192,79960,1,0,0:0:0:0:
320,192,80027,1,0,0:0:0:0:
448,192,80095,1,2,0:0:0:0:
192,192,80162,1,8,0:0:0:0:
320,192,80230,1,0,0:0:0:0:
192,192,80297,1,2,0:0:0:0:
64,192,80365,1,0,0:0:0:0:
320,192,80432,1,2,0:0:0:0:
448,192,80500,1,0,0:0:0:0:
192,192,80567,1,2,0:0:0:0:
320,192,80635,1,0,0:0:0:0:
192,192,80702,1,10,0:0:0:0:
64,192,80770,1,0,0:0:0:0:
320,192,80837,1,0,0:0:0:0:
192,192,80905,1,0,0:0:0:0:
320,192,80972,1,14,0:0:0:0:
64,192,80972,1,0,0:0:0:0:
192,192,81107,1,0,0:0:0:0:
320,192,81242,1,14,0:0:0:0:
448,192,81242,1,0,0:0:0:0:
320,192,81377,1,0,0:0:0:0:
64,192,81512,1,14,0:0:0:0:
320,192,81512,1,0,0:0:0:0:
192,192,81647,1,0,0:0:0:0:
448,192,81782,1,14,0:0:0:0:
64,192,81782,1,0,0:0:0:0:
320,192,81917,1,0,0:0:0:0:
192,192,82052,1,14,0:0:0:0:
64,192,82052,1,0,0:0:0:0:
320,192,82187,1,0,0:0:0:0:
448,192,82322,1,0,0:0:0:0:
320,192,82457,1,0,0:0:0:0:
192,192,82592,1,0,0:0:0:0:
448,192,82592,1,0,0:0:0:0:
64,192,82727,1,0,0:0:0:0:
320,192,82862,1,0,0:0:0:0:
192,192,82997,1,0,0:0:0:0:
320,192,83132,1,0,0:0:0:0:
64,192,83132,1,0,0:0:0:0:
448,192,83267,1,0,0:0:0:0:
64,192,83402,1,0,0:0:0:0:
192,192,83537,1,0,0:0:0:0:
320,192,83672,1,0,0:0:0:0:
448,192,83672,1,0,0:0:0:0:
192,192,83807,1,0,0:0:0:0:
320,192,83942,1,0,0:0:0:0:
448,192,84077,1,0,0:0:0:0:
192,192,84212,1,0,0:0:0:0:
320,192,84212,1,0,0:0:0:0:
64,192,84347,1,0,0:0:0:0:
192,192,84482,1,0,0:0:0:0:
320,192,84617,1,0,0:0:0:0:
448,192,84752,1,0,0:0:0:0:
64,192,84752,1,0,0:0:0:0:
192,192,84887,1,0,0:0:0:0:
320,192,85022,1,0,0:0:0:0:
192,192,85157,1,0,0:0:0:0:
64,192,85292,1,0,0:0:0:0:
320,192,85292,1,0,0:0:0:0:
192,192,85427,1,0,0:0:0:0:
320,192,85562,1,0,0:0:0:0:
448,192,85562,1,0,0:0:0:0:
64,192,85697,1,0,0:0:0:0:
320,192,85832,1,0,0:0:0:0:
448,192,85832,1,0,0:0:0:0:
64,192,85967,1,0,0:0:0:0:
320,192,86102,1,0,0:0:0:0:
192,192,86102,1,0,0:0:0:0:
448,192,86237,1,0,0:0:0:0:
64,192,86372,1,0,0:0:0:0:
320,192,86372,1,0,0:0:0:0:
192,192,86507,1,0,0:0:0:0:
320,192,86642,1,0,0:0:0:0:
64,192,86777,1,0,0:0:0:0:
192,192,86912,1,0,0:0:0:0:
448,192,86912,1,0,0:0:0:0:
320,192,87047,1,0,0:0:0:0:
192,192,87182,1,0,0:0:0:0:
64,192,87317,1,0,0:0:0:0:
192,192,87452,1,0,0:0:0:0:
320,192,87452,1,0,0:0:0:0:
448,192,87587,1,0,0:0:0:0:
320,192,87722,1,0,0:0:0:0:
192,192,87857,1,0,0:0:0:0:
64,192,87992,1,0,0:0:0:0:
448,192,87992,1,0,0:0:0:0:
320,192,88127,1,0,0:0:0:0:
448,192,88262,1,0,0:0:0:0:
192,192,88397,1,0,0:0:0:0:
320,192,88532,1,0,0:0:0:0:
448,192,88532,1,0,0:0:0:0:
192,192,88667,1,0,0:0:0:0:
64,192,88802,1,0,0:0:0:0:
320,192,88937,1,0,0:0:0:0:
192,192,89072,1,0,0:0:0:0:
448,192,89072,1,0,0:0:0:0:
320,192,89207,1,0,0:0:0:0:
192,192,89342,1,0,0:0:0:0:
64,192,89477,1,0,0:0:0:0:
448,192,89612,1,0,0:0:0:0:
320,192,89612,1,0,0:0:0:0:
192,192,89747,1,0,0:0:0:0:
64,192,89882,1,0,0:0:0:0:
320,192,89882,1,0,0:0:0:0:
448,192,90017,1,0,0:0:0:0:
448,192,90152,1,0,0:0:0:0:
320,192,90152,1,0,0:0:0:0:
64,192,90287,1,0,0:0:0:0:
192,192,90422,1,0,0:0:0:0:
320,192,90422,1,0,0:0:0:0:
320,192,90557,1,0,0:0:0:0:
192,192,90692,1,0,0:0:0:0:
448,192,90692,1,0,0:0:0:0:
320,192,90827,1,0,0:0:0:0:
320,192,91097,1,0,0:0:0:0:
320,192,91367,1,0,0:0:0:0:
320,192,91637,1,0,0:0:0:0:
320,192,91907,1,0,0:0:0:0:
320,192,92177,1,0,0:0:0:0:
320,192,92447,1,0,0:0:0:0:
320,192,92717,1,0,0:0:0:0:
448,192,92852,1,0,0:0:0:0:
64,192,92852,1,0,0:0:0:0:
192,192,92987,1,0,0:0:0:0:
192,192,93257,1,0,0:0:0:0:
192,192,93527,1,0,0:0:0:0:
192,192,93797,1,0,0:0:0:0:
192,192,94067,1,0,0:0:0:0:
192,192,94337,1,0,0:0:0:0:
192,192,94607,1,0,0:0:0:0:
192,192,94877,1,0,0:0:0:0:
320,192,95012,1,0,0:0:0:0:
448,192,95012,1,0,0:0:0:0:
64,192,95147,1,0,0:0:0:0:
64,192,95417,1,0,0:0:0:0:
64,192,95687,1,0,0:0:0:0:
64,192,95957,1,0,0:0:0:0:
192,192,96092,1,0,0:0:0:0:
320,192,96092,1,0,0:0:0:0:
448,192,96227,1,0,0:0:0:0:
448,192,96497,1,0,0:0:0:0:
192,192,96632,1,0,0:0:0:0:
320,192,96632,1,0,0:0:0:0:
64,192,96767,1,0,0:0:0:0:
64,192,97037,1,0,0:0:0:0:
192,192,97172,1,0,0:0:0:0:
320,192,97172,1,0,0:0:0:0:
448,192,97307,1,0,0:0:0:0:
320,192,97442,1,0,0:0:0:0:
192,192,97442,1,0,0:0:0:0:
64,192,97577,1,0,0:0:0:0:
192,192,97712,1,0,0:0:0:0:
320,192,97712,1,0,0:0:0:0:
448,192,97847,1,0,0:0:0:0:
320,192,97982,1,0,0:0:0:0:
192,192,97982,1,0,0:0:0:0:
64,192,98117,1,0,0:0:0:0:
192,192,98252,1,0,0:0:0:0:
448,192,98252,128,0,99332:0:0:0:0:
64,192,98252,1,0,0:0:0:0:
64,192,98522,1,0,0:0:0:0:
64,192,98792,1,0,0:0:0:0:
64,192,99062,1,0,0:0:0:0:
192,192,99332,128,0,100412:0:0:0:0:
320,192,99332,1,0,0:0:0:0:
320,192,99602,1,0,0:0:0:0:
320,192,99872,1,0,0:0:0:0:
320,192,100142,1,0,0:0:0:0:
448,192,100412,128,0,101492:0:0:0:0:
64,192,100412,1,0,0:0:0:0:
64,192,100682,1,0,0:0:0:0:
64,192,100952,1,0,0:0:0:0:
64,192,101222,1,0,0:0:0:0:
64,192,101492,128,0,102572:0:0:0:0:
320,192,101492,1,0,0:0:0:0:
320,192,101762,1,0,0:0:0:0:
320,192,102032,1,0,0:0:0:0:
320,192,102302,1,0,0:0:0:0:
448,192,102572,1,0,0:0:0:0:
320,192,102640,1,0,0:0:0:0:
192,192,102707,1,0,0:0:0:0:
64,192,102775,1,0,0:0:0:0:
448,192,102842,1,0,0:0:0:0:
320,192,102910,1,0,0:0:0:0:
192,192,102977,1,0,0:0:0:0:
64,192,103045,1,0,0:0:0:0:
448,192,103112,1,0,0:0:0:0:
320,192,103180,1,0,0:0:0:0:
192,192,103247,1,0,0:0:0:0:
64,192,103315,1,0,0:0:0:0:
448,192,103382,1,0,0:0:0:0:
320,192,103450,1,0,0:0:0:0:
192,192,103517,1,0,0:0:0:0:
64,192,103585,1,0,0:0:0:0:
192,192,103652,1,0,0:0:0:0:
320,192,103652,1,0,0:0:0:0:
448,192,103720,1,0,0:0:0:0:
192,192,103787,1,0,0:0:0:0:
320,192,103855,1,0,0:0:0:0:
64,192,103922,1,0,0:0:0:0:
448,192,103990,1,0,0:0:0:0:
192,192,104057,1,0,0:0:0:0:
320,192,104125,1,0,0:0:0:0:
64,192,104192,1,0,0:0:0:0:
448,192,104260,1,0,0:0:0:0:
192,192,104327,1,0,0:0:0:0:
320,192,104395,1,0,0:0:0:0:
64,192,104462,1,0,0:0:0:0:
448,192,104530,1,0,0:0:0:0:
192,192,104597,1,0,0:0:0:0:
320,192,104665,1,0,0:0:0:0:
448,192,104732,1,0,0:0:0:0:
64,192,104732,1,0,0:0:0:0:
320,192,104800,1,0,0:0:0:0:
192,192,104867,1,0,0:0:0:0:
320,192,104935,1,0,0:0:0:0:
64,192,105002,1,0,0:0:0:0:
192,192,105070,1,0,0:0:0:0:
448,192,105137,1,0,0:0:0:0:
320,192,105205,1,0,0:0:0:0:
192,192,105272,1,0,0:0:0:0:
320,192,105340,1,0,0:0:0:0:
64,192,105407,1,0,0:0:0:0:
192,192,105475,1,0,0:0:0:0:
320,192,105542,1,0,0:0:0:0:
448,192,105610,1,0,0:0:0:0:
192,192,105677,1,0,0:0:0:0:
320,192,105745,1,0,0:0:0:0:
64,192,105812,1,0,0:0:0:0:
192,192,105812,1,0,0:0:0:0:
448,192,105880,1,0,0:0:0:0:
320,192,105947,1,0,0:0:0:0:
192,192,106015,1,0,0:0:0:0:
64,192,106082,1,0,0:0:0:0:
448,192,106150,1,0,0:0:0:0:
320,192,106217,1,0,0:0:0:0:
192,192,106285,1,0,0:0:0:0:
64,192,106352,1,0,0:0:0:0:
448,192,106352,1,0,0:0:0:0:
192,192,106420,1,0,0:0:0:0:
320,192,106487,1,0,0:0:0:0:
448,192,106555,1,0,0:0:0:0:
320,192,106622,1,0,0:0:0:0:
192,192,106690,1,0,0:0:0:0:
320,192,106757,1,0,0:0:0:0:
192,192,106825,1,0,0:0:0:0:
64,192,106892,128,0,107702:0:0:0:0:
448,192,106892,128,0,107702:0:0:0:0:
64,192,107972,1,0,0:0:0:0:
448,192,107972,1,0,0:0:0:0:
320,192,108040,1,0,0:0:0:0:
192,192,108107,1,0,0:0:0:0:
64,192,108175,1,2,0:0:0:0:
192,192,108242,1,0,0:0:0:0:
448,192,108310,1,0,0:0:0:0:
320,192,108377,1,0,0:0:0:0:
192,192,108445,1,0,0:0:0:0:
64,192,108512,1,0,0:0:0:0:
192,192,108580,1,2,0:0:0:0:
320,192,108647,1,0,0:0:0:0:
192,192,108715,1,0,0:0:0:0:
448,192,108782,1,0,0:0:0:0:
320,192,108850,1,0,0:0:0:0:
192,192,108917,1,0,0:0:0:0:
64,192,108985,1,0,0:0:0:0:
320,192,109052,1,0,0:0:0:0:
192,192,109120,1,0,0:0:0:0:
448,192,109187,1,0,0:0:0:0:
320,192,109255,1,2,0:0:0:0:
64,192,109322,1,0,0:0:0:0:
192,192,109390,1,0,0:0:0:0:
320,192,109457,1,0,0:0:0:0:
448,192,109525,1,0,0:0:0:0:
320,192,109592,1,0,0:0:0:0:
64,192,109660,1,2,0:0:0:0:
192,192,109727,1,0,0:0:0:0:
320,192,109795,1,0,0:0:0:0:
192,192,109862,1,0,0:0:0:0:
448,192,109930,1,0,0:0:0:0:
320,192,109997,1,0,0:0:0:0:
192,192,110065,1,0,0:0:0:0:
64,192,110132,1,0,0:0:0:0:
320,192,110200,1,0,0:0:0:0:
192,192,110267,1,0,0:0:0:0:
64,192,110335,1,2,0:0:0:0:
448,192,110402,1,0,0:0:0:0:
320,192,110470,1,0,0:0:0:0:
64,192,110537,1,0,0:0:0:0:
192,192,110605,1,0,0:0:0:0:
320,192,110672,1,0,0:0:0:0:
192,192,110740,1,2,0:0:0:0:
448,192,110807,1,0,0:0:0:0:
320,192,110875,1,0,0:0:0:0:
192,192,110942,1,0,0:0:0:0:
64,192,111010,1,0,0:0:0:0:
192,192,111077,1,0,0:0:0:0:
320,192,111145,1,0,0:0:0:0:
192,192,111212,1,0,0:0:0:0:
448,192,111212,1,0,0:0:0:0:
320,192,111347,1,0,0:0:0:0:
64,192,111482,1,0,0:0:0:0:
192,192,111482,1,0,0:0:0:0:
192,192,111617,1,0,0:0:0:0:
320,192,111617,1,0,0:0:0:0:
320,192,111752,1,0,0:0:0:0:
448,192,111752,1,0,0:0:0:0:
192,192,111887,1,0,0:0:0:0:
448,192,111887,1,0,0:0:0:0:
192,192,112022,1,0,0:0:0:0:
320,192,112022,1,0,0:0:0:0:
64,192,112157,1,0,0:0:0:0:
320,192,112157,1,0,0:0:0:0:
192,192,112292,1,0,0:0:0:0:
64,192,112292,1,0,0:0:0:0:
320,192,112360,1,0,0:0:0:0:
448,192,112427,1,0,0:0:0:0:
192,192,112495,1,2,0:0:0:0:
64,192,112562,1,0,0:0:0:0:
320,192,112630,1,0,0:0:0:0:
448,192,112697,1,0,0:0:0:0:
192,192,112765,1,0,0:0:0:0:
320,192,112832,1,0,0:0:0:0:
64,192,112832,1,0,0:0:0:0:
64,192,112967,1,0,0:0:0:0:
320,192,112967,1,0,0:0:0:0:
192,192,113102,1,0,0:0:0:0:
448,192,113102,1,0,0:0:0:0:
192,192,113237,1,0,0:0:0:0:
448,192,113372,1,0,0:0:0:0:
320,192,113372,1,0,0:0:0:0:
192,192,113507,1,0,0:0:0:0:
320,192,113507,1,0,0:0:0:0:
64,192,113642,1,0,0:0:0:0:
192,192,113642,1,0,0:0:0:0:
192,192,113777,1,0,0:0:0:0:
320,192,113777,1,0,0:0:0:0:
320,192,113912,1,0,0:0:0:0:
448,192,113912,1,0,0:0:0:0:
64,192,114047,1,0,0:0:0:0:
192,192,114047,1,0,0:0:0:0:
448,192,114182,1,0,0:0:0:0:
320,192,114182,1,0,0:0:0:0:
64,192,114317,1,0,0:0:0:0:
320,192,114317,1,0,0:0:0:0:
448,192,114452,1,0,0:0:0:0:
192,192,114452,1,0,0:0:0:0:
320,192,114520,1,0,0:0:0:0:
192,192,114587,1,0,0:0:0:0:
64,192,114655,1,0,0:0:0:0:
320,192,114722,1,0,0:0:0:0:
192,192,114790,1,0,0:0:0:0:
320,192,114857,1,0,0:0:0:0:
448,192,114925,1,0,0:0:0:0:
192,192,114992,1,0,0:0:0:0:
320,192,115060,1,0,0:0:0:0:
448,192,115127,1,0,0:0:0:0:
64,192,115127,1,0,0:0:0:0:
192,192,115195,1,0,0:0:0:0:
320,192,115262,1,0,0:0:0:0:
192,192,115330,1,0,0:0:0:0:
448,192,115397,1,0,0:0:0:0:
320,192,115465,1,0,0:0:0:0:
64,192,115532,1,0,0:0:0:0:
448,192,115532,1,0,0:0:0:0:
320,192,115667,1,0,0:0:0:0:
64,192,115803,1,12,0:0:0:0:
192,192,115803,1,0,0:0:0:0:
448,192,115938,1,0,0:0:0:0:
64,192,116073,1,12,0:0:0:0:
320,192,116073,1,0,0:0:0:0:
192,192,116208,1,0,0:0:0:0:
64,192,116343,1,12,0:0:0:0:
320,192,116343,1,0,0:0:0:0:
448,192,116343,1,0,0:0:0:0:
192,192,116478,1,0,0:0:0:0:
448,192,116613,1,6,0:0:0:0:
320,192,116613,1,0,0:0:0:0:
192,192,116748,1,0,0:0:0:0:
64,192,116883,1,10,0:0:0:0:
320,192,116883,1,0,0:0:0:0:
448,192,117018,1,0,0:0:0:0:
320,192,117153,1,2,0:0:0:0:
192,192,117153,1,0,0:0:0:0:
64,192,117288,1,0,0:0:0:0:
448,192,117423,1,10,0:0:0:0:
320,192,117423,1,0,0:0:0:0:
64,192,117558,1,0,0:0:0:0:
192,192,117693,1,2,0:0:0:0:
448,192,117693,1,0,0:0:0:0:
320,192,117783,1,2,0:0:0:0:
192,192,117873,1,2,0:0:0:0:
64,192,117963,1,10,0:0:0:0:
320,192,117963,1,0,0:0:0:0:
192,192,118098,1,0,0:0:0:0:
320,192,118233,1,2,0:0:0:0:
448,192,118233,1,0,0:0:0:0:
192,192,118300,1,0,0:0:0:0:
64,192,118368,1,0,0:0:0:0:
192,192,118435,1,2,0:0:0:0:
64,192,118503,1,8,0:0:0:0:
320,192,118503,1,0,0:0:0:0:
448,192,118638,1,2,0:0:0:0:
64,192,118773,1,2,0:0:0:0:
320,192,118773,1,0,0:0:0:0:
192,192,118840,1,0,0:0:0:0:
320,192,118908,1,0,0:0:0:0:
448,192,118975,1,0,0:0:0:0:
192,192,119043,1,10,0:0:0:0:
64,192,119110,1,0,0:0:0:0:
320,192,119178,1,0,0:0:0:0:
192,192,119245,1,0,0:0:0:0:
320,192,119313,1,2,0:0:0:0:
448,192,119380,1,0,0:0:0:0:
192,192,119448,1,0,0:0:0:0:
320,192,119515,1,0,0:0:0:0:
64,192,119583,1,10,0:0:0:0:
192,192,119650,1,0,0:0:0:0:
64,192,119718,1,0,0:0:0:0:
320,192,119785,1,0,0:0:0:0:
192,192,119853,1,2,0:0:0:0:
320,192,119920,1,0,0:0:0:0:
192,192,119988,1,0,0:0:0:0:
64,192,120055,1,0,0:0:0:0:
192,192,120123,1,10,0:0:0:0:
320,192,120190,1,0,0:0:0:0:
448,192,120258,1,0,0:0:0:0:
192,192,120325,1,0,0:0:0:0:
320,192,120393,1,2,0:0:0:0:
192,192,120460,1,0,0:0:0:0:
64,192,120528,1,0,0:0:0:0:
320,192,120595,1,0,0:0:0:0:
192,192,120663,1,10,0:0:0:0:
320,192,120730,1,0,0:0:0:0:
448,192,120798,1,0,0:0:0:0:
192,192,120865,1,0,0:0:0:0:
64,192,120933,1,2,0:0:0:0:
192,192,121000,1,0,0:0:0:0:
320,192,121068,1,0,0:0:0:0:
64,192,121135,1,2,0:0:0:0:
192,192,121203,1,8,0:0:0:0:
320,192,121270,1,0,0:0:0:0:
448,192,121338,1,2,0:0:0:0:
192,192,121405,1,0,0:0:0:0:
320,192,121473,1,0,0:0:0:0:
192,192,121540,1,2,0:0:0:0:
64,192,121608,1,0,0:0:0:0:
320,192,121675,1,0,0:0:0:0:
192,192,121743,1,10,0:0:0:0:
448,192,121810,1,0,0:0:0:0:
320,192,121878,1,2,0:0:0:0:
192,192,121945,1,0,0:0:0:0:
64,192,122013,1,2,0:0:0:0:
320,192,122080,1,0,0:0:0:0:
192,192,122148,1,0,0:0:0:0:
448,192,122215,1,0,0:0:0:0:
320,192,122283,1,10,0:0:0:0:
192,192,122350,1,0,0:0:0:0:
64,192,122418,1,0,0:0:0:0:
192,192,122485,1,0,0:0:0:0:
448,192,122553,1,2,0:0:0:0:
64,192,122620,1,0,0:0:0:0:
192,192,122688,1,0,0:0:0:0:
320,192,122755,1,2,0:0:0:0:
192,192,122823,1,8,0:0:0:0:
448,192,122890,1,0,0:0:0:0:
320,192,122958,1,2,0:0:0:0:
192,192,123025,1,0,0:0:0:0:
64,192,123093,1,2,0:0:0:0:
320,192,123160,1,0,0:0:0:0:
192,192,123228,1,0,0:0:0:0:
320,192,123295,1,2,0:0:0:0:
64,192,123363,1,8,0:0:0:0:
192,192,123430,1,0,0:0:0:0:
320,192,123498,1,2,0:0:0:0:
448,192,123565,1,0,0:0:0:0:
320,192,123633,1,0,0:0:0:0:
64,192,123700,1,2,0:0:0:0:
192,192,123768,1,0,0:0:0:0:
320,192,123835,1,0,0:0:0:0:
448,192,123903,1,10,0:0:0:0:
192,192,123970,1,0,0:0:0:0:
320,192,124038,1,2,0:0:0:0:
192,192,124105,1,0,0:0:0:0:
64,192,124173,1,10,0:0:0:0:
320,192,124173,1,0,0:0:0:0:
448,192,124173,1,0,0:0:0:0:
192,192,124308,1,0,0:0:0:0:
64,192,124443,1,10,0:0:0:0:
320,192,124443,1,0,0:0:0:0:
448,192,124443,1,0,0:0:0:0:
192,192,124578,1,0,0:0:0:0:
64,192,124713,1,10,0:0:0:0:
320,192,124713,1,0,0:0:0:0:
448,192,124713,1,0,0:0:0:0:
192,192,124848,1,0,0:0:0:0:
64,192,124983,1,10,0:0:0:0:
320,192,124983,1,0,0:0:0:0:
448,192,124983,1,0,0:0:0:0:
192,192,125118,1,0,0:0:0:0:
320,192,125253,1,2,0:0:0:0:
448,192,125253,1,0,0:0:0:0:
192,192,125320,1,0,0:0:0:0:
64,192,125388,1,0,0:0:0:0:
192,192,125455,1,2,0:0:0:0:
448,192,125523,1,8,0:0:0:0:
320,192,125590,1,0,0:0:0:0:
192,192,125658,1,2,0:0:0:0:
64,192,125725,1,0,0:0:0:0:
320,192,125793,1,0,0:0:0:0:
448,192,125860,1,2,0:0:0:0:
192,192,125928,1,0,0:0:0:0:
64,192,125995,1,0,0:0:0:0:
192,192,126063,1,10,0:0:0:0:
320,192,126130,1,0,0:0:0:0:
192,192,126198,1,2,0:0:0:0:
448,192,126265,1,0,0:0:0:0:
320,192,126333,1,2,0:0:0:0:
192,192,126400,1,0,0:0:0:0:
64,192,126468,1,0,0:0:0:0:
192,192,126535,1,2,0:0:0:0:
320,192,126603,1,8,0:0:0:0:
192,192,126670,1,0,0:0:0:0:
448,192,126738,1,2,0:0:0:0:
320,192,126805,1,0,0:0:0:0:
192,192,126873,1,0,0:0:0:0:
64,192,126940,1,2,0:0:0:0:
192,192,127008,1,0,0:0:0:0:
448,192,127075,1,0,0:0:0:0:
320,192,127143,1,10,0:0:0:0:
64,192,127210,1,0,0:0:0:0:
192,192,127278,1,2,0:0:0:0:
320,192,127345,1,0,0:0:0:0:
64,192,127413,1,2,0:0:0:0:
192,192,127480,1,0,0:0:0:0:
448,192,127548,1,0,0:0:0:0:
320,192,127615,1,2,0:0:0:0:
192,192,127683,1,8,0:0:0:0:
320,192,127750,1,0,0:0:0:0:
64,192,127818,1,2,0:0:0:0:
192,192,127885,1,0,0:0:0:0:
320,192,127953,1,0,0:0:0:0:
64,192,128020,1,2,0:0:0:0:
448,192,128088,1,0,0:0:0:0:
320,192,128155,1,0,0:0:0:0:
192,192,128223,1,10,0:0:0:0:
448,192,128290,1,0,0:0:0:0:
192,192,128358,1,2,0:0:0:0:
320,192,128425,1,0,0:0:0:0:
64,192,128493,1,2,0:0:0:0:
192,192,128560,1,0,0:0:0:0:
320,192,128628,1,0,0:0:0:0:
192,192,128695,1,2,0:0:0:0:
320,192,128763,1,8,0:0:0:0:
448,192,128763,1,0,0:0:0:0:
64,192,128898,1,2,0:0:0:0:
192,192,128898,1,0,0:0:0:0:
320,192,129033,1,2,0:0:0:0:
448,192,129033,1,0,0:0:0:0:
192,192,129168,1,2,0:0:0:0:
64,192,129168,1,0,0:0:0:0:
320,192,129303,1,10,0:0:0:0:
448,192,129303,1,0,0:0:0:0:
192,192,129438,1,2,0:0:0:0:
64,192,129438,1,0,0:0:0:0:
320,192,129573,1,2,0:0:0:0:
448,192,129573,1,0,0:0:0:0:
192,192,129640,1,0,0:0:0:0:
320,192,129708,1,0,0:0:0:0:
192,192,129775,1,2,0:0:0:0:
64,192,129843,1,8,0:0:0:0:
320,192,129910,1,0,0:0:0:0:
448,192,129978,1,2,0:0:0:0:
192,192,130045,1,0,0:0:0:0:
320,192,130113,1,2,0:0:0:0:
448,192,130113,1,0,0:0:0:0:
320,192,130248,1,0,0:0:0:0:
448,192,130248,1,0,0:0:0:0:
64,192,130383,1,10,0:0:0:0:
192,192,130383,1,0,0:0:0:0:
64,192,130518,1,0,0:0:0:0:
192,192,130518,1,0,0:0:0:0:
192,192,130653,1,2,0:0:0:0:
448,192,130653,1,0,0:0:0:0:
192,192,130788,1,0,0:0:0:0:
448,192,130788,1,0,0:0:0:0:
64,192,130923,1,10,0:0:0:0:
320,192,130923,1,0,0:0:0:0:
64,192,131058,1,0,0:0:0:0:
320,192,131058,1,0,0:0:0:0:
192,192,131193,1,2,0:0:0:0:
320,192,131193,1,0,0:0:0:0:
320,192,131328,1,0,0:0:0:0:
192,192,131328,1,0,0:0:0:0:
448,192,131463,1,10,0:0:0:0:
192,192,131463,1,0,0:0:0:0:
192,192,131598,1,0,0:0:0:0:
448,192,131598,1,0,0:0:0:0:
320,192,131733,1,2,0:0:0:0:
64,192,131733,1,0,0:0:0:0:
192,192,131800,1,0,0:0:0:0:
64,192,131868,1,0,0:0:0:0:
192,192,131935,1,0,0:0:0:0:
320,192,132003,1,10,0:0:0:0:
192,192,132070,1,0,0:0:0:0:
448,192,132138,1,0,0:0:0:0:
320,192,132205,1,0,0:0:0:0:
64,192,132273,1,2,0:0:0:0:
192,192,132340,1,0,0:0:0:0:
320,192,132408,1,0,0:0:0:0:
192,192,132475,1,0,0:0:0:0:
448,192,132543,1,10,0:0:0:0:
320,192,132610,1,0,0:0:0:0:
192,192,132678,1,0,0:0:0:0:
64,192,132745,1,0,0:0:0:0:
320,192,132813,1,2,0:0:0:0:
192,192,132880,1,0,0:0:0:0:
448,192,132948,1,0,0:0:0:0:
320,192,133015,1,2,0:0:0:0:
192,192,133083,1,8,0:0:0:0:
64,192,133150,1,0,0:0:0:0:
192,192,133218,1,2,0:0:0:0:
64,192,133285,1,0,0:0:0:0:
448,192,133353,1,8,0:0:0:0:
320,192,133420,1,2,0:0:0:0:
192,192,133488,1,0,0:0:0:0:
64,192,133555,1,0,0:0:0:0:
320,192,133623,1,10,0:0:0:0:
192,192,133690,1,0,0:0:0:0:
64,192,133758,1,2,0:0:0:0:
192,192,133825,1,0,0:0:0:0:
320,192,133893,1,2,0:0:0:0:
448,192,133893,1,0,0:0:0:0:
192,192,134028,1,0,0:0:0:0:
64,192,134163,1,10,0:0:0:0:
320,192,134163,1,0,0:0:0:0:
320,192,134298,1,0,0:0:0:0:
320,192,134433,1,2,0:0:0:0:
448,192,134433,1,0,0:0:0:0:
192,192,134568,1,0,0:0:0:0:
192,192,134703,1,10,0:0:0:0:
320,192,134703,1,0,0:0:0:0:
448,192,134838,1,0,0:0:0:0:
64,192,134973,1,2,0:0:0:0:
448,192,134973,1,0,0:0:0:0:
320,192,135063,1,2,0:0:0:0:
192,192,135153,1,2,0:0:0:0:
320,192,135243,1,10,0:0:0:0:
448,192,135243,1,0,0:0:0:0:
192,192,135378,1,0,0:0:0:0:
64,192,135513,1,2,0:0:0:0:
320,192,135513,1,0,0:0:0:0:
192,192,135580,1,0,0:0:0:0:
320,192,135648,1,0,0:0:0:0:
448,192,135715,1,0,0:0:0:0:
320,192,135783,1,8,0:0:0:0:
192,192,135850,1,0,0:0:0:0:
64,192,135918,1,2,0:0:0:0:
320,192,135985,1,0,0:0:0:0:
192,192,136053,1,2,0:0:0:0:
320,192,136120,1,0,0:0:0:0:
192,192,136188,1,0,0:0:0:0:
64,192,136255,1,0,0:0:0:0:
448,192,136323,1,10,0:0:0:0:
192,192,136390,1,0,0:0:0:0:
320,192,136458,1,0,0:0:0:0:
448,192,136525,1,0,0:0:0:0:
192,192,136593,1,2,0:0:0:0:
320,192,136660,1,0,0:0:0:0:
448,192,136728,1,0,0:0:0:0:
320,192,136795,1,0,0:0:0:0:
64,192,136863,1,10,0:0:0:0:
192,192,136930,1,0,0:0:0:0:
320,192,136998,1,0,0:0:0:0:
192,192,137065,1,0,0:0:0:0:
448,192,137133,1,2,0:0:0:0:
320,192,137200,1,0,0:0:0:0:
192,192,137268,1,0,0:0:0:0:
320,192,137335,1,0,0:0:0:0:
192,192,137403,1,10,0:0:0:0:
64,192,137470,1,0,0:0:0:0:
192,192,137538,1,0,0:0:0:0:
320,192,137605,1,0,0:0:0:0:
448,192,137673,1,2,0:0:0:0:
192,192,137740,1,0,0:0:0:0:
64,192,137808,1,0,0:0:0:0:
320,192,137875,1,0,0:0:0:0:
192,192,137943,1,10,0:0:0:0:
448,192,138010,1,0,0:0:0:0:
320,192,138078,1,0,0:0:0:0:
192,192,138145,1,0,0:0:0:0:
64,192,138213,1,2,0:0:0:0:
192,192,138280,1,0,0:0:0:0:
448,192,138348,1,0,0:0:0:0:
320,192,138415,1,0,0:0:0:0:
64,192,138483,1,8,0:0:0:0:
192,192,138550,1,0,0:0:0:0:
320,192,138618,1,2,0:0:0:0:
192,192,138685,1,0,0:0:0:0:
320,192,138753,1,0,0:0:0:0:
448,192,138820,1,0,0:0:0:0:
192,192,138888,1,0,0:0:0:0:
64,192,138955,1,0,0:0:0:0:
320,192,139023,1,10,0:0:0:0:
192,192,139090,1,0,0:0:0:0:
320,192,139158,1,2,0:0:0:0:
448,192,139225,1,0,0:0:0:0:
192,192,139293,1,2,0:0:0:0:
320,192,139360,1,0,0:0:0:0:
192,192,139428,1,0,0:0:0:0:
64,192,139495,1,0,0:0:0:0:
192,192,139563,1,10,0:0:0:0:
320,192,139630,1,0,0:0:0:0:
192,192,139698,1,0,0:0:0:0:
448,192,139765,1,0,0:0:0:0:
320,192,139833,1,2,0:0:0:0:
192,192,139900,1,0,0:0:0:0:
320,192,139968,1,0,0:0:0:0:
64,192,140035,1,0,0:0:0:0:
192,192,140103,1,8,0:0:0:0:
320,192,140170,1,0,0:0:0:0:
64,192,140238,1,2,0:0:0:0:
320,192,140305,1,0,0:0:0:0:
448,192,140373,1,2,0:0:0:0:
192,192,140440,1,0,0:0:0:0:
320,192,140508,1,0,0:0:0:0:
192,192,140575,1,0,0:0:0:0:
64,192,140643,1,8,0:0:0:0:
192,192,140710,1,0,0:0:0:0:
320,192,140778,1,2,0:0:0:0:
448,192,140845,1,0,0:0:0:0:
192,192,140913,1,2,0:0:0:0:
320,192,140980,1,0,0:0:0:0:
192,192,141048,1,2,0:0:0:0:
448,192,141115,1,0,0:0:0:0:
320,192,141183,1,10,0:0:0:0:
192,192,141250,1,0,0:0:0:0:
64,192,141318,1,2,0:0:0:0:
192,192,141385,1,0,0:0:0:0:
320,192,141453,1,2,0:0:0:0:
448,192,141453,1,0,0:0:0:0:
192,192,141588,1,0,0:0:0:0:
64,192,141723,1,10,0:0:0:0:
320,192,141723,1,0,0:0:0:0:
448,192,141858,1,0,0:0:0:0:
320,192,141993,1,2,0:0:0:0:
192,192,141993,1,0,0:0:0:0:
64,192,142128,1,0,0:0:0:0:
192,192,142263,1,10,0:0:0:0:
448,192,142263,1,0,0:0:0:0:
320,192,142398,1,0,0:0:0:0:
64,192,142533,1,4,0:0:0:0:
192,192,142533,1,0,0:0:0:0:
448,192,142533,1,0,0:0:0:0:
320,192,142668,1,0,0:0:0:0:
64,192,142803,1,0,0:0:0:0:
192,192,142803,1,0,0:0:0:0:
320,192,142803,1,0,0:0:0:0:
448,192,142938,1,0,0:0:0:0:
320,192,143073,1,4,0:0:0:0:
192,192,143073,1,0,0:0:0:0:
448,192,143073,1,0,0:0:0:0:
192,192,143208,1,0,0:0:0:0:
64,192,143343,1,0,0:0:0:0:
320,192,143343,1,0,0:0:0:0:
448,192,143343,1,0,0:0:0:0:
320,192,143478,1,0,0:0:0:0:
64,192,143613,1,4,0:0:0:0:
192,192,143613,1,0,0:0:0:0:
320,192,143613,1,0,0:0:0:0:
320,192,143748,1,0,0:0:0:0:
192,192,143883,1,0,0:0:0:0:
448,192,143883,1,0,0:0:0:0:
64,192,143883,1,0,0:0:0:0:
320,192,144018,1,0,0:0:0:0:
320,192,144153,1,4,0:0:0:0:
64,192,144153,1,0,0:0:0:0:
448,192,144153,1,0,0:0:0:0:
448,192,144288,1,0,0:0:0:0:
64,192,144423,1,0,0:0:0:0:
320,192,144423,1,0,0:0:0:0:
192,192,144423,1,0,0:0:0:0:
64,192,144558,1,0,0:0:0:0:
64,192,144693,1,4,0:0:0:0:
448,192,144693,1,0,0:0:0:0:
320,192,144760,1,0,0:0:0:0:
192,192,144828,1,0,0:0:0:0:
448,192,144895,1,0,0:0:0:0:
192,192,144963,1,0,0:0:0:0:
64,192,145030,1,0,0:0:0:0:
192,192,145098,1,0,0:0:0:0:
448,192,145165,1,0,0:0:0:0:
320,192,145233,1,4,0:0:0:0:
64,192,145300,1,0,0:0:0:0:
192,192,145368,1,0,0:0:0:0:
320,192,145435,1,0,0:0:0:0:
192,192,145503,1,0,0:0:0:0:
448,192,145570,1,0,0:0:0:0:
320,192,145638,1,0,0:0:0:0:
64,192,145705,1,0,0:0:0:0:
192,192,145773,1,4,0:0:0:0:
320,192,145840,1,0,0:0:0:0:
192,192,145908,1,0,0:0:0:0:
448,192,145975,1,0,0:0:0:0:
320,192,146043,1,4,0:0:0:0:
192,192,146110,1,0,0:0:0:0:
64,192,146178,1,0,0:0:0:0:
320,192,146245,1,0,0:0:0:0:
192,192,146313,1,4,0:0:0:0:
448,192,146380,1,0,0:0:0:0:
320,192,146448,1,0,0:0:0:0:
64,192,146515,1,0,0:0:0:0:
192,192,146583,1,4,0:0:0:0:
320,192,146650,1,0,0:0:0:0:
192,192,146718,1,0,0:0:0:0:
320,192,146785,1,0,0:0:0:0:
64,192,146853,1,4,0:0:0:0:
448,192,146853,128,0,149013:0:0:0:0:
64,192,147123,1,8,0:0:0:0:
320,192,147123,1,0,0:0:0:0:
192,192,147393,1,0,0:0:0:0:
64,192,147663,1,8,0:0:0:0:
320,192,147663,1,0,0:0:0:0:
192,192,147933,1,0,0:0:0:0:
64,192,148203,1,8,0:0:0:0:
320,192,148203,1,0,0:0:0:0:
192,192,148473,1,0,0:0:0:0:
64,192,148743,1,8,0:0:0:0:
320,192,148743,1,0,0:0:0:0:
64,192,149013,1,4,0:0:0:0:
192,192,149013,1,0,0:0:0:0:
64,192,149283,1,8,0:0:0:0:
320,192,149283,1,0,0:0:0:0:
448,192,149553,1,0,0:0:0:0:
192,192,149823,1,8,0:0:0:0:
320,192,149823,1,0,0:0:0:0:
64,192,150093,1,0,0:0:0:0:
192,192,150363,1,12,0:0:0:0:
448,192,150363,1,0,0:0:0:0:
64,192,150363,1,0,0:0:0:0:
64,192,150633,1,4,0:0:0:0:
192,192,150633,1,0,0:0:0:0:
448,192,150633,1,0,0:0:0:0:
64,192,150835,1,0,0:0:0:0:
192,192,150835,1,0,0:0:0:0:
448,192,150835,1,0,0:0:0:0:
64,192,151038,1,4,0:0:0:0:
192,192,151038,1,0,0:0:0:0:
448,192,151038,1,0,0:0:0:0:
64,192,151173,1,4,0:0:0:0:
192,192,151173,1,0,0:0:0:0:
448,192,151173,1,0,0:0:0:0:
192,192,151443,1,8,0:0:0:0:
448,192,151443,1,0,0:0:0:0:
64,192,151713,1,0,0:0:0:0:
320,192,151713,1,0,0:0:0:0:
64,192,151983,1,12,0:0:0:0:
320,192,151983,1,0,0:0:0:0:
192,192,152118,1,4,0:0:0:0:
448,192,152118,1,0,0:0:0:0:
192,192,152388,1,4,0:0:0:0:
448,192,152388,1,0,0:0:0:0:
64,192,152523,1,12,0:0:0:0:
320,192,152523,1,0,0:0:0:0:
192,192,152793,1,4,0:0:0:0:
320,192,152793,1,0,0:0:0:0:
64,192,152928,1,4,0:0:0:0:
448,192,152928,1,0,0:0:0:0:
192,192,153063,1,12,0:0:0:0:
320,192,153063,1,0,0:0:0:0:
192,192,153333,1,4,0:0:0:0:
448,192,153333,1,0,0:0:0:0:
320,192,153468,1,0,0:0:0:0:
64,192,153603,1,8,0:0:0:0:
320,192,153603,1,0,0:0:0:0:
192,192,153738,1,0,0:0:0:0:
320,192,153873,1,4,0:0:0:0:
448,192,153873,1,0,0:0:0:0:
64,192,154008,1,0,0:0:0:0:
192,192,154143,1,8,0:0:0:0:
448,192,154143,1,0,0:0:0:0:
320,192,154278,1,0,0:0:0:0:
192,192,154413,1,4,0:0:0:0:
64,192,154413,1,0,0:0:0:0:
448,192,154548,1,0,0:0:0:0:
320,192,154683,1,12,0:0:0:0:
192,192,154683,1,0,0:0:0:0:
64,192,154818,1,0,0:0:0:0:
192,192,154953,1,4,0:0:0:0:
448,192,154953,1,0,0:0:0:0:
320,192,155020,1,0,0:0:0:0:
192,192,155088,1,0,0:0:0:0:
320,192,155155,1,0,0:0:0:0:
64,192,155223,1,12,0:0:0:0:
192,192,155290,1,0,0:0:0:0:
448,192,155358,1,0,0:0:0:0:
320,192,155425,1,0,0:0:0:0:
192,192,155493,1,4,0:0:0:0:
64,192,155493,1,0,0:0:0:0:
320,192,155628,1,0,0:0:0:0:
192,192,155763,1,8,0:0:0:0:
448,192,155763,1,0,0:0:0:0:
192,192,155898,1,0,0:0:0:0:
192,192,156033,1,0,0:0:0:0:
64,192,156033,1,0,0:0:0:0:
320,192,156168,1,0,0:0:0:0:
192,192,156303,1,8,0:0:0:0:
448,192,156303,1,0,0:0:0:0:
448,192,156438,1,0,0:0:0:0:
320,192,156573,1,0,0:0:0:0:
192,192,156573,1,0,0:0:0:0:
64,192,156708,1,0,0:0:0:0:
192,192,156843,1,8,0:0:0:0:
320,192,156843,1,0,0:0:0:0:
320,192,156978,1,0,0:0:0:0:
64,192,157113,1,0,0:0:0:0:
192,192,157113,1,0,0:0:0:0:
448,192,157248,1,0,0:0:0:0:
192,192,157383,1,8,0:0:0:0:
320,192,157383,1,0,0:0:0:0:
64,192,157518,1,0,0:0:0:0:
192,192,157653,1,4,0:0:0:0:
320,192,157653,1,0,0:0:0:0:
448,192,157653,1,0,0:0:0:0:
64,192,157788,1,0,0:0:0:0:
192,192,157923,1,8,0:0:0:0:
448,192,157923,1,0,0:0:0:0:
320,192,158058,1,0,0:0:0:0:
192,192,158193,1,0,0:0:0:0:
64,192,158193,1,0,0:0:0:0:
320,192,158328,1,0,0:0:0:0:
64,192,158463,1,8,0:0:0:0:
448,192,158463,1,0,0:0:0:0:
192,192,158598,1,0,0:0:0:0:
320,192,158733,1,0,0:0:0:0:
448,192,158733,1,0,0:0:0:0:
192,192,158868,1,0,0:0:0:0:
64,192,159003,1,12,0:0:0:0:
320,192,159003,1,0,0:0:0:0:
448,192,159003,1,0,0:0:0:0:
64,192,159273,1,4,0:0:0:0:
320,192,159273,1,0,0:0:0:0:
448,192,159273,1,0,0:0:0:0:
64,192,159475,1,0,0:0:0:0:
320,192,159475,1,0,0:0:0:0:
448,192,159475,1,0,0:0:0:0:
64,192,159678,1,4,0:0:0:0:
320,192,159678,1,0,0:0:0:0:
448,192,159678,1,0,0:0:0:0:
64,192,159813,1,4,0:0:0:0:
320,192,159813,1,0,0:0:0:0:
448,192,159813,1,0,0:0:0:0:
192,192,159948,1,0,0:0:0:0:
192,192,160083,1,8,0:0:0:0:
448,192,160083,1,0,0:0:0:0:
320,192,160218,1,0,0:0:0:0:
64,192,160353,1,0,0:0:0:0:
192,192,160353,1,0,0:0:0:0:
320,192,160488,1,0,0:0:0:0:
192,192,160623,1,12,0:0:0:0:
448,192,160623,1,0,0:0:0:0:
64,192,160758,1,4,0:0:0:0:
320,192,160758,1,0,0:0:0:0:
64,192,161028,1,4,0:0:0:0:
320,192,161028,1,0,0:0:0:0:
192,192,161163,1,12,0:0:0:0:
448,192,161163,1,0,0:0:0:0:
320,192,161298,1,0,0:0:0:0:
64,192,161433,1,4,0:0:0:0:
192,192,161433,1,0,0:0:0:0:
320,192,161568,1,4,0:0:0:0:
448,192,161568,1,0,0:0:0:0:
192,192,161703,1,12,0:0:0:0:
64,192,161703,1,0,0:0:0:0:
320,192,161838,1,0,0:0:0:0:
192,192,161973,1,4,0:0:0:0:
448,192,161973,128,0,163053:0:0:0:0:
64,192,162243,1,8,0:0:0:0:
320,192,162243,1,0,0:0:0:0:
64,192,162513,1,4,0:0:0:0:
320,192,162513,1,0,0:0:0:0:
64,192,162783,1,8,0:0:0:0:
192,192,162783,1,0,0:0:0:0:
64,192,163053,1,4,0:0:0:0:
320,192,163053,1,0,0:0:0:0:
192,192,163323,1,12,0:0:0:0:
320,192,163323,1,0,0:0:0:0:
448,192,163323,1,0,0:0:0:0:
64,192,163593,1,4,0:0:0:0:
192,192,163593,1,0,0:0:0:0:
320,192,163593,1,0,0:0:0:0:
192,192,163863,1,12,0:0:0:0:
64,192,163863,1,0,0:0:0:0:
448,192,163863,1,0,0:0:0:0:
64,192,164133,1,6,0:0:0:0:
192,192,164133,1,0,0:0:0:0:
320,192,164200,1,0,0:0:0:0:
192,192,164268,1,0,0:0:0:0:
320,192,164335,1,0,0:0:0:0:
448,192,164403,1,10,0:0:0:0:
64,192,164470,1,0,0:0:0:0:
192,192,164538,1,0,0:0:0:0:
320,192,164605,1,0,0:0:0:0:
448,192,164673,1,2,0:0:0:0:
320,192,164740,1,0,0:0:0:0:
64,192,164808,1,0,0:0:0:0:
192,192,164875,1,0,0:0:0:0:
320,192,164943,1,10,0:0:0:0:
64,192,165010,1,0,0:0:0:0:
192,192,165078,1,2,0:0:0:0:
320,192,165145,1,0,0:0:0:0:
192,192,165280,1,0,0:0:0:0:
448,192,165280,1,0,0:0:0:0:
64,192,165483,1,10,0:0:0:0:
320,192,165483,1,0,0:0:0:0:
192,192,165685,1,0,0:0:0:0:
320,192,165685,1,0,0:0:0:0:
192,192,165888,1,2,0:0:0:0:
448,192,165888,1,0,0:0:0:0:
64,192,166090,1,0,0:0:0:0:
320,192,166090,1,0,0:0:0:0:
192,192,166293,1,2,0:0:0:0:
320,192,166293,1,0,0:0:0:0:
448,192,166360,1,0,0:0:0:0:
320,192,166428,1,0,0:0:0:0:
192,192,166495,1,0,0:0:0:0:
320,192,166563,1,10,0:0:0:0:
64,192,166630,1,0,0:0:0:0:
192,192,166698,1,0,0:0:0:0:
448,192,166765,1,0,0:0:0:0:
320,192,166833,1,2,0:0:0:0:
192,192,166900,1,0,0:0:0:0:
320,192,166968,1,0,0:0:0:0:
192,192,167035,1,0,0:0:0:0:
320,192,167103,1,10,0:0:0:0:
448,192,167170,1,0,0:0:0:0:
192,192,167238,1,2,0:0:0:0:
320,192,167305,1,0,0:0:0:0:
64,192,167373,1,0,0:0:0:0:
192,192,167508,1,0,0:0:0:0:
448,192,167508,1,0,0:0:0:0:
64,192,167643,1,10,0:0:0:0:
320,192,167643,1,0,0:0:0:0:
192,192,167913,1,2,0:0:0:0:
320,192,167913,1,0,0:0:0:0:
192,192,168115,1,0,0:0:0:0:
448,192,168115,1,0,0:0:0:0:
64,192,168318,1,2,0:0:0:0:
320,192,168318,1,0,0:0:0:0:
192,192,168453,1,2,0:0:0:0:
320,192,168453,1,0,0:0:0:0:
448,192,168520,1,0,0:0:0:0:
320,192,168588,1,0,0:0:0:0:
64,192,168655,1,0,0:0:0:0:
192,192,168723,1,8,0:0:0:0:
320,192,168790,1,0,0:0:0:0:
192,192,168858,1,2,0:0:0:0:
448,192,168925,1,0,0:0:0:0:
320,192,168993,1,0,0:0:0:0:
64,192,169060,1,0,0:0:0:0:
192,192,169128,1,0,0:0:0:0:
320,192,169195,1,0,0:0:0:0:
192,192,169263,1,10,0:0:0:0:
448,192,169330,1,0,0:0:0:0:
320,192,169398,1,0,0:0:0:0:
192,192,169465,1,0,0:0:0:0:
64,192,169533,1,2,0:0:0:0:
192,192,169600,1,0,0:0:0:0:
448,192,169668,1,0,0:0:0:0:
192,192,169735,1,0,0:0:0:0:
320,192,169803,1,10,0:0:0:0:
448,192,169870,1,0,0:0:0:0:
192,192,169938,1,0,0:0:0:0:
64,192,170005,1,0,0:0:0:0:
320,192,170073,1,2,0:0:0:0:
192,192,170140,1,0,0:0:0:0:
448,192,170208,1,0,0:0:0:0:
320,192,170275,1,0,0:0:0:0:
192,192,170343,1,10,0:0:0:0:
320,192,170410,1,0,0:0:0:0:
64,192,170478,1,2,0:0:0:0:
192,192,170545,1,0,0:0:0:0:
320,192,170613,1,2,0:0:0:0:
192,192,170680,1,0,0:0:0:0:
64,192,170748,1,0,0:0:0:0:
448,192,170815,1,0,0:0:0:0:
320,192,170883,1,10,0:0:0:0:
192,192,170950,1,0,0:0:0:0:
320,192,171018,1,0,0:0:0:0:
192,192,171085,1,0,0:0:0:0:
64,192,171153,1,2,0:0:0:0:
448,192,171220,1,0,0:0:0:0:
320,192,171288,1,0,0:0:0:0:
192,192,171355,1,0,0:0:0:0:
64,192,171423,1,8,0:0:0:0:
320,192,171490,1,0,0:0:0:0:
192,192,171558,1,2,0:0:0:0:
448,192,171625,1,0,0:0:0:0:
320,192,171693,1,0,0:0:0:0:
64,192,171760,1,0,0:0:0:0:
192,192,171828,1,0,0:0:0:0:
320,192,171895,1,0,0:0:0:0:
448,192,171963,1,14,0:0:0:0:
192,192,172030,1,0,0:0:0:0:
64,192,172098,1,0,0:0:0:0:
320,192,172165,1,0,0:0:0:0:
448,192,172233,1,4,0:0:0:0:
192,192,172300,1,0,0:0:0:0:
320,192,172368,1,2,0:0:0:0:
64,192,172435,1,0,0:0:0:0:
192,192,172503,1,10,0:0:0:0:
64,192,172570,1,0,0:0:0:0:
320,192,172638,1,4,0:0:0:0:
448,192,172705,1,0,0:0:0:0:
192,192,172773,1,6,0:0:0:0:
320,192,172840,1,0,0:0:0:0:
192,192,172908,1,0,0:0:0:0:
64,192,172975,1,0,0:0:0:0:
320,192,173043,1,10,0:0:0:0:
448,192,173110,1,0,0:0:0:0:
320,192,173178,1,0,0:0:0:0:
192,192,173245,1,0,0:0:0:0:
448,192,173313,1,2,0:0:0:0:
320,192,173380,1,0,0:0:0:0:
192,192,173448,1,0,0:0:0:0:
64,192,173515,1,0,0:0:0:0:
448,192,173583,1,10,0:0:0:0:
192,192,173650,1,0,0:0:0:0:
320,192,173718,1,2,0:0:0:0:
64,192,173785,1,0,0:0:0:0:
192,192,173853,1,0,0:0:0:0:
320,192,173920,1,0,0:0:0:0:
192,192,173988,1,0,0:0:0:0:
448,192,174055,1,0,0:0:0:0:
320,192,174123,1,10,0:0:0:0:
64,192,174190,1,0,0:0:0:0:
192,192,174258,1,0,0:0:0:0:
320,192,174325,1,0,0:0:0:0:
448,192,174393,1,2,0:0:0:0:
192,192,174460,1,0,0:0:0:0:
320,192,174528,1,0,0:0:0:0:
64,192,174595,1,0,0:0:0:0:
192,192,174663,1,10,0:0:0:0:
448,192,174730,1,0,0:0:0:0:
320,192,174798,1,0,0:0:0:0:
192,192,174865,1,0,0:0:0:0:
64,192,174933,1,2,0:0:0:0:
320,192,175000,1,0,0:0:0:0:
192,192,175068,1,0,0:0:0:0:
448,192,175135,1,0,0:0:0:0:
64,192,175203,1,10,0:0:0:0:
320,192,175270,1,0,0:0:0:0:
64,192,175338,1,0,0:0:0:0:
192,192,175405,1,0,0:0:0:0:
320,192,175473,1,2,0:0:0:0:
192,192,175540,1,0,0:0:0:0:
448,192,175608,1,0,0:0:0:0:
320,192,175675,1,0,0:0:0:0:
192,192,175743,1,10,0:0:0:0:
320,192,175810,1,0,0:0:0:0:
64,192,175878,1,2,0:0:0:0:
320,192,175945,1,0,0:0:0:0:
192,192,176013,1,0,0:0:0:0:
448,192,176080,1,0,0:0:0:0:
192,192,176148,1,2,0:0:0:0:
320,192,176215,1,0,0:0:0:0:
64,192,176283,1,10,0:0:0:0:
192,192,176350,1,0,0:0:0:0:
320,192,176418,1,0,0:0:0:0:
192,192,176485,1,0,0:0:0:0:
448,192,176553,1,2,0:0:0:0:
320,192,176620,1,0,0:0:0:0:
192,192,176688,1,2,0:0:0:0:
64,192,176755,1,0,0:0:0:0:
192,192,176823,1,10,0:0:0:0:
320,192,176890,1,0,0:0:0:0:
448,192,176958,1,0,0:0:0:0:
320,192,177025,1,0,0:0:0:0:
192,192,177093,1,2,0:0:0:0:
64,192,177160,1,0,0:0:0:0:
192,192,177228,1,0,0:0:0:0:
320,192,177295,1,0,0:0:0:0:
64,192,177363,1,8,0:0:0:0:
448,192,177430,1,0,0:0:0:0:
192,192,177498,1,2,0:0:0:0:
320,192,177565,1,0,0:0:0:0:
192,192,177633,1,0,0:0:0:0:
64,192,177700,1,0,0:0:0:0:
192,192,177768,1,0,0:0:0:0:
320,192,177835,1,0,0:0:0:0:
64,192,177903,1,10,0:0:0:0:
448,192,177970,1,0,0:0:0:0:
320,192,178038,1,0,0:0:0:0:
64,192,178105,1,0,0:0:0:0:
320,192,178173,1,0,0:0:0:0:
192,192,178240,1,0,0:0:0:0:
448,192,178308,1,2,0:0:0:0:
320,192,178375,1,0,0:0:0:0:
64,192,178443,1,10,0:0:0:0:
192,192,178510,1,0,0:0:0:0:
448,192,178578,1,0,0:0:0:0:
64,192,178645,1,0,0:0:0:0:
192,192,178713,1,2,0:0:0:0:
320,192,178780,1,0,0:0:0:0:
192,192,178848,1,0,0:0:0:0:
448,192,178915,1,0,0:0:0:0:
192,192,178983,1,10,0:0:0:0:
320,192,179050,1,0,0:0:0:0:
192,192,179118,1,0,0:0:0:0:
64,192,179185,1,0,0:0:0:0:
192,192,179253,1,2,0:0:0:0:
320,192,179320,1,0,0:0:0:0:
448,192,179388,1,0,0:0:0:0:
192,192,179455,1,0,0:0:0:0:
320,192,179523,1,8,0:0:0:0:
64,192,179590,1,0,0:0:0:0:
192,192,179658,1,0,0:0:0:0:
448,192,179725,1,0,0:0:0:0:
192,192,179793,1,2,0:0:0:0:
320,192,179860,1,0,0:0:0:0:
192,192,179928,1,0,0:0:0:0:
64,192,179995,1,0,0:0:0:0:
320,192,180063,1,8,0:0:0:0:
192,192,180130,1,0,0:0:0:0:
320,192,180198,1,0,0:0:0:0:
448,192,180265,1,0,0:0:0:0:
64,192,180333,1,6,0:0:0:0:
192,192,180400,1,0,0:0:0:0:
448,192,180468,1,0,0:0:0:0:
192,192,180535,1,0,0:0:0:0:
320,192,180603,1,14,0:0:0:0:
192,192,180670,1,0,0:0:0:0:
64,192,180738,1,0,0:0:0:0:
320,192,180805,1,0,0:0:0:0:
192,192,180873,1,6,0:0:0:0:
64,192,180940,1,0,0:0:0:0:
320,192,181008,1,0,0:0:0:0:
192,192,181075,1,0,0:0:0:0:
320,192,181143,1,14,0:0:0:0:
448,192,181210,1,0,0:0:0:0:
192,192,181278,1,0,0:0:0:0:
320,192,181345,1,0,0:0:0:0:
64,192,181413,1,6,0:0:0:0:
448,192,181413,1,0,0:0:0:0:
192,192,181480,1,0,0:0:0:0:
320,192,181548,1,0,0:0:0:0:
448,192,181615,1,0,0:0:0:0:
320,192,181683,1,10,0:0:0:0:
64,192,181818,1,2,0:0:0:0:
448,192,181818,1,0,0:0:0:0:
320,192,181885,1,0,0:0:0:0:
64,192,181953,1,0,0:0:0:0:
192,192,182020,1,0,0:0:0:0:
320,192,182088,1,2,0:0:0:0:
64,192,182223,1,10,0:0:0:0:
192,192,182223,1,0,0:0:0:0:
320,192,182358,1,2,0:0:0:0:
448,192,182358,1,0,0:0:0:0:
64,192,182493,1,2,0:0:0:0:
320,192,182493,1,0,0:0:0:0:
192,192,182560,1,0,0:0:0:0:
448,192,182628,1,0,0:0:0:0:
320,192,182695,1,0,0:0:0:0:
192,192,182763,1,10,0:0:0:0:
64,192,182830,1,0,0:0:0:0:
320,192,182898,1,0,0:0:0:0:
192,192,182965,1,0,0:0:0:0:
320,192,183033,1,2,0:0:0:0:
64,192,183100,1,0,0:0:0:0:
320,192,183168,1,0,0:0:0:0:
448,192,183235,1,0,0:0:0:0:
192,192,183303,1,10,0:0:0:0:
64,192,183370,1,0,0:0:0:0:
320,192,183438,1,0,0:0:0:0:
192,192,183505,1,0,0:0:0:0:
64,192,183573,1,2,0:0:0:0:
448,192,183573,1,0,0:0:0:0:
192,192,183640,1,0,0:0:0:0:
448,192,183708,1,0,0:0:0:0:
320,192,183775,1,0,0:0:0:0:
64,192,183843,1,10,0:0:0:0:
320,192,183978,1,2,0:0:0:0:
448,192,183978,1,0,0:0:0:0:
192,192,184045,1,0,0:0:0:0:
320,192,184113,1,0,0:0:0:0:
64,192,184180,1,0,0:0:0:0:
192,192,184248,1,2,0:0:0:0:
320,192,184383,1,10,0:0:0:0:
448,192,184383,1,0,0:0:0:0:
192,192,184518,1,2,0:0:0:0:
64,192,184518,1,0,0:0:0:0:
192,192,184653,1,2,0:0:0:0:
448,192,184653,1,0,0:0:0:0:
320,192,184720,1,0,0:0:0:0:
64,192,184788,1,0,0:0:0:0:
192,192,184855,1,0,0:0:0:0:
448,192,184923,1,10,0:0:0:0:
320,192,184990,1,0,0:0:0:0:
192,192,185058,1,0,0:0:0:0:
64,192,185125,1,0,0:0:0:0:
192,192,185193,1,0,0:0:0:0:
320,192,185260,1,0,0:0:0:0:
64,192,185328,1,0,0:0:0:0:
320,192,185395,1,0,0:0:0:0:
192,192,185463,1,0,0:0:0:0:
64,192,185530,1,0,0:0:0:0:
320,192,185598,1,0,0:0:0:0:
192,192,185665,1,0,0:0:0:0:
448,192,185733,1,0,0:0:0:0:
320,192,185733,1,0,0:0:0:0:
192,192,185800,1,0,0:0:0:0:
320,192,185868,1,0,0:0:0:0:
192,192,185935,1,0,0:0:0:0:
64,192,186003,1,0,0:0:0:0:
192,192,186138,1,0,0:0:0:0:
320,192,186205,1,0,0:0:0:0:
192,192,186273,1,0,0:0:0:0:
448,192,186273,1,0,0:0:0:0:
320,192,186408,1,0,0:0:0:0:
192,192,186475,1,0,0:0:0:0:
192,192,186610,1,0,0:0:0:0:
64,192,186678,1,0,0:0:0:0:
64,192,186813,1,0,0:0:0:0:
320,192,186880,1,0,0:0:0:0:
320,192,187015,1,0,0:0:0:0:
448,192,187083,1,0,0:0:0:0:
448,192,187218,1,0,0:0:0:0:
64,192,187285,1,0,0:0:0:0:
192,192,187353,1,0,0:0:0:0:
320,192,187420,1,0,0:0:0:0:
64,192,187488,1,0,0:0:0:0:
448,192,187555,1,0,0:0:0:0:
320,192,187623,1,0,0:0:0:0:
64,192,187690,1,0,0:0:0:0:
192,192,187758,1,0,0:0:0:0:
320,192,187825,1,0,0:0:0:0:
192,192,187893,1,0,0:0:0:0:
448,192,187960,1,0,0:0:0:0:
320,192,188028,1,0,0:0:0:0:
64,192,188095,1,0,0:0:0:0:
192,192,188163,1,0,0:0:0:0:
320,192,188230,1,0,0:0:0:0:
448,192,188298,1,0,0:0:0:0:
192,192,188365,1,0,0:0:0:0:
320,192,188433,1,0,0:0:0:0:
64,192,188500,1,0,0:0:0:0:
192,192,188568,1,0,0:0:0:0:
320,192,188635,1,0,0:0:0:0:
192,192,188703,1,0,0:0:0:0:
448,192,188770,1,0,0:0:0:0:
320,192,188838,1,0,0:0:0:0:
192,192,188905,1,0,0:0:0:0:
320,192,188973,1,0,0:0:0:0:
64,192,189040,1,0,0:0:0:0:
192,192,189108,1,0,0:0:0:0:
320,192,189175,1,0,0:0:0:0:
64,192,189243,1,0,0:0:0:0:
448,192,189310,1,0,0:0:0:0:
192,192,189378,1,0,0:0:0:0:
320,192,189445,1,0,0:0:0:0:
448,192,189513,1,0,0:0:0:0:
192,192,189580,1,0,0:0:0:0:
64,192,189648,1,0,0:0:0:0:
320,192,189715,1,0,0:0:0:0:
192,192,189783,1,0,0:0:0:0:
448,192,189850,1,0,0:0:0:0:
320,192,189918,1,0,0:0:0:0:
192,192,189985,1,0,0:0:0:0:
64,192,190053,1,6,0:0:0:0:
320,192,190120,1,0,0:0:0:0:
192,192,190188,1,0,0:0:0:0:
320,192,190255,1,0,0:0:0:0:
64,192,190323,1,0,0:0:0:0:
448,192,190390,1,0,0:0:0:0:
192,192,190458,1,0,0:0:0:0:
64,192,190525,1,0,0:0:0:0:
320,192,190593,1,0,0:0:0:0:
448,192,190660,1,0,0:0:0:0:
64,192,190728,1,0,0:0:0:0:
192,192,190795,1,0,0:0:0:0:
320,192,190863,1,0,0:0:0:0:
448,192,190930,1,0,0:0:0:0:
192,192,190998,1,0,0:0:0:0:
64,192,191065,1,0,0:0:0:0:
192,192,191133,1,0,0:0:0:0:
320,192,191268,1,0,0:0:0:0:
192,192,191335,1,0,0:0:0:0:
64,192,191403,1,0,0:0:0:0:
448,192,191538,1,0,0:0:0:0:
192,192,191605,1,0,0:0:0:0:
64,192,191673,1,0,0:0:0:0:
320,192,191740,1,0,0:0:0:0:
192,192,191808,1,0,0:0:0:0:
320,192,191875,1,0,0:0:0:0:
448,192,191943,1,0,0:0:0:0:
192,192,192010,1,0,0:0:0:0:
320,192,192078,1,0,0:0:0:0:
192,192,192145,1,0,0:0:0:0:
320,192,192213,1,0,0:0:0:0:
64,192,192348,1,0,0:0:0:0:
192,192,192348,1,0,0:0:0:0:
320,192,192483,1,0,0:0:0:0:
448,192,192483,1,0,0:0:0:0:
192,192,192618,1,0,0:0:0:0:
64,192,192753,1,0,0:0:0:0:
320,192,192753,1,0,0:0:0:0:
192,192,192955,1,0,0:0:0:0:
448,192,192955,1,0,0:0:0:0:
64,192,193158,1,0,0:0:0:0:
320,192,193158,1,0,0:0:0:0:
192,192,193293,1,0,0:0:0:0:
448,192,193293,1,0,0:0:0:0:
320,192,193360,1,0,0:0:0:0:
192,192,193428,1,0,0:0:0:0:
64,192,193495,1,0,0:0:0:0:
320,192,193563,1,0,0:0:0:0:
192,192,193630,1,0,0:0:0:0:
448,192,193698,1,0,0:0:0:0:
320,192,193765,1,0,0:0:0:0:
64,192,193833,1,0,0:0:0:0:
192,192,193900,1,0,0:0:0:0:
320,192,193968,1,0,0:0:0:0:
192,192,194035,1,0,0:0:0:0:
448,192,194103,1,0,0:0:0:0:
320,192,194170,1,0,0:0:0:0:
192,192,194238,1,0,0:0:0:0:
64,192,194305,1,0,0:0:0:0:
192,192,194373,1,0,0:0:0:0:
448,192,194373,1,0,0:0:0:0:
320,192,194440,1,0,0:0:0:0:
192,192,194508,1,0,0:0:0:0:
320,192,194575,1,0,0:0:0:0:
64,192,194643,1,0,0:0:0:0:
320,192,194778,1,0,0:0:0:0:
448,192,194778,1,0,0:0:0:0:
192,192,194845,1,0,0:0:0:0:
320,192,194913,1,0,0:0:0:0:
64,192,194980,1,0,0:0:0:0:
192,192,195048,1,0,0:0:0:0:
320,192,195183,1,0,0:0:0:0:
448,192,195183,1,0,0:0:0:0:
64,192,195318,1,0,0:0:0:0:
192,192,195318,1,0,0:0:0:0:
192,192,195453,1,0,0:0:0:0:
448,192,195453,1,0,0:0:0:0:
320,192,195520,1,0,0:0:0:0:
192,192,195588,1,0,0:0:0:0:
64,192,195655,1,0,0:0:0:0:
320,192,195723,1,0,0:0:0:0:
192,192,195790,1,0,0:0:0:0:
448,192,195858,1,0,0:0:0:0:
64,192,195925,1,0,0:0:0:0:
192,192,195993,1,0,0:0:0:0:
320,192,196060,1,0,0:0:0:0:
448,192,196128,1,0,0:0:0:0:
192,192,196195,1,0,0:0:0:0:
64,192,196263,1,0,0:0:0:0:
320,192,196330,1,0,0:0:0:0:
192,192,196398,1,0,0:0:0:0:
320,192,196465,1,0,0:0:0:0:
64,192,196533,1,0,0:0:0:0:
192,192,196600,1,0,0:0:0:0:
320,192,196668,1,0,0:0:0:0:
448,192,196735,1,0,0:0:0:0:
192,192,196803,1,0,0:0:0:0:
320,192,196870,1,0,0:0:0:0:
192,192,196938,1,0,0:0:0:0:
64,192,197005,1,0,0:0:0:0:
320,192,197073,1,0,0:0:0:0:
448,192,197140,1,0,0:0:0:0:
192,192,197208,1,0,0:0:0:0:
64,192,197275,1,0,0:0:0:0:
320,192,197343,1,0,0:0:0:0:
192,192,197410,1,0,0:0:0:0:
320,192,197478,1,0,0:0:0:0:
448,192,197545,1,0,0:0:0:0:
192,192,197613,1,0,0:0:0:0:
320,192,197680,1,0,0:0:0:0:
64,192,197748,1,0,0:0:0:0:
320,192,197815,1,0,0:0:0:0:
192,192,197883,1,0,0:0:0:0:
320,192,197950,1,0,0:0:0:0:
448,192,198018,1,0,0:0:0:0:
192,192,198085,1,0,0:0:0:0:
64,192,198153,1,0,0:0:0:0:
320,192,198220,1,0,0:0:0:0:
192,192,198288,1,0,0:0:0:0:
320,192,198355,1,0,0:0:0:0:
448,192,198423,1,0,0:0:0:0:
320,192,198490,1,0,0:0:0:0:
64,192,198558,1,0,0:0:0:0:
192,192,198625,1,0,0:0:0:0:
320,192,198693,1,0,0:0:0:0:
448,192,198760,1,0,0:0:0:0:
192,192,198828,1,0,0:0:0:0:
64,192,198895,1,0,0:0:0:0:
320,192,198963,1,0,0:0:0:0:
192,192,199030,1,0,0:0:0:0:
320,192,199098,1,0,0:0:0:0:
448,192,199165,1,0,0:0:0:0:
192,192,199233,1,0,0:0:0:0:
320,192,199300,1,0,0:0:0:0:
64,192,199368,1,0,0:0:0:0:
192,192,199435,1,0,0:0:0:0:
320,192,199503,1,0,0:0:0:0:
192,192,199570,1,0,0:0:0:0:
448,192,199638,1,0,0:0:0:0:
320,192,199705,1,0,0:0:0:0:
192,192,199773,1,0,0:0:0:0:
320,192,199840,1,0,0:0:0:0:
64,192,199908,1,0,0:0:0:0:
192,192,199975,1,0,0:0:0:0:
320,192,200043,1,0,0:0:0:0:
448,192,200110,1,0,0:0:0:0:
192,192,200178,1,0,0:0:0:0:
64,192,200245,1,0,0:0:0:0:
320,192,200313,1,0,0:0:0:0:
192,192,200380,1,0,0:0:0:0:
448,192,200448,1,0,0:0:0:0:
192,192,200515,1,0,0:0:0:0:
320,192,200583,1,0,0:0:0:0:
64,192,200650,1,0,0:0:0:0:
320,192,200718,1,0,0:0:0:0:
192,192,200785,1,0,0:0:0:0:
64,192,200853,1,0,0:0:0:0:
448,192,200853,128,0,201933:0:0:0:0:
64,192,201933,128,0,203013:0:0:0:0:
320,192,203013,128,0,204093:0:0:0:0:
192,192,204093,128,0,204633:0:0:0:0:
448,192,204633,128,0,205173:0:0:0:0:
64,192,205173,128,0,206253:0:0:0:0:
448,192,206253,128,0,206793:0:0:0:0:
320,192,206793,128,0,207333:0:0:0:0:
192,192,207333,128,0,208413:0:0:0:0:
64,192,208413,128,0,209493:0:0:0:0:
192,192,209493,1,0,0:0:0:0:
448,192,209493,1,0,0:0:0:0:
320,192,209763,1,0,0:0:0:0:
64,192,210033,1,0,0:0:0:0:
192,192,210303,1,0,0:0:0:0:
320,192,210573,1,0,0:0:0:0:
192,192,210663,1,0,0:0:0:0:
320,192,210753,1,0,0:0:0:0:
448,192,210843,1,0,0:0:0:0:
320,192,211113,1,0,0:0:0:0:
192,192,211383,1,0,0:0:0:0:
320,192,211653,1,0,0:0:0:0:
64,192,211923,1,0,0:0:0:0:
192,192,212193,1,0,0:0:0:0:
320,192,212463,1,0,0:0:0:0:
448,192,212733,1,0,0:0:0:0:
320,192,213003,1,0,0:0:0:0:
192,192,213273,1,0,0:0:0:0:
320,192,213543,1,0,0:0:0:0:
64,192,213813,1,0,0:0:0:0:
448,192,213813,1,0,0:0:0:0:
320,192,214758,1,0,0:0:0:0:
192,192,214825,1,0,0:0:0:0:
64,192,214893,1,0,0:0:0:0:
448,192,214893,1,0,0:0:0:0:
64,192,215433,1,0,0:0:0:0:
448,192,215433,1,0,0:0:0:0:
64,192,215973,1,0,0:0:0:0:
448,192,215973,1,0,0:0:0:0:
64,192,216513,1,0,0:0:0:0:
448,192,216513,1,0,0:0:0:0:
64,192,216783,1,0,0:0:0:0:
448,192,216783,1,0,0:0:0:0:
192,192,217053,1,0,0:0:0:0:
448,192,217053,1,0,0:0:0:0:
192,192,217188,1,0,0:0:0:0:
448,192,217188,1,0,0:0:0:0:
64,192,217323,1,0,0:0:0:0:
320,192,217323,1,0,0:0:0:0:
64,192,217458,1,0,0:0:0:0:
320,192,217458,1,0,0:0:0:0:
192,192,217593,1,0,0:0:0:0:
320,192,217593,1,0,0:0:0:0:
64,192,217728,1,0,0:0:0:0:
448,192,217728,1,0,0:0:0:0:
192,192,217863,1,0,0:0:0:0:
320,192,217863,1,0,0:0:0:0:
448,192,217930,1,0,0:0:0:0:
320,192,217998,1,0,0:0:0:0:
64,192,218065,1,0,0:0:0:0:
192,192,218133,1,0,0:0:0:0:
448,192,218133,1,0,0:0:0:0:
320,192,218200,1,0,0:0:0:0:
192,192,218268,1,0,0:0:0:0:
64,192,218335,1,0,0:0:0:0:
320,192,218403,1,0,0:0:0:0:
192,192,218470,1,0,0:0:0:0:
448,192,218538,1,0,0:0:0:0:
64,192,218605,1,0,0:0:0:0:
192,192,218673,1,0,0:0:0:0:
320,192,218740,1,0,0:0:0:0:
448,192,218808,1,0,0:0:0:0:
192,192,218875,1,0,0:0:0:0:
64,192,218943,1,0,0:0:0:0:
320,192,219010,1,0,0:0:0:0:
192,192,219078,1,0,0:0:0:0:
448,192,219145,1,0,0:0:0:0:
320,192,219213,1,0,0:0:0:0:
192,192,219280,1,0,0:0:0:0:
64,192,219348,1,0,0:0:0:0:
320,192,219415,1,0,0:0:0:0:
192,192,219483,1,0,0:0:0:0:
64,192,219550,1,0,0:0:0:0:
320,192,219618,1,0,0:0:0:0:
448,192,219685,1,0,0:0:0:0:
192,192,219753,1,0,0:0:0:0:
64,192,219820,1,0,0:0:0:0:
192,192,219888,1,0,0:0:0:0:
320,192,219955,1,0,0:0:0:0:
64,192,220023,1,0,0:0:0:0:
192,192,220090,1,0,0:0:0:0:
320,192,220158,1,0,0:0:0:0:
448,192,220225,1,0,0:0:0:0:
320,192,220293,1,0,0:0:0:0:
192,192,220360,1,0,0:0:0:0:
448,192,220428,1,0,0:0:0:0:
320,192,220495,1,0,0:0:0:0:
64,192,220563,1,0,0:0:0:0:
192,192,220630,1,0,0:0:0:0:
320,192,220698,1,0,0:0:0:0:
64,192,220765,1,0,0:0:0:0:
448,192,220833,1,0,0:0:0:0:
320,192,220900,1,0,0:0:0:0:
192,192,220968,1,0,0:0:0:0:
64,192,221035,1,0,0:0:0:0:
320,192,221103,1,0,0:0:0:0:
192,192,221170,1,0,0:0:0:0:
320,192,221238,1,0,0:0:0:0:
64,192,221305,1,0,0:0:0:0:
192,192,221373,1,0,0:0:0:0:
320,192,221440,1,0,0:0:0:0:
448,192,221508,1,0,0:0:0:0:
320,192,221575,1,0,0:0:0:0:
64,192,221643,1,0,0:0:0:0:
320,192,221710,1,0,0:0:0:0:
192,192,221778,1,0,0:0:0:0:
448,192,221845,1,0,0:0:0:0:
320,192,221913,1,0,0:0:0:0:
192,192,221980,1,0,0:0:0:0:
64,192,222048,1,0,0:0:0:0:
320,192,222115,1,0,0:0:0:0:
192,192,222183,1,0,0:0:0:0:
448,192,222250,1,0,0:0:0:0:
320,192,222318,1,0,0:0:0:0:
192,192,222385,1,0,0:0:0:0:
320,192,222453,1,0,0:0:0:0:
64,192,222520,1,0,0:0:0:0:
192,192,222588,1,0,0:0:0:0:
320,192,222655,1,0,0:0:0:0:
448,192,222723,1,0,0:0:0:0:
192,192,222790,1,0,0:0:0:0:
320,192,222858,1,0,0:0:0:0:
64,192,222925,1,0,0:0:0:0:
192,192,222993,1,0,0:0:0:0:
448,192,223060,1,0,0:0:0:0:
320,192,223128,1,0,0:0:0:0:
192,192,223195,1,0,0:0:0:0:
64,192,223263,1,0,0:0:0:0:
320,192,223330,1,0,0:0:0:0:
192,192,223398,1,0,0:0:0:0:
448,192,223465,1,0,0:0:0:0:
320,192,223533,1,0,0:0:0:0:
64,192,223600,1,0,0:0:0:0:
320,192,223668,1,0,0:0:0:0:
192,192,223735,1,0,0:0:0:0:
448,192,223803,1,0,0:0:0:0:
320,192,223870,1,0,0:0:0:0:
192,192,223938,1,0,0:0:0:0:
320,192,224005,1,0,0:0:0:0:
64,192,224073,1,0,0:0:0:0:
192,192,224140,1,0,0:0:0:0:
320,192,224208,1,0,0:0:0:0:
192,192,224275,1,0,0:0:0:0:
448,192,224343,1,0,0:0:0:0:
320,192,224410,1,0,0:0:0:0:
192,192,224478,1,0,0:0:0:0:
64,192,224545,1,0,0:0:0:0:
320,192,224613,1,0,0:0:0:0:
192,192,224680,1,0,0:0:0:0:
448,192,224748,1,0,0:0:0:0:
320,192,224815,1,0,0:0:0:0:
192,192,224883,1,0,0:0:0:0:
64,192,224950,1,0,0:0:0:0:
320,192,225018,1,0,0:0:0:0:
448,192,225085,1,0,0:0:0:0:
192,192,225153,1,0,0:0:0:0:
320,192,225220,1,0,0:0:0:0:
64,192,225288,1,0,0:0:0:0:
192,192,225355,1,0,0:0:0:0:
448,192,225423,1,0,0:0:0:0:
320,192,225490,1,0,0:0:0:0:
64,192,225558,1,0,0:0:0:0:
192,192,225625,1,0,0:0:0:0:
64,192,225693,1,0,0:0:0:0:
320,192,225760,1,0,0:0:0:0:
192,192,225828,1,0,0:0:0:0:
320,192,225895,1,0,0:0:0:0:
448,192,225963,1,0,0:0:0:0:
192,192,226030,1,0,0:0:0:0:
320,192,226098,1,0,0:0:0:0:
192,192,226165,1,0,0:0:0:0:
64,192,226233,1,0,0:0:0:0:
192,192,226300,1,0,0:0:0:0:
320,192,226368,1,0,0:0:0:0:
192,192,226435,1,0,0:0:0:0:
448,192,226503,1,0,0:0:0:0:
320,192,226570,1,0,0:0:0:0:
192,192,226638,1,0,0:0:0:0:
320,192,226705,1,0,0:0:0:0:
64,192,226773,1,0,0:0:0:0:
192,192,226840,1,0,0:0:0:0:
320,192,226908,1,0,0:0:0:0:
64,192,226975,1,0,0:0:0:0:
448,192,227043,1,0,0:0:0:0:
192,192,227110,1,0,0:0:0:0:
448,192,227178,1,0,0:0:0:0:
320,192,227245,1,0,0:0:0:0:
192,192,227313,1,0,0:0:0:0:
320,192,227380,1,0,0:0:0:0:
64,192,227448,1,0,0:0:0:0:
192,192,227515,1,0,0:0:0:0:
320,192,227583,1,0,0:0:0:0:
448,192,227650,1,0,0:0:0:0:
192,192,227718,1,0,0:0:0:0:
64,192,227785,1,0,0:0:0:0:
320,192,227853,1,0,0:0:0:0:
192,192,227920,1,0,0:0:0:0:
448,192,227988,1,0,0:0:0:0:
320,192,228055,1,0,0:0:0:0:
192,192,228123,1,0,0:0:0:0:
320,192,228190,1,0,0:0:0:0:
64,192,228258,1,0,0:0:0:0:
192,192,228325,1,0,0:0:0:0:
320,192,228393,1,0,0:0:0:0:
448,192,228460,1,0,0:0:0:0:
192,192,228528,1,0,0:0:0:0:
320,192,228595,1,0,0:0:0:0:
64,192,228663,1,0,0:0:0:0:
320,192,228730,1,0,0:0:0:0:
192,192,228798,1,0,0:0:0:0:
448,192,228865,1,0,0:0:0:0:
320,192,228933,1,0,0:0:0:0:
192,192,229000,1,0,0:0:0:0:
320,192,229068,1,0,0:0:0:0:
64,192,229135,1,0,0:0:0:0:
192,192,229203,1,0,0:0:0:0:
320,192,229270,1,0,0:0:0:0:
448,192,229338,1,0,0:0:0:0:
192,192,229405,1,0,0:0:0:0:
320,192,229473,1,0,0:0:0:0:
192,192,229540,1,0,0:0:0:0:
64,192,229608,1,0,0:0:0:0:
448,192,229675,1,0,0:0:0:0:
320,192,229743,1,0,0:0:0:0:
192,192,229810,1,0,0:0:0:0:
320,192,229878,1,0,0:0:0:0:
192,192,229945,1,0,0:0:0:0:
64,192,230013,1,0,0:0:0:0:
320,192,230080,1,0,0:0:0:0:
192,192,230148,1,0,0:0:0:0:
320,192,230215,1,0,0:0:0:0:
448,192,230283,1,0,0:0:0:0:
64,192,230350,1,0,0:0:0:0:
320,192,230418,1,0,0:0:0:0:
192,192,230485,1,0,0:0:0:0:
320,192,230553,1,0,0:0:0:0:
448,192,230620,1,0,0:0:0:0:
192,192,230688,1,0,0:0:0:0:
320,192,230755,1,0,0:0:0:0:
64,192,230823,1,0,0:0:0:0:
320,192,230890,1,0,0:0:0:0:
192,192,230958,1,0,0:0:0:0:
64,192,231025,1,0,0:0:0:0:
448,192,231093,1,0,0:0:0:0:
320,192,231160,1,0,0:0:0:0:
192,192,231228,1,0,0:0:0:0:
320,192,231295,1,0,0:0:0:0:
64,192,231363,1,0,0:0:0:0:
192,192,231430,1,0,0:0:0:0:
320,192,231498,1,0,0:0:0:0:
448,192,231565,1,0,0:0:0:0:
192,192,231633,1,0,0:0:0:0:
320,192,231700,1,0,0:0:0:0:
64,192,231768,1,0,0:0:0:0:
192,192,231835,1,0,0:0:0:0:
320,192,231903,1,0,0:0:0:0:
448,192,231970,1,0,0:0:0:0:
192,192,232038,1,0,0:0:0:0:
64,192,232105,1,0,0:0:0:0:
320,192,232173,1,0,0:0:0:0:
448,192,232240,1,0,0:0:0:0:
192,192,232308,1,0,0:0:0:0:
64,192,232375,1,0,0:0:0:0:
320,192,232443,1,0,0:0:0:0:
192,192,232510,1,0,0:0:0:0:
320,192,232578,1,0,0:0:0:0:
192,192,232645,1,0,0:0:0:0:
64,192,232713,1,0,0:0:0:0:
448,192,232780,1,0,0:0:0:0:
320,192,232848,1,0,0:0:0:0:
64,192,232915,1,0,0:0:0:0:
192,192,232983,1,0,0:0:0:0:
320,192,233050,1,0,0:0:0:0:
448,192,233118,1,0,0:0:0:0:
192,192,233185,1,0,0:0:0:0:
64,192,233253,1,0,0:0:0:0:
320,192,233320,1,0,0:0:0:0:
192,192,233388,1,0,0:0:0:0:
320,192,233455,1,0,0:0:0:0:
448,192,233523,1,0,0:0:0:0:
192,192,233590,1,0,0:0:0:0:
320,192,233658,1,0,0:0:0:0:
64,192,233725,1,0,0:0:0:0:
192,192,233793,1,0,0:0:0:0:
320,192,233860,1,0,0:0:0:0:
192,192,233928,1,0,0:0:0:0:
448,192,233995,1,0,0:0:0:0:
320,192,234063,1,0,0:0:0:0:
192,192,234130,1,0,0:0:0:0:
320,192,234198,1,0,0:0:0:0:
64,192,234265,1,0,0:0:0:0:
320,192,234333,1,0,0:0:0:0:
448,192,234400,1,0,0:0:0:0:
192,192,234468,1,0,0:0:0:0:
320,192,234535,1,0,0:0:0:0:
64,192,234603,1,0,0:0:0:0:
448,192,234670,1,0,0:0:0:0:
64,192,234738,1,0,0:0:0:0:
192,192,234805,1,0,0:0:0:0:
320,192,234873,1,0,0:0:0:0:
64,192,234940,1,0,0:0:0:0:
192,192,235008,1,0,0:0:0:0:
448,192,235075,1,0,0:0:0:0:
320,192,235143,1,0,0:0:0:0:
64,192,235210,1,0,0:0:0:0:
192,192,235278,1,0,0:0:0:0:
320,192,235345,1,0,0:0:0:0:
192,192,235413,1,0,0:0:0:0:
64,192,235480,1,0,0:0:0:0:
320,192,235548,1,0,0:0:0:0:
448,192,235615,1,0,0:0:0:0:
192,192,235683,1,0,0:0:0:0:
320,192,235750,1,0,0:0:0:0:
448,192,235818,1,0,0:0:0:0:
192,192,235885,1,0,0:0:0:0:
64,192,235953,1,0,0:0:0:0:
192,192,236020,1,0,0:0:0:0:
320,192,236088,1,0,0:0:0:0:
192,192,236155,1,0,0:0:0:0:
448,192,236223,1,0,0:0:0:0:
320,192,236290,1,0,0:0:0:0:
192,192,236358,1,0,0:0:0:0:
320,192,236425,1,0,0:0:0:0:
64,192,236493,1,0,0:0:0:0:
192,192,236560,1,0,0:0:0:0:
320,192,236628,1,0,0:0:0:0:
192,192,236695,1,0,0:0:0:0:
448,192,236763,1,0,0:0:0:0:
320,192,236830,1,0,0:0:0:0:
192,192,236898,1,0,0:0:0:0:
64,192,236965,1,0,0:0:0:0:
320,192,237033,1,0,0:0:0:0:
192,192,237100,1,0,0:0:0:0:
448,192,237168,1,0,0:0:0:0:
64,192,237235,1,0,0:0:0:0:
192,192,237303,1,0,0:0:0:0:
320,192,237370,1,0,0:0:0:0:
192,192,237438,1,0,0:0:0:0:
448,192,237505,1,0,0:0:0:0:
320,192,237573,1,0,0:0:0:0:
64,192,237640,1,0,0:0:0:0:
192,192,237708,1,0,0:0:0:0:
448,192,237775,1,0,0:0:0:0:
320,192,237843,1,0,0:0:0:0:
192,192,237910,1,0,0:0:0:0:
320,192,237978,1,0,0:0:0:0:
64,192,238045,1,0,0:0:0:0:
192,192,238113,1,0,0:0:0:0:
320,192,238180,1,0,0:0:0:0:
448,192,238248,1,0,0:0:0:0:
192,192,238315,1,0,0:0:0:0:
320,192,238383,1,0,0:0:0:0:
64,192,238450,1,0,0:0:0:0:
448,192,238518,1,0,0:0:0:0:
320,192,238585,1,0,0:0:0:0:
192,192,238653,1,0,0:0:0:0:
64,192,238720,1,0,0:0:0:0:
320,192,238788,1,0,0:0:0:0:
192,192,238855,1,0,0:0:0:0:
448,192,238923,1,0,0:0:0:0:
320,192,238990,1,0,0:0:0:0:
64,192,239058,1,0,0:0:0:0:
192,192,239125,1,0,0:0:0:0:
320,192,239193,1,0,0:0:0:0:
192,192,239260,1,0,0:0:0:0:
448,192,239328,1,0,0:0:0:0:
64,192,239395,1,0,0:0:0:0:
320,192,239463,1,0,0:0:0:0:
448,192,239530,1,0,0:0:0:0:
192,192,239598,1,0,0:0:0:0:
448,192,239665,1,0,0:0:0:0:
64,192,239733,1,0,0:0:0:0:
192,192,239800,1,0,0:0:0:0:
320,192,239868,1,0,0:0:0:0:
192,192,239935,1,0,0:0:0:0:
448,192,240003,1,0,0:0:0:0:
320,192,240070,1,0,0:0:0:0:
64,192,240138,1,0,0:0:0:0:
192,192,240205,1,0,0:0:0:0:
320,192,240273,1,0,0:0:0:0:
192,192,240340,1,0,0:0:0:0:
448,192,240408,1,0,0:0:0:0:
320,192,240475,1,0,0:0:0:0:
192,192,240543,1,0,0:0:0:0:
320,192,240610,1,0,0:0:0:0:
64,192,240678,1,0,0:0:0:0:
192,192,240745,1,0,0:0:0:0:
320,192,240813,1,0,0:0:0:0:
448,192,240880,1,0,0:0:0:0:
192,192,240948,1,0,0:0:0:0:
320,192,241015,1,0,0:0:0:0:
192,192,241083,1,0,0:0:0:0:
64,192,241150,1,0,0:0:0:0:
448,192,241218,1,0,0:0:0:0:
192,192,241285,1,0,0:0:0:0:
320,192,241353,1,0,0:0:0:0:
192,192,241420,1,0,0:0:0:0:
64,192,241488,1,0,0:0:0:0:
320,192,241555,1,0,0:0:0:0:
192,192,241623,1,0,0:0:0:0:
320,192,241690,1,0,0:0:0:0:
448,192,241758,1,0,0:0:0:0:
192,192,241825,1,0,0:0:0:0:
320,192,241893,1,0,0:0:0:0:
192,192,241960,1,0,0:0:0:0:
448,192,242028,1,0,0:0:0:0:
320,192,242095,1,0,0:0:0:0:
64,192,242163,1,0,0:0:0:0:
192,192,242230,1,0,0:0:0:0:
320,192,242298,1,0,0:0:0:0:
192,192,242365,1,0,0:0:0:0:
448,192,242433,1,0,0:0:0:0:
64,192,242500,1,0,0:0:0:0:
320,192,242568,1,0,0:0:0:0:
64,192,242635,1,0,0:0:0:0:
320,192,242703,1,0,0:0:0:0:
448,192,242770,1,0,0:0:0:0:
192,192,242838,1,0,0:0:0:0:
320,192,242905,1,0,0:0:0:0:
192,192,242973,1,0,0:0:0:0:
448,192,243040,1,0,0:0:0:0:
64,192,243108,1,0,0:0:0:0:
192,192,243175,1,0,0:0:0:0:
320,192,243243,1,0,0:0:0:0:
192,192,243310,1,0,0:0:0:0:
448,192,243378,1,0,0:0:0:0:
320,192,243445,1,0,0:0:0:0:
192,192,243513,1,0,0:0:0:0:
320,192,243580,1,0,0:0:0:0:
448,192,243648,1,0,0:0:0:0:
192,192,243715,1,0,0:0:0:0:
320,192,243783,1,0,0:0:0:0:
192,192,243850,1,0,0:0:0:0:
64,192,243918,1,0,0:0:0:0:
320,192,243985,1,0,0:0:0:0:
192,192,244053,1,0,0:0:0:0:
448,192,244120,1,0,0:0:0:0:
320,192,244188,1,0,0:0:0:0:
192,192,244255,1,0,0:0:0:0:
64,192,244323,1,0,0:0:0:0:
320,192,244390,1,0,0:0:0:0:
192,192,244458,1,0,0:0:0:0:
64,192,244525,1,0,0:0:0:0:
448,192,244593,1,0,0:0:0:0:
192,192,244660,1,0,0:0:0:0:
320,192,244728,1,0,0:0:0:0:
448,192,244795,1,0,0:0:0:0:
192,192,244863,1,0,0:0:0:0:
320,192,244930,1,0,0:0:0:0:
448,192,244998,1,0,0:0:0:0:
192,192,245065,1,0,0:0:0:0:
320,192,245133,1,0,0:0:0:0:
448,192,245133,1,0,0:0:0:0:
64,192,245223,1,0,0:0:0:0:
192,192,245223,1,0,0:0:0:0:
320,192,245313,1,0,0:0:0:0:
448,192,245313,1,0,0:0:0:0:
64,192,245403,1,0,0:0:0:0:
192,192,245403,1,0,0:0:0:0:
320,192,245470,1,0,0:0:0:0:
448,192,245538,1,0,0:0:0:0:
192,192,245605,1,0,0:0:0:0:
64,192,245673,1,0,0:0:0:0:
320,192,245740,1,0,0:0:0:0:
192,192,245808,1,0,0:0:0:0:
320,192,245875,1,0,0:0:0:0:
448,192,245943,1,0,0:0:0:0:
192,192,246010,1,0,0:0:0:0:
320,192,246078,1,0,0:0:0:0:
64,192,246145,1,0,0:0:0:0:
192,192,246213,1,0,0:0:0:0:
320,192,246280,1,0,0:0:0:0:
448,192,246348,1,0,0:0:0:0:
192,192,246415,1,0,0:0:0:0:
320,192,246483,1,0,0:0:0:0:
64,192,246550,1,0,0:0:0:0:
448,192,246618,1,0,0:0:0:0:
320,192,246685,1,0,0:0:0:0:
192,192,246753,1,0,0:0:0:0:
320,192,246820,1,0,0:0:0:0:
64,192,246888,1,0,0:0:0:0:
192,192,246955,1,0,0:0:0:0:
320,192,247023,1,0,0:0:0:0:
192,192,247090,1,0,0:0:0:0:
448,192,247158,1,0,0:0:0:0:
320,192,247225,1,0,0:0:0:0:
192,192,247293,1,0,0:0:0:0:
64,192,247360,1,0,0:0:0:0:
320,192,247428,1,0,0:0:0:0:
192,192,247495,1,0,0:0:0:0:
448,192,247563,1,0,0:0:0:0:
320,192,247630,1,0,0:0:0:0:
64,192,247698,1,0,0:0:0:0:
192,192,247765,1,0,0:0:0:0:
320,192,247833,1,0,0:0:0:0:
192,192,247900,1,0,0:0:0:0:
448,192,247968,1,0,0:0:0:0:
320,192,248035,1,0,0:0:0:0:
192,192,248103,1,0,0:0:0:0:
64,192,248170,1,0,0:0:0:0:
192,192,248238,1,0,0:0:0:0:
448,192,248305,1,0,0:0:0:0:
192,192,248373,1,0,0:0:0:0:
320,192,248440,1,0,0:0:0:0:
192,192,248508,1,0,0:0:0:0:
64,192,248575,1,0,0:0:0:0:
320,192,248643,1,0,0:0:0:0:
192,192,248710,1,0,0:0:0:0:
448,192,248778,1,0,0:0:0:0:
320,192,248845,1,0,0:0:0:0:
64,192,248913,1,0,0:0:0:0:
320,192,248980,1,0,0:0:0:0:
192,192,249048,1,0,0:0:0:0:
320,192,249115,1,0,0:0:0:0:
448,192,249183,1,0,0:0:0:0:
64,192,249250,1,0,0:0:0:0:
320,192,249318,1,0,0:0:0:0:
192,192,249385,1,0,0:0:0:0:
64,192,249453,1,0,0:0:0:0:
320,192,249520,1,0,0:0:0:0:
192,192,249588,1,0,0:0:0:0:
448,192,249655,1,0,0:0:0:0:
320,192,249723,1,0,0:0:0:0:
192,192,249790,1,0,0:0:0:0:
320,192,249858,1,0,0:0:0:0:
64,192,249925,1,0,0:0:0:0:
192,192,249993,1,0,0:0:0:0:
320,192,250060,1,0,0:0:0:0:
448,192,250128,1,0,0:0:0:0:
192,192,250195,1,0,0:0:0:0:
320,192,250263,1,0,0:0:0:0:
64,192,250330,1,0,0:0:0:0:
192,192,250398,1,0,0:0:0:0:
320,192,250465,1,0,0:0:0:0:
448,192,250533,1,0,0:0:0:0:
192,192,250600,1,0,0:0:0:0:
320,192,250668,1,0,0:0:0:0:
64,192,250735,1,0,0:0:0:0:
192,192,250803,1,0,0:0:0:0:
320,192,250870,1,0,0:0:0:0:
192,192,250938,1,0,0:0:0:0:
448,192,251005,1,0,0:0:0:0:
192,192,251073,1,0,0:0:0:0:
320,192,251140,1,0,0:0:0:0:
64,192,251208,1,0,0:0:0:0:
192,192,251275,1,0,0:0:0:0:
448,192,251343,1,0,0:0:0:0:
192,192,251410,1,0,0:0:0:0:
64,192,251478,1,0,0:0:0:0:
320,192,251545,1,0,0:0:0:0:
192,192,251613,1,0,0:0:0:0:
448,192,251613,1,0,0:0:0:0:
320,192,251748,1,0,0:0:0:0:
64,192,251883,1,0,0:0:0:0:
192,192,251883,1,0,0:0:0:0:
448,192,252018,1,0,0:0:0:0:
192,192,252153,1,0,0:0:0:0:
320,192,252153,1,0,0:0:0:0:
192,192,252288,1,0,0:0:0:0:
192,192,252423,1,0,0:0:0:0:
448,192,252423,1,0,0:0:0:0:
320,192,252558,1,0,0:0:0:0:
64,192,252693,1,0,0:0:0:0:
448,192,252693,1,0,0:0:0:0:
192,192,252760,1,0,0:0:0:0:
320,192,252828,1,0,0:0:0:0:
192,192,252895,1,0,0:0:0:0:
448,192,252963,1,0,0:0:0:0:
320,192,253030,1,0,0:0:0:0:
192,192,253098,1,0,0:0:0:0:
320,192,253165,1,0,0:0:0:0:
64,192,253233,1,0,0:0:0:0:
192,192,253233,1,0,0:0:0:0:
448,192,253300,1,0,0:0:0:0:
192,192,253368,1,0,0:0:0:0:
64,192,253435,1,0,0:0:0:0:
320,192,253503,1,0,0:0:0:0:
192,192,253570,1,0,0:0:0:0:
320,192,253638,1,0,0:0:0:0:
64,192,253705,1,0,0:0:0:0:
192,192,253773,1,0,0:0:0:0:
448,192,253773,1,0,0:0:0:0:
320,192,253840,1,0,0:0:0:0:
192,192,253908,1,0,0:0:0:0:
320,192,253975,1,0,0:0:0:0:
448,192,254043,1,0,0:0:0:0:
192,192,254110,1,0,0:0:0:0:
64,192,254178,1,0,0:0:0:0:
320,192,254245,1,0,0:0:0:0:
448,192,254313,1,0,0:0:0:0:
64,192,254313,1,0,0:0:0:0:
192,192,254380,1,0,0:0:0:0:
320,192,254448,1,0,0:0:0:0:
64,192,254515,1,0,0:0:0:0:
448,192,254583,1,0,0:0:0:0:
320,192,254650,1,0,0:0:0:0:
192,192,254718,1,0,0:0:0:0:
320,192,254785,1,0,0:0:0:0:
64,192,254853,1,0,0:0:0:0:
192,192,254853,1,0,0:0:0:0:
320,192,254920,1,0,0:0:0:0:
448,192,254988,1,0,0:0:0:0:
192,192,255055,1,0,0:0:0:0:
320,192,255123,1,0,0:0:0:0:
64,192,255190,1,0,0:0:0:0:
192,192,255258,1,0,0:0:0:0:
320,192,255325,1,0,0:0:0:0:
192,192,255393,1,0,0:0:0:0:
448,192,255393,1,0,0:0:0:0:
64,192,255460,1,0,0:0:0:0:
192,192,255528,1,0,0:0:0:0:
448,192,255595,1,0,0:0:0:0:
192,192,255663,1,0,0:0:0:0:
320,192,255730,1,0,0:0:0:0:
64,192,255798,1,0,0:0:0:0:
192,192,255865,1,0,0:0:0:0:
320,192,255933,1,0,0:0:0:0:
448,192,255933,1,0,0:0:0:0:
192,192,256000,1,0,0:0:0:0:
320,192,256068,1,0,0:0:0:0:
448,192,256135,1,0,0:0:0:0:
64,192,256203,1,0,0:0:0:0:
320,192,256203,1,0,0:0:0:0:
192,192,256270,1,0,0:0:0:0:
320,192,256338,1,0,0:0:0:0:
64,192,256405,1,0,0:0:0:0:
192,192,256473,1,0,0:0:0:0:
448,192,256473,1,0,0:0:0:0:
320,192,256540,1,0,0:0:0:0:
64,192,256608,1,0,0:0:0:0:
448,192,256675,1,0,0:0:0:0:
320,192,256743,1,0,0:0:0:0:
192,192,256743,1,0,0:0:0:0:
64,192,256810,1,0,0:0:0:0:
192,192,256878,1,0,0:0:0:0:
320,192,256945,1,0,0:0:0:0:
64,192,257013,128,0,261333:0:0:0:0:
448,192,257013,128,0,261333:0:0:0:0:
