osu file format v9

[General]
AudioFilename: Freedom Dive.mp3
AudioLeadIn: 0
PreviewTime: 164126
Countdown: 0
SampleSet: Normal
StackLeniency: 0.7
Mode: 0
LetterboxInBreaks: 0

[Editor]
Bookmarks: 52075,104726,131996,136316,143876,200846,228589,240267
DistanceSpacing: 0.8
BeatDivisor: 4
GridSize: 8

[Metadata]
Title:FREEDOM DiVE
Artist:xi
Creator:Nakagawa-Kanon
Version:FOUR DIMENSIONS
Source:BMS
Tags:Parousia OnosakiHito Kirisaki_Hayashi

[Difficulty]
HPDrainRate:6
CircleSize:4
OverallDifficulty:8
ApproachRate:9
SliderMultiplier:1.9
SliderTickRate:1

[Events]
//Background and Video events
0,0,"587809.jpg"
//Break Periods
2,82253,90093
2,147054,161374
2,201054,208760
//Storyboard Layer 0 (Background)
//Storyboard Layer 1 (Fail)
//Storyboard Layer 2 (Pass)
//Storyboard Layer 3 (Foreground)
//Storyboard Sound Samples
//Background Colour Transformations
3,100,163,162,255

[TimingPoints]
2133,270.002700027,4,1,0,70,1,0
28053,-100,4,2,0,70,0,0
36490,-100,4,1,0,40,0,0
36693,-100,4,2,0,70,0,0
41958,-100,4,1,0,40,0,0
42093,-100,4,2,0,70,0,0
45333,-100,4,1,0,50,0,0
47493,-100,4,1,0,70,0,0
64773,-83.3333333333333,4,1,0,70,0,1
82053,-100,4,1,0,70,0,0
107974,-83.3333333333333,4,1,0,70,0,1
146854,-100,4,1,0,70,0,0
161704,-100,4,2,0,70,0,0
209225,-100,4,1,0,70,0,0
209562,-100,4,2,0,70,0,0
211655,-100,4,1,0,70,0,0
211722,-100,4,2,0,70,0,0
213747,-100,4,1,0,70,0,0
213882,-100,4,2,0,70,0,0
214692,-100,4,1,0,70,0,0
214962,-100,4,2,0,70,0,0
215367,-100,4,1,0,70,0,0
215502,-100,4,2,0,70,0,0
215907,-100,4,1,0,70,0,0
216042,-100,4,2,0,70,0,0
216515,-100,4,1,0,70,0,0
216582,-100,4,2,0,70,0,0
216785,-100,4,1,0,70,0,0
216852,-100,4,2,0,70,0,0
217055,-100,4,1,0,70,0,0
217122,-100,4,2,0,70,0,0
217325,-100,4,1,0,70,0,0
217392,-100,4,2,0,70,0,0
217595,-100,4,1,0,70,0,0
217662,-100,4,2,0,70,0,0
217865,-100,4,1,0,70,0,0
217932,-100,4,2,0,70,0,0
218135,-83.3333333333333,4,1,0,70,0,1
248375,-71.4285714285714,4,1,0,70,0,1
257015,-71.4285714285714,4,1,0,70,0,0
257083,-71.4285714285714,4,2,0,5,0,0

[Colours]
Combo1 : 255,128,128
Combo2 : 128,255,0
Combo3 : 0,128,192
Combo4 : 255,255,128

[HitObjects]
104,344,2133,2,0,B|264:344,2,142.5,4|0|0
16,312,2673,1,0
88,248,2808,1,0
48,48,2943,2,0,B|56:160,1,95
200,256,3213,2,0,B|256:200|224:112,2,142.5
88,248,3753,1,0
168,376,3888,1,0
304,312,4023,1,0
304,40,4293,6,0,B|472:40,2,142.5,4|0|0
240,112,4833,2,0,B|224:176|288:208,1,95
168,40,5103,2,0,B|120:64|128:136,1,95
32,296,5373,2,0,B|120:320|152:232,2,142.5
176,344,5913,1,0
221,357,5980,1,0
267,347,6048,2,0,B|302:351,4,23.75
224,264,6318,1,0
360,192,6453,6,0,B|440:208|464:304,2,142.5,4|0|0
280,144,6993,1,0
88,176,7128,2,0,B|136:192|184:176,1,95
136,88,7398,1,0
224,264,7533,2,0,B|296:248|376:264,2,142.5
128,280,8073,1,0
192,352,8208,1,0
96,368,8343,1,0
416,368,8613,6,0,B|392:312|392:312|416:208,2,142.5,4|0|0
480,304,9153,2,0,B|504:192,1,95,4|0
328,240,9423,2,0,B|304:352,1,95
144,328,9693,5,4
108,314,9760,1,0
82,285,9828,1,0
69,249,9895,1,0
72,210,9963,1,4
85,174,10030,1,0
115,150,10098,1,0
149,134,10165,1,0
187,133,10233,1,4
223,142,10300,1,0
259,154,10368,1,0
296,150,10435,1,0
329,131,10503,1,4
350,99,10570,1,0
359,62,10638,1,0
390,82,10705,1,0
428,86,10773,6,0,B|474:55,2,47.5,4|0|0
408,176,11043,2,0,B|392:224|408:288,1,95,8|0
440,360,11313,2,0,B|496:360,2,47.5
344,352,11583,1,8
248,360,11718,1,0
152,352,11853,6,0,B|48:376|-8:296,1,142.5
8,252,12123,2,0,B|-16:204|8:156,1,95,8|0
184,96,12393,2,0,B|208:144|184:192,1,95
112,232,12663,1,8
104,136,12798,1,0
200,272,12933,6,0,B|272:296|336:240|328:152,1,190,4|8
312,80,13338,1,0
480,112,13473,1,0
480,112,13540,1,0
480,112,13608,2,0,B|464:224,1,95,0|8
488,296,13878,1,0
408,344,14013,6,0,B|304:328|208:384,1,190,0|12
136,336,14418,1,0
16,232,14553,2,12,B|-8:312|64:384,2,142.5
80,112,15093,5,0
80,112,15160,1,0
80,112,15228,2,0,B|184:96,1,95,4|8
268,84,15498,1,0
384,224,15633,5,0
384,224,15700,1,0
384,224,15768,2,0,B|280:208,1,95,0|12
48,320,16038,2,0,B|152:304,1,95,4|0
408,376,16308,5,0
408,376,16375,1,0
408,376,16443,2,0,B|304:360,1,95,12|0
184,304,16713,5,4
151,284,16780,1,0
131,250,16848,1,0
125,212,16915,1,0
87,221,16983,1,8
49,218,17050,1,0
17,196,17118,1,0
0,161,17185,1,0
1,122,17253,6,0,B|-8:65|5:14,1,95,4|0
200,80,17523,2,0,B|209:137|196:188,1,95,8|0
96,128,17793,6,0,B|87:71|100:20,1,95,4|0
295,86,18063,2,0,B|304:143|291:194,1,95,8|0
288,216,18265,1,0
272,248,18333,2,0,B|384:240,1,95,12|0
96,344,18603,2,0,B|-16:336,1,95,12|0
304,368,18873,5,12
341,370,18940,1,0
379,367,19008,1,0
415,357,19075,1,0
448,338,19143,1,12
476,313,19210,1,0
493,278,19278,1,0
502,241,19345,1,0
505,202,19413,6,0,B|512:107,1,95,4|0
256,88,19683,2,0,B|249:183,1,95,8|0
368,240,19953,6,0,B|375:145,1,95
120,128,20223,2,0,B|113:223,1,95,8|0
256,336,20493,6,0,B|160:368|72:320,1,190,0|8
224,224,20898,1,0
120,128,21033,2,0,B|216:96|304:144,1,190,0|8
456,56,21438,5,0
456,56,21573,2,0,B|464:112|440:168,1,95,4|0
360,312,21843,2,0,B|352:256|376:200,1,95,8|0
464,232,22113,5,0
360,136,22248,1,0
248,224,22383,1,8
136,136,22518,1,0
64,192,22653,5,0
64,192,22720,1,0
64,192,22788,2,0,B|72:288,1,95,0|12
152,344,23058,1,0
360,312,23193,2,4,B|312:352|312:352|224:336,2,142.5,12|12|12
448,224,23733,5,4
448,224,23800,1,0
448,224,23868,2,0,B|472:280|464:328,1,95,0|8
344,208,24138,1,0
200,64,24273,5,0
32,72,24408,1,0
112,224,24543,1,12
112,128,24678,2,0,B|216:200|296:112,1,190,4|0
352,96,25015,1,0
352,96,25083,2,0,B|464:88,1,95,12|0
384,304,25353,5,4
344,312,25420,1,0
304,320,25488,1,0
264,328,25555,1,0
224,336,25623,2,0,B|104:320,1,95,8|0
64,352,25825,1,0
64,352,25893,6,0,B|40:312|40:312|64:248,1,95,4|0
72,232,26095,1,0
99,205,26163,1,12
134,191,26230,1,0
172,190,26298,1,0
203,210,26365,1,0
216,245,26433,1,4
251,257,26500,1,0
287,246,26568,1,0
309,215,26635,1,0
313,176,26703,1,12
296,142,26770,1,0
291,104,26838,1,0
309,71,26905,1,0
345,61,26973,5,12
377,80,27040,1,0
389,116,27108,1,0
408,148,27175,1,0
442,163,27243,1,12
479,168,27310,1,0
468,204,27378,1,0
460,240,27445,1,0
468,277,27513,1,12
480,312,27580,1,0
480,350,27648,1,0
448,370,27715,1,0
409,368,27783,1,12
387,336,27850,1,0
350,324,27918,1,0
312,324,27985,1,0
280,345,28053,5,6
244,332,28120,1,0
205,331,28188,1,0
171,347,28255,1,2
133,353,28323,1,0
95,346,28390,1,0
63,324,28458,1,2
16,240,28593,5,0
52,227,28660,1,2
91,226,28728,1,0
125,242,28795,1,0
163,248,28863,1,2
201,241,28930,1,0
233,219,28998,1,2
432,160,29133,6,0,B|440:96,1,47.5,2|0
328,248,29335,2,0,B|336:184,1,47.5,2|0
256,64,29538,1,2
222,81,29605,1,0
184,89,29673,1,0
147,81,29740,1,2
113,62,29808,1,0
115,99,29875,1,0
106,136,29943,1,2
88,169,30010,1,0
76,205,30078,1,2
68,242,30145,1,0
68,280,30213,6,0,B|72:328|88:376,1,95,2|0
160,384,30415,1,2
160,384,30483,2,0,B|272:360,1,95,0|2
464,328,30753,1,0
464,328,30820,2,0,B|384:320|328:352,1,95,2|0
312,296,31023,2,0,B|288:248|296:184,1,95,2|2
464,40,31293,6,0,B|504:112|464:216,1,142.5,2|2
476,178,31563,2,0,B|359:175,1,95,0|2
88,48,31833,2,0,B|204:50,1,95,0|2
128,336,32103,2,0,B|11:333,1,95,0|2
336,272,32373,6,0,B|416:256|472:344,2,142.5,2|2|2
248,296,32913,1,2
248,296,32980,1,0
248,296,33048,2,0,B|240:248|248:192,1,95,0|2
336,176,33318,1,0
256,48,33453,5,2
240,82,33520,1,0
209,105,33588,1,0
173,117,33655,1,0
134,118,33723,1,2
97,108,33790,1,0
62,92,33858,1,0
71,128,33925,1,0
84,163,33993,1,2
89,200,34060,1,0
90,238,34128,1,0
86,275,34195,1,0
72,310,34263,1,2
46,338,34330,1,0
84,338,34398,1,0
121,343,34465,1,0
156,357,34533,5,2
193,353,34600,1,0
222,328,34668,1,0
236,293,34735,1,0
267,270,34803,1,2
304,266,34870,1,0
339,280,34938,1,0
355,313,35005,1,0
382,339,35073,1,2
419,341,35140,1,0
453,325,35208,1,0
474,293,35275,1,0
467,255,35343,1,2
447,222,35410,1,0
412,205,35478,1,0
374,203,35545,1,0
340,185,35613,6,0,B|264:136|314:52,2,142.5,2|2|2
392,104,36153,1,2
392,104,36220,1,0
392,104,36288,2,0,B|504:104,1,95,2|2
248,240,36558,5,0
248,240,36625,1,0
248,240,36693,2,0,B|144:240,1,95,4|0
1,328,36963,2,0,B|96:328,1,95,2|0
56,80,37233,2,0,B|0:144|48:240,1,142.5,2|0
56,240,37503,1,2
192,328,37638,1,0
472,360,37773,5,2
400,352,37863,1,2
360,288,37953,1,2
360,216,38043,2,0,B|376:136|472:112|528:176,1,190,2|0
456,240,38448,1,2
456,240,38515,1,0
456,240,38583,1,0
272,256,38718,1,2
120,176,38853,6,0,B|64:184|32:248,1,95,4|0
208,144,39123,2,0,B|184:88|120:80,1,95,2|0
192,232,39393,2,0,B|168:304|240:360|304:336,1,190,0|2
400,320,39798,1,0
464,152,39933,5,2
426,158,40000,1,0
392,175,40068,1,0
368,204,40135,1,0
330,212,40203,1,2
297,193,40270,1,0
286,156,40338,1,0
293,119,40405,1,0
286,81,40473,1,2
257,55,40540,1,0
219,60,40608,1,0
199,92,40675,1,0
201,130,40743,1,2
202,167,40810,1,0
180,198,40878,1,0
142,197,40945,1,0
114,170,41013,5,4
84,146,41080,1,0
46,152,41148,1,0
22,181,41215,1,0
23,219,41283,1,0
43,250,41350,1,0
81,253,41418,1,0
113,272,41485,1,0
131,305,41553,1,0
207,361,41688,1,0
224,327,41755,1,0
255,305,41823,1,0
290,293,41890,1,0
328,291,41958,1,0
365,297,42025,1,0
398,314,42093,6,0,B|446:286|438:216,1,95,4|0
440,40,42363,2,0,B|392:68|400:138,1,95
200,168,42633,2,0,B|256:224|336:200,2,142.5,4|0|0
160,80,43173,5,4
113,74,43240,1,0
69,92,43308,1,0
47,133,43375,1,0
46,180,43443,1,0
72,218,43510,1,0
110,246,43578,1,0
136,284,43645,1,0
147,330,43713,1,4
140,376,43780,1,0
179,348,43848,1,0
224,334,43915,1,0
271,330,43983,1,4
316,341,44050,1,0
355,367,44118,1,0
401,374,44185,1,0
448,367,44253,6,0,B|462:262,1,95,4|0
256,216,44523,2,0,B|270:111,1,95,4|0
352,288,44793,6,0,B|366:183,1,95,4|0
160,137,45063,2,0,B|174:32,1,95,4|0
172,42,45265,1,0
172,42,45333,6,0,B|64:44,2,95,4|0|0
408,112,45738,1,0
408,112,45805,1,0
408,112,45873,2,0,B|516:110,2,95,4|0|0
48,224,46278,5,0
48,224,46345,1,0
48,224,46413,2,0,B|-16:216,3,47.5,4|0|0|0
64,312,46683,2,0,B|0:320,3,47.5,4|0|0|0
136,352,46953,2,0,B|104:392,3,47.5,4|0|0|0
216,336,47223,1,0
260,321,47290,1,0
307,314,47358,1,0
347,337,47425,1,0
377,374,47493,6,0,B|371:298|382:247,1,95,4|0
464,48,47763,2,0,B|470:124|459:175,1,95,8|0
208,136,48033,1,0
208,136,48100,1,0
208,136,48168,2,0,B|256:144|304:136,1,95,0|8
256,56,48438,1,0
176,224,48573,6,0,B|128:216|72:224,1,95
264,344,48843,2,0,B|216:352|160:344,1,95,8|0
360,224,49113,2,0,B|312:216|256:224,1,95
448,344,49383,2,0,B|400:352|344:344,1,95,8|0
448,224,49653,6,0,B|512:136|432:32,1,190,0|8
360,88,50058,1,0
272,56,50193,1,0
272,56,50260,1,0
272,56,50328,2,0,B|176:64,2,95,0|8|0
80,112,50733,6,0,B|72:160|96:208,1,95
40,280,51003,2,0,B|128:352|216:264,1,190,8|0
304,248,51408,1,0
304,248,51475,1,0
304,248,51543,2,0,B|328:304|312:360,1,95,8|0
360,160,51813,6,0,B|472:168,1,95
288,64,52083,2,0,B|176:72,1,95,8|0
8,176,52353,2,0,B|-16:256|72:304|128:248,1,190,0|8
208,208,52758,5,0
208,208,52826,1,0
208,208,52893,2,0,B|224:264|200:304,1,95,0|0
120,152,53163,2,0,B|104:96|128:56,1,95,8|0
320,176,53433,2,0,B|384:272|320:360,1,190,0|8
324,353,53838,1,0
256,88,53973,6,0,B|312:40|400:64|424:144,1,190,0|8
408,216,54378,1,0
320,176,54513,2,0,B|264:224|176:200|152:120,1,190,0|8
40,320,54918,5,0
88,312,54986,1,0
135,313,55053,1,4
181,326,55121,1,0
222,349,55188,1,0
260,320,55256,1,0
304,304,55323,1,12
351,309,55391,1,0
379,346,55458,1,0
424,361,55526,1,0
470,352,55593,1,4
497,312,55661,1,0
489,265,55728,1,0
458,228,55796,1,0
411,221,55863,1,12
363,221,55931,1,0
321,198,55998,1,0
298,155,56066,1,0
293,108,56133,6,0,B|324:62|380:79,1,95,4|0
184,128,56403,2,0,B|160:80|208:32,1,95,8|0
112,224,56673,1,0
112,224,56741,1,0
112,224,56808,2,0,B|64:200|48:136,2,95,0|8|0
240,344,57213,6,0,B|352:320|320:368|448:336,1,190,0|8
480,264,57618,1,0
468,217,57686,1,0
432,185,57753,1,0
385,173,57821,1,0
338,181,57888,1,0
248,149,58023,2,0,B|229:101|251:52,1,95,8|0
112,224,58293,6,0,B|16:240,1,95
152,352,58563,2,0,B|248:408|336:328,1,190,8|0
384,256,58968,1,0
384,256,59036,1,0
384,256,59103,2,0,B|368:200|392:144,1,95,8|0
296,24,59373,6,0,B|168:24|192:168,1,190,0|8
16,312,59778,1,0
16,312,59846,1,0
16,312,59913,2,0,B|136:288,1,95
304,312,60183,2,0,B|184:336,1,95,8|0
464,296,60453,6,0,B|480:168|416:232|440:88,1,190,0|8
360,56,60858,1,0
296,128,60993,1,0
304,176,61061,1,0
272,216,61128,2,0,B|264:280|288:328,2,95,0|8|0
144,184,61533,6,0,B|96:184|24:224,1,95
80,368,61803,2,0,B|128:368|200:328,1,95,8|0
304,296,62073,2,0,B|376:208|288:112,1,190,0|8
210,91,62478,1,0
344,48,62613,5,4
408,80,62748,1,0
456,136,62883,1,8
480,208,63018,1,0
424,352,63153,5,4
352,288,63288,1,0
264,264,63423,1,8
168,280,63558,1,0
56,352,63693,5,4
27,313,63761,1,0
25,265,63828,1,0
51,225,63896,1,0
96,213,63963,1,12
140,196,64031,1,0
168,160,64098,1,0
176,110,64166,1,0
159,65,64233,1,4
193,32,64301,1,0
240,34,64368,1,0
273,68,64436,1,0
268,114,64503,1,12
262,161,64571,1,0
288,200,64638,1,0
332,217,64706,1,0
385,198,64773,5,6
432,224,64841,2,2,B|454:282|415:335,1,114.000002717972
368,352,65043,2,0,B|504:360,1,114.000002717972,10|2
256,312,65313,1,2
200,296,65381,1,2
144,304,65448,1,0
96,336,65516,1,2
48,368,65583,2,0,B|16:312|48:232,1,114.000002717972,10|2
152,88,65853,6,2,B|192:168|160:272,1,171.000004076958
200,296,66123,2,0,B|248:288|312:312,1,114.000002717972,8|2
416,272,66393,1,2
416,272,66461,1,0
416,272,66528,1,2
336,184,66663,2,0,B|320:128|336:56,1,114.000002717972,8|2
224,40,66933,6,2,B|128:32|128:32|64:80,1,171.000004076958
24,48,67203,2,0,B|8:96|16:168,1,114.000002717972,8|2
88,248,67473,1,0
88,248,67541,2,2,B|184:232|256:280,1,171.000004076958,2|10
328,360,67878,1,0
416,288,68013,6,2,B|400:232|408:168,1,114.000002717972
448,136,68216,1,0
504,128,68283,1,8
432,40,68418,1,2
344,112,68553,2,2,B|272:136|216:104,1,114.000002717972,2|2
0,208,68823,2,2,B|72:232|128:200,1,114.000002717972,10|2
416,288,69093,6,2,B|360:272|296:296,1,114.000002717972
256,320,69296,1,0
208,296,69363,2,0,B|192:240|208:176,1,114.000002717972,8|2
296,112,69633,5,2
408,144,69768,1,0
448,248,69903,1,10
416,360,70038,1,0
304,376,70173,6,0,B|176:368,1,114.000002717972,2|0
32,256,70443,2,0,B|160:248,1,114.000002717972,10|0
368,208,70713,2,0,B|240:200,1,114.000002717972,2|0
0,112,70983,2,0,B|128:104,1,114.000002717972,10|0
296,112,71253,5,2
304,152,71321,1,0
312,192,71388,1,0
200,160,71523,5,10
208,200,71591,1,0
216,240,71658,1,0
104,208,71793,5,2
112,248,71861,1,0
120,288,71928,1,0
8,256,72063,5,10
16,296,72131,1,0
24,336,72198,1,0
192,368,72333,5,2
247,354,72401,1,0
303,351,72468,1,0
360,356,72536,1,0
414,369,72603,1,14
470,359,72671,1,0
502,312,72738,1,0
493,255,72806,1,0
460,208,72873,1,6
402,212,72941,1,0
354,242,73008,1,0
297,232,73076,1,0
262,187,73143,1,14
261,129,73211,1,0
283,77,73278,1,0
337,58,73346,1,0
389,78,73413,6,2,B|472:80|512:88,2,114.000002717972,2|2|10
224,24,73818,1,0
56,72,73953,2,2,B|16:152|64:256,1,171.000004076958
112,216,74223,2,0,B|136:272|88:336,1,114.000002717972,8|0
240,360,74493,5,2
304,312,74583,1,2
376,344,74673,1,2
432,296,74763,2,0,B|408:232|432:152,1,114.000002717972,10|0
488,24,75033,2,0,B|512:88|488:168,1,114.000002717972,2|0
464,144,75236,1,2
432,128,75303,2,0,B|368:144|304:128,1,114.000002717972,8|2
64,200,75573,6,0,B|128:184|192:200,1,114.000002717972,2|0
224,224,75776,1,0
256,272,75843,1,10
368,232,75978,1,0
376,120,76113,2,2,B|512:160|464:304,1,228.000005435944,2|10
296,352,76518,5,0
296,352,76586,1,0
296,352,76653,2,0,B|416:360,1,114.000002717972,2|0
256,272,76923,2,0,B|136:280,1,114.000002717972,10|0
32,248,77193,1,2
0,200,77261,1,0
16,144,77328,1,0
72,128,77396,1,0
120,152,77463,1,10
224,112,77598,1,2
416,160,77733,6,0,B|480:248|416:336,1,171.000004076958,2|2
400,336,78003,2,0,B|269:320,1,114.000002717972,8|2
216,152,78273,1,0
216,152,78341,2,2,B|352:160,1,114.000002717972
329,158,78543,2,0,B|376:104|320:24,1,114.000002717972,8|2
144,48,78813,5,2
112,64,78881,1,0
80,80,78948,1,0
0,208,79083,5,10
32,192,79151,1,0
64,176,79218,1,0
232,200,79353,5,2
200,216,79421,1,0
168,232,79488,1,0
136,248,79556,1,2
104,264,79623,1,8
72,280,79691,1,0
40,296,79758,1,2
120,376,79893,5,0
169,361,79961,1,2
219,351,80028,1,0
270,350,80096,1,2
320,355,80163,1,10
371,360,80231,1,0
418,342,80298,1,2
433,292,80366,1,0
399,253,80433,1,0
371,209,80501,1,2
376,158,80568,1,0
412,121,80636,1,0
462,127,80703,1,10
494,167,80771,1,0
495,217,80838,1,2
312,272,80973,5,6
283,228,81041,1,0
277,177,81108,1,0
295,128,81176,1,0
323,85,81243,1,10
319,33,81311,1,0
272,53,81378,1,0
220,57,81446,1,0
172,39,81513,1,2
121,50,81581,1,0
94,93,81648,1,0
105,143,81716,1,0
143,176,81783,1,10
156,225,81851,1,0
143,274,81918,1,0
99,301,81986,1,0
48,288,82053,1,6
24,200,90693,6,0,B|136:200,1,95,4|0
352,128,90963,2,0,B|232:128,1,95
208,224,91233,5,0
264,312,91368,1,0
368,304,91503,1,0
416,208,91638,1,0
440,48,91773,6,0,B|488:88|472:160,1,95
368,304,92043,2,0,B|320:264|336:192,1,95
296,48,92313,5,0
192,48,92448,1,0
160,144,92583,1,0
232,224,92718,1,0
184,248,92786,1,0
168,296,92853,6,0,B|64:280,1,95,4|0
264,312,93123,2,0,B|368:328,1,95
456,296,93393,5,0
424,200,93528,1,0
328,160,93663,1,0
224,176,93798,1,0
40,176,93933,5,0
24,280,94068,1,0
136,152,94203,2,0,B|120:56,1,95
224,176,94473,5,0
240,280,94608,1,0
312,152,94743,2,0,B|328:56,1,95
352,40,94946,1,0
384,32,95013,6,0,B|424:16|480:32,1,95,4|0
416,176,95283,2,0,B|376:192|320:176,1,95,0|0
200,64,95553,5,0
128,136,95688,1,0
136,240,95823,1,0
232,280,95958,1,0
424,328,96093,6,0,B|296:344,1,95,4|0
464,248,96363,2,0,B|344:240,1,95
504,168,96633,5,4
416,112,96768,1,0
312,120,96903,1,0
200,288,97038,5,0
200,288,97106,1,0
200,288,97173,2,0,B|152:296|96:288,1,95,4|0
288,232,97443,2,0,B|336:240|392:232,1,95,4|0
144,200,97713,2,0,B|96:208|40:200,1,95,4|0
232,112,97983,6,0,B|248:96,7,23.75,4|0|0|0|0|0|0|0
232,112,98253,6,0,B|216:160|224:208,1,95,4|0
272,304,98523,1,0
368,272,98658,2,0,B|448:264|504:280,2,95
336,176,99063,1,0
432,136,99198,1,0
232,112,99333,6,0,B|176:104|120:112,1,95
176,304,99603,2,0,B|232:312|288:304,1,95,0|0
304,104,99873,6,0,B|248:96|192:104,1,95,0|0
104,312,100143,2,0,B|160:320|216:312,1,95
384,352,100413,6,0,B|400:288|384:224,1,95
320,176,100683,1,0
232,120,100818,1,0
136,152,100953,1,0
128,256,101088,1,0
216,312,101223,1,0
312,272,101358,1,0
328,88,101493,6,0,B|376:80|432:96,1,95
232,120,101763,2,0,B|184:128|128:112,1,95,0|0
320,176,102033,2,0,B|368:168|424:184,1,95
192,216,102304,2,0,B|144:224|88:208,1,95
32,64,102574,5,0
61,78,102641,1,0
93,87,102709,1,0
125,83,102776,1,0
155,68,102844,1,0
181,48,102911,1,0
211,34,102979,1,0
243,36,103046,1,0
274,46,103114,1,0
298,67,103181,1,0
315,95,103249,1,0
319,127,103316,1,0
306,157,103384,1,0
286,183,103451,1,0
266,209,103519,1,0
256,240,103586,1,0
254,273,103654,5,0
266,303,103721,1,0
296,288,103789,1,0
328,283,103856,1,0
361,285,103924,1,0
391,298,103991,1,0
419,315,104059,1,0
451,317,104126,1,0
473,291,104194,1,0
474,258,104261,1,0
451,233,104329,1,0
419,222,104396,1,0
394,199,104464,1,0
388,166,104531,1,0
391,132,104599,1,0
413,107,104666,1,0
446,103,104734,5,0
477,92,104801,1,0
497,65,104869,1,0
502,32,104936,1,0
469,40,105004,1,0
435,40,105071,1,0
402,30,105139,1,0
369,26,105206,1,0
335,31,105274,1,0
306,47,105341,1,0
282,70,105409,1,0
267,99,105476,1,0
265,132,105544,1,0
278,162,105611,1,0
295,190,105679,5,0
301,222,105746,1,0
300,255,105814,1,0
285,284,105881,1,0
258,303,105949,1,0
226,311,106016,1,0
192,311,106084,1,0
162,296,106151,1,0
136,274,106219,1,0
127,242,106286,1,0
132,208,106354,5,0
146,168,106421,1,0
176,137,106489,1,0
188,96,106556,1,0
172,55,106624,1,0
133,36,106691,1,0
91,47,106759,1,0
63,79,106826,1,0
66,121,106894,5,4
66,121,107704,1,12
432,344,107974,6,2,B|472:320|472:320|472:176,1,171.000004076958
472,195,108244,1,8
376,128,108379,1,2
344,240,108514,1,0
344,240,108581,2,2,B|304:296|240:280,1,114.000002717972
200,248,108784,2,0,B|224:320|200:376,1,114.000002717972,8|2
40,264,109054,5,2
0,160,109189,1,0
0,160,109256,1,2
0,160,109324,1,8
80,80,109459,1,2
184,136,109594,1,0
184,136,109661,1,2
168,248,109796,1,2
168,248,109864,1,8
272,208,109999,1,2
264,320,110134,6,0,B|392:336,1,114.000002717972,2|0
432,312,110336,1,2
432,312,110404,2,0,B|416:256|416:256|448:192,1,114.000002717972,8|2
344,40,110674,1,0
368,56,110741,2,2,B|384:136|384:136|336:224,1,171.000004076958,2|10
280,120,111079,1,2
176,168,111214,6,2,B|48:168,1,114.000002717972,2|0
16,200,111416,1,2
24,256,111484,1,8
72,288,111551,1,0
128,288,111619,1,2
184,272,111686,1,0
240,288,111754,1,0
280,328,111821,1,0
336,344,111889,1,2
376,312,111956,1,0
392,256,112024,1,8
368,208,112091,1,0
312,192,112159,1,2
264,216,112226,1,0
216,192,112294,6,2,B|176:136|224:48|304:64,1,171.000004076958
336,112,112564,2,0,B|448:88,1,114.000002717972,8|2
504,192,112834,5,2
488,248,112901,1,0
472,304,112969,1,0
392,224,113104,5,10
376,280,113171,1,0
360,336,113239,1,0
152,336,113374,5,2
136,280,113441,1,0
120,224,113509,1,0
40,304,113644,5,10
24,248,113711,1,0
8,192,113779,1,0
176,104,113914,6,0,B|96:80,2,57.0000013589859,2|0|0
336,104,114184,2,0,B|416:80,2,57.0000013589859,10|0|0
256,184,114454,6,0,B|256:304,1,114.000002717972,2|0
360,336,114724,2,0,B|416:296|384:224,1,114.000002717972,10|0
123,235,114994,2,0,B|96:296|152:336,1,114.000002717972,2|0
256,296,115264,1,10
256,184,115399,5,0
256,184,115466,1,0
256,184,115534,1,6
236,143,115601,1,0
237,97,115669,1,0
268,64,115736,1,0
313,57,115804,1,12
357,66,115871,1,0
388,99,115939,1,0
396,143,116006,1,0
383,187,116074,1,6
354,222,116141,1,0
333,262,116209,1,0
333,307,116276,1,0
359,344,116344,1,12
314,337,116411,1,0
268,334,116479,1,0
223,340,116546,1,0
178,349,116614,6,2,B|109:357|70:283,1,114.000002717972,6|0
48,192,116884,1,10
256,184,117019,2,0,B|240:248|152:240,1,114.000002717972,0|2
152,128,117289,1,0
248,72,117424,2,0,B|320:64|360:128,1,114.000002717972,10|0
464,288,117694,6,2,B|488:248|456:200,1,76.0000018119812
344,256,117874,2,2,B|320:296|352:344,1,76.0000018119812,2|10
232,360,118099,1,0
152,280,118234,2,0,B|88:272|32:320|32:360,1,114.000002717972,2|0
8,280,118436,1,2
32,232,118504,2,0,B|48:168|24:112,1,114.000002717972,8|2
0,72,118706,1,0
48,40,118774,6,2,B|172:24,1,114.000002717972
256,80,119044,1,10
192,216,119179,2,0,B|136:168|176:88,1,114.000002717972,0|2
352,48,119449,2,0,B|408:96|368:176,1,114.000002717972,0|10
312,248,119719,1,0
224,320,119854,5,2
183,339,119921,1,0
137,340,119989,1,0
100,313,120056,1,0
109,268,120124,1,10
150,250,120191,1,0
179,214,120259,1,0
174,168,120326,1,0
140,136,120394,1,2
94,135,120461,1,0
56,161,120529,1,0
13,146,120596,1,0
1,101,120664,1,10
11,56,120731,1,0
53,39,120799,1,0
96,50,120866,1,0
141,42,120934,6,2,B|198:52|264:32,1,114.000002717972
264,88,121136,1,2
320,88,121204,2,0,B|306:157|322:205,1,114.000002717972,8|2
392,288,121474,1,0
448,272,121541,1,2
496,296,121609,2,0,B|509:226|493:178,2,114.000002717972,0|8|2
320,352,122014,5,0
184,328,122149,1,2
120,208,122284,1,8
184,88,122419,1,2
320,72,122554,6,2,B|408:88|384:192,1,114.000002717972
368,200,122756,1,2
312,216,122824,1,8
368,320,122959,1,2
248,360,123094,5,2
205,344,123161,1,0
159,340,123229,1,0
114,349,123296,1,0
69,360,123364,1,8
25,347,123431,1,0
9,303,123499,1,0
21,259,123566,1,0
59,233,123634,1,2
103,241,123701,1,0
148,237,123769,1,0
181,206,123836,1,0
200,164,123904,1,10
194,119,123971,1,0
174,77,124039,1,2
140,46,124106,1,0
185,46,124174,5,6
229,50,124241,1,0
267,75,124309,1,0
289,114,124376,1,0
330,133,124444,1,14
363,103,124511,1,0
363,57,124579,1,0
395,25,124646,1,0
440,34,124714,1,6
468,69,124781,1,0
472,114,124849,1,0
438,144,124916,1,0
405,176,124984,1,14
392,219,125051,1,0
413,259,125119,1,0
455,275,125186,1,0
500,265,125254,5,6
464,376,125389,1,0
464,376,125456,1,2
464,376,125524,2,0,B|408:384|344:376,1,114.000002717972,8|2
256,312,125794,1,0
232,264,125861,2,2,B|248:208|248:208|232:152,1,114.000002717972
176,136,126064,2,0,B|232:152|232:152|288:136,1,114.000002717972,8|2
232,32,126334,6,0,B|352:32,1,114.000002717972,2|0
400,56,126536,2,0,B|376:112,1,57.0000013589859,2|8
416,216,126739,1,2
376,320,126874,1,2
333,303,126941,1,2
287,303,127009,1,0
248,326,127076,1,2
228,367,127144,1,8
120,344,127279,1,2
8,352,127414,6,2,B|16:272|0:200,1,114.000002717972
48,200,127616,1,2
24,144,127684,1,8
56,104,127751,1,0
32,48,127819,2,2,B|96:56|152:48,1,114.000002717972
184,88,128021,2,2,B|240:72|312:88,1,114.000002717972
352,104,128224,1,8
400,80,128291,1,0
456,88,128359,1,2
488,136,128426,1,0
480,192,128494,5,2
392,264,128629,1,0
392,264,128696,1,2
392,264,128764,2,0,B|392:328|440:376,1,114.000002717972,10|2
304,176,129034,1,0
240,296,129169,1,2
120,232,129304,1,8
184,112,129439,1,2
72,128,129574,6,2,B|-8:184|24:288,1,171.000004076958
40,336,129844,2,0,B|160:320,1,114.000002717972,8|2
232,240,130114,1,2
288,232,130181,1,0
344,248,130249,1,0
384,288,130316,1,0
408,336,130384,2,0,B|432:216,1,114.000002717972,10|0
368,48,130654,6,0,B|352:88|352:88|376:160,1,114.000002717972,2|0
472,96,130924,1,10
288,232,131059,1,0
288,232,131126,1,0
288,232,131194,6,0,B|248:104,1,114.000002717972,2|0
472,96,131464,2,0,B|512:224,1,114.000002717972,10|0
472,312,131734,5,2
432,352,131801,1,0
376,368,131869,1,0
320,360,131936,1,0
280,320,132004,1,10
232,296,132071,1,0
176,296,132139,1,0
128,328,132206,1,0
104,376,132274,6,0,B|48:360|-24:360,1,114.000002717972,2|0
136,192,132544,2,0,B|192:176|264:176,1,114.000002717972,10|0
368,32,132814,5,2
346,65,132881,1,0
340,104,132949,1,0
350,142,133016,1,0
376,172,133084,1,8
412,186,133151,1,0
452,187,133219,1,0
488,171,133286,1,0
478,209,133354,1,2
476,248,133421,1,0
489,285,133489,1,0
494,324,133556,1,0
463,350,133624,1,8
423,348,133691,1,0
394,319,133759,1,0
356,307,133826,1,0
315,310,133894,5,2
282,332,133961,1,0
261,366,134029,2,0,B|201:364|145:376,2,114.000002717972,0|10|0
16,256,134434,2,0,B|76:254|132:266,1,114.000002717972,2|0
288,104,134704,2,0,B|228:102|172:114,1,114.000002717972,10|0
416,176,134974,6,2,B|456:168|496:176,2,76.0000018119812
344,208,135244,2,0,B|336:272|336:336,1,114.000002717972,10|0
224,352,135514,1,2
128,288,135649,1,0
128,288,135716,1,2
128,288,135784,2,0,B|136:232|128:160,1,114.000002717972,8|2
64,80,136054,5,2
102,56,136121,1,0
147,53,136189,1,0
191,63,136256,1,0
218,99,136324,1,10
223,143,136391,1,0
223,188,136459,1,0
248,225,136526,1,0
289,245,136594,1,2
334,241,136661,1,0
369,211,136729,1,0
375,166,136796,1,0
359,122,136864,1,10
319,99,136931,1,0
308,54,136999,1,0
332,16,137066,1,0
377,10,137134,5,2
419,25,137201,1,0
434,68,137269,1,0
441,112,137336,1,0
476,141,137404,2,0,B|498:256,1,114.000002717972,10|0
456,360,137674,1,2
352,320,137809,1,0
304,344,137876,1,0
256,320,137944,2,0,B|200:312|136:328,1,114.000002717972,10|0
32,288,138214,6,2,B|16:232|16:232|24:168,1,114.000002717972
32,136,138416,1,2
56,104,138484,1,8
128,192,138619,1,2
208,112,138754,1,0
226,147,138822,1,2
227,188,138889,2,0,B|224:243|224:243|198:296,2,114.000002717972,0|8|2
336,144,139294,5,2
355,103,139361,1,0
396,83,139429,1,0
441,87,139496,1,0
476,116,139564,1,10
486,160,139631,1,0
474,204,139699,1,0
431,219,139766,1,0
385,217,139834,1,2
342,231,139901,1,0
314,267,139969,1,0
303,310,140036,1,2
310,355,140104,1,8
266,342,140171,1,0
220,341,140239,1,2
175,349,140306,1,0
133,369,140374,5,0
87,366,140441,1,0
53,334,140509,1,0
42,290,140576,1,0
42,244,140644,1,8
69,207,140711,1,0
108,182,140779,1,0
153,185,140846,1,0
192,208,140914,1,0
237,205,140981,1,0
277,183,141049,1,0
294,141,141116,1,0
292,95,141184,1,8
266,57,141251,1,0
223,38,141319,1,0
177,40,141386,1,0
142,70,141454,6,0,B|75:62,3,57.0000013589859,6|0|0|0
45,86,141724,1,14
29,128,141791,1,0
37,173,141859,1,0
67,206,141926,1,0
111,196,141994,1,6
154,208,142061,1,0
186,240,142129,1,0
206,280,142196,1,0
197,325,142264,1,14
167,359,142331,1,0
121,368,142399,1,0
75,364,142466,1,0
42,331,142534,6,0,B|24:207,1,114.000002717972,4|0
136,96,142804,2,0,B|154:220,1,114.000002717972,8|0
280,336,143074,2,0,B|262:212,1,114.000002717972,4|0
374,101,143344,2,0,B|392:225,1,114.000002717972,8|0
512,336,143614,6,0,B|456:352|456:352|400:336,1,114.000002717972,4|0
264,104,143884,2,0,B|320:88|320:88|376:104,1,114.000002717972,8|0
280,336,144154,2,0,B|224:352|224:352|168:336,1,114.000002717972,4|0
32,104,144424,2,0,B|88:88|88:88|144:104,1,114.000002717972,8|0
32,336,144694,5,4
57,298,144761,1,0
94,272,144829,1,0
137,260,144896,1,0
182,262,144964,1,12
225,273,145031,1,0
262,299,145099,1,0
280,340,145166,1,0
319,363,145234,1,4
364,360,145301,1,0
398,330,145369,1,0
410,286,145436,1,0
397,241,145504,1,12
368,206,145571,1,0
331,178,145639,1,0
285,176,145706,1,0
240,186,145774,5,4
196,172,145841,1,0
166,136,145909,1,0
154,92,145976,1,0
168,48,146044,1,12
208,27,146111,1,0
253,22,146179,1,0
291,44,146246,1,0
324,75,146314,1,4
367,88,146381,1,0
411,78,146449,1,0
455,88,146516,1,0
487,120,146584,1,12
495,164,146651,1,0
479,207,146719,1,0
442,234,146786,1,0
404,238,146854,5,4
256,192,161974,12,0,163864
56,192,164134,5,2
51,229,164202,1,0
65,263,164269,1,0
96,284,164337,1,0
133,283,164404,1,0
166,264,164472,1,0
181,229,164539,1,0
184,190,164607,1,0
168,155,164674,1,2
162,117,164742,1,0
174,81,164809,1,0
200,53,164877,1,0
235,40,164944,1,0
273,40,165012,1,0
304,60,165079,1,0
328,89,165147,1,0
480,56,165282,6,0,B|501:133|462:204,2,142.5,2|2|2
248,336,165889,2,0,B|227:259|266:188,1,142.5,2|2
388,314,166294,5,2
415,341,166362,1,0
452,344,166429,1,0
487,322,166497,1,0
502,287,166564,1,2
494,249,166632,1,0
478,214,166699,1,0
443,198,166767,1,0
405,199,166834,1,2
373,220,166902,1,0
335,216,166969,1,0
312,184,167037,1,0
308,146,167104,1,2
330,114,167172,1,0
366,106,167239,1,2
403,113,167307,1,0
104,48,167509,6,0,B|88:88|112:176,1,95,2|2
184,184,167779,1,0
96,224,167914,2,0,B|16:240|32:352,2,142.5,2|2|2
176,280,168454,5,2
212,291,168522,1,0
243,311,168589,1,0
267,340,168657,1,0
298,360,168724,1,0
330,339,168792,1,0
331,301,168859,1,2
356,272,168927,1,0
393,270,168994,1,0
431,267,169062,1,0
458,240,169129,1,0
470,203,169197,1,0
472,165,169264,1,2
458,129,169332,1,0
423,113,169399,1,0
384,116,169467,1,0
353,137,169534,5,2
343,174,169602,1,0
313,197,169669,1,0
275,203,169737,1,0
238,193,169804,1,2
215,162,169872,1,0
212,124,169939,1,0
229,90,170007,1,0
258,66,170074,1,2
228,41,170142,1,0
190,39,170209,1,0
153,50,170277,1,0
124,74,170344,1,2
117,111,170412,1,0
126,147,170479,1,0
120,184,170547,1,0
90,207,170614,5,2
64,235,170682,1,0
57,272,170749,1,0
61,309,170817,1,0
82,340,170884,1,2
118,352,170952,1,0
155,351,171019,1,0
191,339,171087,1,0
208,305,171154,1,2
208,266,171222,1,0
199,229,171289,1,0
209,192,171357,1,2
233,160,171424,1,0
266,142,171492,1,0
304,134,171559,1,2
340,144,171627,1,0
369,167,171694,5,0
389,199,171762,1,2
388,236,171829,1,0
377,272,171897,1,0
350,298,171964,1,6
347,336,172032,1,0
373,362,172099,1,0
411,363,172167,1,2
437,335,172234,1,0
452,299,172302,1,0
480,274,172369,1,2
477,235,172437,1,0
477,197,172504,1,4
487,160,172572,1,2
502,125,172639,1,0
470,103,172707,1,0
446,73,172774,5,6
429,38,172842,1,0
394,22,172909,1,0
355,22,172977,1,0
319,33,173044,1,2
291,60,173112,1,0
274,93,173179,1,0
278,131,173247,1,0
296,163,173314,1,2
330,180,173382,1,0
361,201,173449,1,0
377,235,173517,1,0
375,272,173584,1,2
360,307,173652,1,0
324,318,173719,2,0,B|221:314,1,95,2|0
40,224,173989,5,2
176,232,174124,1,2
120,112,174259,1,2
104,344,174394,5,2
140,354,174462,1,0
177,352,174529,1,0
209,331,174597,1,0
236,305,174664,1,2
274,302,174732,1,0
308,316,174799,1,0
332,345,174867,1,0
365,362,174934,5,2
402,353,175002,1,0
430,327,175069,1,0
436,289,175137,1,0
421,254,175204,1,2
389,232,175272,1,0
351,232,175339,1,0
316,215,175407,1,0
302,179,175474,1,2
300,140,175542,1,0
323,110,175609,1,0
358,94,175677,1,0
395,92,175744,1,2
427,112,175812,1,0
444,145,175879,2,0,B|466:197|514:224,1,95,2|0
368,296,176149,5,2
240,272,176284,1,2
120,328,176419,1,2
16,240,176554,2,0,B|-8:112,1,95,2|2
72,32,176824,1,2
109,27,176892,1,0
145,35,176959,1,0
175,58,177027,1,0
196,88,177094,5,2
199,126,177162,1,0
182,159,177229,1,0
150,180,177297,1,0
122,205,177364,1,0
105,239,177432,1,0
98,276,177499,1,2
113,310,177567,1,0
143,331,177634,1,0
180,339,177702,1,0
216,329,177769,1,0
235,296,177837,1,0
234,258,177904,1,2
241,220,177972,1,0
262,189,178039,1,0
297,174,178107,1,0
334,174,178174,1,0
367,192,178242,1,0
387,223,178309,5,2
386,261,178377,1,0
365,292,178444,1,2
332,312,178512,1,0
369,317,178579,1,0
405,329,178647,1,0
437,347,178714,1,2
473,358,178782,1,0
504,337,178849,1,0
506,298,178917,1,0
481,268,178984,1,2
464,233,179052,1,0
464,195,179119,1,2
470,157,179187,1,0
491,126,179254,5,2
457,106,179322,1,0
420,95,179389,1,0
382,102,179457,1,0
346,115,179524,2,0,B|324:69,3,47.5,2|0|0|0
289,59,179794,1,2
251,54,179862,1,0
215,65,179929,1,0
184,88,179997,1,0
170,123,180064,1,2
179,160,180132,1,0
205,186,180199,1,0
235,209,180267,1,0
251,242,180334,5,6
258,279,180402,1,0
250,316,180469,1,0
219,338,180537,1,0
182,345,180604,1,6
145,333,180672,1,0
128,299,180739,1,0
136,261,180807,1,0
127,224,180874,1,6
92,207,180942,1,0
59,226,181009,1,0
20,221,181077,1,0
5,186,181144,1,6
5,147,181212,1,0
27,116,181279,1,0
64,109,181347,1,0
98,123,181414,5,2
135,128,181482,1,0
171,118,181549,1,0
194,87,181617,1,0
208,51,181684,2,0,B|245:11|313:27,1,95,0|2
333,27,181887,1,0
364,47,181954,1,0
379,81,182022,1,0
378,118,182089,2,0,B|354:221,2,95,0|2|2
472,216,182494,5,2
485,251,182562,1,0
478,288,182629,1,0
456,319,182697,1,0
421,333,182764,1,2
382,329,182832,1,0
350,308,182899,1,0
316,290,182967,1,0
279,282,183034,1,2
240,284,183102,1,0
208,305,183169,1,0
181,332,183237,1,0
148,350,183304,1,2
109,352,183372,1,0
77,331,183439,1,0
68,293,183507,1,0
79,257,183574,5,2
110,235,183642,1,0
147,237,183709,1,0
182,221,183777,1,0
197,186,183844,1,0
433,257,183979,5,2
402,235,184047,1,0
365,237,184114,1,0
330,221,184182,1,0
315,186,184249,1,0
256,40,184384,6,0,B|256:152,1,95,2|2
88,32,184654,5,2
53,47,184722,1,0
34,79,184789,1,0
34,117,184857,1,0
55,148,184924,1,2
89,163,184992,1,0
126,161,185059,1,0
154,135,185127,1,0
160,97,185194,1,2
179,64,185262,1,0
214,49,185329,1,0
250,59,185397,1,0
271,90,185464,1,2
269,128,185532,1,0
239,151,185599,1,0
221,185,185667,1,0
214,222,185734,5,2
221,259,185802,1,0
242,290,185869,1,0
279,299,185937,1,0
316,297,186004,1,2
440,368,186139,5,0
440,368,186207,1,0
440,368,186274,2,0,B|424:264,1,95,2|0
420,236,186477,2,0,B|411:186|425:138,1,95,2|0
434,105,186679,2,0,B|383:119|316:91,1,95,2|0
304,86,186882,2,0,B|258:62|202:60,1,95,2|0
183,37,187084,2,0,B|195:96|183:139,1,95,2|2
164,174,187287,5,0
126,203,187354,1,0
43,250,187489,1,2
96,328,187624,1,2
140,310,187692,1,0
186,304,187759,1,0
226,329,187827,1,0
249,369,187894,5,2
286,374,187962,1,0
323,372,188029,1,0
357,355,188097,1,0
376,322,188164,1,2
381,284,188232,1,0
367,248,188299,1,0
332,231,188367,1,0
299,211,188434,1,2
282,176,188502,1,0
279,138,188569,1,0
295,103,188637,1,0
326,82,188704,1,2
363,73,188772,1,0
400,79,188839,1,0
427,105,188907,1,0
444,138,188974,5,0
442,176,189042,1,2
440,213,189109,1,0
452,249,189177,1,0
475,278,189244,1,6
499,307,189312,1,0
462,317,189379,1,0
423,314,189447,1,2
386,303,189514,1,0
348,296,189582,1,0
310,294,189649,1,2
272,300,189717,1,0
235,310,189784,1,4
200,325,189852,1,2
165,341,189919,1,0
127,347,189987,1,0
89,345,190054,5,2
52,334,190122,1,0
30,302,190189,1,0
27,263,190257,1,0
39,227,190324,1,2
67,201,190392,1,0
103,191,190459,1,0
139,200,190527,1,0
163,228,190594,1,2
200,236,190662,1,0
237,230,190729,1,0
269,208,190797,1,0
278,171,190864,1,2
270,133,190932,1,0
245,103,190999,1,0
208,90,191067,1,0
171,99,191134,5,2
77,114,191269,2,0,B|14:126,2,47.5,0|0|2
15,41,191539,1,0
51,28,191607,1,0
88,25,191674,1,2
124,36,191742,1,0
153,59,191809,1,0
172,91,191877,1,0
175,128,191944,1,2
163,164,192012,1,0
136,190,192079,1,0
101,206,192147,1,0
63,210,192214,1,2
32,360,192349,6,0,B|80:352|80:352|128:360,1,95,2|2
216,336,192619,1,0
416,296,192754,2,0,B|352:328|352:328|288:296,2,142.5,2|2|2
480,224,193294,5,2
490,177,193362,1,0
488,129,193429,1,0
464,87,193497,1,0
421,66,193564,1,2
373,69,193632,1,0
334,96,193699,1,0
325,143,193767,1,0
347,184,193834,1,2
389,205,193902,1,0
404,249,193969,1,0
392,295,194037,1,0
350,317,194104,1,2
303,306,194172,1,0
274,268,194239,1,0
270,220,194307,1,0
237,185,194374,6,0,B|177:194,1,47.5,2|0
150,219,194509,2,0,B|89:206,1,47.5
57,194,194644,1,0
160,40,194779,6,0,B|220:49,1,47.5,2|0
247,74,194914,2,0,B|308:61,1,47.5
340,49,195049,1,0
432,80,195184,5,2
465,98,195252,1,0
490,126,195319,1,0
501,162,195387,1,0
501,199,195454,5,6
485,233,195522,1,0
453,254,195589,1,0
416,264,195657,1,0
379,254,195724,1,2
347,231,195792,1,0
329,197,195859,1,0
329,158,195927,1,0
320,121,195994,1,6
288,99,196062,1,0
251,90,196129,1,0
215,104,196197,1,0
192,134,196264,1,2
191,172,196332,1,0
202,207,196399,1,0
227,235,196467,1,0
251,263,196534,5,6
261,299,196602,1,0
254,336,196669,1,0
230,366,196737,1,0
193,375,196804,1,2
156,364,196872,1,0
141,329,196939,1,0
144,290,197007,1,0
106,296,197074,1,6
67,293,197142,1,0
38,268,197209,1,0
25,231,197277,1,0
25,193,197344,1,2
47,162,197412,1,0
83,151,197479,1,0
115,131,197547,1,0
121,93,197614,5,6
110,56,197682,1,0
147,62,197749,1,0
184,69,197817,1,0
219,57,197884,1,2
251,36,197952,1,0
288,35,198019,1,0
325,42,198087,1,0
356,62,198154,1,6
375,95,198222,1,0
373,132,198289,1,0
353,165,198357,1,0
320,184,198424,1,2
282,189,198492,1,0
248,172,198559,1,0
222,143,198627,1,0
186,155,198694,5,6
170,189,198762,1,0
173,226,198829,1,0
196,255,198897,1,0
233,256,198964,1,2
268,270,199032,1,0
286,303,199099,1,0
282,341,199167,1,0
253,365,199234,1,6
290,373,199302,1,0
327,368,199369,1,0
354,340,199437,1,0
379,312,199504,1,2
416,302,199572,1,0
453,304,199639,1,0
490,311,199707,1,0
490,276,199774,5,6
468,244,199842,1,0
458,207,199909,1,0
465,169,199977,1,0
491,142,200044,1,2
503,105,200112,1,0
496,67,200179,1,0
468,40,200247,1,0
430,33,200314,1,6
395,50,200382,1,0
376,82,200449,1,0
380,120,200517,1,0
386,157,200584,1,2
377,194,200652,1,0
351,222,200719,1,0
313,231,200787,1,0
277,219,200854,5,6
256,192,209360,5,0
256,192,209427,1,0
256,192,209495,2,0,B|160:200,1,95,4|0
64,216,209765,2,0,B|64:272|80:336,1,95,2|0
160,352,210035,2,0,B|224:264|336:304,1,190,0|2
416,328,210440,1,0
472,256,210575,6,2,B|496:216|480:160,1,63.3333333333333
416,208,210755,2,2,B|392:168|408:112,1,63.3333333333333
472,80,210980,1,0
384,40,211115,1,2
336,32,211182,1,0
288,48,211250,1,0
272,88,211317,1,0
280,136,211385,2,0,B|232:128|176:144,1,95,2|0
40,120,211655,6,0,B|48:232,1,95,4|0
40,312,211925,2,0,B|88:288|144:304,1,95,2|0
208,360,212195,2,0,B|272:272|384:320,1,190,2|0
472,320,212600,5,0
472,320,212667,1,0
472,320,212735,2,0,B|488:272|472:224,1,95,2|0
379,207,213005,1,2
328,136,213140,1,0
240,176,213275,2,0,B|224:128|240:80,1,95,2|0
424,32,213545,2,0,B|440:80|424:128,1,95,2|0
296,264,213815,6,0,B|88:288,1,190,4|2
32,224,214220,1,0
112,176,214355,2,0,B|128:136|128:136|120:64,1,95
48,32,214625,1,2
208,56,214760,5,0
208,56,214827,1,0
208,56,214895,2,0,B|256:48|256:48|304:56,1,95,4|2
392,160,215165,2,0,B|344:168|344:168|296:160,1,95,2|0
440,64,215435,5,4
496,144,215570,1,2
496,144,215637,1,0
496,144,215705,1,0
472,232,215840,1,2
504,320,215975,5,4
456,316,216042,1,0
408,310,216110,1,0
362,321,216177,1,0
318,341,216245,1,0
274,359,216312,1,0
227,349,216380,1,0
199,310,216447,1,0
209,263,216515,1,4
245,233,216582,1,0
292,237,216650,1,0
339,238,216717,1,0
376,208,216785,1,4
388,162,216852,1,0
373,116,216920,1,0
334,88,216987,1,0
286,83,217055,5,4
242,100,217122,1,0
218,141,217190,1,0
180,169,217257,1,0
132,173,217325,1,4
94,144,217392,1,0
80,98,217460,1,0
87,51,217527,1,0
49,80,217595,1,4
24,120,217662,1,0
25,167,217730,1,0
50,206,217797,1,0
68,250,217865,1,4
63,296,217932,1,0
58,343,218000,1,0
104,332,218067,1,0
152,344,218135,6,0,B|288:336,1,114.000002717972,6|0
336,368,218337,1,2
336,368,218405,2,0,B|312:312|312:312|328:248,1,114.000002717972,8|2
424,200,218675,1,0
424,200,218742,2,2,B|448:80,1,114.000002717972
400,32,218945,2,0,B|344:56|288:32,1,114.000002717972,8|2
80,80,219215,5,2
144,176,219350,1,0
176,224,219417,1,2
168,280,219485,2,0,B|288:280,1,114.000002717972,8|2
424,200,219755,1,0
424,200,219822,2,2,B|368:168|312:208,1,114.000002717972
376,264,220025,2,0,B|432:296|488:256,1,114.000002717972,8|2
440,72,220295,6,2,B|352:32|272:88,1,171.000004076958
277,84,220565,2,0,B|160:72,1,114.000002717972,8|2
40,200,220835,1,0
40,200,220902,2,2,B|157:187,1,114.000002717972
216,232,221105,2,0,B|240:272|240:272|224:344,1,114.000002717972,8|2
376,264,221375,5,6
488,184,221510,1,0
488,184,221577,1,2
488,184,221645,1,12
440,56,221780,1,2
224,184,221915,5,4
112,88,222050,1,2
184,296,222185,1,12
72,200,222320,1,2
232,368,222455,6,0,B|296:328|256:248,1,114.000002717972,6|0
336,248,222657,1,2
336,248,222725,2,0,B|344:128,1,114.000002717972,8|2
184,40,222995,1,2
139,50,223062,1,0
102,78,223130,1,0
86,120,223197,1,0
97,164,223265,1,10
125,199,223332,1,0
168,213,223400,1,0
210,197,223467,1,0
230,155,223535,5,2
247,113,223602,1,0
289,95,223670,1,0
334,98,223737,1,0
366,130,223805,1,10
373,174,223872,1,0
351,214,223940,1,0
314,240,224007,1,0
272,258,224075,1,2
245,294,224142,1,0
244,339,224210,1,0
278,368,224277,1,0
314,339,224345,1,10
357,325,224412,1,0
402,334,224480,1,0
443,352,224547,1,0
488,351,224615,5,2
473,308,224682,1,0
458,264,224750,1,0
457,218,224817,1,0
476,176,224885,1,10
508,143,224952,1,0
506,97,225020,1,0
479,60,225087,1,0
434,47,225155,1,2
392,65,225222,1,0
365,102,225290,1,0
371,146,225357,1,0
374,191,225425,1,10
358,233,225492,1,0
317,254,225560,1,0
273,243,225627,1,0
253,201,225695,6,0,B|240:80,1,114.000002717972,2|0
203,62,225897,1,0
157,58,225965,1,12
113,69,226032,1,0
83,104,226100,1,0
78,149,226167,1,0
96,191,226235,1,6
128,223,226302,1,0
142,266,226370,1,0
135,310,226437,1,0
100,340,226505,1,12
56,353,226572,1,0
16,328,226640,1,0
7,283,226707,1,0
25,240,226775,5,6
168,144,226910,1,0
264,288,227045,2,0,B|320:264|392:288,1,114.000002717972,10|0
472,144,227315,2,0,B|432:208|336:176|336:112,1,171.000004076958,2|0
408,104,227585,2,0,B|392:40|312:48,1,114.000002717972,10|0
160,68,227855,6,2,B|168:164,1,76.0000018119812
56,200,228035,2,2,B|48:104,1,76.0000018119812,2|10
152,240,228260,2,0,B|208:248|272:232,1,114.000002717972,0|2
360,176,228530,1,0
360,176,228597,1,0
360,176,228665,2,0,B|352:232|368:296,1,114.000002717972,10|0
272,352,228935,5,2
231,332,229002,1,0
185,328,229070,1,0
141,341,229137,1,0
99,360,229205,1,10
53,358,229272,1,0
22,323,229340,1,0
24,277,229407,1,0
49,238,229475,1,2
93,232,229542,1,0
133,253,229610,1,0
178,248,229677,1,0
210,215,229745,1,10
219,170,229812,1,0
198,128,229880,1,0
157,108,229947,1,0
112,119,230015,6,0,B|92:52,3,57.0000013589859,2|0|0|0
48,160,230285,2,0,B|16:112,3,57.0000013589859,10|0|0|0
49,238,230555,1,2
64,280,230622,1,0
98,310,230690,1,0
141,321,230757,1,0
185,311,230825,1,10
224,289,230892,1,0
269,284,230960,1,0
311,298,231027,1,0
346,327,231095,6,0,B|500:336,1,114.000002717972,2|0
485,296,231297,1,2
479,250,231365,1,8
441,224,231432,1,0
400,202,231500,1,2
382,160,231567,1,0
385,114,231635,1,2
415,80,231702,1,2
460,76,231770,2,0,B|404:79|322:62,1,114.000002717972,0|10
256,48,232040,1,2
96,96,232175,6,0,B|88:168|104:232,1,114.000002717972,2|0
280,256,232445,2,0,B|288:184|272:120,1,114.000002717972,10|0
184,328,232715,2,2,B|88:304|96:352|16:328,1,171.000004076958
15,327,232985,2,0,B|0:200,1,114.000002717972,8|2
8,64,233255,5,2
36,29,233322,1,0
81,32,233390,1,0
102,72,233457,1,2
82,113,233525,1,8
72,157,233592,1,0
96,195,233660,1,2
139,207,233727,1,0
174,178,233795,1,2
185,134,233862,1,2
224,110,233930,1,0
269,110,233997,1,0
305,138,234065,1,10
314,182,234132,1,0
289,221,234200,1,2
246,236,234267,1,0
223,275,234335,6,0,B|248:352,3,57.0000013589859,6|0|0|0
368,280,234605,6,0,B|411:326,3,57.0000013589859,14|0|0|0
432,160,234875,6,0,B|502:186,3,57.0000013589859,6|0|0|0
368,48,235145,6,0,B|426:33,3,57.0000013589859,14|0|0|0
285,115,235415,6,0,B|272:174|289:241,1,114.000002717972,6|0
303,281,235617,1,2
248,262,235685,1,8
191,261,235752,1,0
139,286,235820,1,2
103,330,235887,1,0
45,335,235955,1,2
9,290,236022,1,2
17,233,236090,1,0
64,202,236157,1,0
121,200,236225,1,10
172,176,236292,1,0
190,121,236360,1,2
176,66,236427,1,0
126,37,236495,6,0,B|64:32|5:60,1,114.000002717972,2|0
40,104,236697,1,2
77,147,236765,1,8
64,202,236832,1,0
17,233,236900,1,2
9,290,236967,1,0
45,335,237035,1,2
103,330,237102,1,2
139,286,237170,1,0
191,261,237237,1,0
248,261,237305,2,0,B|309:251|377:271,1,114.000002717972,10|2
488,112,237575,6,0,B|427:122|359:102,1,114.000002717972,2|0
328,72,237777,1,2
272,56,237845,1,8
216,72,237912,1,0
200,128,237980,1,2
224,184,238047,1,0
280,192,238115,1,2
328,176,238182,1,2
384,192,238250,1,0
400,248,238317,1,0
392,304,238385,1,10
344,328,238452,1,0
288,312,238520,1,2
232,296,238587,1,0
176,312,238655,6,0,B|48:336,1,114.000002717972,6|0
24,296,238857,1,2
40,240,238925,2,0,B|56:184|32:120,1,114.000002717972,12|2
120,48,239195,5,4
288,32,239330,1,2
432,128,239465,1,12
456,296,239600,1,2
232,376,239735,6,0,B|168:384|120:336,1,114.000002717972,2|0
96,296,239937,1,2
88,240,240005,2,0,B|80:128,1,114.000002717972,8|2
160,40,240275,5,2
215,28,240342,1,0
272,30,240410,1,0
317,64,240477,1,0
342,115,240545,1,10
338,171,240612,1,0
302,215,240680,1,0
246,225,240747,1,0
193,201,240815,5,2
137,210,240882,1,0
88,241,240950,1,0
76,296,241017,1,0
90,351,241085,1,10
142,372,241152,1,0
198,363,241220,1,0
222,311,241287,1,0
278,301,241355,1,2
333,313,241422,1,0
365,360,241490,1,0
419,375,241557,1,0
473,357,241625,1,10
488,302,241692,1,0
465,249,241760,1,0
409,236,241827,1,0
351,231,241895,5,2
304,198,241962,1,0
289,142,242030,1,0
287,85,242097,1,0
315,35,242165,1,10
259,46,242232,1,0
201,44,242300,1,0
145,33,242367,1,0
98,67,242435,1,2
86,122,242502,1,0
94,178,242570,1,0
131,220,242637,1,0
187,230,242705,1,10
240,248,242772,1,0
257,302,242840,1,0
253,358,242907,1,0
198,374,242975,5,2
144,354,243042,1,0
114,304,243110,1,0
133,250,243177,1,0
186,230,243245,1,12
239,248,243312,1,0
295,239,243380,1,0
337,201,243447,1,0
355,146,243515,1,6
349,89,243582,1,0
390,49,243650,1,0
446,55,243717,1,0
481,100,243785,1,12
478,156,243852,1,0
436,195,243920,1,0
407,243,243987,1,0
395,299,244055,6,0,B|449:285|517:307,1,114.000002717972,6|0
304,352,244325,2,0,B|250:366|182:344,1,114.000002717972,10|0
120,96,244595,2,2,B|16:184|104:320,1,228.000005435944,2|10
192,240,245000,1,0
304,264,245135,6,2,B|296:184,1,76.0000018119812
400,128,245315,2,2,B|408:208,1,76.0000018119812,2|10
280,88,245540,1,0
192,160,245675,2,0,B|128:192|64:152,1,114.000002717972,2|0
56,112,245877,1,2
16,152,245945,2,0,B|48:208|16:272,1,114.000002717972,8|2
80,360,246215,5,2
128,328,246282,1,0
184,312,246350,1,0
240,312,246417,1,0
288,344,246485,1,10
344,368,246552,1,0
400,352,246620,1,0
424,304,246687,1,0
416,248,246755,1,2
368,216,246822,1,0
312,216,246890,1,0
256,232,246957,1,0
200,208,247025,1,10
176,152,247092,1,0
192,96,247160,1,0
240,72,247227,1,0
296,80,247295,6,0,B|352:72,3,57.0000013589859,2|0|0|0
432,136,247565,2,0,B|376:144,3,57.0000013589859,10|0|0|0
488,160,247834,5,2
496,216,247902,1,0
480,272,247969,1,0
424,280,248037,1,0
368,264,248104,1,10
337,215,248172,1,0
286,188,248239,1,0
229,198,248307,1,0
206,249,248375,6,0,B|84:309,1,132.999996829033,2|0
24,272,248577,1,2
24,272,248645,2,0,B|0:208|24:136,1,132.999996829033,8|2
128,48,248915,1,0
128,48,248982,1,2
256,112,249117,1,2
256,112,249185,1,8
384,48,249320,1,2
496,144,249455,6,0,B|520:208|496:280,1,132.999996829033,2|0
272,352,249725,2,0,B|248:288|272:216,1,132.999996829033,10|0
384,48,249995,2,2,B|432:152|384:264,1,199.499995243549
392,242,250265,1,8
280,144,250400,1,2
168,48,250535,5,0
128,52,250602,1,0
92,70,250670,1,0
71,104,250737,1,0
65,143,250805,1,8
70,182,250872,1,0
89,217,250940,1,0
119,242,251007,1,0
157,253,251075,1,0
195,245,251142,1,0
232,231,251210,1,0
271,236,251277,1,0
303,260,251345,1,8
314,297,251412,1,0
340,326,251480,1,0
378,335,251547,1,0
417,339,251615,5,4
454,327,251682,1,0
478,294,251750,1,0
493,257,251817,1,0
491,216,251885,1,12
480,177,251952,1,0
451,148,252020,1,0
413,135,252087,1,0
372,138,252155,1,4
333,150,252223,1,0
293,154,252290,1,0
253,146,252358,1,0
221,121,252425,1,12
205,83,252493,1,0
218,45,252560,1,0
126,70,252695,5,4
88,56,252763,1,0
48,53,252830,1,0
18,80,252898,1,0
17,119,252965,1,8
49,142,253033,1,0
88,142,253100,1,0
127,149,253168,1,0
154,177,253235,1,4
164,215,253303,1,0
148,251,253370,1,0
110,265,253438,1,0
73,249,253505,1,8
33,254,253573,1,0
11,287,253640,1,0
12,327,253708,1,0
38,356,253775,5,4
78,359,253843,1,0
112,340,253910,1,0
152,341,253978,1,0
190,347,254045,1,8
223,369,254113,1,0
261,376,254180,1,0
300,371,254248,1,0
337,359,254315,1,4
369,335,254383,1,0
408,333,254450,1,0
446,344,254518,1,0
478,365,254585,1,8
471,325,254653,1,0
475,285,254720,1,0
490,248,254788,1,0
502,210,254855,5,4
498,169,254923,1,0
488,130,254990,1,0
454,108,255058,1,0
414,104,255125,1,8
378,122,255193,1,0
363,158,255260,1,0
372,197,255328,1,0
388,232,255395,1,4
373,269,255463,1,0
338,287,255530,1,0
299,275,255598,1,0
279,240,255665,1,8
280,199,255733,1,0
274,159,255800,1,0
241,135,255868,1,0
201,129,255935,5,4
164,144,256003,1,0
145,179,256070,1,0
150,218,256138,1,0
167,253,256205,1,12
204,267,256273,1,0
220,302,256340,1,0
212,341,256408,1,0
179,363,256475,1,4
138,359,256543,1,0
109,331,256610,1,0
73,311,256678,1,0
33,309,256745,1,12
50,272,256813,1,0
55,232,256880,1,0
49,192,256948,1,0
37,154,257015,5,6
256,192,257083,12,0,261335
