osu file format v9

[General]
AudioFilename: Freedom Dive.mp3
AudioLeadIn: 0
PreviewTime: 164126
Countdown: 0
SampleSet: Normal
StackLeniency: 0.7
Mode: 0
LetterboxInBreaks: 0

[Editor]
Bookmarks: 104726,131996,136316,200846,228589,240267
DistanceSpacing: 1
BeatDivisor: 4
GridSize: 8

[Metadata]
Title:FREEDOM DiVE
Artist:xi
Creator:Nakagawa-Kanon
Version:Another
Source:BMS
Tags:Parousia OnosakiHito Kirisaki_Hayashi

[Difficulty]
HPDrainRate:7
CircleSize:4
OverallDifficulty:8
ApproachRate:9
SliderMultiplier:1.6
SliderTickRate:1

[Events]
//Background and Video events
0,0,"587809.jpg"
//Break Periods
2,82253,90093
2,147054,161374
2,201054,208760
//Storyboard Layer 0 (Background)
//Storyboard Layer 1 (Fail)
//Storyboard Layer 2 (Pass)
//Storyboard Layer 3 (Foreground)
//Storyboard Sound Samples
//Background Colour Transformations
3,100,163,162,255

[TimingPoints]
2133,270.002700027,4,1,0,70,1,0
27985,-100,4,2,0,70,0,0
45333,-100,4,1,0,50,0,0
47493,-100,4,1,0,70,0,0
64773,-83.3333333333333,4,1,0,70,0,1
82053,-100,4,1,0,70,0,0
107974,-83.3333333333333,4,1,0,70,0,1
146854,-100,4,1,0,70,0,0
161704,-100,4,2,0,70,0,0
209225,-100,4,1,0,70,0,0
209562,-100,4,2,0,70,0,0
211655,-100,4,1,0,70,0,0
211722,-100,4,2,0,70,0,0
213747,-100,4,1,0,70,0,0
218135,-83.3333333333333,4,1,0,70,0,1
248307,-71.4285714285714,4,1,0,70,0,1
257015,-71.4285714285714,4,1,0,70,0,0
257083,-71.4285714285714,4,2,0,5,0,0

[Colours]
Combo1 : 255,128,128
Combo2 : 128,255,0
Combo3 : 0,128,192
Combo4 : 255,255,128

[HitObjects]
168,336,2133,2,0,B|40:336,2,120,4|0|0
248,336,2673,1,0
296,272,2808,1,0
288,192,2943,1,0
216,152,3078,1,0
144,184,3213,6,0,B|120:112|192:72,2,120
216,152,3753,5,0
296,272,3888,1,0
168,336,4023,1,0
432,40,4293,6,0,B|456:88|456:88|424:160,2,120,4|0|0
360,72,4833,1,0
288,48,4968,1,0
216,80,5103,1,0
144,48,5238,1,0
72,80,5373,6,0,B|80:208,1,120
80,240,5643,2,0,B|64:336,1,80
176,360,5913,5,0
176,360,5980,1,0
176,360,6048,2,0,B|200:352,4,20
344,336,6453,6,0,B|472:336,2,120,4|0|0
264,336,6993,1,0
216,272,7128,1,0
224,192,7263,1,0
296,152,7398,1,0
368,184,7533,6,0,B|392:112|320:72,2,120
296,152,8073,5,0
216,272,8208,1,0
344,336,8343,1,0
80,40,8613,6,0,B|56:88|56:88|88:160,2,120,4|0|0
152,72,9153,1,4
224,48,9288,1,0
296,80,9423,1,0
368,48,9558,1,0
440,80,9693,5,4
320,192,9828,2,0,B|360:184,2,40
440,304,10098,2,0,B|480:296,2,40
440,80,10368,2,0,B|480:72,2,40
256,320,10773,6,0,B|168:320|168:320|96:264,1,160,4|8
32,272,11178,1,0
48,192,11313,1,0
32,112,11448,1,0
111,108,11583,2,0,B|168:64|168:64|256:64,1,160,8|0
160,192,12123,1,8
240,192,12258,2,0,B|296:192|296:192|320:168|320:168|320:216|320:216|352:192|352:192|416:192,1,240,0|8
496,192,12798,1,0
456,120,12933,6,0,B|376:120|376:120|360:96|360:96|304:96,1,160,4|8
456,264,13473,2,0,B|376:264|376:264|360:288|360:288|304:288,1,160,0|8
232,288,13878,1,0
152,272,14013,2,0,B|152:112,1,160,0|12
232,96,14418,1,0
368,192,14553,2,8,B|232:192,2,120
232,288,15093,6,0,B|136:272|72:352,1,160,4|8
40,272,15498,1,0
40,272,15633,2,0,B|0:184|48:104,1,160,0|12
192,40,16038,2,0,B|232:128|184:208,1,160,4|0
168,224,16375,1,0
128,240,16443,1,12
120,160,16578,1,0
232,280,16713,6,0,B|336:272,1,80,4|0
352,280,16915,1,0
384,304,16983,1,8
424,232,17118,1,0
408,200,17185,1,0
416,160,17253,6,0,B|432:72,1,80,4|0
336,168,17523,2,0,B|352:80,1,80,8|0
256,176,17793,2,0,B|272:88,1,80,4|0
176,184,18063,2,0,B|192:96,1,80,8|0
190,105,18265,1,0
190,105,18333,2,0,B|102:105,1,80,12|0
8,256,18603,2,0,B|96:256,1,80,12|0
152,296,18873,5,12
177,326,18940,1,0
216,335,19008,1,0
254,324,19075,1,0
271,287,19143,1,8
304,265,19210,1,0
343,258,19278,1,0
380,271,19345,1,0
401,304,19413,6,0,B|491:294,1,80,4|0
376,192,19683,2,0,B|480:192,1,80,8|0
401,80,19953,2,0,B|491:90,2,80,0|0|8
111,80,20493,6,0,B|21:90,1,80
136,192,20763,2,0,B|32:192,1,80,8|0
111,304,21033,2,0,B|21:294,2,80,0|0|8
256,344,21438,5,0
192,296,21573,2,0,B|184:248|216:224,1,80,4|0
296,224,21843,2,0,B|328:248|320:296,1,80,8|0
256,152,22113,2,0,B|256:64,2,80,0|0|8
256,280,22518,1,0
336,368,22653,6,0,B|256:376|176:368,1,160,0|12
256,80,23193,2,12,B|256:216,2,120
280,288,23733,6,0,B|376:272|440:352,1,160,4|8
472,272,24138,1,0
472,272,24273,2,0,B|512:184|464:104,1,160,0|12
320,40,24678,2,0,B|280:128|328:208,1,160,4|0
344,224,25015,1,0
384,240,25083,1,12
392,160,25218,1,0
280,280,25353,6,0,B|176:272,1,80,4|0
160,280,25555,1,0
128,304,25623,1,8
88,232,25758,1,0
104,200,25825,1,0
96,160,25893,6,0,B|80:72,1,80,4|0
176,168,26163,2,0,B|160:80,1,80,8|0
256,176,26433,2,0,B|240:88,1,80
336,184,26703,2,0,B|320:96,1,80,8|0
321,105,26905,1,0
322,105,26973,2,0,B|410:105,1,80,8|0
504,256,27243,2,0,B|416:256,1,80,8|0
472,104,27513,5,8
352,256,27648,2,0,B|360:288,4,20,0|0|0|0|8
192,232,27918,1,0
64,344,28053,6,0,B|56:288|56:288|64:224,2,120,6|2|0
144,352,28593,1,0
144,352,28660,2,2,B|280:336,1,120
296,264,28998,1,0
368,296,29133,2,2,B|440:288|496:344,2,120
368,216,29673,1,0
368,216,29740,2,2,B|352:136|424:96,1,120
448,176,30078,1,2
288,176,30213,5,2
224,224,30348,1,2
224,224,30415,1,0
224,224,30483,2,2,B|200:184|216:144,1,80
136,64,30753,1,0
136,64,30820,2,2,B|160:112|128:144,1,80
132,138,31023,2,2,B|48:128,1,80
40,304,31293,5,0
112,344,31428,2,2,B|176:336,2,40
224,304,31698,1,2
328,352,31833,5,0
304,208,31968,1,2
408,312,32103,1,0
384,168,32238,1,2
488,272,32373,6,2,B|464:192|536:160,2,120
480,352,32913,1,2
408,312,33048,1,0
336,352,33183,2,2,B|320:312|336:264,1,80
376,208,33453,2,2,B|320:272|224:248,1,160
152,280,33858,1,0
152,280,33925,1,0
152,280,33993,2,2,B|128:224|168:184,1,80
248,88,34263,2,0,B|272:144|232:184,1,80,0|2
176,128,34533,6,0,B|80:120,1,80,2|0
336,128,34803,2,0,B|432:120,1,80,2|0
144,200,35073,2,0,B|64:200,1,80,2|0
368,200,35343,2,0,B|448:200,1,80,2|0
256,248,35613,2,2,B|256:392,2,120
256,168,36153,1,2
256,168,36220,1,0
256,168,36288,2,2,B|256:80,1,80
144,168,36558,5,0
144,168,36625,1,0
144,168,36693,2,0,B|96:112|128:40|200:40,1,160,4|2
368,168,37233,2,0,B|416:112|384:40|312:40,1,160,0|2
176,296,37773,6,2,B|168:328|168:328|176:368,1,53.3333333333333
340,347,37953,2,2,B|344:328|344:328|336:296,1,53.3333333333333
200,216,38313,2,0,B|236:212|256:264|256:264|276:212|312:216,1,160,0|2
256,160,38718,1,2
176,144,38853,2,0,B|128:160|128:208,1,80,4|2
383,201,39123,2,0,B|384:160|336:144,1,80,0|2
176,296,39393,2,0,B|160:376,1,80,0|2
351,374,39663,2,0,B|336:296,1,80,0|2
200,216,39933,5,0
256,160,40068,1,2
312,216,40203,1,0
256,272,40338,1,2
200,104,40473,2,2,B|256:64|312:104,2,120
152,296,41013,6,2,B|256:408|360:296,1,240,6|2
312,232,41553,2,0,B|320:176,1,40,0|2
194,192,41755,2,0,B|200:232,1,40,0|2
256,120,41958,1,0
256,120,42025,1,0
256,120,42093,2,0,B|168:104,1,80,4|2
256,120,42363,2,0,B|344:104,1,80,0|2
256,24,42633,5,4
256,200,42835,1,2
256,360,43038,1,2
192,320,43173,2,0,B|104:328,1,80,4|0
320,320,43443,2,2,B|408:328,1,80
160,248,43713,2,0,B|72:232,1,80,4|0
352,248,43983,2,0,B|440:232,1,80,4|0
168,176,44253,2,4,B|216:88|128:40,1,160
344,176,44793,2,4,B|296:88|384:40,1,160
448,80,45198,5,0
448,80,45265,1,0
448,80,45333,2,0,B|456:168,1,80
416,232,45603,1,0
400,312,45738,1,0
400,312,45805,1,0
400,312,45873,2,0,B|352:304|320:336,1,80
256,288,46143,1,0
128,280,46278,6,0,B|72:288,2,40
288,208,46548,2,0,B|344:200,2,40
64,176,46818,2,0,B|8:184,2,40
103,173,47020,1,0
140,157,47088,1,0
168,129,47155,1,0
188,94,47223,2,0,B|193:63,7,20
188,94,47493,6,0,B|272:88,1,80
472,120,47763,2,0,B|388:114,1,80,8|0
288,208,48033,1,0
288,208,48100,1,0
288,208,48168,2,0,B|272:248|304:304,1,80,0|8
360,240,48438,1,0
224,320,48573,6,0,B|128:312|56:368,1,160,0|8
48,192,48978,1,0
48,192,49045,1,0
48,192,49113,2,0,B|32:288,1,80
208,240,49383,2,0,B|224:336,1,80,8|0
160,80,49653,6,0,B|248:72,1,80
312,96,49923,1,8
392,88,50058,1,0
448,168,50193,6,0,B|360:160,1,80
296,184,50463,1,8
216,176,50598,1,0
168,256,50733,6,0,B|256:248,1,80
320,272,51003,1,8
400,264,51138,1,0
456,344,51273,6,0,B|368:336,1,80
304,360,51543,1,8
224,352,51678,1,0
64,360,51813,6,0,B|48:280|64:192,1,160,0|8
72,120,52218,1,0
72,120,52286,1,0
72,120,52353,2,0,B|80:80|72:32,2,80,0|0|8
136,168,52758,1,0
200,120,52893,5,0
312,104,53028,1,0
376,192,53163,5,8
264,176,53298,1,0
200,264,53433,5,0
312,248,53568,1,0
376,336,53703,5,8
264,320,53838,1,0
424,264,53973,6,0,B|496:224|472:120,1,160,0|8
344,48,54378,1,0
344,48,54513,2,0,B|344:104|400:136,1,80
504,40,54783,2,0,B|464:24|424:56,1,80,8|0
352,200,55053,6,0,B|264:192,1,80
136,320,55323,2,0,B|224:312,1,80,8|0
128,144,55593,5,0
96,169,55661,1,0
96,208,55728,1,0
120,240,55796,1,0
159,244,55863,1,8
195,262,55931,1,0
213,297,55998,1,0
217,337,56066,1,0
196,370,56133,1,4
328,320,56268,6,0,B|376:328|400:368,1,80,0|8
464,312,56538,2,0,B|472:216,1,80
352,112,56808,1,0
352,112,56943,2,0,B|296:200|392:248,1,160,8|0
416,168,57348,1,0
472,112,57483,6,0,B|480:72|472:24,1,80,8|0
336,120,57753,2,0,B|328:160|336:208,1,80
392,40,58023,2,0,B|352:32|304:40,1,80,8|0
168,72,58293,5,0
192,216,58428,1,0
88,296,58563,5,8
112,152,58698,1,0
288,184,58833,5,0
312,328,58968,1,0
24,360,59103,5,8
48,216,59238,1,0
184,304,59373,6,0,B|272:288,1,80
472,352,59643,2,0,B|384:336,1,80,8|0
184,224,59913,2,0,B|272:208,1,80
472,272,60183,2,0,B|384:256,1,80,8|0
352,48,60453,6,0,B|320:112|320:112|352:208,1,160,0|8
480,120,60858,1,0
480,120,60993,2,0,B|392:120,1,80
248,272,61263,2,0,B|336:272,1,80,8|0
192,160,61533,6,0,B|128:160|128:160|104:168|104:168|32:168,1,160,0|8
56,96,61938,1,0
56,96,62073,2,0,B|104:88|120:40,1,80
152,240,62343,2,0,B|104:248|88:296,1,80,8|0
216,352,62613,5,0
256,352,62748,1,0
296,352,62883,1,8
336,352,63018,1,0
448,264,63153,5,0
384,264,63288,1,0
320,264,63423,1,8
256,264,63558,1,0
144,160,63693,5,0
224,160,63828,1,0
304,160,63963,1,8
384,160,64098,1,0
480,48,64233,5,0
384,48,64368,1,0
288,48,64503,1,8
192,48,64638,1,0
48,160,64773,5,4
72,200,64841,2,2,B|88:248|88:248|72:304,1,96.0000022888184
48,328,65043,2,0,B|152:328,1,96.0000022888184,8|2
288,248,65313,1,0
288,248,65381,2,2,B|328:304|288:352|232:344,1,144.000003433228,2|8
200,256,65718,1,2
368,192,65853,5,0
400,232,65921,2,2,B|520:248,1,96.0000022888184
504,200,66123,2,0,B|488:147|512:91,1,96.0000022888184,8|2
320,64,66393,1,0
280,88,66461,1,0
288,136,66528,2,2,B|232:128|184:160,2,96.0000022888184,2|8|2
64,184,66933,6,2,B|48:240|88:280,1,96.0000022888184
82,273,67136,1,0
82,273,67203,2,2,B|184:288,1,96.0000022888184,8|2
344,224,67473,1,0
344,224,67541,2,2,B|272:272|304:360,1,144.000003433228,2|8
392,312,67878,1,2
480,216,68013,6,2,B|448:160|448:160|472:80,1,144.000003433228
448,40,68283,2,0,B|352:40,1,96.0000022888184,8|2
288,168,68553,1,0
248,80,68688,1,2
224,240,68823,1,8
152,96,68958,1,2
136,192,69093,6,2,B|56:184|16:264,1,144.000003433228
18,258,69363,2,0,B|0:151,1,96.0000022888184,8|2
112,288,69633,2,0,B|104:352,2,48.0000011444092,2|0|0
112,96,69903,2,0,B|104:32,2,48.0000011444092,10|0|0
208,320,70173,6,0,B|336:304,1,96.0000022888184,2|0
416,224,70443,2,0,B|288:208,1,96.0000022888184,10|0
112,288,70713,2,0,B|240:272,1,96.0000022888184,2|0
512,192,70983,2,0,B|384:176,1,96.0000022888184,10|0
192,40,71253,6,0,B|168:80|168:80|184:152,1,96.0000022888184,2|0
232,208,71523,1,10
136,208,71658,2,0,B|24:232,2,96.0000022888184,0|2|0
184,288,72063,2,0,B|208:344|272:344,1,96.0000022888184,10|0
368,176,72333,6,2,B|304:184|272:224|256:280,1,144.000003433228
262,261,72603,2,0,B|232:216|224:160,1,96.0000022888184,8|2
296,64,72873,2,0,B|320:40,4,24.0000005722046,2|0|0|0|0
200,80,73143,1,10
152,72,73211,1,0
104,80,73278,1,0
72,112,73346,1,0
56,160,73413,6,0,B|48:216|80:272,1,96.0000022888184,2|0
280,352,73683,2,0,B|288:296|256:240,1,96.0000022888184,10|0
24,192,73953,2,0,B|16:248|48:304,1,96.0000022888184,2|0
312,320,74223,2,0,B|320:264|288:208,1,96.0000022888184,10|0
432,120,74493,6,2,B|448:96|456:48,2,64.0000015258789
368,80,74763,2,0,B|256:48|208:152,1,192.000004577637,10|2
120,264,75168,1,0
120,264,75236,1,0
120,264,75303,2,0,B|104:216|112:152,1,96.0000022888184,10|0
192,320,75573,5,2
328,312,75708,1,0
320,176,75843,1,10
184,184,75978,1,0
256,248,76113,2,2,B|360:240|448:312,1,192.000004577637,2|10
496,224,76518,5,0
496,224,76586,1,0
496,224,76653,2,0,B|480:168|496:120,1,96.0000022888184,2|0
392,40,76923,2,0,B|408:96|392:144,1,96.0000022888184,10|0
232,152,77193,1,2
198,135,77261,1,0
161,141,77328,1,0
139,172,77396,1,0
134,209,77463,1,10
159,239,77531,1,0
195,252,77598,1,0
233,242,77666,1,0
248,208,77733,6,0,B|371:217,1,96.0000022888184,2|0
376,256,77936,2,0,B|360:312,1,48.0000011444092,2|8
456,312,78138,1,2
440,72,78273,1,0
440,72,78341,2,2,B|400:120|408:168|448:208,1,144.000003433228,2|10
512,136,78678,1,0
328,72,78813,2,0,B|216:88,1,96.0000022888184,2|0
40,120,79083,2,0,B|152:136,1,96.0000022888184,10|0
48,336,79353,5,2
144,336,79488,2,0,B|192:352,2,48.0000011444092,0|2|8
208,264,79758,1,2
336,192,79893,5,6
424,232,80028,2,0,B|432:176,5,48.0000011444092,0|0|8|0|0|0
480,288,80433,2,0,B|504:248,3,48.0000011444092,2|0|0|0
464,368,80703,2,0,B|512:360,3,48.0000011444092,10|0|0|0
416,376,80973,5,6
368,368,81041,1,0
320,360,81108,1,0
272,360,81176,1,0
224,368,81243,1,10
176,376,81311,1,0
128,368,81378,1,0
88,344,81446,1,0
64,304,81513,1,2
64,256,81581,1,0
80,208,81648,1,0
120,176,81716,1,0
168,168,81783,1,10
216,184,81851,1,0
256,216,81918,1,0
272,264,81986,1,0
264,312,82053,1,6
256,192,90693,5,4
176,216,90828,2,0,B|152:248|152:248|152:376,3,160
336,216,91908,2,0,B|360:248|360:248|360:376,3,160
256,304,92853,5,4
256,224,92988,2,0,B|256:64,2,160
80,56,93798,2,0,B|32:104|56:176|120:176,1,160
432,56,94338,2,0,B|480:104|456:176|392:176,1,160
256,336,94878,1,0
256,256,95013,6,0,B|256:168,1,80,4|0
168,312,95418,1,0
344,312,95688,1,0
152,232,95958,5,0
256,256,96093,1,4
360,232,96228,1,0
136,144,96498,5,0
256,168,96633,1,4
376,144,96768,1,0
256,168,96903,2,0,B|256:256,1,80
256,288,97106,1,0
256,328,97173,5,4
176,192,97443,1,4
256,56,97713,1,4
336,192,97983,2,0,B|368:192,7,20,4|0|0|0|0|0|0|0
336,192,98253,6,0,B|320:232|336:280,1,80,4|0
176,192,98523,2,0,B|192:232|176:280,1,80
344,224,98793,2,0,B|336:272|360:304,1,80
168,224,99063,2,0,B|176:272|152:304,1,80
368,256,99333,2,0,B|376:312|408:336,1,80
144,256,99603,2,0,B|136:312|104:336,1,80
408,272,99873,2,0,B|432:312|480:328,1,80
104,272,100143,2,0,B|80:312|32:328,1,80
176,192,100413,6,0,B|192:152|176:104,1,80
336,192,100683,2,0,B|320:152|336:104,1,80
168,160,100953,2,0,B|176:112|152:80,1,80
344,160,101223,2,0,B|336:112|360:80,1,80
144,128,101493,2,0,B|136:72|104:48,1,80
368,128,101763,2,0,B|376:72|408:48,1,80
104,112,102033,2,0,B|80:72|32:56,1,80
408,112,102303,2,0,B|432:72|480:56,1,80
256,96,102574,6,0,B|256:48,2,40
176,192,102844,2,0,B|128:191,2,40
256,272,103114,2,0,B|256:320,2,40
336,192,103384,2,0,B|384:192,2,40
188,124,103654,6,0,B|154:90,2,40
323,124,103924,2,0,B|357:90,2,40
323,259,104194,2,0,B|357:293,2,40
188,259,104464,2,0,B|154:293,2,40
384,192,104734,6,0,B|432:192,2,40
256,64,105004,2,0,B|256:16,2,40
128,192,105274,2,0,B|80:192,2,40
256,320,105544,2,0,B|256:368,2,40
357,293,105814,6,0,B|420:356,1,80
154,293,106084,2,0,B|91:356,1,80
154,90,106354,2,0,B|91:27,1,80
357,90,106624,2,0,B|420:27,1,80
256,192,106894,5,4
256,192,107704,1,8
408,352,107974,6,2,B|496:344|512:264,1,144.000003433228
480,232,108244,2,2,B|480:128,1,96.0000022888184,10|0
328,288,108514,1,0
328,288,108581,2,2,B|272:280|240:344,1,96.0000022888184
248,329,108784,2,0,B|200:296|216:224,1,96.0000022888184,8|2
96,128,109054,6,2,B|144:192|112:264,1,144.000003433228
80,296,109324,1,8
40,208,109459,1,2
96,128,109594,1,0
96,128,109661,1,0
96,128,109729,2,2,B|144:112|192:136,2,96.0000022888184,2|8|2
256,80,110134,6,2,B|288:128|280:184|224:216,1,144.000003433228
236,207,110404,2,0,B|272:328,1,96.0000022888184,8|2
360,184,110674,1,0
360,184,110741,2,2,B|328:240|328:240|360:344,1,144.000003433228,2|8
440,352,111079,1,2
496,176,111214,5,2
432,104,111349,2,0,B|456:48,2,48.0000011444092,0|0|8
336,104,111619,1,2
264,160,111754,1,0
128,144,111889,1,2
112,280,112024,1,8
248,296,112159,1,2
440,352,112294,6,2,B|424:296|424:296|432:200,1,144.000003433228,6|2
448,168,112564,2,0,B|336:168,1,96.0000022888184,8|0
248,296,112834,2,0,B|360:296,1,96.0000022888184,2|0
280,72,113104,2,0,B|168:72,1,96.0000022888184,10|0
72,352,113374,6,0,B|184:352,1,96.0000022888184,2|0
160,256,113644,2,0,B|128:208|168:160,1,96.0000022888184,10|0
352,128,113914,2,0,B|240:128,1,96.0000022888184,2|0
264,224,114184,2,0,B|296:272|256:320,1,96.0000022888184,10|0
352,344,114454,5,2
448,360,114589,1,0
360,264,114724,5,10
456,272,114859,1,0
352,184,114994,5,2
448,176,115129,1,0
328,104,115264,5,10
416,72,115399,2,0,B|488:80,2,48.0000011444092,0|0|2
336,16,115669,1,0
248,56,115804,1,8
248,152,115939,1,2
160,192,116074,1,0
160,192,116141,1,0
160,192,116209,2,0,B|152:288,1,96.0000022888184,2|8
80,352,116479,1,2
240,328,116614,6,2,B|296:320|352:360,1,96.0000022888184,6|2
424,336,116884,2,0,B|432:232,1,96.0000022888184,8|2
352,56,117154,2,2,B|304:128|368:200,1,144.000003433228
358,189,117424,2,0,B|248:200,1,96.0000022888184,8|2
72,88,117694,6,2,B|32:88|8:120,2,64.0000015258789
120,144,117964,2,0,B|112:208|128:280,1,96.0000022888184,8|2
256,152,118234,2,0,B|264:88|248:16,1,96.0000022888184,0|2
216,240,118504,2,0,B|272:248|328:240,1,96.0000022888184,8|2
360,224,118706,1,0
408,240,118774,6,0,B|400:288|408:344,1,96.0000022888184,6|0
488,152,119044,2,0,B|496:104|488:48,1,96.0000022888184,10|0
368,128,119314,2,0,B|248:112|216:224,1,192.000004577637,2|8
88,304,119719,5,0
88,304,119786,1,0
88,304,119854,2,0,B|104:248|80:192,1,96.0000022888184,2|0
144,40,120124,2,0,B|128:96|152:152,1,96.0000022888184,10|0
248,304,120394,2,2,B|280:256|264:184|208:152,1,144.000003433228
232,171,120664,2,0,B|352:160,1,96.0000022888184,8|2
432,272,120934,5,6
424,176,121069,1,0
424,176,121136,1,2
424,176,121204,1,8
488,112,121339,1,2
400,80,121474,1,0
376,72,121541,1,0
352,64,121609,1,2
264,160,121744,2,0,B|248:112|248:112|288:56,1,96.0000022888184,8|2
232,240,122014,6,0,B|120:224,1,96.0000022888184,2|0
280,320,122284,2,0,B|184:352,1,96.0000022888184,10|0
320,240,122554,5,2
432,336,122689,2,0,B|440:384,2,48.0000011444092,0|2|8
480,192,122959,1,2
408,256,123094,5,6
392,160,123229,1,0
400,136,123296,1,0
408,104,123364,1,8
304,144,123499,5,2
320,240,123634,1,0
312,264,123701,1,0
304,296,123769,1,2
136,352,123904,2,0,B|248:352,1,96.0000022888184,8|2
88,288,124174,5,6
24,216,124309,1,0
24,216,124376,1,0
24,216,124444,1,10
107,169,124579,1,0
120,192,124646,1,0
146,203,124714,1,2
174,208,124781,1,0
202,201,124849,1,0
226,186,124916,1,0
244,164,124984,1,10
267,147,125051,1,0
296,146,125119,1,0
324,151,125186,1,0
352,155,125254,6,2,B|514:142,1,144.000003433228,6|2
495,143,125524,2,0,B|480:196|503:248,1,96.0000022888184,8|2
376,352,125794,1,0
376,352,125861,1,0
376,352,125929,2,2,B|391:299|368:247,1,96.0000022888184,2|10
288,304,126199,1,2
88,336,126334,6,2,B|192:336,1,96.0000022888184
192,312,126536,1,0
200,288,126604,1,8
264,216,126739,1,2
192,120,126874,5,0
184,144,126941,1,0
176,168,127009,2,2,B|80:168,2,96.0000022888184,2|10|2
336,144,127414,6,2,B|384:208|344:288,1,144.000003433228
347,279,127684,2,0,B|448:304,1,96.0000022888184,8|2
256,336,127954,1,0
256,336,128021,2,2,B|200:352|144:304|144:240,1,144.000003433228,2|10
240,240,128359,1,2
72,192,128494,5,2
136,120,128629,1,0
160,88,128696,1,2
184,56,128764,2,0,B|296:56,1,96.0000022888184,8|2
320,184,129034,2,0,B|208:184,1,96.0000022888184,2|0
256,24,129304,2,0,B|368:24,1,96.0000022888184,10|0
240,240,129574,6,2,B|80:240,1,144.000003433228,6|2
96,240,129844,2,0,B|72:280|72:280|72:344,1,96.0000022888184,8|2
40,176,130114,6,2,B|24:128|40:72,1,96.0000022888184,2|0
240,40,130384,2,2,B|256:88|240:144,1,96.0000022888184,10|0
128,256,130654,6,2,B|112:208|128:152,1,96.0000022888184,2|0
328,120,130924,2,2,B|344:168|328:224,1,96.0000022888184,10|0
216,328,131194,6,2,B|200:280|216:224,1,96.0000022888184,2|0
416,192,131464,2,2,B|432:240|416:296,1,96.0000022888184,10|0
328,120,131734,6,2,B|432:80,1,96.0000022888184,2|0
128,256,132004,2,2,B|24:296,1,96.0000022888184,10|0
416,192,132274,6,2,B|520:152,1,96.0000022888184,2|0
216,328,132544,2,2,B|112:368,1,96.0000022888184,10|0
272,224,132814,5,6
200,160,132949,1,0
192,136,133016,1,0
184,112,133084,1,10
136,280,133219,1,0
128,256,133286,1,0
120,232,133354,1,2
112,208,133421,1,0
104,184,133489,1,0
96,160,133556,1,0
88,136,133624,1,10
80,112,133691,1,0
72,88,133759,1,0
64,64,133826,1,0
56,40,133894,6,2,B|8:48|-16:96,1,96.0000022888184,6|2
184,88,134164,2,0,B|232:80|256:32,1,96.0000022888184,8|2
104,184,134434,2,2,B|144:248|240:256|296:224,1,192.000004577637,2|10
360,192,134839,1,2
496,128,134974,6,2,B|496:96|504:64,2,64.0000015258789,2|2|2
472,200,135244,2,0,B|464:248|480:312,1,96.0000022888184,10|0
304,352,135514,2,0,B|312:304|296:240,1,96.0000022888184,2|0
280,240,135716,1,0
256,232,135784,2,0,B|152:232,1,96.0000022888184,10|0
24,352,136054,6,2,B|128:352,1,96.0000022888184
272,216,136324,2,0,B|168:216,1,96.0000022888184,8|2
72,96,136594,2,2,B|32:192|32:192|80:280,1,192.000004577637,2|10
74,269,136999,1,2
216,312,137134,6,0,B|288:328,3,48.0000011444092,2|0|0|0
304,344,137404,2,0,B|352:320,3,48.0000011444092,10|0|0|0
392,336,137674,2,0,B|384:288|392:240,1,96.0000022888184,2|0
504,136,137944,2,0,B|512:184|504:232,1,96.0000022888184,10|0
312,224,138214,6,2,B|304:144|312:80,1,144.000003433228,6|2
311,80,138484,2,0,B|416:80,1,96.0000022888184,8|2
216,144,138754,1,0
200,128,138821,1,0
184,112,138889,2,2,B|72:112,2,96.0000022888184,2|8|2
168,248,139294,6,0,B|176:352,1,96.0000022888184,2|2
344,344,139564,2,0,B|336:240,1,96.0000022888184,8|2
256,304,139834,5,2
256,192,139969,1,0
256,192,140036,1,2
256,192,140104,1,8
256,80,140239,1,2
336,128,140374,6,0,B|440:152|408:280,1,192.000004577637,4|8
103,278,140914,2,0,B|72:152|176:128,1,192.000004577637,0|8
256,304,141454,5,6
200,224,141589,2,0,B|176:296,2,48.0000011444092,0|0|10
312,224,141859,2,0,B|336:296,2,48.0000011444092,0|0|2
256,144,142129,1,0
256,144,142196,1,0
256,144,142264,2,0,B|256:88,2,48.0000011444092,2|0|0
344,48,142534,6,0,B|464:40,1,96.0000022888184,4|0
400,144,142804,2,0,B|512:144,1,96.0000022888184,8|0
376,256,143074,2,0,B|496:272,1,96.0000022888184,4|0
312,352,143344,2,0,B|432:376,1,96.0000022888184,8|0
200,352,143614,6,0,B|80:376,1,96.0000022888184,4|0
136,256,143884,2,0,B|16:272,1,96.0000022888184,8|0
112,144,144154,2,0,B|0:144,1,96.0000022888184,4|0
168,48,144424,2,0,B|48:40,1,96.0000022888184,8|0
344,48,144694,6,0,B|384:144,1,96.0000022888184,4|0
131,136,144964,2,0,B|168:48,1,96.0000022888184,8|0
168,336,145234,2,0,B|128:240,1,96.0000022888184,4|0
380,247,145504,2,0,B|344:336,1,96.0000022888184,8|0
256,104,145774,5,4
256,120,145841,1,0
256,136,145909,1,0
256,152,145976,1,0
256,168,146044,1,8
256,184,146111,1,0
256,200,146179,1,0
256,216,146246,1,0
256,232,146314,1,4
256,248,146381,1,0
256,264,146449,1,0
256,280,146516,1,0
256,296,146584,1,8
256,312,146651,1,0
256,328,146719,1,0
256,344,146786,1,0
256,360,146854,1,4
256,192,161974,12,0,163864
56,80,164134,5,2
88,76,164202,1,0
119,74,164269,1,0
151,77,164337,1,0
181,85,164404,1,0
210,96,164472,1,0
236,113,164539,1,0
261,132,164607,1,0
283,154,164674,1,2
300,180,164742,1,0
312,209,164809,1,0
322,239,164877,1,0
325,270,164944,6,0,B|314:320,3,40
384,352,165282,2,0,B|512:344,2,120,2|2|2
264,344,165889,1,2
144,368,166092,1,2
48,304,166294,5,2
33,275,166362,1,0
28,243,166429,1,0
30,210,166497,1,0
44,181,166564,1,2
67,158,166632,1,0
96,145,166699,1,0
128,142,166767,1,0
159,148,166834,1,2
188,160,166902,1,0
217,170,166969,1,0
249,169,167037,1,0
280,163,167104,1,2
309,149,167172,1,0
333,128,167239,1,0
349,100,167307,1,0
456,160,167509,6,2,B|448:264,1,80
304,296,167914,2,0,B|240:288|184:328,2,120,2|2|2
360,240,168454,6,0,B|368:184,5,40,2|0|0|0|0|0
328,184,168859,2,0,B|320:128,5,40,2|0|0|0|0|0
280,152,169264,5,2
243,135,169332,1,0
203,134,169399,1,0
163,140,169467,1,0
125,153,169534,2,0,B|99:202,3,40,2|0|0|0
70,170,169804,2,0,B|72:242,3,40,2|0|0|0
30,210,170074,2,0,B|49:249,3,40,2|0|0|0
51,286,170344,1,2
66,323,170412,1,0
101,340,170479,1,0
141,344,170547,1,0
178,329,170614,5,2
200,295,170682,1,0
229,268,170749,1,0
269,265,170817,1,0
305,280,170884,1,2
328,312,170952,1,0
347,346,171019,1,0
381,365,171087,1,0
420,361,171154,1,2
453,338,171222,1,0
468,301,171289,1,0
463,260,171357,1,2
435,231,171424,1,0
395,223,171492,1,0
359,204,171559,1,2
340,168,171627,1,0
314,137,171694,6,0,B|324:88,3,40,0|2|0|0
325,57,171964,1,6
287,41,172032,1,0
247,46,172099,1,0
215,71,172167,1,2
199,107,172234,1,4
205,146,172302,1,0
226,179,172369,1,2
257,203,172437,1,0
281,234,172504,1,4
292,272,172572,1,2
277,309,172639,1,0
240,326,172707,1,0
201,317,172774,1,2
48,268,173044,6,0,B|53:224,3,40,2|0|0|0
17,189,173314,2,0,B|22:145,3,40,2|0|0|0
38,112,173584,1,2
117,122,173719,2,2,B|284:139,1,160
432,224,174124,2,0,B|320:208,1,80,2|0
280,48,174394,2,0,B|392:64,1,80,2|0
176,224,174664,5,2
144,220,174732,1,0
112,216,174799,1,0
80,212,174867,1,0
48,208,174934,1,2
60,240,175002,1,0
68,272,175069,1,0
68,304,175137,1,0
60,336,175204,1,2
36,360,175272,1,0
68,360,175339,1,0
100,352,175407,1,0
128,336,175474,1,2
160,328,175542,1,0
192,324,175609,1,0
224,324,175677,1,0
256,328,175744,1,2
332,348,175879,6,0,B|424:372|484:304,1,160,2|2
376,176,176284,2,0,B|376:216|400:264,1,80,0|2
480,160,176554,2,0,B|480:120|456:72,1,80,0|2
384,56,176824,1,2
344,48,176892,1,0
304,56,176959,1,0
280,88,177027,1,0
280,128,177094,6,0,B|288:192,5,40,2|0|0|0|0|0
248,184,177499,2,0,B|240:240,5,40,2|0|0|0|0|0
205,206,177904,1,2
170,185,177972,1,0
141,157,178039,1,0
121,121,178107,1,0
111,82,178174,1,0
108,41,178242,1,0
68,46,178309,5,2
38,73,178377,1,0
29,111,178444,1,2
32,151,178512,1,0
49,186,178579,1,0
79,212,178647,1,0
91,249,178714,1,2
91,289,178782,1,0
75,325,178849,1,0
46,353,178917,1,0
85,348,178984,1,2
125,348,179052,1,0
164,353,179119,1,2
203,359,179187,1,0
242,356,179254,5,2
280,344,179322,1,0
319,338,179389,1,0
359,342,179457,1,0
396,353,179524,2,0,B|456:357,3,40
490,302,179794,5,2
480,262,179862,1,0
476,222,179929,1,0
483,182,179997,1,0
493,143,180064,2,0,B|500:82,3,40
440,56,180334,5,6
401,68,180402,1,0
361,69,180469,1,0
321,62,180537,1,0
283,49,180604,1,6
282,89,180672,1,0
282,128,180739,1,0
267,165,180807,1,0
242,196,180874,1,6
204,181,180942,1,0
164,175,181009,1,0
123,172,181077,1,0
85,184,181144,1,6
55,210,181212,1,0
34,243,181279,1,0
24,282,181347,1,0
23,321,181414,5,2
48,328,181482,1,0
72,336,181549,1,0
96,344,181617,1,0
120,352,181684,1,0
224,296,181819,5,2
199,289,181887,1,0
175,281,181954,1,0
151,273,182022,1,0
127,265,182089,1,0
304,256,182224,5,2
328,264,182292,1,0
352,272,182359,1,0
456,360,182494,5,2
446,329,182562,1,0
441,297,182629,1,0
446,265,182697,1,0
455,234,182764,1,2
471,206,182832,1,0
492,182,182899,1,0
460,177,182967,1,0
430,166,183034,1,2
401,151,183102,1,0
376,130,183169,1,0
358,103,183237,1,0
352,71,183304,2,0,B|423:60,3,40,2|0|0|0
282,98,183574,5,2
251,108,183642,1,0
219,110,183709,1,0
187,105,183777,1,0
157,92,183844,1,0
16,192,183979,5,2
47,202,184047,1,0
79,204,184114,1,0
111,199,184182,1,0
141,186,184249,1,0
216,304,184384,2,0,B|240:264|224:216,1,80,2|0
296,344,184654,5,2
326,333,184722,1,0
357,332,184789,1,0
388,337,184857,1,0
417,349,184924,1,2
443,367,184992,1,0
435,336,185059,1,0
434,303,185127,1,0
441,272,185194,1,2
452,241,185262,1,0
466,212,185329,1,0
486,187,185397,1,0
495,156,185464,1,2
496,123,185532,1,0
485,92,185599,1,0
465,66,185667,1,0
435,54,185734,5,2
402,52,185802,1,0
373,65,185869,1,0
349,87,185937,1,0
341,117,186004,1,0
160,320,186274,6,2,B|32:312,2,120
352,320,186882,2,2,B|480:312,2,120
256,192,187489,1,2
176,192,187624,1,2
160,168,187692,1,0
144,144,187759,1,0
128,120,187827,1,0
112,96,187894,6,0,B|64:80,3,40,2|0|0|0
64,160,188164,2,0,B|24:160,3,40,2|0|0|0
88,232,188434,2,0,B|48:240,3,40,2|0|0|0
144,288,188704,2,0,B|104:320,3,40,2|0|0|0
222,311,188974,5,2
254,308,189042,1,2
285,309,189109,1,0
316,316,189177,1,0
346,326,189244,1,4
374,341,189312,1,0
401,356,189379,1,0
398,323,189447,1,0
402,291,189514,1,4
418,263,189582,1,0
442,242,189649,1,0
468,224,189717,1,0
487,198,189784,1,4
497,167,189852,1,0
500,135,189919,1,0
491,103,189987,1,0
467,81,190054,5,2
438,65,190122,1,0
406,58,190189,1,0
374,65,190257,1,0
349,84,190324,1,0
331,111,190392,1,0
326,142,190459,1,0
328,174,190527,1,0
339,203,190594,1,2
337,235,190662,1,0
330,265,190729,1,0
312,291,190797,1,0
284,307,190864,1,0
253,316,190932,1,0
222,308,190999,1,0
193,292,191067,1,0
169,270,191134,5,2
156,240,191202,1,0
153,208,191269,1,0
158,176,191337,1,0
173,148,191404,1,2
196,125,191472,1,0
223,109,191539,1,0
245,86,191607,1,0
263,60,191674,1,2
274,29,191742,1,0
242,33,191809,1,0
209,31,191877,1,0
177,34,191944,1,2
146,43,192012,1,0
117,57,192079,1,0
93,79,192147,1,0
74,104,192214,1,2
24,264,192349,6,0,B|16:176,2,80,2|2|0
88,312,192754,2,2,B|160:296|216:352,2,120
104,232,193294,5,2
134,222,193362,1,0
165,216,193429,1,0
197,214,193497,1,0
228,217,193564,1,2
259,224,193632,1,0
287,238,193699,1,0
312,257,193767,1,0
330,283,193834,1,2
342,312,193902,1,0
361,286,193969,1,0
390,273,194037,1,0
421,273,194104,1,2
452,268,194172,1,0
482,258,194239,1,0
500,231,194307,1,0
502,199,194374,6,0,B|491:112,1,80,2|0
432,64,194644,1,2
384,128,194779,1,2
358,97,194847,1,0
349,58,194914,1,0
316,81,194982,1,0
276,82,195049,1,2
198,63,195184,5,2
158,57,195252,1,0
119,64,195319,1,0
88,90,195387,1,0
72,126,195454,1,6
74,166,195522,1,0
91,201,195589,1,0
124,223,195657,1,0
161,235,195724,1,2
201,230,195792,1,0
230,203,195859,1,0
266,186,195927,1,0
305,189,195994,1,6
342,204,196062,1,0
367,234,196129,1,0
379,272,196197,1,0
373,311,196264,1,2
351,345,196332,1,0
317,366,196399,1,0
276,364,196467,1,0
249,334,196534,6,0,B|154:340,1,80,4|0
0,328,196804,2,0,B|95:322,1,80
272,248,197074,2,0,B|177:254,1,80,4|0
23,242,197344,2,0,B|118:236,1,80,0|0
168,64,197614,6,0,B|176:160,1,80,4|0
352,128,197884,2,0,B|344:32,1,80,0|0
240,192,198154,2,0,B|248:288,1,80,4|0
424,256,198424,2,0,B|416:160,1,80,0|0
312,328,198694,5,4
281,353,198762,1,0
242,362,198829,1,0
201,358,198897,1,0
164,341,198964,1,0
138,309,199032,1,0
130,270,199099,1,0
136,230,199167,1,0
148,192,199234,1,4
150,151,199302,1,0
148,111,199369,1,0
127,76,199437,1,0
90,60,199504,1,0
50,66,199572,1,0
24,96,199639,1,0
9,133,199707,1,0
20,170,199774,5,4
50,195,199842,1,0
87,207,199909,1,0
127,205,199977,1,0
166,197,200044,1,0
206,196,200112,1,0
245,202,200179,1,0
275,227,200247,1,0
291,263,200314,1,4
287,303,200382,1,0
301,340,200449,1,0
338,354,200517,1,0
377,347,200584,1,0
398,313,200652,1,0
408,274,200719,1,0
387,239,200787,1,0
354,216,200854,5,4
256,192,209360,5,0
256,192,209427,1,0
256,192,209495,1,4
176,328,209765,6,0,B|352:328,1,160
336,56,210305,2,0,B|160:56,1,160
392,272,210845,2,0,B|392:96,1,160
120,112,211385,2,0,B|120:288,1,160,0|4
256,192,211925,5,0
176,56,212195,2,0,B|112:8|56:48|40:104,1,160
336,56,212735,2,0,B|400:8|456:48|472:104,1,160
184,336,213275,2,0,B|256:400|328:336,1,160
256,192,213815,5,4
168,192,214760,5,0
168,192,214827,1,0
168,192,214895,2,4,B|160:304|256:336|352:304|344:192,2,320
216,128,216110,1,0
296,128,216245,1,0
256,56,216380,1,0
336,56,216515,5,4
176,56,216785,1,4
256,192,217055,5,4
48,280,217325,1,4
256,368,217595,1,4
464,280,217865,5,4
456,248,217932,1,0
448,216,218000,1,0
440,184,218067,1,0
432,152,218135,6,2,B|408:40,1,96.0000022888184,6|2
384,40,218337,2,0,B|312:40,1,48.0000011444092,0|8
256,40,218540,1,2
96,136,218675,1,0
120,152,218742,2,2,B|248:152,1,96.0000022888184
240,168,218945,2,0,B|256:216|240:264,1,96.0000022888184,8|2
384,320,219215,5,2
480,336,219350,1,0
480,336,219417,1,2
480,336,219485,1,8
448,248,219620,2,0,B|472:208|456:144,1,96.0000022888184,2|2
456,128,219822,2,0,B|312:112,1,144.000003433228,2|8
224,64,220160,1,2
72,176,220295,6,0,B|48:232|88:296,1,96.0000022888184,2|0
96,296,220497,1,2
136,304,220565,1,8
168,216,220700,1,2
296,272,220835,1,0
296,272,220902,2,2,B|288:216|304:168,1,96.0000022888184
352,136,221105,2,0,B|456:144,1,96.0000022888184,8|2
384,368,221375,6,0,B|280:360,1,96.0000022888184,2|0
264,368,221577,1,2
232,376,221645,1,8
144,336,221780,1,2
48,336,221915,5,0
24,184,222050,1,2
176,224,222185,1,8
152,72,222320,1,2
112,152,222455,6,0,B|224:136,1,96.0000022888184,6|0
264,168,222657,1,2
264,168,222725,2,0,B|256:216|256:216|272:264,1,96.0000022888184,8|2
416,200,222995,2,0,B|424:152|424:152|408:104,1,96.0000022888184,2|0
368,280,223265,2,0,B|416:296|416:296|464:280,1,96.0000022888184,10|0
312,88,223535,6,0,B|264:72|264:72|216:88,1,96.0000022888184,2|0
264,256,223805,2,2,B|32:256,1,192.000004577637,10|2
168,168,224210,2,0,B|264:168,1,96.0000022888184,0|10
168,344,224480,2,2,B|72:344,1,96.0000022888184
344,352,224885,5,10
456,312,225020,1,0
304,272,225155,5,2
408,216,225290,1,0
240,216,225425,5,10
328,136,225560,1,0
328,136,225627,1,0
328,136,225695,2,2,B|320:88|328:40,1,96.0000022888184,6|2
408,216,225965,2,0,B|416:264|408:312,1,96.0000022888184,12|2
256,344,226235,5,6
216,352,226302,1,0
177,347,226370,1,0
143,328,226437,1,0
123,294,226505,2,0,B|104:247,3,48.0000011444092,14|0|0|0
93,212,226775,6,0,B|79:169|79:169|92:117,1,96.0000022888184,6|0
328,136,227045,2,0,B|342:179|342:179|329:231,1,96.0000022888184,10|0
224,72,227315,2,2,B|200:288,1,192.000004577637,2|10
256,344,227720,1,0
384,320,227855,6,2,B|448:336,1,64.0000015258789
408,288,228035,2,2,B|472:304,1,64.0000015258789,2|10
496,208,228260,1,2
440,128,228395,2,0,B|328:144,1,96.0000022888184,0|2
184,56,228664,2,0,B|296:72,1,96.0000022888184,8|2
256,280,228935,6,2,B|216:232|216:232|256:136,1,144.000003433228
247,156,229205,2,0,B|144:156,1,96.0000022888184,8|2
312,216,229475,2,2,B|415:216,1,96.0000022888184
456,256,229677,1,0
456,256,229745,2,0,B|480:304|480:304|456:352,1,96.0000022888184,8|2
256,368,230015,6,0,B|128:376,1,96.0000022888184,2|0
0,288,230285,2,0,B|128:296,1,96.0000022888184,10|0
256,208,230555,2,0,B|128:216,1,96.0000022888184,2|0
0,128,230825,2,0,B|128:136,1,96.0000022888184,10|0
328,80,231095,6,0,B|320:32,2,48.0000011444092,6|0|0
400,104,231297,2,0,B|440:64,2,48.0000011444092,2|8|0
344,152,231500,1,2
352,320,231635,1,0
352,320,231702,2,2,B|408:288|392:216,1,96.0000022888184
376,224,231905,2,0,B|272:232,1,96.0000022888184,8|0
64,336,232175,6,0,B|40:240,1,96.0000022888184,6|0
144,96,232445,2,0,B|168:192,1,96.0000022888184,10|0
160,336,232715,2,2,B|240:368|304:336,1,144.000003433228
328,352,232985,2,0,B|312:248,1,96.0000022888184,8|0
328,80,233255,5,4
304,104,233322,2,2,B|248:120|176:104,1,96.0000022888184
184,88,233525,2,0,B|192:144|176:192,1,96.0000022888184,8|2
40,272,233795,1,2
40,272,233862,1,0
40,272,233930,2,2,B|32:216|48:168,2,96.0000022888184,2|10|2
120,328,234335,5,6
154,343,234402,1,0
192,342,234470,1,0
226,325,234537,1,0
244,291,234605,1,10
243,252,234672,1,0
228,216,234740,1,0
200,189,234807,1,0
180,155,234875,1,2
172,117,234942,1,0
180,79,235010,1,0
208,53,235077,1,0
245,42,235145,1,10
283,43,235212,1,0
318,57,235280,1,0
337,89,235347,1,0
342,127,235415,6,2,B|333:231,1,96.0000022888184,6|2
351,256,235617,1,0
383,277,235685,1,8
420,282,235752,1,0
457,271,235820,1,2
287,333,235955,1,2
251,345,236022,1,0
212,347,236090,1,0
175,335,236157,1,2
141,315,236225,1,8
123,281,236292,1,0
109,244,236360,1,2
136,64,236495,6,0,B|24:56|32:56,1,96.0000022888184,2|2
55,91,236697,1,2
61,129,236765,1,8
56,166,236832,1,0
35,198,236900,1,2
191,217,237035,1,2
184,179,237102,1,0
187,140,237170,1,0
205,106,237237,1,2
239,88,237305,1,8
276,82,237372,1,0
312,93,237440,1,2
341,117,237507,1,0
365,146,237575,6,2,B|485:165,1,96.0000022888184
479,193,237777,1,0
486,230,237845,1,8
472,265,237912,1,0
435,278,237980,2,0,B|314:264,1,96.0000022888184,2|0
307,287,238182,1,2
275,309,238250,1,0
253,340,238317,1,2
227,310,238385,1,8
192,294,238452,1,0
153,296,238520,1,2
120,316,238587,1,0
99,348,238655,6,2,B|-17:333,1,96.0000022888184
2,297,238857,1,0
33,275,238925,2,0,B|32:221|45:178,1,96.0000022888184,8|2
192,56,239195,2,0,B|193:110|180:153,1,96.0000022888184,0|2
248,360,239465,2,0,B|247:306|260:263,1,96.0000022888184,8|2
488,128,239735,6,2,B|368:144,1,96.0000022888184,6|2
352,184,239937,1,2
352,184,240005,2,0,B|232:176,1,96.0000022888184,8|2
88,224,240275,2,0,B|208:232,1,96.0000022888184,2|0
368,72,240545,2,0,B|248:64,1,96.0000022888184,10|0
104,336,240815,6,0,B|224:344,1,96.0000022888184,2|0
408,344,241085,2,2,B|320:336|320:336|288:320|288:320|200:312,1,192.000004577637,10|2
160,240,241490,1,2
144,192,241557,1,0
168,152,241625,2,0,B|160:96,2,48.0000011444092,8|0|2
376,216,241895,6,0,B|432:216|464:272,1,96.0000022888184,2|0
312,160,242165,2,0,B|344:120|416:128,1,96.0000022888184,10|0
232,184,242435,2,0,B|216:128|264:80,1,96.0000022888184,2|0
296,240,242705,1,10
280,264,242772,1,0
264,288,242840,1,0
88,352,242975,5,6
62,338,243042,1,0
43,315,243110,1,0
34,287,243177,1,0
34,257,243245,1,14
45,231,243312,1,0
64,209,243380,1,0
88,193,243447,1,0
114,180,243515,1,6
136,162,243582,1,0
152,137,243650,1,0
156,108,243717,1,0
153,79,243785,1,14
138,54,243852,1,0
115,35,243920,1,0
86,29,243987,1,0
57,33,244055,6,0,B|44:132,1,96.0000022888184,6|0
152,336,244325,2,0,B|165:237,1,96.0000022888184,10|0
272,32,244595,2,2,B|264:112|264:112|272:144|272:144|264:240,1,192.000004577637,2|10
320,304,245000,1,0
408,272,245135,6,2,B|520:288,2,64.0000015258789
376,216,245405,2,2,B|352:144|400:96|480:104|496:144,2,192.000004577637,10|2|10
280,200,246080,1,2
224,272,246215,6,0,B|120:264,1,96.0000022888184,6|0
280,200,246485,2,0,B|176:192,1,96.0000022888184,10|0
328,128,246755,2,0,B|224:120,1,96.0000022888184,2|0
384,56,247025,2,0,B|280:48,1,96.0000022888184,10|0
408,144,247295,6,0,B|512:152,1,96.0000022888184,2|0
352,216,247565,2,0,B|456:224,1,96.0000022888184,10|0
304,288,247835,2,0,B|408:296,1,96.0000022888184,2|0
248,360,248105,2,0,B|352:368,1,96.0000022888184,10|0
152,328,248375,6,0,B|8:336,1,111.999997329712,6|0
24,304,248577,1,2
8,272,248645,1,8
96,208,248780,1,2
232,128,248915,1,2
224,160,248982,1,0
216,192,249050,2,0,B|336:208,2,111.999997329712,2|8|2
400,272,249455,6,2,B|440:224|416:152,1,111.999997329712,6|2
144,128,249725,2,0,B|104:176|128:248,1,111.999997329712,8|2
296,352,249995,2,2,B|464:352,1,167.999995994568
496,320,250265,2,0,B|512:296|512:296|504:208,1,111.999997329712,8|2
464,40,250535,5,4
431,46,250602,1,0
400,59,250670,1,0
374,80,250737,1,0
353,106,250805,1,8
345,138,250872,1,0
340,171,250940,1,0
340,204,251007,1,0
346,237,251075,1,0
316,221,251142,1,0
282,216,251210,1,0
248,216,251277,1,0
215,224,251345,1,8
186,241,251412,1,0
160,263,251480,1,0
130,279,251547,1,0
96,282,251615,5,4
62,277,251682,1,0
40,250,251750,1,0
19,223,251817,1,0
16,189,251885,1,12
26,157,251952,1,0
45,129,252020,1,0
74,113,252087,1,0
107,113,252155,1,4
137,127,252223,1,0
169,135,252290,1,0
202,133,252358,1,0
230,114,252425,1,12
258,95,252493,1,0
290,86,252560,1,0
323,81,252628,1,0
356,83,252695,5,4
448,72,252830,1,0
416,160,252965,1,8
488,224,253100,1,0
415,283,253235,1,0
383,294,253303,1,0
349,289,253370,1,0
317,276,253438,1,0
294,251,253505,1,8
287,217,253573,1,0
293,184,253640,1,0
260,193,253708,1,0
233,213,253775,5,0
176,288,253910,1,0
128,208,254045,1,8
48,256,254180,1,0
40,168,254315,1,0
49,135,254383,1,0
69,108,254450,1,0
100,94,254518,1,0
132,87,254585,1,8
165,91,254653,1,0
195,103,254720,1,0
227,112,254788,1,0
260,110,254855,5,4
328,48,254990,1,0
376,128,255125,1,8
440,56,255260,1,0
480,144,255395,1,0
490,176,255463,1,0
494,208,255530,1,0
491,241,255598,1,0
480,272,255665,1,8
455,295,255733,1,0
424,307,255800,1,0
390,310,255868,1,0
357,303,255935,5,0
328,285,256003,1,0
296,275,256070,1,0
262,272,256138,1,0
228,275,256205,1,8
195,285,256273,1,0
166,302,256340,1,0
139,322,256408,1,0
111,340,256475,1,0
79,352,256543,1,0
86,319,256610,1,0
84,285,256678,1,0
77,252,256745,1,8
61,221,256813,1,0
47,190,256880,1,0
43,156,256948,1,0
45,122,257015,5,6
256,192,257083,12,2,261335
