osu file format v12

[General]
AudioFilename: Xi - Freedom Dive - Another -.mp3
AudioLeadIn: 0
PreviewTime: 125265
Countdown: 0
SampleSet: None
StackLeniency: 0.7
Mode: 3
LetterboxInBreaks: 0
SpecialStyle: 0
WidescreenStoryboard: 0

[Editor]
DistanceSpacing: 1.2
BeatDivisor: 4
GridSize: 4
TimelineZoom: 1

[Metadata]
Title:FREEDOM DiVE
TitleUnicode:FREEDOM DiVE
Artist:xi
ArtistUnicode:xi
Creator:ExPew
Version:7K SHD
Source:BMS
Tags:ishimaru94 - R u m i a - parousia
BeatmapID:432037
BeatmapSetID:179727

[Difficulty]
HPDrainRate:8
CircleSize:7
OverallDifficulty:7
ApproachRate:0
SliderMultiplier:1.4
SliderTickRate:1

[Events]
//Background and Video events
0,0,"Freedom Dive - Another -.jpg",0,0
//Break Periods
//Storyboard Layer 0 (Background)
//Storyboard Layer 1 (Fail)
//Storyboard Layer 2 (Pass)
//Storyboard Layer 3 (Foreground)
//Storyboard Sound Samples
//Background Colour Transformations
3,100,163,162,255

[TimingPoints]
-16,270.002700027,4,2,2,30,1,0
21584,-100,4,2,2,15,0,0
21651,-100,4,2,2,30,0,0
27659,-100,4,2,2,55,0,0
27794,-100,4,2,2,30,0,0
28064,-100,4,2,2,40,0,0
31844,-100,4,2,2,25,0,0
32384,-100,4,2,2,40,0,0
32924,-100,4,2,2,30,0,0
36164,-100,4,2,2,40,0,0
36704,-100,4,2,2,25,0,0
36839,-100,4,2,2,30,0,0
37784,-100,4,2,2,40,0,0
38864,-100,4,2,2,25,0,0
38999,-100,4,2,2,40,0,0
41024,-100,4,2,2,25,0,0
41091,-100,4,2,2,40,0,0
42104,-100,4,2,2,25,0,0
42239,-100,4,2,2,40,0,0
42644,-100,4,2,2,25,0,0
42711,-100,4,2,2,40,0,0
43184,-100,4,2,2,25,0,0
43454,-100,4,2,2,21,0,0
44264,-100,4,2,2,30,0,0
45344,-100,4,2,2,55,0,0
47504,-100,4,2,2,30,0,0
55739,-100,4,2,2,55,0,0
55874,-100,4,2,2,30,0,0
64379,-100,4,2,2,40,0,0
64514,-100,4,2,2,30,0,0
64784,-100,4,2,2,30,0,1
82064,-133.333333333333,4,2,2,40,0,0
90704,-133.333333333333,4,2,2,30,0,0
92999,-133.333333333333,4,2,2,40,0,0
95024,-133.333333333333,4,2,2,25,0,0
95159,-133.333333333333,4,2,2,40,0,0
96104,-133.333333333333,4,2,2,25,0,0
96239,-133.333333333333,4,2,2,40,0,0
96644,-133.333333333333,4,2,2,35,0,0
96779,-133.333333333333,4,2,2,40,0,0
97184,-133.333333333333,4,2,2,25,0,0
97319,-133.333333333333,4,2,2,40,0,0
97454,-133.333333333333,4,2,2,25,0,0
97589,-133.333333333333,4,2,2,40,0,0
97724,-133.333333333333,4,2,2,35,0,0
97859,-133.333333333333,4,2,2,40,0,0
97994,-133.333333333333,4,2,2,25,0,0
98129,-133.333333333333,4,2,2,40,0,0
98264,-133.333333333333,4,2,2,30,0,0
98534,-133.333333333333,4,2,2,40,0,0
99344,-128.205128205128,4,2,2,30,0,0
99614,-128.205128205128,4,2,2,40,0,0
100425,-123.456790123457,4,2,2,30,0,0
100695,-123.456790123457,4,2,2,40,0,0
101505,-119.047619047619,4,2,2,30,0,0
101775,-119.047619047619,4,2,2,40,0,0
102585,-114.942528735632,4,2,2,30,0,0
102855,-114.942528735632,4,2,2,40,0,0
103665,-111.111111111111,4,2,2,30,0,0
103935,-111.111111111111,4,2,2,40,0,0
104745,-107.52688172043,4,2,2,30,0,0
105015,-107.52688172043,4,2,2,40,0,0
105825,-104.166666666667,4,2,2,30,0,0
105960,-104.166666666667,4,2,2,35,0,0
106365,-100,4,2,2,30,0,0
106905,-100,4,2,2,30,0,0
107715,-200,4,2,2,40,0,1
107782,-400,4,2,2,70,0,0
107850,-100,4,2,2,70,0,0
107917,-66.6666666666667,4,2,2,70,0,0
107985,-100,4,2,2,30,0,1
124927,-100,4,2,2,55,0,1
125029,-100,4,2,2,30,0,1
142545,-100,4,2,2,20,0,0
143625,-100,4,2,2,25,0,0
144705,-100,4,2,2,30,0,0
145785,-100,4,2,2,35,0,0
146865,-100,4,2,2,30,0,0
161985,-100,4,2,2,22,0,0
196545,-100,4,2,2,30,0,0
197625,-100,4,2,2,20,0,0
198705,-100,4,2,2,30,0,0
199785,-100,4,2,2,20,0,0
200866,-100,4,2,2,40,0,0
204646,-100,4,2,2,30,0,0
205388,-100,4,2,2,40,0,0
207346,-100,4,2,2,35,0,0
209506,-100,4,2,2,30,0,0
210586,-100,4,2,2,40,0,0
211666,-100,4,2,2,30,0,0
211801,-100,4,2,2,40,0,0
213826,-100,4,2,2,30,0,0
213893,-100,4,2,2,40,0,0
214906,-100,4,2,2,30,0,0
215041,-100,4,2,2,40,0,0
215446,-100,4,2,2,30,0,0
215513,-100,4,2,2,40,0,0
215986,-100,4,2,2,30,0,0
216053,-100,4,2,2,40,0,0
216256,-100,4,2,2,24,0,0
217066,-100,4,2,2,30,0,0
217336,-100,4,2,2,28,0,0
217606,-100,4,2,2,26,0,0
217876,-100,4,2,2,22,0,0
218146,-100,4,2,2,30,0,1
242986,-100,4,2,2,26,0,1
244066,-100,4,2,2,30,0,1
252706,-100,4,2,2,25,0,0
254866,-100,4,2,2,28,0,0
261346,-100,4,2,2,5,0,0

[HitObjects]
36,192,2144,5,0,0:0:0:0:
182,192,2144,1,0,0:0:0:0:
109,192,2211,1,0,0:0:0:0:
256,192,2279,1,0,0:0:0:0:
475,192,2279,1,0,0:0:0:0:
329,192,2346,1,0,0:0:0:0:
182,192,2414,1,0,0:0:0:0:
109,192,2481,1,0,0:0:0:0:
256,192,2549,1,0,0:0:0:0:
402,192,2549,1,0,0:0:0:0:
182,192,2616,1,0,0:0:0:0:
36,192,2684,1,0,0:0:0:0:
109,192,2751,1,0,0:0:0:0:
256,192,2819,1,0,0:0:0:0:
475,192,2819,1,0,0:0:0:0:
329,192,2886,1,0,0:0:0:0:
182,192,2954,1,0,0:0:0:0:
109,192,3021,1,0,0:0:0:0:
256,192,3089,1,0,0:0:0:0:
402,192,3089,1,0,0:0:0:0:
182,192,3156,1,0,0:0:0:0:
36,192,3224,1,0,0:0:0:0:
109,192,3291,1,0,0:0:0:0:
256,192,3359,1,0,0:0:0:0:
475,192,3359,1,0,0:0:0:0:
329,192,3426,1,0,0:0:0:0:
182,192,3494,1,0,0:0:0:0:
109,192,3561,1,0,0:0:0:0:
256,192,3629,1,0,0:0:0:0:
402,192,3629,1,0,0:0:0:0:
182,192,3696,1,0,0:0:0:0:
36,192,3764,1,0,0:0:0:0:
109,192,3831,1,0,0:0:0:0:
256,192,3899,1,0,0:0:0:0:
475,192,3899,1,0,0:0:0:0:
329,192,3966,1,0,0:0:0:0:
182,192,4034,1,0,0:0:0:0:
109,192,4101,1,0,0:0:0:0:
256,192,4169,1,0,0:0:0:0:
402,192,4169,1,0,0:0:0:0:
182,192,4236,1,0,0:0:0:0:
36,192,4304,1,0,0:0:0:0:
109,192,4371,1,0,0:0:0:0:
256,192,4439,1,0,0:0:0:0:
475,192,4439,1,0,0:0:0:0:
329,192,4506,1,0,0:0:0:0:
182,192,4574,1,0,0:0:0:0:
109,192,4641,1,0,0:0:0:0:
256,192,4709,1,0,0:0:0:0:
402,192,4709,1,0,0:0:0:0:
182,192,4776,1,0,0:0:0:0:
36,192,4844,1,0,0:0:0:0:
109,192,4911,1,0,0:0:0:0:
256,192,4979,1,0,0:0:0:0:
475,192,4979,1,0,0:0:0:0:
329,192,5046,1,0,0:0:0:0:
182,192,5114,1,0,0:0:0:0:
109,192,5181,1,0,0:0:0:0:
256,192,5249,1,0,0:0:0:0:
402,192,5249,1,0,0:0:0:0:
182,192,5316,1,0,0:0:0:0:
36,192,5384,1,0,0:0:0:0:
109,192,5451,1,0,0:0:0:0:
256,192,5519,1,0,0:0:0:0:
475,192,5519,1,0,0:0:0:0:
329,192,5586,1,0,0:0:0:0:
182,192,5654,1,0,0:0:0:0:
109,192,5721,1,0,0:0:0:0:
256,192,5789,1,0,0:0:0:0:
402,192,5789,1,0,0:0:0:0:
182,192,5856,1,0,0:0:0:0:
36,192,5924,1,0,0:0:0:0:
109,192,5991,1,0,0:0:0:0:
256,192,6059,1,0,0:0:0:0:
475,192,6059,1,0,0:0:0:0:
329,192,6126,1,0,0:0:0:0:
182,192,6194,1,0,0:0:0:0:
109,192,6261,1,0,0:0:0:0:
256,192,6329,1,0,0:0:0:0:
402,192,6329,1,0,0:0:0:0:
182,192,6396,1,0,0:0:0:0:
475,192,6464,1,0,0:0:0:0:
402,192,6531,1,0,0:0:0:0:
36,192,6599,1,0,0:0:0:0:
256,192,6599,1,0,0:0:0:0:
182,192,6666,1,0,0:0:0:0:
329,192,6734,1,0,0:0:0:0:
402,192,6801,1,0,0:0:0:0:
109,192,6869,1,0,0:0:0:0:
256,192,6869,1,0,0:0:0:0:
329,192,6936,1,0,0:0:0:0:
475,192,7004,1,0,0:0:0:0:
402,192,7071,1,0,0:0:0:0:
36,192,7139,1,0,0:0:0:0:
256,192,7139,1,0,0:0:0:0:
182,192,7206,1,0,0:0:0:0:
329,192,7274,1,0,0:0:0:0:
402,192,7341,1,0,0:0:0:0:
109,192,7409,1,0,0:0:0:0:
256,192,7409,1,0,0:0:0:0:
329,192,7476,1,0,0:0:0:0:
475,192,7544,1,0,0:0:0:0:
402,192,7611,1,0,0:0:0:0:
36,192,7679,1,0,0:0:0:0:
256,192,7679,1,0,0:0:0:0:
182,192,7746,1,0,0:0:0:0:
329,192,7814,1,0,0:0:0:0:
402,192,7881,1,0,0:0:0:0:
109,192,7949,1,0,0:0:0:0:
256,192,7949,1,0,0:0:0:0:
329,192,8016,1,0,0:0:0:0:
475,192,8084,1,0,0:0:0:0:
402,192,8151,1,0,0:0:0:0:
36,192,8219,1,0,0:0:0:0:
256,192,8219,1,0,0:0:0:0:
182,192,8286,1,0,0:0:0:0:
329,192,8354,1,0,0:0:0:0:
402,192,8421,1,0,0:0:0:0:
109,192,8489,1,0,0:0:0:0:
256,192,8489,1,0,0:0:0:0:
329,192,8556,1,0,0:0:0:0:
475,192,8624,1,0,0:0:0:0:
402,192,8691,1,0,0:0:0:0:
36,192,8759,1,0,0:0:0:0:
256,192,8759,1,0,0:0:0:0:
182,192,8826,1,0,0:0:0:0:
329,192,8894,1,0,0:0:0:0:
402,192,8961,1,0,0:0:0:0:
109,192,9029,1,0,0:0:0:0:
256,192,9029,1,0,0:0:0:0:
329,192,9096,1,0,0:0:0:0:
475,192,9164,1,0,0:0:0:0:
402,192,9231,1,0,0:0:0:0:
36,192,9299,1,0,0:0:0:0:
256,192,9299,1,0,0:0:0:0:
182,192,9366,1,0,0:0:0:0:
329,192,9434,1,0,0:0:0:0:
402,192,9501,1,0,0:0:0:0:
109,192,9569,1,0,0:0:0:0:
256,192,9569,1,0,0:0:0:0:
329,192,9636,1,0,0:0:0:0:
36,192,9704,1,0,0:0:0:0:
109,192,9704,1,0,0:0:0:0:
475,192,9704,1,0,0:0:0:0:
402,192,9771,1,0,0:0:0:0:
256,192,9839,1,0,0:0:0:0:
182,192,9906,1,0,0:0:0:0:
36,192,9974,1,0,0:0:0:0:
109,192,9974,1,0,0:0:0:0:
329,192,9974,1,0,0:0:0:0:
402,192,10041,1,0,0:0:0:0:
256,192,10109,1,0,0:0:0:0:
329,192,10176,1,0,0:0:0:0:
36,192,10244,1,0,0:0:0:0:
109,192,10244,1,0,0:0:0:0:
475,192,10244,1,0,0:0:0:0:
402,192,10311,1,0,0:0:0:0:
329,192,10379,1,0,0:0:0:0:
182,192,10446,1,0,0:0:0:0:
36,192,10514,1,0,0:0:0:0:
475,192,10514,1,0,0:0:0:0:
402,192,10514,1,0,0:0:0:0:
256,192,10581,1,0,0:0:0:0:
109,192,10649,1,0,0:0:0:0:
402,192,10716,1,0,0:0:0:0:
109,192,10784,1,0,0:0:0:0:
256,192,10784,1,0,0:0:0:0:
36,192,10919,1,0,0:0:0:0:
182,192,11054,1,0,0:0:0:0:
329,192,11054,1,0,0:0:0:0:
475,192,11054,1,0,0:0:0:0:
36,192,11189,1,0,0:0:0:0:
109,192,11324,1,0,0:0:0:0:
256,192,11324,1,0,0:0:0:0:
36,192,11459,1,0,0:0:0:0:
182,192,11594,1,0,0:0:0:0:
329,192,11594,1,0,0:0:0:0:
475,192,11594,1,0,0:0:0:0:
36,192,11729,1,0,0:0:0:0:
182,192,11864,1,0,0:0:0:0:
329,192,11864,1,0,0:0:0:0:
36,192,11999,1,0,0:0:0:0:
109,192,12134,1,0,0:0:0:0:
256,192,12134,1,0,0:0:0:0:
402,192,12134,1,0,0:0:0:0:
36,192,12269,1,0,0:0:0:0:
182,192,12404,1,0,0:0:0:0:
329,192,12404,1,0,0:0:0:0:
36,192,12539,1,0,0:0:0:0:
109,192,12674,1,0,0:0:0:0:
256,192,12674,1,0,0:0:0:0:
402,192,12674,1,0,0:0:0:0:
36,192,12809,1,0,0:0:0:0:
402,192,12809,1,0,0:0:0:0:
256,192,12944,1,0,0:0:0:0:
402,192,12944,1,0,0:0:0:0:
475,192,13079,1,0,0:0:0:0:
36,192,13214,1,0,0:0:0:0:
182,192,13214,1,0,0:0:0:0:
329,192,13214,1,0,0:0:0:0:
475,192,13349,1,0,0:0:0:0:
256,192,13484,1,0,0:0:0:0:
402,192,13484,1,0,0:0:0:0:
475,192,13619,1,0,0:0:0:0:
36,192,13754,1,0,0:0:0:0:
182,192,13754,1,0,0:0:0:0:
329,192,13754,1,0,0:0:0:0:
182,192,13889,1,0,0:0:0:0:
475,192,13889,1,0,0:0:0:0:
182,192,14024,1,0,0:0:0:0:
329,192,14024,1,0,0:0:0:0:
475,192,14159,1,0,0:0:0:0:
36,192,14294,1,0,0:0:0:0:
109,192,14294,1,0,0:0:0:0:
256,192,14294,1,0,0:0:0:0:
402,192,14294,1,0,0:0:0:0:
109,192,14564,1,0,0:0:0:0:
256,192,14564,1,0,0:0:0:0:
402,192,14564,1,0,0:0:0:0:
475,192,14564,1,0,0:0:0:0:
36,192,14766,1,0,0:0:0:0:
182,192,14766,1,0,0:0:0:0:
329,192,14766,1,0,0:0:0:0:
475,192,14766,1,0,0:0:0:0:
36,192,14969,1,0,0:0:0:0:
182,192,14969,1,0,0:0:0:0:
329,192,14969,1,0,0:0:0:0:
475,192,14969,1,0,0:0:0:0:
36,192,15104,1,0,0:0:0:0:
182,192,15104,1,0,0:0:0:0:
329,192,15104,1,0,0:0:0:0:
475,192,15104,1,0,0:0:0:0:
329,192,15239,1,0,0:0:0:0:
402,192,15239,1,0,0:0:0:0:
182,192,15374,1,0,0:0:0:0:
329,192,15374,1,0,0:0:0:0:
475,192,15374,1,0,0:0:0:0:
182,192,15509,1,0,0:0:0:0:
402,192,15509,1,0,0:0:0:0:
182,192,15644,1,0,0:0:0:0:
256,192,15779,1,0,0:0:0:0:
402,192,15779,1,0,0:0:0:0:
36,192,15914,1,0,0:0:0:0:
182,192,15914,1,0,0:0:0:0:
329,192,15914,1,0,0:0:0:0:
36,192,16049,1,0,0:0:0:0:
182,192,16049,1,0,0:0:0:0:
402,192,16049,1,0,0:0:0:0:
329,192,16319,1,0,0:0:0:0:
475,192,16319,1,0,0:0:0:0:
256,192,16386,1,0,0:0:0:0:
36,192,16454,1,0,0:0:0:0:
182,192,16454,1,0,0:0:0:0:
329,192,16589,1,0,0:0:0:0:
475,192,16589,1,0,0:0:0:0:
109,192,16724,1,0,0:0:0:0:
256,192,16724,1,0,0:0:0:0:
182,192,16859,1,0,0:0:0:0:
475,192,16859,1,0,0:0:0:0:
256,192,16926,1,0,0:0:0:0:
36,192,16994,1,0,0:0:0:0:
109,192,16994,1,0,0:0:0:0:
329,192,16994,1,0,0:0:0:0:
182,192,17129,1,0,0:0:0:0:
256,192,17196,1,0,0:0:0:0:
109,192,17264,1,0,0:0:0:0:
475,192,17264,1,0,0:0:0:0:
329,192,17264,1,0,0:0:0:0:
109,192,17399,1,0,0:0:0:0:
256,192,17399,1,0,0:0:0:0:
109,192,17534,1,0,0:0:0:0:
256,192,17534,1,0,0:0:0:0:
329,192,17534,1,0,0:0:0:0:
475,192,17534,1,0,0:0:0:0:
109,192,17669,1,0,0:0:0:0:
329,192,17669,1,0,0:0:0:0:
109,192,17804,1,0,0:0:0:0:
182,192,17804,1,0,0:0:0:0:
329,192,17804,1,0,0:0:0:0:
256,192,17939,1,0,0:0:0:0:
329,192,17939,1,0,0:0:0:0:
475,192,17939,1,0,0:0:0:0:
36,192,18074,1,0,0:0:0:0:
182,192,18074,1,0,0:0:0:0:
256,192,18074,1,0,0:0:0:0:
402,192,18074,1,0,0:0:0:0:
182,192,18209,1,0,0:0:0:0:
329,192,18209,1,0,0:0:0:0:
109,192,18344,1,0,0:0:0:0:
256,192,18344,1,0,0:0:0:0:
329,192,18344,1,0,0:0:0:0:
256,192,18479,1,0,0:0:0:0:
402,192,18479,1,0,0:0:0:0:
109,192,18614,1,0,0:0:0:0:
329,192,18614,1,0,0:0:0:0:
402,192,18614,1,0,0:0:0:0:
109,192,18749,1,0,0:0:0:0:
256,192,18749,1,0,0:0:0:0:
109,192,18884,1,0,0:0:0:0:
182,192,18884,1,0,0:0:0:0:
402,192,18884,1,0,0:0:0:0:
256,192,19019,1,0,0:0:0:0:
402,192,19019,1,0,0:0:0:0:
109,192,19086,1,0,0:0:0:0:
329,192,19154,1,0,0:0:0:0:
475,192,19154,1,0,0:0:0:0:
36,192,19221,1,0,0:0:0:0:
182,192,19221,1,0,0:0:0:0:
402,192,19289,1,0,0:0:0:0:
329,192,19356,1,0,0:0:0:0:
36,192,19424,1,0,0:0:0:0:
182,192,19424,1,0,0:0:0:0:
475,192,19424,1,0,0:0:0:0:
256,192,19491,1,0,0:0:0:0:
329,192,19559,1,0,0:0:0:0:
402,192,19626,1,0,0:0:0:0:
109,192,19694,1,0,0:0:0:0:
256,192,19694,1,0,0:0:0:0:
475,192,19694,1,0,0:0:0:0:
182,192,19761,1,0,0:0:0:0:
109,192,19829,1,0,0:0:0:0:
36,192,19896,1,0,0:0:0:0:
256,192,19964,1,0,0:0:0:0:
329,192,20031,1,0,0:0:0:0:
402,192,20099,1,0,0:0:0:0:
475,192,20166,1,0,0:0:0:0:
36,192,20234,1,0,0:0:0:0:
182,192,20234,1,0,0:0:0:0:
329,192,20234,1,0,0:0:0:0:
256,192,20301,1,0,0:0:0:0:
182,192,20369,1,0,0:0:0:0:
109,192,20436,1,0,0:0:0:0:
329,192,20504,1,0,0:0:0:0:
402,192,20571,1,0,0:0:0:0:
256,192,20639,1,0,0:0:0:0:
182,192,20706,1,0,0:0:0:0:
109,192,20774,1,0,0:0:0:0:
329,192,20774,1,0,0:0:0:0:
475,192,20774,1,0,0:0:0:0:
256,192,20841,1,0,0:0:0:0:
402,192,20909,1,0,0:0:0:0:
475,192,20976,1,0,0:0:0:0:
182,192,21044,1,0,0:0:0:0:
109,192,21111,1,0,0:0:0:0:
256,192,21179,1,0,0:0:0:0:
329,192,21246,1,0,0:0:0:0:
36,192,21314,1,0,0:0:0:0:
182,192,21314,1,0,0:0:0:0:
402,192,21314,1,0,0:0:0:0:
256,192,21381,1,0,0:0:0:0:
109,192,21449,1,0,0:0:0:0:
36,192,21516,1,0,0:0:0:0:
182,192,21584,1,0,0:0:0:0:
329,192,21584,1,0,0:0:0:0:
475,192,21584,1,0,0:0:0:0:
402,192,21651,1,0,0:0:0:0:
256,192,21719,1,0,0:0:0:0:
329,192,21786,1,0,0:0:0:0:
36,192,21854,1,0,0:0:0:0:
182,192,21854,1,0,0:0:0:0:
402,192,21854,1,0,0:0:0:0:
256,192,21921,1,0,0:0:0:0:
402,192,21989,1,0,0:0:0:0:
329,192,22056,1,0,0:0:0:0:
36,192,22124,1,0,0:0:0:0:
109,192,22191,1,0,0:0:0:0:
256,192,22259,1,0,0:0:0:0:
182,192,22326,1,0,0:0:0:0:
109,192,22394,1,0,0:0:0:0:
329,192,22394,1,0,0:0:0:0:
475,192,22394,1,0,0:0:0:0:
256,192,22461,1,0,0:0:0:0:
109,192,22529,1,0,0:0:0:0:
182,192,22596,1,0,0:0:0:0:
329,192,22664,1,0,0:0:0:0:
402,192,22731,1,0,0:0:0:0:
109,192,22799,1,0,0:0:0:0:
329,192,22799,1,0,0:0:0:0:
475,192,22799,1,0,0:0:0:0:
36,192,22934,1,0,0:0:0:0:
109,192,22934,1,0,0:0:0:0:
256,192,22934,1,0,0:0:0:0:
402,192,22934,1,0,0:0:0:0:
109,192,23204,1,0,0:0:0:0:
256,192,23204,1,0,0:0:0:0:
402,192,23204,1,0,0:0:0:0:
475,192,23204,1,0,0:0:0:0:
256,192,23339,1,0,0:0:0:0:
36,192,23406,1,0,0:0:0:0:
182,192,23406,1,0,0:0:0:0:
329,192,23406,1,0,0:0:0:0:
475,192,23406,1,0,0:0:0:0:
256,192,23541,1,0,0:0:0:0:
36,192,23609,1,0,0:0:0:0:
182,192,23609,1,0,0:0:0:0:
329,192,23609,1,0,0:0:0:0:
475,192,23609,1,0,0:0:0:0:
36,192,23744,1,0,0:0:0:0:
182,192,23744,1,0,0:0:0:0:
329,192,23744,1,0,0:0:0:0:
475,192,23744,1,0,0:0:0:0:
109,192,23811,1,0,0:0:0:0:
36,192,23879,1,0,0:0:0:0:
256,192,23946,1,0,0:0:0:0:
109,192,24014,1,0,0:0:0:0:
329,192,24014,1,0,0:0:0:0:
475,192,24014,1,0,0:0:0:0:
182,192,24081,1,0,0:0:0:0:
329,192,24149,1,0,0:0:0:0:
475,192,24216,1,0,0:0:0:0:
329,192,24284,1,0,0:0:0:0:
182,192,24351,1,0,0:0:0:0:
256,192,24419,1,0,0:0:0:0:
182,192,24486,1,0,0:0:0:0:
36,192,24554,1,0,0:0:0:0:
256,192,24554,1,0,0:0:0:0:
475,192,24554,1,0,0:0:0:0:
36,192,24689,1,0,0:0:0:0:
256,192,24689,1,0,0:0:0:0:
475,192,24689,1,0,0:0:0:0:
329,192,24959,1,0,0:0:0:0:
475,192,24959,1,0,0:0:0:0:
475,192,25026,1,0,0:0:0:0:
182,192,25094,1,0,0:0:0:0:
475,192,25094,1,0,0:0:0:0:
182,192,25229,1,0,0:0:0:0:
475,192,25229,1,0,0:0:0:0:
109,192,25364,1,0,0:0:0:0:
256,192,25364,1,0,0:0:0:0:
475,192,25364,1,0,0:0:0:0:
182,192,25499,1,0,0:0:0:0:
475,192,25499,1,0,0:0:0:0:
256,192,25566,1,0,0:0:0:0:
36,192,25634,1,0,0:0:0:0:
109,192,25634,1,0,0:0:0:0:
329,192,25634,1,0,0:0:0:0:
475,192,25634,1,0,0:0:0:0:
182,192,25769,1,0,0:0:0:0:
475,192,25769,1,0,0:0:0:0:
256,192,25836,1,0,0:0:0:0:
36,192,25904,128,0,26140:0:0:0:0:
329,192,25904,1,0,0:0:0:0:
475,192,25904,1,0,0:0:0:0:
329,192,26039,1,0,0:0:0:0:
109,192,26174,128,0,26410:0:0:0:0:
329,192,26174,1,0,0:0:0:0:
402,192,26174,1,0,0:0:0:0:
329,192,26309,1,0,0:0:0:0:
402,192,26376,1,0,0:0:0:0:
182,192,26444,128,0,26680:0:0:0:0:
329,192,26444,1,0,0:0:0:0:
475,192,26444,1,0,0:0:0:0:
329,192,26579,1,0,0:0:0:0:
109,192,26714,1,0,0:0:0:0:
256,192,26714,128,0,26950:0:0:0:0:
329,192,26714,1,0,0:0:0:0:
402,192,26849,1,0,0:0:0:0:
109,192,26916,1,0,0:0:0:0:
36,192,26984,1,0,0:0:0:0:
182,192,26984,1,0,0:0:0:0:
475,192,26984,128,0,27220:0:0:0:0:
182,192,27119,1,0,0:0:0:0:
329,192,27119,1,0,0:0:0:0:
109,192,27254,1,0,0:0:0:0:
182,192,27254,1,0,0:0:0:0:
402,192,27254,128,0,27490:0:0:0:0:
36,192,27389,1,0,0:0:0:0:
182,192,27524,1,0,0:0:0:0:
256,192,27524,1,0,0:0:0:0:
329,192,27524,128,0,27760:0:0:0:0:
36,192,27659,1,0,0:0:0:0:
109,192,27693,1,0,0:0:0:0:
182,192,27726,1,0,0:0:0:0:
109,192,27760,1,0,0:0:0:0:
36,192,27794,1,0,0:0:0:0:
256,192,27794,128,0,28030:0:0:0:0:
475,192,27794,1,0,0:0:0:0:
109,192,27929,1,0,0:0:0:0:
402,192,27929,1,0,0:0:0:0:
36,192,28064,1,0,0:0:0:0:
475,192,28064,1,0,0:0:0:0:
475,192,28266,1,0,0:0:0:0:
475,192,28469,1,0,0:0:0:0:
182,192,28604,1,0,0:0:0:0:
402,192,28671,1,0,0:0:0:0:
182,192,28806,1,0,0:0:0:0:
402,192,28874,1,0,0:0:0:0:
402,192,29009,1,0,0:0:0:0:
329,192,29144,1,0,0:0:0:0:
256,192,29346,1,0,0:0:0:0:
182,192,29549,1,0,0:0:0:0:
109,192,29684,1,0,0:0:0:0:
329,192,29751,1,0,0:0:0:0:
109,192,29886,1,0,0:0:0:0:
329,192,29954,1,0,0:0:0:0:
329,192,30089,1,0,0:0:0:0:
256,192,30224,1,0,0:0:0:0:
182,192,30426,1,0,0:0:0:0:
109,192,30629,1,0,0:0:0:0:
329,192,30764,1,0,0:0:0:0:
109,192,30831,1,0,0:0:0:0:
329,192,30966,1,0,0:0:0:0:
109,192,31034,1,0,0:0:0:0:
109,192,31169,1,0,0:0:0:0:
182,192,31304,1,0,0:0:0:0:
256,192,31506,1,0,0:0:0:0:
329,192,31709,1,0,0:0:0:0:
36,192,31844,1,0,0:0:0:0:
182,192,31844,1,0,0:0:0:0:
109,192,31979,1,0,0:0:0:0:
256,192,31979,1,0,0:0:0:0:
182,192,32114,1,0,0:0:0:0:
329,192,32114,1,0,0:0:0:0:
256,192,32249,1,0,0:0:0:0:
402,192,32249,1,0,0:0:0:0:
329,192,32384,1,0,0:0:0:0:
475,192,32384,1,0,0:0:0:0:
475,192,32586,1,0,0:0:0:0:
475,192,32789,1,0,0:0:0:0:
36,192,32924,1,0,0:0:0:0:
256,192,32924,1,0,0:0:0:0:
109,192,32991,1,0,0:0:0:0:
36,192,33059,1,0,0:0:0:0:
109,192,33194,1,0,0:0:0:0:
329,192,33194,1,0,0:0:0:0:
256,192,33261,1,0,0:0:0:0:
329,192,33329,1,0,0:0:0:0:
182,192,33464,1,0,0:0:0:0:
402,192,33464,1,0,0:0:0:0:
256,192,33531,1,0,0:0:0:0:
182,192,33599,1,0,0:0:0:0:
256,192,33734,1,0,0:0:0:0:
475,192,33734,1,0,0:0:0:0:
402,192,33801,1,0,0:0:0:0:
475,192,33869,1,0,0:0:0:0:
109,192,34004,1,0,0:0:0:0:
329,192,34004,1,0,0:0:0:0:
256,192,34071,1,0,0:0:0:0:
329,192,34139,1,0,0:0:0:0:
182,192,34274,1,0,0:0:0:0:
402,192,34274,1,0,0:0:0:0:
256,192,34341,1,0,0:0:0:0:
182,192,34409,1,0,0:0:0:0:
36,192,34544,1,0,0:0:0:0:
109,192,34544,1,0,0:0:0:0:
36,192,34679,1,0,0:0:0:0:
109,192,34679,1,0,0:0:0:0:
329,192,34814,1,0,0:0:0:0:
402,192,34814,1,0,0:0:0:0:
329,192,34949,1,0,0:0:0:0:
402,192,34949,1,0,0:0:0:0:
109,192,35084,1,0,0:0:0:0:
182,192,35084,1,0,0:0:0:0:
109,192,35219,1,0,0:0:0:0:
182,192,35219,1,0,0:0:0:0:
402,192,35354,1,0,0:0:0:0:
475,192,35354,1,0,0:0:0:0:
402,192,35489,1,0,0:0:0:0:
475,192,35489,1,0,0:0:0:0:
36,192,35624,1,0,0:0:0:0:
182,192,35624,1,0,0:0:0:0:
36,192,35826,1,0,0:0:0:0:
182,192,35826,1,0,0:0:0:0:
36,192,36029,1,0,0:0:0:0:
182,192,36029,1,0,0:0:0:0:
256,192,36164,1,0,0:0:0:0:
182,192,36231,1,0,0:0:0:0:
256,192,36366,1,0,0:0:0:0:
182,192,36434,1,0,0:0:0:0:
256,192,36569,1,0,0:0:0:0:
182,192,36636,1,0,0:0:0:0:
329,192,36636,1,0,0:0:0:0:
36,192,36704,1,0,0:0:0:0:
109,192,36704,1,0,0:0:0:0:
402,192,36704,1,0,0:0:0:0:
475,192,36704,1,0,0:0:0:0:
36,192,36839,1,0,0:0:0:0:
182,192,36839,1,0,0:0:0:0:
329,192,36974,1,0,0:0:0:0:
475,192,36974,1,0,0:0:0:0:
256,192,37109,1,0,0:0:0:0:
475,192,37109,1,0,0:0:0:0:
36,192,37244,1,0,0:0:0:0:
182,192,37244,1,0,0:0:0:0:
36,192,37379,1,0,0:0:0:0:
256,192,37379,1,0,0:0:0:0:
329,192,37514,1,0,0:0:0:0:
475,192,37514,1,0,0:0:0:0:
256,192,37649,1,0,0:0:0:0:
475,192,37649,1,0,0:0:0:0:
402,192,37784,1,0,0:0:0:0:
402,192,37868,1,0,0:0:0:0:
329,192,37953,1,0,0:0:0:0:
256,192,38054,1,0,0:0:0:0:
182,192,38324,1,0,0:0:0:0:
109,192,38594,1,0,0:0:0:0:
36,192,38864,1,0,0:0:0:0:
256,192,38864,1,0,0:0:0:0:
475,192,38864,1,0,0:0:0:0:
475,192,38999,1,0,0:0:0:0:
402,192,39134,1,0,0:0:0:0:
402,192,39269,1,0,0:0:0:0:
329,192,39404,1,0,0:0:0:0:
329,192,39539,1,0,0:0:0:0:
182,192,39674,1,0,0:0:0:0:
182,192,39809,1,0,0:0:0:0:
36,192,39944,1,0,0:0:0:0:
109,192,40011,1,0,0:0:0:0:
36,192,40079,1,0,0:0:0:0:
109,192,40214,1,0,0:0:0:0:
182,192,40281,1,0,0:0:0:0:
109,192,40349,1,0,0:0:0:0:
256,192,40484,1,0,0:0:0:0:
182,192,40551,1,0,0:0:0:0:
256,192,40619,1,0,0:0:0:0:
329,192,40754,1,0,0:0:0:0:
256,192,40821,1,0,0:0:0:0:
329,192,40889,1,0,0:0:0:0:
256,192,41024,1,0,0:0:0:0:
402,192,41024,1,0,0:0:0:0:
475,192,41024,1,0,0:0:0:0:
182,192,41091,1,0,0:0:0:0:
109,192,41159,1,0,0:0:0:0:
329,192,41226,1,0,0:0:0:0:
256,192,41294,1,0,0:0:0:0:
182,192,41361,1,0,0:0:0:0:
402,192,41429,1,0,0:0:0:0:
329,192,41496,1,0,0:0:0:0:
256,192,41564,1,0,0:0:0:0:
182,192,41631,1,0,0:0:0:0:
36,192,41699,1,0,0:0:0:0:
182,192,41766,1,0,0:0:0:0:
109,192,41834,1,0,0:0:0:0:
256,192,41901,1,0,0:0:0:0:
109,192,41969,1,0,0:0:0:0:
182,192,42036,1,0,0:0:0:0:
36,192,42104,1,0,0:0:0:0:
256,192,42104,1,0,0:0:0:0:
475,192,42104,1,0,0:0:0:0:
256,192,42239,1,0,0:0:0:0:
109,192,42374,1,0,0:0:0:0:
109,192,42509,1,0,0:0:0:0:
36,192,42644,1,0,0:0:0:0:
256,192,42644,1,0,0:0:0:0:
475,192,42644,1,0,0:0:0:0:
329,192,42711,1,0,0:0:0:0:
256,192,42779,1,0,0:0:0:0:
36,192,43184,1,0,0:0:0:0:
329,192,43184,1,0,0:0:0:0:
475,192,43184,1,0,0:0:0:0:
402,192,43251,1,0,0:0:0:0:
475,192,43319,1,0,0:0:0:0:
256,192,43386,1,0,0:0:0:0:
36,192,43454,1,0,0:0:0:0:
329,192,43454,1,0,0:0:0:0:
109,192,43521,1,0,0:0:0:0:
402,192,43521,1,0,0:0:0:0:
36,192,43589,1,0,0:0:0:0:
182,192,43589,1,0,0:0:0:0:
109,192,43656,1,0,0:0:0:0:
256,192,43656,1,0,0:0:0:0:
36,192,43724,1,0,0:0:0:0:
402,192,43724,1,0,0:0:0:0:
109,192,43791,1,0,0:0:0:0:
256,192,43791,1,0,0:0:0:0:
36,192,43859,1,0,0:0:0:0:
402,192,43859,1,0,0:0:0:0:
109,192,43926,1,0,0:0:0:0:
256,192,43926,1,0,0:0:0:0:
182,192,43994,1,0,0:0:0:0:
475,192,43994,1,0,0:0:0:0:
109,192,44061,1,0,0:0:0:0:
329,192,44061,1,0,0:0:0:0:
36,192,44129,1,0,0:0:0:0:
475,192,44129,1,0,0:0:0:0:
109,192,44196,1,0,0:0:0:0:
329,192,44196,1,0,0:0:0:0:
182,192,44264,1,0,0:0:0:0:
256,192,44264,1,0,0:0:0:0:
402,192,44264,1,0,0:0:0:0:
329,192,44331,1,0,0:0:0:0:
402,192,44399,1,0,0:0:0:0:
475,192,44466,1,0,0:0:0:0:
109,192,44534,1,0,0:0:0:0:
182,192,44534,1,0,0:0:0:0:
329,192,44534,1,0,0:0:0:0:
256,192,44601,1,0,0:0:0:0:
329,192,44669,1,0,0:0:0:0:
402,192,44736,1,0,0:0:0:0:
36,192,44804,1,0,0:0:0:0:
109,192,44804,1,0,0:0:0:0:
256,192,44804,1,0,0:0:0:0:
182,192,44871,1,0,0:0:0:0:
256,192,44939,1,0,0:0:0:0:
329,192,45006,1,0,0:0:0:0:
36,192,45074,1,0,0:0:0:0:
182,192,45074,1,0,0:0:0:0:
475,192,45074,1,0,0:0:0:0:
109,192,45141,1,0,0:0:0:0:
182,192,45209,1,0,0:0:0:0:
256,192,45276,1,0,0:0:0:0:
36,192,45344,128,0,45479:0:0:0:0:
329,192,45344,1,0,0:0:0:0:
475,192,45479,1,0,0:0:0:0:
109,192,45614,128,0,45749:0:0:0:0:
329,192,45614,1,0,0:0:0:0:
475,192,45749,1,0,0:0:0:0:
402,192,45816,1,0,0:0:0:0:
182,192,45884,128,0,46019:0:0:0:0:
329,192,45884,1,0,0:0:0:0:
475,192,46019,1,0,0:0:0:0:
256,192,46154,128,0,46289:0:0:0:0:
329,192,46154,1,0,0:0:0:0:
36,192,46289,1,0,0:0:0:0:
256,192,46424,128,0,46559:0:0:0:0:
182,192,46424,1,0,0:0:0:0:
36,192,46559,1,0,0:0:0:0:
109,192,46626,1,0,0:0:0:0:
329,192,46694,128,0,46829:0:0:0:0:
182,192,46694,1,0,0:0:0:0:
36,192,46829,1,0,0:0:0:0:
402,192,46964,128,0,47099:0:0:0:0:
182,192,46964,1,0,0:0:0:0:
109,192,47099,1,0,0:0:0:0:
475,192,47234,128,0,47369:0:0:0:0:
256,192,47234,1,0,0:0:0:0:
182,192,47301,1,0,0:0:0:0:
329,192,47369,1,0,0:0:0:0:
256,192,47436,1,0,0:0:0:0:
182,192,47504,1,0,0:0:0:0:
402,192,47504,1,0,0:0:0:0:
475,192,47504,1,0,0:0:0:0:
109,192,47639,1,0,0:0:0:0:
36,192,47774,1,0,0:0:0:0:
256,192,47774,1,0,0:0:0:0:
329,192,47774,1,0,0:0:0:0:
182,192,47909,1,0,0:0:0:0:
109,192,48044,1,0,0:0:0:0:
256,192,48044,1,0,0:0:0:0:
475,192,48044,128,0,48179:0:0:0:0:
182,192,48179,1,0,0:0:0:0:
36,192,48314,1,0,0:0:0:0:
109,192,48314,1,0,0:0:0:0:
329,192,48314,1,0,0:0:0:0:
402,192,48314,128,0,48449:0:0:0:0:
182,192,48449,1,0,0:0:0:0:
256,192,48584,128,0,48719:0:0:0:0:
329,192,48584,1,0,0:0:0:0:
475,192,48584,1,0,0:0:0:0:
402,192,48719,1,0,0:0:0:0:
36,192,48854,1,0,0:0:0:0:
182,192,48854,128,0,48989:0:0:0:0:
329,192,48854,1,0,0:0:0:0:
475,192,48854,1,0,0:0:0:0:
256,192,48989,1,0,0:0:0:0:
36,192,49124,1,0,0:0:0:0:
109,192,49124,128,0,49259:0:0:0:0:
402,192,49124,1,0,0:0:0:0:
329,192,49259,1,0,0:0:0:0:
36,192,49394,128,0,49529:0:0:0:0:
182,192,49394,1,0,0:0:0:0:
256,192,49394,1,0,0:0:0:0:
475,192,49394,1,0,0:0:0:0:
402,192,49529,1,0,0:0:0:0:
109,192,49664,128,0,49799:0:0:0:0:
329,192,49664,1,0,0:0:0:0:
475,192,49664,1,0,0:0:0:0:
256,192,49799,1,0,0:0:0:0:
36,192,49934,1,0,0:0:0:0:
109,192,49934,1,0,0:0:0:0:
182,192,49934,128,0,50069:0:0:0:0:
402,192,49934,1,0,0:0:0:0:
329,192,50069,1,0,0:0:0:0:
109,192,50204,1,0,0:0:0:0:
256,192,50204,1,0,0:0:0:0:
329,192,50204,128,0,50339:0:0:0:0:
36,192,50339,1,0,0:0:0:0:
182,192,50474,1,0,0:0:0:0:
329,192,50474,128,0,50609:0:0:0:0:
402,192,50474,1,0,0:0:0:0:
475,192,50474,1,0,0:0:0:0:
256,192,50609,1,0,0:0:0:0:
182,192,50744,1,0,0:0:0:0:
402,192,50744,1,0,0:0:0:0:
475,192,50744,128,0,50879:0:0:0:0:
329,192,50879,1,0,0:0:0:0:
36,192,51014,1,0,0:0:0:0:
109,192,51014,1,0,0:0:0:0:
256,192,51014,1,0,0:0:0:0:
402,192,51014,128,0,51149:0:0:0:0:
182,192,51149,1,0,0:0:0:0:
36,192,51284,1,0,0:0:0:0:
329,192,51284,128,0,51419:0:0:0:0:
475,192,51284,1,0,0:0:0:0:
402,192,51419,1,0,0:0:0:0:
36,192,51554,1,0,0:0:0:0:
182,192,51554,1,0,0:0:0:0:
256,192,51554,128,0,51689:0:0:0:0:
475,192,51554,1,0,0:0:0:0:
402,192,51689,1,0,0:0:0:0:
109,192,51824,128,0,51959:0:0:0:0:
182,192,51824,1,0,0:0:0:0:
329,192,51824,1,0,0:0:0:0:
402,192,51959,1,0,0:0:0:0:
36,192,52094,1,0,0:0:0:0:
182,192,52094,128,0,52229:0:0:0:0:
329,192,52094,1,0,0:0:0:0:
475,192,52094,1,0,0:0:0:0:
402,192,52229,1,0,0:0:0:0:
36,192,52364,1,0,0:0:0:0:
256,192,52364,128,0,52499:0:0:0:0:
329,192,52364,1,0,0:0:0:0:
402,192,52499,1,0,0:0:0:0:
109,192,52634,1,0,0:0:0:0:
182,192,52634,128,0,52769:0:0:0:0:
329,192,52634,1,0,0:0:0:0:
475,192,52634,1,0,0:0:0:0:
256,192,52769,1,0,0:0:0:0:
36,192,52904,128,0,53039:0:0:0:0:
109,192,52904,1,0,0:0:0:0:
329,192,52904,1,0,0:0:0:0:
256,192,53039,1,0,0:0:0:0:
109,192,53174,1,0,0:0:0:0:
182,192,53174,1,0,0:0:0:0:
329,192,53174,128,0,53309:0:0:0:0:
402,192,53174,1,0,0:0:0:0:
36,192,53309,1,0,0:0:0:0:
109,192,53444,1,0,0:0:0:0:
256,192,53444,128,0,53579:0:0:0:0:
475,192,53444,1,0,0:0:0:0:
402,192,53579,1,0,0:0:0:0:
36,192,53714,128,0,53849:0:0:0:0:
109,192,53714,1,0,0:0:0:0:
329,192,53714,1,0,0:0:0:0:
475,192,53714,1,0,0:0:0:0:
256,192,53849,1,0,0:0:0:0:
109,192,53984,128,0,54119:0:0:0:0:
182,192,53984,1,0,0:0:0:0:
402,192,53984,1,0,0:0:0:0:
475,192,54119,1,0,0:0:0:0:
36,192,54254,1,0,0:0:0:0:
182,192,54254,128,0,54389:0:0:0:0:
256,192,54254,1,0,0:0:0:0:
402,192,54254,1,0,0:0:0:0:
329,192,54389,1,0,0:0:0:0:
109,192,54524,1,0,0:0:0:0:
256,192,54524,128,0,54659:0:0:0:0:
402,192,54524,1,0,0:0:0:0:
182,192,54659,1,0,0:0:0:0:
36,192,54794,1,0,0:0:0:0:
329,192,54794,128,0,54929:0:0:0:0:
402,192,54794,1,0,0:0:0:0:
475,192,54794,1,0,0:0:0:0:
256,192,54929,1,0,0:0:0:0:
109,192,55064,1,0,0:0:0:0:
329,192,55064,1,0,0:0:0:0:
475,192,55064,128,0,55199:0:0:0:0:
182,192,55199,1,0,0:0:0:0:
36,192,55334,1,0,0:0:0:0:
256,192,55334,1,0,0:0:0:0:
402,192,55334,128,0,55469:0:0:0:0:
109,192,55469,1,0,0:0:0:0:
36,192,55604,1,0,0:0:0:0:
256,192,55604,1,0,0:0:0:0:
329,192,55739,1,0,0:0:0:0:
256,192,55773,1,0,0:0:0:0:
182,192,55807,1,0,0:0:0:0:
109,192,55840,1,0,0:0:0:0:
36,192,55874,1,0,0:0:0:0:
329,192,55874,1,0,0:0:0:0:
475,192,55874,1,0,0:0:0:0:
182,192,55942,1,0,0:0:0:0:
329,192,56009,1,0,0:0:0:0:
475,192,56077,1,0,0:0:0:0:
36,192,56144,1,0,0:0:0:0:
109,192,56144,1,0,0:0:0:0:
329,192,56144,1,0,0:0:0:0:
402,192,56279,1,0,0:0:0:0:
182,192,56414,1,0,0:0:0:0:
256,192,56414,1,0,0:0:0:0:
475,192,56414,1,0,0:0:0:0:
329,192,56549,1,0,0:0:0:0:
36,192,56684,128,0,56819:0:0:0:0:
256,192,56684,1,0,0:0:0:0:
402,192,56684,1,0,0:0:0:0:
329,192,56819,1,0,0:0:0:0:
109,192,56954,128,0,57089:0:0:0:0:
182,192,56954,1,0,0:0:0:0:
402,192,56954,1,0,0:0:0:0:
475,192,56954,1,0,0:0:0:0:
329,192,57089,1,0,0:0:0:0:
36,192,57224,1,0,0:0:0:0:
182,192,57224,1,0,0:0:0:0:
256,192,57224,128,0,57359:0:0:0:0:
109,192,57359,1,0,0:0:0:0:
36,192,57494,1,0,0:0:0:0:
182,192,57494,1,0,0:0:0:0:
329,192,57494,128,0,57629:0:0:0:0:
475,192,57494,1,0,0:0:0:0:
256,192,57629,1,0,0:0:0:0:
109,192,57764,1,0,0:0:0:0:
402,192,57764,128,0,57899:0:0:0:0:
475,192,57764,1,0,0:0:0:0:
182,192,57899,1,0,0:0:0:0:
36,192,58034,1,0,0:0:0:0:
256,192,58034,1,0,0:0:0:0:
402,192,58034,1,0,0:0:0:0:
475,192,58034,128,0,58169:0:0:0:0:
109,192,58169,1,0,0:0:0:0:
329,192,58169,1,0,0:0:0:0:
36,192,58304,1,0,0:0:0:0:
182,192,58304,1,0,0:0:0:0:
402,192,58304,128,0,58439:0:0:0:0:
256,192,58439,1,0,0:0:0:0:
109,192,58574,1,0,0:0:0:0:
329,192,58574,128,0,58709:0:0:0:0:
402,192,58574,1,0,0:0:0:0:
475,192,58574,1,0,0:0:0:0:
182,192,58709,1,0,0:0:0:0:
182,192,58844,128,0,58979:0:0:0:0:
256,192,58844,1,0,0:0:0:0:
402,192,58844,1,0,0:0:0:0:
475,192,58979,1,0,0:0:0:0:
36,192,59114,1,0,0:0:0:0:
109,192,59114,1,0,0:0:0:0:
182,192,59114,128,0,59249:0:0:0:0:
329,192,59114,1,0,0:0:0:0:
256,192,59249,1,0,0:0:0:0:
36,192,59384,128,0,59519:0:0:0:0:
109,192,59384,1,0,0:0:0:0:
329,192,59384,1,0,0:0:0:0:
182,192,59519,1,0,0:0:0:0:
109,192,59654,128,0,59789:0:0:0:0:
256,192,59654,1,0,0:0:0:0:
402,192,59654,1,0,0:0:0:0:
475,192,59654,1,0,0:0:0:0:
329,192,59789,1,0,0:0:0:0:
36,192,59924,1,0,0:0:0:0:
182,192,59924,128,0,60059:0:0:0:0:
475,192,59924,1,0,0:0:0:0:
109,192,60059,1,0,0:0:0:0:
36,192,60194,1,0,0:0:0:0:
256,192,60194,128,0,60329:0:0:0:0:
329,192,60194,1,0,0:0:0:0:
475,192,60194,1,0,0:0:0:0:
109,192,60329,1,0,0:0:0:0:
402,192,60329,1,0,0:0:0:0:
182,192,60464,1,0,0:0:0:0:
329,192,60464,1,0,0:0:0:0:
402,192,60464,128,0,60599:0:0:0:0:
109,192,60599,1,0,0:0:0:0:
36,192,60734,1,0,0:0:0:0:
182,192,60734,1,0,0:0:0:0:
329,192,60734,128,0,60869:0:0:0:0:
475,192,60734,1,0,0:0:0:0:
109,192,60869,1,0,0:0:0:0:
182,192,61004,1,0,0:0:0:0:
256,192,61004,128,0,61139:0:0:0:0:
475,192,61004,1,0,0:0:0:0:
109,192,61139,1,0,0:0:0:0:
36,192,61274,1,0,0:0:0:0:
182,192,61274,1,0,0:0:0:0:
329,192,61274,128,0,61409:0:0:0:0:
402,192,61274,1,0,0:0:0:0:
256,192,61409,1,0,0:0:0:0:
182,192,61544,1,0,0:0:0:0:
402,192,61544,1,0,0:0:0:0:
475,192,61544,128,0,61679:0:0:0:0:
256,192,61679,1,0,0:0:0:0:
109,192,61814,1,0,0:0:0:0:
182,192,61814,128,0,61949:0:0:0:0:
329,192,61814,1,0,0:0:0:0:
402,192,61814,1,0,0:0:0:0:
475,192,61949,1,0,0:0:0:0:
36,192,62084,1,0,0:0:0:0:
329,192,62084,128,0,62219:0:0:0:0:
402,192,62084,1,0,0:0:0:0:
109,192,62219,1,0,0:0:0:0:
36,192,62354,1,0,0:0:0:0:
182,192,62354,1,0,0:0:0:0:
402,192,62354,1,0,0:0:0:0:
475,192,62354,128,0,62489:0:0:0:0:
256,192,62489,1,0,0:0:0:0:
109,192,62489,1,0,0:0:0:0:
36,192,62624,1,0,0:0:0:0:
182,192,62624,1,0,0:0:0:0:
256,192,62624,1,0,0:0:0:0:
36,192,62759,1,0,0:0:0:0:
256,192,62759,1,0,0:0:0:0:
329,192,62759,1,0,0:0:0:0:
36,192,62894,1,0,0:0:0:0:
329,192,62894,1,0,0:0:0:0:
402,192,62894,1,0,0:0:0:0:
36,192,63029,1,0,0:0:0:0:
402,192,63029,1,0,0:0:0:0:
475,192,63029,1,0,0:0:0:0:
36,192,63164,1,0,0:0:0:0:
109,192,63164,1,0,0:0:0:0:
256,192,63164,1,0,0:0:0:0:
36,192,63299,1,0,0:0:0:0:
182,192,63299,1,0,0:0:0:0:
329,192,63299,1,0,0:0:0:0:
36,192,63434,1,0,0:0:0:0:
256,192,63434,1,0,0:0:0:0:
402,192,63434,1,0,0:0:0:0:
36,192,63569,1,0,0:0:0:0:
475,192,63569,1,0,0:0:0:0:
329,192,63569,1,0,0:0:0:0:
475,192,63704,1,0,0:0:0:0:
256,192,63704,1,0,0:0:0:0:
402,192,63704,1,0,0:0:0:0:
182,192,63839,1,0,0:0:0:0:
475,192,63839,1,0,0:0:0:0:
36,192,63839,1,0,0:0:0:0:
475,192,63974,1,0,0:0:0:0:
402,192,63974,1,0,0:0:0:0:
256,192,63974,1,0,0:0:0:0:
475,192,64109,1,0,0:0:0:0:
36,192,64109,1,0,0:0:0:0:
182,192,64109,1,0,0:0:0:0:
36,192,64244,1,0,0:0:0:0:
475,192,64244,1,0,0:0:0:0:
256,192,64312,1,0,0:0:0:0:
475,192,64379,1,0,0:0:0:0:
182,192,64379,1,0,0:0:0:0:
36,192,64379,1,0,0:0:0:0:
402,192,64413,1,0,0:0:0:0:
329,192,64447,1,0,0:0:0:0:
256,192,64480,1,0,0:0:0:0:
36,192,64514,1,0,0:0:0:0:
182,192,64514,1,0,0:0:0:0:
475,192,64514,1,0,0:0:0:0:
329,192,64582,1,0,0:0:0:0:
109,192,64649,1,0,0:0:0:0:
475,192,64649,1,0,0:0:0:0:
329,192,64717,1,0,0:0:0:0:
36,192,64784,1,0,0:0:0:0:
182,192,64784,1,0,0:0:0:0:
475,192,64784,128,0,64987:0:0:0:0:
109,192,64919,1,0,0:0:0:0:
256,192,64919,1,0,0:0:0:0:
402,192,64987,1,0,0:0:0:0:
36,192,65054,1,0,0:0:0:0:
109,192,65054,1,0,0:0:0:0:
329,192,65054,1,0,0:0:0:0:
256,192,65189,1,0,0:0:0:0:
475,192,65189,128,0,65392:0:0:0:0:
36,192,65324,1,0,0:0:0:0:
182,192,65324,1,0,0:0:0:0:
329,192,65392,128,0,65594:0:0:0:0:
109,192,65459,1,0,0:0:0:0:
256,192,65527,1,0,0:0:0:0:
36,192,65594,1,0,0:0:0:0:
109,192,65594,1,0,0:0:0:0:
475,192,65594,1,0,0:0:0:0:
329,192,65729,128,0,65864:0:0:0:0:
402,192,65729,1,0,0:0:0:0:
36,192,65864,1,0,0:0:0:0:
182,192,65864,128,0,66067:0:0:0:0:
475,192,65864,1,0,0:0:0:0:
402,192,65999,1,0,0:0:0:0:
109,192,66067,1,0,0:0:0:0:
256,192,66134,1,0,0:0:0:0:
329,192,66134,1,0,0:0:0:0:
402,192,66134,1,0,0:0:0:0:
109,192,66269,1,0,0:0:0:0:
182,192,66269,128,0,66404:0:0:0:0:
36,192,66404,128,0,66472:0:0:0:0:
329,192,66404,1,0,0:0:0:0:
475,192,66404,1,0,0:0:0:0:
256,192,66472,128,0,66539:0:0:0:0:
402,192,66539,1,0,0:0:0:0:
36,192,66607,128,0,66674:0:0:0:0:
182,192,66674,1,0,0:0:0:0:
256,192,66674,128,0,66742:0:0:0:0:
329,192,66674,1,0,0:0:0:0:
402,192,66674,1,0,0:0:0:0:
182,192,66809,128,0,66944:0:0:0:0:
109,192,66809,1,0,0:0:0:0:
329,192,66809,1,0,0:0:0:0:
475,192,66809,1,0,0:0:0:0:
36,192,66944,128,0,67147:0:0:0:0:
475,192,66944,1,0,0:0:0:0:
402,192,66944,1,0,0:0:0:0:
402,192,67079,1,0,0:0:0:0:
109,192,67147,1,0,0:0:0:0:
182,192,67214,1,0,0:0:0:0:
256,192,67214,1,0,0:0:0:0:
402,192,67214,1,0,0:0:0:0:
36,192,67349,128,0,67552:0:0:0:0:
329,192,67349,1,0,0:0:0:0:
402,192,67484,1,0,0:0:0:0:
475,192,67484,1,0,0:0:0:0:
182,192,67552,128,0,67754:0:0:0:0:
402,192,67619,1,0,0:0:0:0:
256,192,67687,1,0,0:0:0:0:
36,192,67754,1,0,0:0:0:0:
109,192,67754,1,0,0:0:0:0:
475,192,67754,1,0,0:0:0:0:
182,192,67889,128,0,68024:0:0:0:0:
256,192,67889,1,0,0:0:0:0:
109,192,68024,1,0,0:0:0:0:
329,192,68024,128,0,68227:0:0:0:0:
402,192,68024,1,0,0:0:0:0:
256,192,68159,1,0,0:0:0:0:
402,192,68227,1,0,0:0:0:0:
36,192,68294,1,0,0:0:0:0:
182,192,68294,1,0,0:0:0:0:
475,192,68294,1,0,0:0:0:0:
36,192,68429,1,0,0:0:0:0:
256,192,68429,1,0,0:0:0:0:
475,192,68429,1,0,0:0:0:0:
36,192,68564,1,0,0:0:0:0:
329,192,68564,1,0,0:0:0:0:
475,192,68564,1,0,0:0:0:0:
36,192,68699,1,0,0:0:0:0:
109,192,68699,1,0,0:0:0:0:
475,192,68699,1,0,0:0:0:0:
36,192,68834,1,0,0:0:0:0:
256,192,68834,1,0,0:0:0:0:
475,192,68834,1,0,0:0:0:0:
36,192,68969,1,0,0:0:0:0:
402,192,68969,1,0,0:0:0:0:
475,192,68969,1,0,0:0:0:0:
36,192,69104,1,0,0:0:0:0:
182,192,69104,1,0,0:0:0:0:
329,192,69104,1,0,0:0:0:0:
475,192,69104,1,0,0:0:0:0:
402,192,69172,1,0,0:0:0:0:
329,192,69239,1,0,0:0:0:0:
402,192,69307,1,0,0:0:0:0:
36,192,69374,1,0,0:0:0:0:
182,192,69374,1,0,0:0:0:0:
256,192,69374,1,0,0:0:0:0:
475,192,69374,1,0,0:0:0:0:
329,192,69442,1,0,0:0:0:0:
256,192,69509,1,0,0:0:0:0:
329,192,69577,1,0,0:0:0:0:
36,192,69644,1,0,0:0:0:0:
256,192,69644,1,0,0:0:0:0:
475,192,69644,1,0,0:0:0:0:
329,192,69712,1,0,0:0:0:0:
402,192,69779,1,0,0:0:0:0:
475,192,69847,1,0,0:0:0:0:
36,192,69914,1,0,0:0:0:0:
182,192,69914,1,0,0:0:0:0:
329,192,69914,1,0,0:0:0:0:
402,192,69914,1,0,0:0:0:0:
256,192,69982,1,0,0:0:0:0:
329,192,70049,1,0,0:0:0:0:
402,192,70117,1,0,0:0:0:0:
36,192,70184,1,0,0:0:0:0:
109,192,70184,1,0,0:0:0:0:
475,192,70184,1,0,0:0:0:0:
182,192,70252,1,0,0:0:0:0:
256,192,70319,1,0,0:0:0:0:
329,192,70387,1,0,0:0:0:0:
36,192,70454,1,0,0:0:0:0:
182,192,70454,1,0,0:0:0:0:
256,192,70454,1,0,0:0:0:0:
475,192,70454,1,0,0:0:0:0:
402,192,70522,1,0,0:0:0:0:
329,192,70589,1,0,0:0:0:0:
256,192,70657,1,0,0:0:0:0:
36,192,70724,1,0,0:0:0:0:
182,192,70724,1,0,0:0:0:0:
329,192,70724,1,0,0:0:0:0:
475,192,70724,1,0,0:0:0:0:
36,192,70859,1,0,0:0:0:0:
256,192,70859,1,0,0:0:0:0:
402,192,70859,1,0,0:0:0:0:
36,192,70994,1,0,0:0:0:0:
182,192,70994,1,0,0:0:0:0:
329,192,70994,1,0,0:0:0:0:
475,192,70994,1,0,0:0:0:0:
109,192,71129,1,0,0:0:0:0:
256,192,71129,1,0,0:0:0:0:
36,192,71264,1,0,0:0:0:0:
256,192,71264,1,0,0:0:0:0:
402,192,71264,1,0,0:0:0:0:
36,192,71399,1,0,0:0:0:0:
182,192,71399,1,0,0:0:0:0:
109,192,71534,1,0,0:0:0:0:
256,192,71534,1,0,0:0:0:0:
329,192,71534,1,0,0:0:0:0:
475,192,71534,1,0,0:0:0:0:
329,192,71669,1,0,0:0:0:0:
475,192,71669,1,0,0:0:0:0:
36,192,71804,1,0,0:0:0:0:
256,192,71804,1,0,0:0:0:0:
402,192,71804,1,0,0:0:0:0:
36,192,71939,1,0,0:0:0:0:
182,192,71939,1,0,0:0:0:0:
109,192,72074,1,0,0:0:0:0:
256,192,72074,1,0,0:0:0:0:
329,192,72074,1,0,0:0:0:0:
475,192,72074,1,0,0:0:0:0:
329,192,72209,1,0,0:0:0:0:
475,192,72209,1,0,0:0:0:0:
36,192,72344,1,0,0:0:0:0:
256,192,72344,1,0,0:0:0:0:
475,192,72344,1,0,0:0:0:0:
329,192,72412,1,0,0:0:0:0:
36,192,72479,1,0,0:0:0:0:
182,192,72479,1,0,0:0:0:0:
475,192,72547,1,0,0:0:0:0:
36,192,72614,1,0,0:0:0:0:
256,192,72614,1,0,0:0:0:0:
402,192,72614,1,0,0:0:0:0:
109,192,72682,1,0,0:0:0:0:
329,192,72749,1,0,0:0:0:0:
182,192,72817,1,0,0:0:0:0:
475,192,72884,1,0,0:0:0:0:
329,192,72952,1,0,0:0:0:0:
182,192,72952,1,0,0:0:0:0:
36,192,73019,1,0,0:0:0:0:
475,192,73087,1,0,0:0:0:0:
329,192,73154,1,0,0:0:0:0:
182,192,73154,1,0,0:0:0:0:
36,192,73222,1,0,0:0:0:0:
475,192,73222,1,0,0:0:0:0:
109,192,73289,1,0,0:0:0:0:
402,192,73289,1,0,0:0:0:0:
182,192,73357,1,0,0:0:0:0:
329,192,73357,1,0,0:0:0:0:
36,192,73424,1,0,0:0:0:0:
256,192,73424,1,0,0:0:0:0:
475,192,73424,1,0,0:0:0:0:
109,192,73559,128,0,73694:0:0:0:0:
402,192,73559,1,0,0:0:0:0:
36,192,73694,1,0,0:0:0:0:
256,192,73694,1,0,0:0:0:0:
329,192,73694,1,0,0:0:0:0:
475,192,73694,1,0,0:0:0:0:
256,192,73829,128,0,73964:0:0:0:0:
475,192,73829,1,0,0:0:0:0:
36,192,73964,1,0,0:0:0:0:
109,192,73964,1,0,0:0:0:0:
329,192,73964,1,0,0:0:0:0:
402,192,73964,1,0,0:0:0:0:
36,192,74099,128,0,74234:0:0:0:0:
329,192,74099,1,0,0:0:0:0:
182,192,74234,1,0,0:0:0:0:
256,192,74234,1,0,0:0:0:0:
402,192,74234,1,0,0:0:0:0:
475,192,74234,1,0,0:0:0:0:
182,192,74369,128,0,74504:0:0:0:0:
256,192,74369,1,0,0:0:0:0:
109,192,74504,1,0,0:0:0:0:
329,192,74504,128,0,74572:0:0:0:0:
402,192,74504,1,0,0:0:0:0:
182,192,74594,128,0,74684:0:0:0:0:
329,192,74684,128,0,74774:0:0:0:0:
36,192,74774,1,0,0:0:0:0:
109,192,74774,1,0,0:0:0:0:
402,192,74774,1,0,0:0:0:0:
475,192,74774,1,0,0:0:0:0:
182,192,74774,128,0,75044:0:0:0:0:
109,192,74909,1,0,0:0:0:0:
475,192,74909,1,0,0:0:0:0:
256,192,75044,128,0,75584:0:0:0:0:
36,192,75044,1,0,0:0:0:0:
329,192,75044,1,0,0:0:0:0:
329,192,75179,1,0,0:0:0:0:
36,192,75179,1,0,0:0:0:0:
109,192,75314,1,0,0:0:0:0:
182,192,75314,1,0,0:0:0:0:
402,192,75314,1,0,0:0:0:0:
475,192,75314,1,0,0:0:0:0:
109,192,75449,1,0,0:0:0:0:
402,192,75449,1,0,0:0:0:0:
36,192,75584,1,0,0:0:0:0:
109,192,75584,128,0,75652:0:0:0:0:
329,192,75584,1,0,0:0:0:0:
402,192,75584,1,0,0:0:0:0:
182,192,75652,128,0,75719:0:0:0:0:
109,192,75719,128,0,75787:0:0:0:0:
36,192,75854,1,0,0:0:0:0:
182,192,75854,128,0,75922:0:0:0:0:
402,192,75854,1,0,0:0:0:0:
475,192,75854,1,0,0:0:0:0:
256,192,75922,128,0,75989:0:0:0:0:
182,192,75989,128,0,76057:0:0:0:0:
109,192,76124,1,0,0:0:0:0:
256,192,76124,128,0,76192:0:0:0:0:
402,192,76124,1,0,0:0:0:0:
329,192,76192,128,0,76259:0:0:0:0:
256,192,76259,128,0,76327:0:0:0:0:
36,192,76394,1,0,0:0:0:0:
109,192,76394,1,0,0:0:0:0:
329,192,76394,128,0,76462:0:0:0:0:
475,192,76394,1,0,0:0:0:0:
402,192,76462,128,0,76529:0:0:0:0:
329,192,76529,128,0,76597:0:0:0:0:
109,192,76664,1,0,0:0:0:0:
256,192,76664,128,0,76732:0:0:0:0:
475,192,76664,1,0,0:0:0:0:
109,192,76732,128,0,76799:0:0:0:0:
256,192,76799,128,0,76867:0:0:0:0:
36,192,76934,1,0,0:0:0:0:
109,192,76934,1,0,0:0:0:0:
329,192,76934,128,0,77002:0:0:0:0:
475,192,76934,1,0,0:0:0:0:
182,192,77002,128,0,77069:0:0:0:0:
329,192,77069,128,0,77137:0:0:0:0:
109,192,77204,1,0,0:0:0:0:
402,192,77204,128,0,77272:0:0:0:0:
475,192,77204,1,0,0:0:0:0:
256,192,77272,128,0,77339:0:0:0:0:
109,192,77339,1,0,0:0:0:0:
402,192,77339,128,0,77407:0:0:0:0:
36,192,77474,1,0,0:0:0:0:
109,192,77474,1,0,0:0:0:0:
182,192,77474,1,0,0:0:0:0:
475,192,77474,128,0,77542:0:0:0:0:
329,192,77542,128,0,77609:0:0:0:0:
475,192,77609,128,0,77677:0:0:0:0:
182,192,77744,1,0,0:0:0:0:
329,192,77744,1,0,0:0:0:0:
402,192,77812,1,0,0:0:0:0:
182,192,77879,1,0,0:0:0:0:
475,192,77879,1,0,0:0:0:0:
329,192,77947,1,0,0:0:0:0:
36,192,78014,1,0,0:0:0:0:
256,192,78014,1,0,0:0:0:0:
402,192,78014,1,0,0:0:0:0:
475,192,78082,1,0,0:0:0:0:
109,192,78149,1,0,0:0:0:0:
329,192,78149,1,0,0:0:0:0:
402,192,78217,1,0,0:0:0:0:
109,192,78284,1,0,0:0:0:0:
475,192,78284,1,0,0:0:0:0:
256,192,78284,1,0,0:0:0:0:
182,192,78419,1,0,0:0:0:0:
36,192,78554,1,0,0:0:0:0:
109,192,78554,1,0,0:0:0:0:
475,192,78554,1,0,0:0:0:0:
109,192,78689,1,0,0:0:0:0:
329,192,78689,1,0,0:0:0:0:
182,192,78824,1,0,0:0:0:0:
256,192,78892,1,0,0:0:0:0:
36,192,78959,1,0,0:0:0:0:
329,192,78959,1,0,0:0:0:0:
36,192,79094,1,0,0:0:0:0:
109,192,79094,1,0,0:0:0:0:
182,192,79094,1,0,0:0:0:0:
256,192,79162,1,0,0:0:0:0:
36,192,79229,1,0,0:0:0:0:
182,192,79229,1,0,0:0:0:0:
36,192,79364,1,0,0:0:0:0:
402,192,79364,1,0,0:0:0:0:
36,192,79499,1,0,0:0:0:0:
329,192,79499,1,0,0:0:0:0:
256,192,79567,1,0,0:0:0:0:
402,192,79567,1,0,0:0:0:0:
36,192,79634,1,0,0:0:0:0:
109,192,79634,1,0,0:0:0:0:
36,192,79769,1,0,0:0:0:0:
402,192,79769,1,0,0:0:0:0:
109,192,79904,1,0,0:0:0:0:
329,192,79904,1,0,0:0:0:0:
256,192,79972,1,0,0:0:0:0:
36,192,80039,1,0,0:0:0:0:
182,192,80039,1,0,0:0:0:0:
109,192,80107,1,0,0:0:0:0:
402,192,80107,1,0,0:0:0:0:
36,192,80174,1,0,0:0:0:0:
182,192,80174,1,0,0:0:0:0:
329,192,80174,1,0,0:0:0:0:
256,192,80242,1,0,0:0:0:0:
109,192,80309,1,0,0:0:0:0:
475,192,80309,1,0,0:0:0:0:
402,192,80377,1,0,0:0:0:0:
182,192,80444,1,0,0:0:0:0:
329,192,80444,1,0,0:0:0:0:
475,192,80512,1,0,0:0:0:0:
109,192,80579,1,0,0:0:0:0:
402,192,80647,1,0,0:0:0:0:
36,192,80714,1,0,0:0:0:0:
182,192,80714,1,0,0:0:0:0:
256,192,80714,1,0,0:0:0:0:
36,192,80849,1,0,0:0:0:0:
182,192,80849,1,0,0:0:0:0:
329,192,80849,1,0,0:0:0:0:
109,192,80984,1,0,0:0:0:0:
402,192,80984,1,0,0:0:0:0:
36,192,81119,1,0,0:0:0:0:
402,192,81119,1,0,0:0:0:0:
109,192,81187,1,0,0:0:0:0:
182,192,81254,1,0,0:0:0:0:
475,192,81254,1,0,0:0:0:0:
182,192,81389,1,0,0:0:0:0:
475,192,81389,1,0,0:0:0:0:
109,192,81457,1,0,0:0:0:0:
182,192,81524,1,0,0:0:0:0:
329,192,81524,1,0,0:0:0:0:
36,192,81592,1,0,0:0:0:0:
109,192,81659,1,0,0:0:0:0:
329,192,81659,1,0,0:0:0:0:
36,192,81727,1,0,0:0:0:0:
109,192,81761,1,0,0:0:0:0:
182,192,81794,1,0,0:0:0:0:
402,192,81794,1,0,0:0:0:0:
109,192,81828,1,0,0:0:0:0:
36,192,81862,1,0,0:0:0:0:
182,192,81929,1,0,0:0:0:0:
402,192,81929,1,0,0:0:0:0:
109,192,82064,1,0,0:0:0:0:
182,192,82064,1,0,0:0:0:0:
329,192,82064,1,0,0:0:0:0:
402,192,82064,1,0,0:0:0:0:
475,192,82199,1,0,0:0:0:0:
402,192,82334,1,0,0:0:0:0:
475,192,82469,1,0,0:0:0:0:
256,192,82604,1,0,0:0:0:0:
402,192,82739,1,0,0:0:0:0:
256,192,82874,1,0,0:0:0:0:
402,192,83009,1,0,0:0:0:0:
109,192,83144,1,0,0:0:0:0:
109,192,83279,1,0,0:0:0:0:
182,192,83414,1,0,0:0:0:0:
256,192,83549,1,0,0:0:0:0:
329,192,83684,1,0,0:0:0:0:
182,192,83819,1,0,0:0:0:0:
256,192,83954,1,0,0:0:0:0:
182,192,84089,1,0,0:0:0:0:
36,192,84224,1,0,0:0:0:0:
182,192,84359,1,0,0:0:0:0:
256,192,84494,1,0,0:0:0:0:
182,192,84629,1,0,0:0:0:0:
109,192,84764,1,0,0:0:0:0:
182,192,84899,1,0,0:0:0:0:
109,192,85034,1,0,0:0:0:0:
402,192,85169,1,0,0:0:0:0:
475,192,85304,1,0,0:0:0:0:
329,192,85439,1,0,0:0:0:0:
475,192,85574,1,0,0:0:0:0:
256,192,85709,1,0,0:0:0:0:
475,192,85844,1,0,0:0:0:0:
329,192,85979,1,0,0:0:0:0:
475,192,86114,1,0,0:0:0:0:
402,192,86249,1,0,0:0:0:0:
36,192,86384,1,0,0:0:0:0:
182,192,86519,1,0,0:0:0:0:
329,192,86654,1,0,0:0:0:0:
256,192,86789,1,0,0:0:0:0:
402,192,86924,1,0,0:0:0:0:
329,192,87059,1,0,0:0:0:0:
475,192,87194,1,0,0:0:0:0:
402,192,87329,1,0,0:0:0:0:
182,192,87464,1,0,0:0:0:0:
182,192,87599,1,0,0:0:0:0:
329,192,87734,1,0,0:0:0:0:
329,192,87869,1,0,0:0:0:0:
109,192,88004,1,0,0:0:0:0:
109,192,88139,1,0,0:0:0:0:
256,192,88274,1,0,0:0:0:0:
256,192,88409,1,0,0:0:0:0:
182,192,88544,1,0,0:0:0:0:
109,192,88679,1,0,0:0:0:0:
36,192,88814,1,0,0:0:0:0:
109,192,88949,1,0,0:0:0:0:
182,192,89084,1,0,0:0:0:0:
256,192,89219,1,0,0:0:0:0:
329,192,89354,1,0,0:0:0:0:
256,192,89489,1,0,0:0:0:0:
402,192,89624,1,0,0:0:0:0:
475,192,89759,1,0,0:0:0:0:
329,192,89894,1,0,0:0:0:0:
182,192,90029,1,0,0:0:0:0:
182,192,90164,1,0,0:0:0:0:
182,192,90434,1,0,0:0:0:0:
329,192,90434,1,0,0:0:0:0:
36,192,90704,1,0,0:0:0:0:
256,192,90704,1,0,0:0:0:0:
475,192,90704,1,0,0:0:0:0:
109,192,90704,1,0,0:0:0:0:
402,192,90839,1,0,0:0:0:0:
182,192,90839,1,0,0:0:0:0:
402,192,91109,1,0,0:0:0:0:
182,192,91109,1,0,0:0:0:0:
109,192,91379,1,0,0:0:0:0:
329,192,91379,1,0,0:0:0:0:
109,192,91649,1,0,0:0:0:0:
329,192,91649,1,0,0:0:0:0:
329,192,91919,1,0,0:0:0:0:
182,192,91919,1,0,0:0:0:0:
329,192,92189,1,0,0:0:0:0:
182,192,92189,1,0,0:0:0:0:
182,192,92459,1,0,0:0:0:0:
402,192,92459,1,0,0:0:0:0:
182,192,92729,1,0,0:0:0:0:
402,192,92729,1,0,0:0:0:0:
36,192,92864,1,0,0:0:0:0:
256,192,92864,1,0,0:0:0:0:
475,192,92864,1,0,0:0:0:0:
402,192,92864,1,0,0:0:0:0:
329,192,92999,1,0,0:0:0:0:
109,192,92999,1,0,0:0:0:0:
329,192,93269,1,0,0:0:0:0:
109,192,93269,1,0,0:0:0:0:
182,192,93539,1,0,0:0:0:0:
36,192,93539,1,0,0:0:0:0:
182,192,93809,1,0,0:0:0:0:
36,192,93809,1,0,0:0:0:0:
402,192,94079,1,0,0:0:0:0:
256,192,94079,1,0,0:0:0:0:
402,192,94349,1,0,0:0:0:0:
256,192,94349,1,0,0:0:0:0:
109,192,94619,1,0,0:0:0:0:
329,192,94619,1,0,0:0:0:0:
109,192,94889,1,0,0:0:0:0:
329,192,94889,1,0,0:0:0:0:
36,192,95024,1,0,0:0:0:0:
256,192,95024,1,0,0:0:0:0:
329,192,95024,1,0,0:0:0:0:
475,192,95024,1,0,0:0:0:0:
402,192,95159,1,0,0:0:0:0:
182,192,95159,1,0,0:0:0:0:
329,192,95429,1,0,0:0:0:0:
109,192,95429,1,0,0:0:0:0:
182,192,95699,1,0,0:0:0:0:
402,192,95699,1,0,0:0:0:0:
109,192,95969,1,0,0:0:0:0:
329,192,95969,1,0,0:0:0:0:
36,192,96104,1,0,0:0:0:0:
256,192,96104,1,0,0:0:0:0:
402,192,96104,1,0,0:0:0:0:
475,192,96104,1,0,0:0:0:0:
329,192,96239,1,0,0:0:0:0:
109,192,96239,1,0,0:0:0:0:
182,192,96509,1,0,0:0:0:0:
402,192,96509,1,0,0:0:0:0:
109,192,96644,1,0,0:0:0:0:
256,192,96644,1,0,0:0:0:0:
475,192,96644,1,0,0:0:0:0:
182,192,96779,1,0,0:0:0:0:
402,192,96779,1,0,0:0:0:0:
329,192,97049,1,0,0:0:0:0:
109,192,97049,1,0,0:0:0:0:
36,192,97184,1,0,0:0:0:0:
256,192,97184,1,0,0:0:0:0:
402,192,97184,1,0,0:0:0:0:
475,192,97184,1,0,0:0:0:0:
329,192,97319,1,0,0:0:0:0:
109,192,97319,1,0,0:0:0:0:
36,192,97454,1,0,0:0:0:0:
109,192,97454,1,0,0:0:0:0:
256,192,97454,1,0,0:0:0:0:
475,192,97454,1,0,0:0:0:0:
182,192,97589,1,0,0:0:0:0:
402,192,97589,1,0,0:0:0:0:
256,192,97724,1,0,0:0:0:0:
329,192,97724,1,0,0:0:0:0:
109,192,97724,1,0,0:0:0:0:
402,192,97859,1,0,0:0:0:0:
182,192,97859,1,0,0:0:0:0:
36,192,97994,1,0,0:0:0:0:
182,192,97994,1,0,0:0:0:0:
256,192,97994,1,0,0:0:0:0:
475,192,97994,1,0,0:0:0:0:
329,192,98129,1,0,0:0:0:0:
109,192,98129,1,0,0:0:0:0:
36,192,98264,1,0,0:0:0:0:
182,192,98264,1,0,0:0:0:0:
402,192,98264,1,0,0:0:0:0:
402,192,98534,1,0,0:0:0:0:
402,192,98804,1,0,0:0:0:0:
402,192,99074,1,0,0:0:0:0:
36,192,99344,1,0,0:0:0:0:
109,192,99344,1,0,0:0:0:0:
402,192,99344,1,0,0:0:0:0:
402,192,99614,1,0,0:0:0:0:
402,192,99884,1,0,0:0:0:0:
402,192,100155,1,0,0:0:0:0:
36,192,100425,1,0,0:0:0:0:
182,192,100425,1,0,0:0:0:0:
402,192,100425,1,0,0:0:0:0:
402,192,100695,1,0,0:0:0:0:
402,192,100965,1,0,0:0:0:0:
402,192,101235,1,0,0:0:0:0:
36,192,101505,1,0,0:0:0:0:
256,192,101505,1,0,0:0:0:0:
402,192,101505,1,0,0:0:0:0:
402,192,101775,1,0,0:0:0:0:
402,192,102045,1,0,0:0:0:0:
402,192,102315,1,0,0:0:0:0:
402,192,102450,1,0,0:0:0:0:
109,192,102585,1,0,0:0:0:0:
329,192,102585,1,0,0:0:0:0:
402,192,102585,1,0,0:0:0:0:
402,192,102855,1,0,0:0:0:0:
402,192,103125,1,0,0:0:0:0:
402,192,103395,1,0,0:0:0:0:
182,192,103665,1,0,0:0:0:0:
256,192,103665,1,0,0:0:0:0:
402,192,103665,1,0,0:0:0:0:
402,192,103935,1,0,0:0:0:0:
402,192,104205,1,0,0:0:0:0:
402,192,104475,1,0,0:0:0:0:
109,192,104745,1,0,0:0:0:0:
256,192,104745,1,0,0:0:0:0:
402,192,104745,1,0,0:0:0:0:
402,192,105015,1,0,0:0:0:0:
402,192,105285,1,0,0:0:0:0:
402,192,105555,1,0,0:0:0:0:
182,192,105825,1,0,0:0:0:0:
256,192,105825,1,0,0:0:0:0:
475,192,105825,1,0,0:0:0:0:
36,192,105960,1,0,0:0:0:0:
329,192,105960,1,0,0:0:0:0:
182,192,106095,1,0,0:0:0:0:
475,192,106095,1,0,0:0:0:0:
36,192,106230,1,0,0:0:0:0:
329,192,106230,1,0,0:0:0:0:
475,192,106365,1,0,0:0:0:0:
36,192,106365,1,0,0:0:0:0:
182,192,106432,1,0,0:0:0:0:
329,192,106432,1,0,0:0:0:0:
475,192,106500,1,0,0:0:0:0:
36,192,106500,1,0,0:0:0:0:
182,192,106567,1,0,0:0:0:0:
329,192,106567,1,0,0:0:0:0:
475,192,106635,1,0,0:0:0:0:
36,192,106635,1,0,0:0:0:0:
182,192,106702,1,0,0:0:0:0:
329,192,106702,1,0,0:0:0:0:
475,192,106770,1,0,0:0:0:0:
36,192,106770,1,0,0:0:0:0:
182,192,106837,1,0,0:0:0:0:
329,192,106837,1,0,0:0:0:0:
109,192,106905,128,0,107715:0:0:0:0:
402,192,106905,128,0,107715:0:0:0:0:
36,192,107715,1,0,0:0:0:0:
475,192,107715,1,0,0:0:0:0:
36,192,107985,1,0,0:0:0:0:
182,192,107985,1,0,0:0:0:0:
256,192,108052,1,0,0:0:0:0:
329,192,108120,1,0,0:0:0:0:
402,192,108187,1,0,0:0:0:0:
36,192,108255,1,0,0:0:0:0:
182,192,108255,1,0,0:0:0:0:
329,192,108255,1,0,0:0:0:0:
475,192,108255,1,0,0:0:0:0:
109,192,108390,1,0,0:0:0:0:
402,192,108390,128,0,108525:0:0:0:0:
36,192,108525,1,0,0:0:0:0:
109,192,108592,1,0,0:0:0:0:
402,192,108592,1,0,0:0:0:0:
182,192,108660,1,0,0:0:0:0:
256,192,108727,1,0,0:0:0:0:
36,192,108795,1,0,0:0:0:0:
182,192,108795,1,0,0:0:0:0:
329,192,108795,1,0,0:0:0:0:
475,192,108795,1,0,0:0:0:0:
329,192,108930,128,0,109065:0:0:0:0:
182,192,108930,1,0,0:0:0:0:
109,192,109065,1,0,0:0:0:0:
256,192,109065,1,0,0:0:0:0:
402,192,109132,1,0,0:0:0:0:
182,192,109200,1,0,0:0:0:0:
329,192,109267,1,0,0:0:0:0:
36,192,109335,1,0,0:0:0:0:
182,192,109335,1,0,0:0:0:0:
256,192,109335,1,0,0:0:0:0:
402,192,109335,1,0,0:0:0:0:
182,192,109470,128,0,109605:0:0:0:0:
475,192,109470,1,0,0:0:0:0:
329,192,109605,1,0,0:0:0:0:
402,192,109605,1,0,0:0:0:0:
256,192,109672,1,0,0:0:0:0:
182,192,109807,1,0,0:0:0:0:
256,192,109875,1,0,0:0:0:0:
329,192,109875,1,0,0:0:0:0:
109,192,109875,1,0,0:0:0:0:
475,192,109875,1,0,0:0:0:0:
329,192,110010,128,0,110145:0:0:0:0:
182,192,110010,1,0,0:0:0:0:
36,192,110145,1,0,0:0:0:0:
256,192,110145,1,0,0:0:0:0:
109,192,110212,1,0,0:0:0:0:
256,192,110280,1,0,0:0:0:0:
402,192,110347,1,0,0:0:0:0:
329,192,110415,1,0,0:0:0:0:
36,192,110415,1,0,0:0:0:0:
182,192,110415,1,0,0:0:0:0:
475,192,110415,1,0,0:0:0:0:
182,192,110550,128,0,110685:0:0:0:0:
256,192,110685,1,0,0:0:0:0:
475,192,110685,1,0,0:0:0:0:
402,192,110752,1,0,0:0:0:0:
256,192,110820,1,0,0:0:0:0:
109,192,110887,1,0,0:0:0:0:
36,192,110955,1,0,0:0:0:0:
182,192,110955,1,0,0:0:0:0:
329,192,110955,1,0,0:0:0:0:
475,192,110955,1,0,0:0:0:0:
182,192,111090,1,0,0:0:0:0:
329,192,111090,128,0,111225:0:0:0:0:
36,192,111225,1,0,0:0:0:0:
329,192,111292,1,0,0:0:0:0:
109,192,111292,1,0,0:0:0:0:
256,192,111360,1,0,0:0:0:0:
329,192,111427,1,0,0:0:0:0:
475,192,111427,1,0,0:0:0:0:
36,192,111495,1,0,0:0:0:0:
182,192,111495,1,0,0:0:0:0:
256,192,111495,1,0,0:0:0:0:
109,192,111630,1,0,0:0:0:0:
256,192,111630,1,0,0:0:0:0:
329,192,111630,1,0,0:0:0:0:
182,192,111765,1,0,0:0:0:0:
256,192,111765,1,0,0:0:0:0:
402,192,111765,1,0,0:0:0:0:
256,192,111900,1,0,0:0:0:0:
329,192,111900,1,0,0:0:0:0:
475,192,111900,1,0,0:0:0:0:
402,192,112035,1,0,0:0:0:0:
182,192,112035,1,0,0:0:0:0:
256,192,112035,1,0,0:0:0:0:
109,192,112170,1,0,0:0:0:0:
256,192,112170,1,0,0:0:0:0:
329,192,112170,1,0,0:0:0:0:
36,192,112305,1,0,0:0:0:0:
182,192,112305,1,0,0:0:0:0:
402,192,112305,1,0,0:0:0:0:
256,192,112372,1,0,0:0:0:0:
329,192,112440,1,0,0:0:0:0:
182,192,112507,1,0,0:0:0:0:
36,192,112575,1,0,0:0:0:0:
256,192,112575,1,0,0:0:0:0:
402,192,112575,1,0,0:0:0:0:
475,192,112575,1,0,0:0:0:0:
329,192,112642,1,0,0:0:0:0:
182,192,112710,1,0,0:0:0:0:
329,192,112777,1,0,0:0:0:0:
36,192,112845,1,0,0:0:0:0:
256,192,112845,1,0,0:0:0:0:
475,192,112845,1,0,0:0:0:0:
402,192,112912,1,0,0:0:0:0:
329,192,112980,1,0,0:0:0:0:
36,192,113115,1,0,0:0:0:0:
109,192,113115,1,0,0:0:0:0:
256,192,113115,1,0,0:0:0:0:
402,192,113115,1,0,0:0:0:0:
329,192,113182,1,0,0:0:0:0:
109,192,113250,1,0,0:0:0:0:
36,192,113250,1,0,0:0:0:0:
256,192,113250,1,0,0:0:0:0:
109,192,113385,1,0,0:0:0:0:
402,192,113385,1,0,0:0:0:0:
256,192,113452,1,0,0:0:0:0:
109,192,113520,1,0,0:0:0:0:
402,192,113520,1,0,0:0:0:0:
256,192,113655,1,0,0:0:0:0:
402,192,113655,1,0,0:0:0:0:
475,192,113655,1,0,0:0:0:0:
36,192,113655,1,0,0:0:0:0:
329,192,113790,1,0,0:0:0:0:
475,192,113790,1,0,0:0:0:0:
109,192,113925,1,0,0:0:0:0:
256,192,113925,1,0,0:0:0:0:
475,192,113925,1,0,0:0:0:0:
36,192,114060,1,0,0:0:0:0:
182,192,114060,1,0,0:0:0:0:
402,192,114060,1,0,0:0:0:0:
109,192,114195,1,0,0:0:0:0:
256,192,114195,1,0,0:0:0:0:
329,192,114195,1,0,0:0:0:0:
475,192,114195,1,0,0:0:0:0:
36,192,114330,1,0,0:0:0:0:
256,192,114330,1,0,0:0:0:0:
36,192,114465,1,0,0:0:0:0:
182,192,114465,1,0,0:0:0:0:
329,192,114465,1,0,0:0:0:0:
36,192,114600,1,0,0:0:0:0:
109,192,114600,1,0,0:0:0:0:
182,192,114735,1,0,0:0:0:0:
256,192,114735,1,0,0:0:0:0:
329,192,114735,1,0,0:0:0:0:
475,192,114735,1,0,0:0:0:0:
402,192,114870,1,0,0:0:0:0:
475,192,114870,1,0,0:0:0:0:
36,192,115005,1,0,0:0:0:0:
109,192,115005,1,0,0:0:0:0:
256,192,115005,1,0,0:0:0:0:
109,192,115140,1,0,0:0:0:0:
182,192,115140,1,0,0:0:0:0:
36,192,115275,1,0,0:0:0:0:
256,192,115275,1,0,0:0:0:0:
402,192,115275,1,0,0:0:0:0:
475,192,115275,1,0,0:0:0:0:
329,192,115410,1,0,0:0:0:0:
402,192,115410,1,0,0:0:0:0:
256,192,115477,1,0,0:0:0:0:
182,192,115545,1,0,0:0:0:0:
402,192,115545,1,0,0:0:0:0:
36,192,115612,1,0,0:0:0:0:
256,192,115680,1,0,0:0:0:0:
109,192,115747,1,0,0:0:0:0:
36,192,115815,1,0,0:0:0:0:
329,192,115815,1,0,0:0:0:0:
475,192,115815,1,0,0:0:0:0:
182,192,115882,1,0,0:0:0:0:
36,192,115950,1,0,0:0:0:0:
402,192,115950,1,0,0:0:0:0:
109,192,116017,1,0,0:0:0:0:
256,192,116017,1,0,0:0:0:0:
182,192,116085,1,0,0:0:0:0:
329,192,116085,1,0,0:0:0:0:
475,192,116152,1,0,0:0:0:0:
36,192,116220,1,0,0:0:0:0:
256,192,116220,1,0,0:0:0:0:
109,192,116287,1,0,0:0:0:0:
402,192,116287,1,0,0:0:0:0:
36,192,116355,1,0,0:0:0:0:
182,192,116355,1,0,0:0:0:0:
329,192,116422,1,0,0:0:0:0:
475,192,116422,1,0,0:0:0:0:
36,192,116490,1,0,0:0:0:0:
182,192,116490,1,0,0:0:0:0:
256,192,116557,1,0,0:0:0:0:
475,192,116557,1,0,0:0:0:0:
36,192,116625,1,0,0:0:0:0:
109,192,116625,1,0,0:0:0:0:
329,192,116625,1,0,0:0:0:0:
402,192,116625,1,0,0:0:0:0:
36,192,116760,1,0,0:0:0:0:
182,192,116760,1,0,0:0:0:0:
109,192,116895,1,0,0:0:0:0:
182,192,116895,1,0,0:0:0:0:
329,192,116895,1,0,0:0:0:0:
475,192,116895,1,0,0:0:0:0:
109,192,117030,1,0,0:0:0:0:
256,192,117030,1,0,0:0:0:0:
182,192,117165,1,0,0:0:0:0:
256,192,117165,1,0,0:0:0:0:
475,192,117165,1,0,0:0:0:0:
182,192,117300,1,0,0:0:0:0:
329,192,117300,1,0,0:0:0:0:
36,192,117435,1,0,0:0:0:0:
256,192,117435,1,0,0:0:0:0:
329,192,117435,1,0,0:0:0:0:
475,192,117435,1,0,0:0:0:0:
36,192,117570,1,0,0:0:0:0:
182,192,117570,1,0,0:0:0:0:
402,192,117570,1,0,0:0:0:0:
475,192,117570,1,0,0:0:0:0:
109,192,117705,1,0,0:0:0:0:
256,192,117705,1,0,0:0:0:0:
329,192,117705,1,0,0:0:0:0:
182,192,117789,1,0,0:0:0:0:
402,192,117789,1,0,0:0:0:0:
109,192,117873,1,0,0:0:0:0:
329,192,117873,1,0,0:0:0:0:
36,192,117975,1,0,0:0:0:0:
182,192,117975,1,0,0:0:0:0:
402,192,117975,1,0,0:0:0:0:
475,192,117975,1,0,0:0:0:0:
109,192,118245,1,0,0:0:0:0:
256,192,118245,1,0,0:0:0:0:
402,192,118245,1,0,0:0:0:0:
36,192,118515,1,0,0:0:0:0:
256,192,118515,1,0,0:0:0:0:
475,192,118515,1,0,0:0:0:0:
109,192,118650,1,0,0:0:0:0:
182,192,118650,1,0,0:0:0:0:
329,192,118650,1,0,0:0:0:0:
402,192,118650,1,0,0:0:0:0:
36,192,118717,1,0,0:0:0:0:
475,192,118717,1,0,0:0:0:0:
109,192,118785,1,0,0:0:0:0:
256,192,118785,1,0,0:0:0:0:
402,192,118785,1,0,0:0:0:0:
36,192,118920,1,0,0:0:0:0:
475,192,118920,1,0,0:0:0:0:
36,192,119055,1,0,0:0:0:0:
182,192,119055,1,0,0:0:0:0:
329,192,119055,1,0,0:0:0:0:
475,192,119055,1,0,0:0:0:0:
109,192,119190,1,0,0:0:0:0:
402,192,119190,1,0,0:0:0:0:
109,192,119325,1,0,0:0:0:0:
256,192,119325,1,0,0:0:0:0:
402,192,119325,1,0,0:0:0:0:
182,192,119460,1,0,0:0:0:0:
329,192,119460,1,0,0:0:0:0:
36,192,119595,1,0,0:0:0:0:
182,192,119595,1,0,0:0:0:0:
329,192,119595,1,0,0:0:0:0:
475,192,119595,1,0,0:0:0:0:
36,192,119730,1,0,0:0:0:0:
256,192,119730,1,0,0:0:0:0:
475,192,119730,1,0,0:0:0:0:
36,192,119865,1,0,0:0:0:0:
256,192,119865,1,0,0:0:0:0:
475,192,119865,1,0,0:0:0:0:
182,192,120000,1,0,0:0:0:0:
329,192,120000,1,0,0:0:0:0:
36,192,120135,1,0,0:0:0:0:
109,192,120135,1,0,0:0:0:0:
402,192,120135,1,0,0:0:0:0:
475,192,120135,1,0,0:0:0:0:
109,192,120405,1,0,0:0:0:0:
182,192,120405,1,0,0:0:0:0:
329,192,120405,1,0,0:0:0:0:
402,192,120405,1,0,0:0:0:0:
109,192,120540,1,0,0:0:0:0:
402,192,120540,1,0,0:0:0:0:
36,192,120675,1,0,0:0:0:0:
182,192,120675,1,0,0:0:0:0:
329,192,120675,1,0,0:0:0:0:
475,192,120675,1,0,0:0:0:0:
109,192,120810,1,0,0:0:0:0:
402,192,120810,1,0,0:0:0:0:
36,192,120945,1,0,0:0:0:0:
256,192,120945,1,0,0:0:0:0:
475,192,120945,1,0,0:0:0:0:
182,192,121012,1,0,0:0:0:0:
109,192,121080,1,0,0:0:0:0:
329,192,121147,1,0,0:0:0:0:
36,192,121215,1,0,0:0:0:0:
256,192,121215,1,0,0:0:0:0:
475,192,121215,1,0,0:0:0:0:
182,192,121282,1,0,0:0:0:0:
402,192,121350,1,0,0:0:0:0:
329,192,121417,1,0,0:0:0:0:
36,192,121485,1,0,0:0:0:0:
256,192,121485,1,0,0:0:0:0:
256,192,121552,1,0,0:0:0:0:
182,192,121755,1,0,0:0:0:0:
329,192,121755,1,0,0:0:0:0:
475,192,121755,1,0,0:0:0:0:
109,192,121890,1,0,0:0:0:0:
329,192,121890,1,0,0:0:0:0:
36,192,122025,1,0,0:0:0:0:
109,192,122092,1,0,0:0:0:0:
182,192,122160,1,0,0:0:0:0:
329,192,122160,1,0,0:0:0:0:
36,192,122295,1,0,0:0:0:0:
256,192,122295,1,0,0:0:0:0:
402,192,122295,1,0,0:0:0:0:
475,192,122295,1,0,0:0:0:0:
256,192,122430,1,0,0:0:0:0:
402,192,122430,1,0,0:0:0:0:
109,192,122565,1,0,0:0:0:0:
329,192,122565,1,0,0:0:0:0:
182,192,122632,1,0,0:0:0:0:
109,192,122700,1,0,0:0:0:0:
402,192,122700,1,0,0:0:0:0:
182,192,122767,1,0,0:0:0:0:
36,192,122835,1,0,0:0:0:0:
256,192,122835,1,0,0:0:0:0:
475,192,122835,1,0,0:0:0:0:
36,192,122970,1,0,0:0:0:0:
475,192,122970,1,0,0:0:0:0:
36,192,123105,1,0,0:0:0:0:
329,192,123105,1,0,0:0:0:0:
402,192,123172,1,0,0:0:0:0:
36,192,123240,1,0,0:0:0:0:
475,192,123240,1,0,0:0:0:0:
109,192,123307,1,0,0:0:0:0:
256,192,123307,1,0,0:0:0:0:
36,192,123375,1,0,0:0:0:0:
182,192,123375,1,0,0:0:0:0:
329,192,123375,1,0,0:0:0:0:
402,192,123442,1,0,0:0:0:0:
36,192,123510,1,0,0:0:0:0:
182,192,123510,1,0,0:0:0:0:
109,192,123577,1,0,0:0:0:0:
256,192,123577,1,0,0:0:0:0:
36,192,123645,1,0,0:0:0:0:
329,192,123645,1,0,0:0:0:0:
329,192,123712,1,0,0:0:0:0:
36,192,123780,1,0,0:0:0:0:
109,192,123847,1,0,0:0:0:0:
36,192,123915,1,0,0:0:0:0:
256,192,123915,1,0,0:0:0:0:
475,192,123915,1,0,0:0:0:0:
109,192,124050,1,0,0:0:0:0:
402,192,124050,1,0,0:0:0:0:
182,192,124117,1,0,0:0:0:0:
329,192,124117,1,0,0:0:0:0:
109,192,124185,1,0,0:0:0:0:
256,192,124185,1,0,0:0:0:0:
402,192,124185,1,0,0:0:0:0:
109,192,124320,1,0,0:0:0:0:
402,192,124320,1,0,0:0:0:0:
256,192,124387,1,0,0:0:0:0:
36,192,124455,1,0,0:0:0:0:
182,192,124455,1,0,0:0:0:0:
329,192,124455,1,0,0:0:0:0:
475,192,124455,1,0,0:0:0:0:
36,192,124590,1,0,0:0:0:0:
475,192,124590,1,0,0:0:0:0:
109,192,124657,1,0,0:0:0:0:
402,192,124657,1,0,0:0:0:0:
36,192,124725,1,0,0:0:0:0:
256,192,124725,1,0,0:0:0:0:
475,192,124725,1,0,0:0:0:0:
182,192,124792,1,0,0:0:0:0:
109,192,124860,1,0,0:0:0:0:
402,192,124860,1,0,0:0:0:0:
329,192,124893,1,0,0:0:0:0:
182,192,124927,1,0,0:0:0:0:
109,192,124961,1,0,0:0:0:0:
36,192,124995,1,0,0:0:0:0:
256,192,124995,1,0,0:0:0:0:
475,192,124995,1,0,0:0:0:0:
182,192,125062,1,0,0:0:0:0:
329,192,125130,1,0,0:0:0:0:
475,192,125130,1,0,0:0:0:0:
182,192,125197,1,0,0:0:0:0:
36,192,125265,1,0,0:0:0:0:
329,192,125265,1,0,0:0:0:0:
182,192,125332,1,0,0:0:0:0:
402,192,125400,1,0,0:0:0:0:
36,192,125467,128,0,125535:0:0:0:0:
182,192,125535,128,0,125602:0:0:0:0:
329,192,125535,1,0,0:0:0:0:
475,192,125535,1,0,0:0:0:0:
36,192,125670,128,0,125805:0:0:0:0:
402,192,125670,1,0,0:0:0:0:
182,192,125805,1,0,0:0:0:0:
475,192,125805,1,0,0:0:0:0:
329,192,125872,1,0,0:0:0:0:
109,192,125940,1,0,0:0:0:0:
475,192,126007,128,0,126075:0:0:0:0:
36,192,126075,1,0,0:0:0:0:
182,192,126075,1,0,0:0:0:0:
329,192,126075,128,0,126142:0:0:0:0:
109,192,126210,1,0,0:0:0:0:
475,192,126210,128,0,126345:0:0:0:0:
109,192,126345,1,0,0:0:0:0:
329,192,126345,1,0,0:0:0:0:
256,192,126412,1,0,0:0:0:0:
109,192,126480,128,0,126547:0:0:0:0:
402,192,126480,1,0,0:0:0:0:
256,192,126547,128,0,126615:0:0:0:0:
329,192,126615,1,0,0:0:0:0:
475,192,126615,1,0,0:0:0:0:
109,192,126750,128,0,126885:0:0:0:0:
256,192,126750,1,0,0:0:0:0:
182,192,126885,1,0,0:0:0:0:
475,192,126885,128,0,126952:0:0:0:0:
329,192,126952,128,0,127020:0:0:0:0:
109,192,127020,1,0,0:0:0:0:
256,192,127020,1,0,0:0:0:0:
402,192,127087,128,0,127155:0:0:0:0:
36,192,127155,1,0,0:0:0:0:
182,192,127155,1,0,0:0:0:0:
256,192,127155,128,0,127222:0:0:0:0:
256,192,127290,1,0,0:0:0:0:
402,192,127290,128,0,127425:0:0:0:0:
182,192,127425,1,0,0:0:0:0:
329,192,127425,1,0,0:0:0:0:
36,192,127492,1,0,0:0:0:0:
475,192,127560,1,0,0:0:0:0:
256,192,127627,128,0,127695:0:0:0:0:
109,192,127695,128,0,127762:0:0:0:0:
329,192,127695,1,0,0:0:0:0:
402,192,127695,1,0,0:0:0:0:
109,192,127830,1,0,0:0:0:0:
256,192,127830,128,0,127965:0:0:0:0:
402,192,127830,1,0,0:0:0:0:
182,192,127965,1,0,0:0:0:0:
329,192,127965,1,0,0:0:0:0:
475,192,128032,1,0,0:0:0:0:
36,192,128100,1,0,0:0:0:0:
256,192,128167,128,0,128235:0:0:0:0:
109,192,128235,1,0,0:0:0:0:
182,192,128235,1,0,0:0:0:0:
402,192,128235,128,0,128302:0:0:0:0:
109,192,128370,1,0,0:0:0:0:
256,192,128370,128,0,128505:0:0:0:0:
402,192,128370,1,0,0:0:0:0:
36,192,128505,1,0,0:0:0:0:
475,192,128505,1,0,0:0:0:0:
256,192,128640,1,0,0:0:0:0:
109,192,128707,1,0,0:0:0:0:
402,192,128707,1,0,0:0:0:0:
36,192,128775,1,0,0:0:0:0:
182,192,128775,1,0,0:0:0:0:
329,192,128775,1,0,0:0:0:0:
475,192,128775,1,0,0:0:0:0:
256,192,128842,1,0,0:0:0:0:
36,192,128910,1,0,0:0:0:0:
109,192,128910,1,0,0:0:0:0:
402,192,128910,1,0,0:0:0:0:
475,192,128910,1,0,0:0:0:0:
36,192,129045,1,0,0:0:0:0:
182,192,129045,1,0,0:0:0:0:
329,192,129045,1,0,0:0:0:0:
475,192,129045,1,0,0:0:0:0:
36,192,129180,1,0,0:0:0:0:
256,192,129180,1,0,0:0:0:0:
475,192,129180,1,0,0:0:0:0:
36,192,129315,1,0,0:0:0:0:
182,192,129315,1,0,0:0:0:0:
329,192,129315,1,0,0:0:0:0:
475,192,129315,1,0,0:0:0:0:
36,192,129450,1,0,0:0:0:0:
109,192,129450,1,0,0:0:0:0:
402,192,129450,1,0,0:0:0:0:
475,192,129450,1,0,0:0:0:0:
36,192,129585,1,0,0:0:0:0:
256,192,129585,1,0,0:0:0:0:
475,192,129585,1,0,0:0:0:0:
182,192,129652,1,0,0:0:0:0:
109,192,129720,1,0,0:0:0:0:
402,192,129720,1,0,0:0:0:0:
256,192,129787,1,0,0:0:0:0:
36,192,129855,1,0,0:0:0:0:
329,192,129855,1,0,0:0:0:0:
475,192,129855,1,0,0:0:0:0:
402,192,129922,1,0,0:0:0:0:
256,192,129990,1,0,0:0:0:0:
329,192,129990,1,0,0:0:0:0:
182,192,130057,1,0,0:0:0:0:
109,192,130125,1,0,0:0:0:0:
402,192,130125,1,0,0:0:0:0:
36,192,130192,1,0,0:0:0:0:
109,192,130260,1,0,0:0:0:0:
329,192,130260,1,0,0:0:0:0:
36,192,130395,1,0,0:0:0:0:
182,192,130395,1,0,0:0:0:0:
402,192,130395,1,0,0:0:0:0:
109,192,130462,1,0,0:0:0:0:
182,192,130530,1,0,0:0:0:0:
475,192,130530,1,0,0:0:0:0:
36,192,130665,1,0,0:0:0:0:
256,192,130665,1,0,0:0:0:0:
329,192,130732,1,0,0:0:0:0:
109,192,130800,1,0,0:0:0:0:
256,192,130800,1,0,0:0:0:0:
36,192,130935,1,0,0:0:0:0:
182,192,130935,1,0,0:0:0:0:
329,192,130935,1,0,0:0:0:0:
402,192,130935,1,0,0:0:0:0:
109,192,131070,1,0,0:0:0:0:
256,192,131070,1,0,0:0:0:0:
402,192,131070,1,0,0:0:0:0:
109,192,131205,1,0,0:0:0:0:
182,192,131205,1,0,0:0:0:0:
329,192,131205,1,0,0:0:0:0:
109,192,131340,1,0,0:0:0:0:
256,192,131340,1,0,0:0:0:0:
402,192,131340,1,0,0:0:0:0:
36,192,131475,1,0,0:0:0:0:
182,192,131475,1,0,0:0:0:0:
329,192,131475,1,0,0:0:0:0:
475,192,131475,1,0,0:0:0:0:
36,192,131610,1,0,0:0:0:0:
182,192,131610,1,0,0:0:0:0:
402,192,131610,1,0,0:0:0:0:
109,192,131745,1,0,0:0:0:0:
329,192,131745,1,0,0:0:0:0:
475,192,131745,1,0,0:0:0:0:
256,192,131880,1,0,0:0:0:0:
402,192,131880,1,0,0:0:0:0:
475,192,131880,1,0,0:0:0:0:
36,192,132015,1,0,0:0:0:0:
182,192,132015,1,0,0:0:0:0:
256,192,132015,1,0,0:0:0:0:
329,192,132015,1,0,0:0:0:0:
36,192,132150,1,0,0:0:0:0:
109,192,132150,1,0,0:0:0:0:
182,192,132285,1,0,0:0:0:0:
256,192,132285,1,0,0:0:0:0:
402,192,132285,1,0,0:0:0:0:
182,192,132420,1,0,0:0:0:0:
329,192,132420,1,0,0:0:0:0:
402,192,132420,1,0,0:0:0:0:
109,192,132555,1,0,0:0:0:0:
256,192,132555,1,0,0:0:0:0:
329,192,132555,1,0,0:0:0:0:
475,192,132555,1,0,0:0:0:0:
109,192,132690,1,0,0:0:0:0:
182,192,132690,1,0,0:0:0:0:
256,192,132825,1,0,0:0:0:0:
402,192,132825,1,0,0:0:0:0:
329,192,132892,1,0,0:0:0:0:
182,192,132960,1,0,0:0:0:0:
402,192,132960,1,0,0:0:0:0:
329,192,133027,1,0,0:0:0:0:
109,192,133095,1,0,0:0:0:0:
256,192,133095,1,0,0:0:0:0:
475,192,133095,1,0,0:0:0:0:
402,192,133162,1,0,0:0:0:0:
182,192,133230,1,0,0:0:0:0:
475,192,133230,1,0,0:0:0:0:
402,192,133297,1,0,0:0:0:0:
109,192,133365,1,0,0:0:0:0:
256,192,133365,1,0,0:0:0:0:
329,192,133432,1,0,0:0:0:0:
182,192,133500,1,0,0:0:0:0:
402,192,133500,1,0,0:0:0:0:
256,192,133567,1,0,0:0:0:0:
109,192,133635,1,0,0:0:0:0:
329,192,133635,1,0,0:0:0:0:
475,192,133635,1,0,0:0:0:0:
182,192,133702,1,0,0:0:0:0:
36,192,133770,1,0,0:0:0:0:
256,192,133770,1,0,0:0:0:0:
402,192,133770,1,0,0:0:0:0:
109,192,133837,1,0,0:0:0:0:
182,192,133905,1,0,0:0:0:0:
329,192,133905,1,0,0:0:0:0:
475,192,133905,128,0,133972:0:0:0:0:
402,192,133972,128,0,134040:0:0:0:0:
256,192,134040,1,0,0:0:0:0:
329,192,134040,128,0,134107:0:0:0:0:
36,192,134175,1,0,0:0:0:0:
182,192,134175,128,0,134242:0:0:0:0:
402,192,134175,1,0,0:0:0:0:
475,192,134175,1,0,0:0:0:0:
109,192,134242,128,0,134310:0:0:0:0:
36,192,134310,128,0,134377:0:0:0:0:
256,192,134310,1,0,0:0:0:0:
182,192,134445,1,0,0:0:0:0:
329,192,134445,128,0,134512:0:0:0:0:
402,192,134512,128,0,134580:0:0:0:0:
256,192,134580,1,0,0:0:0:0:
475,192,134580,128,0,134647:0:0:0:0:
36,192,134715,128,0,134782:0:0:0:0:
182,192,134715,1,0,0:0:0:0:
329,192,134715,1,0,0:0:0:0:
402,192,134715,1,0,0:0:0:0:
109,192,134782,128,0,134850:0:0:0:0:
182,192,134850,128,0,134917:0:0:0:0:
256,192,134850,1,0,0:0:0:0:
402,192,134985,1,0,0:0:0:0:
475,192,134985,128,0,135069:0:0:0:0:
329,192,135069,128,0,135154:0:0:0:0:
256,192,135120,1,0,0:0:0:0:
475,192,135154,128,0,135255:0:0:0:0:
36,192,135255,1,0,0:0:0:0:
182,192,135255,1,0,0:0:0:0:
329,192,135255,128,0,135727:0:0:0:0:
402,192,135255,1,0,0:0:0:0:
256,192,135390,1,0,0:0:0:0:
109,192,135525,1,0,0:0:0:0:
182,192,135525,128,0,136065:0:0:0:0:
475,192,135660,1,0,0:0:0:0:
36,192,135727,128,0,136065:0:0:0:0:
329,192,135795,1,0,0:0:0:0:
475,192,135795,128,0,136065:0:0:0:0:
329,192,135930,1,0,0:0:0:0:
256,192,136065,1,0,0:0:0:0:
329,192,136065,128,0,136132:0:0:0:0:
402,192,136132,128,0,136200:0:0:0:0:
109,192,136200,1,0,0:0:0:0:
475,192,136200,128,0,136267:0:0:0:0:
36,192,136335,1,0,0:0:0:0:
182,192,136335,1,0,0:0:0:0:
256,192,136335,128,0,136402:0:0:0:0:
402,192,136335,1,0,0:0:0:0:
329,192,136402,128,0,136470:0:0:0:0:
109,192,136470,1,0,0:0:0:0:
402,192,136470,128,0,136537:0:0:0:0:
36,192,136605,1,0,0:0:0:0:
182,192,136605,128,0,136672:0:0:0:0:
256,192,136672,128,0,136740:0:0:0:0:
109,192,136740,1,0,0:0:0:0:
329,192,136740,128,0,136807:0:0:0:0:
36,192,136875,1,0,0:0:0:0:
109,192,136875,128,0,136942:0:0:0:0:
256,192,136875,1,0,0:0:0:0:
475,192,136875,1,0,0:0:0:0:
182,192,136942,128,0,137010:0:0:0:0:
256,192,137010,128,0,137077:0:0:0:0:
402,192,137010,1,0,0:0:0:0:
182,192,137145,128,0,137212:0:0:0:0:
475,192,137145,1,0,0:0:0:0:
109,192,137212,128,0,137280:0:0:0:0:
36,192,137280,128,0,137347:0:0:0:0:
402,192,137280,1,0,0:0:0:0:
109,192,137415,1,0,0:0:0:0:
256,192,137415,128,0,137482:0:0:0:0:
329,192,137415,1,0,0:0:0:0:
475,192,137415,1,0,0:0:0:0:
182,192,137482,128,0,137550:0:0:0:0:
109,192,137550,128,0,137617:0:0:0:0:
402,192,137550,1,0,0:0:0:0:
182,192,137685,1,0,0:0:0:0:
329,192,137685,128,0,137752:0:0:0:0:
256,192,137752,128,0,137820:0:0:0:0:
182,192,137820,128,0,137887:0:0:0:0:
402,192,137820,1,0,0:0:0:0:
36,192,137955,1,0,0:0:0:0:
256,192,137955,1,0,0:0:0:0:
402,192,137955,128,0,138022:0:0:0:0:
475,192,137955,1,0,0:0:0:0:
329,192,138022,128,0,138090:0:0:0:0:
182,192,138090,1,0,0:0:0:0:
256,192,138090,128,0,138157:0:0:0:0:
109,192,138225,1,0,0:0:0:0:
475,192,138225,128,0,138292:0:0:0:0:
329,192,138292,128,0,138360:0:0:0:0:
182,192,138360,128,0,138427:0:0:0:0:
256,192,138360,1,0,0:0:0:0:
402,192,138427,128,0,138495:0:0:0:0:
36,192,138495,1,0,0:0:0:0:
109,192,138495,1,0,0:0:0:0:
256,192,138495,128,0,138562:0:0:0:0:
329,192,138495,1,0,0:0:0:0:
475,192,138562,128,0,138630:0:0:0:0:
329,192,138630,128,0,138697:0:0:0:0:
402,192,138630,1,0,0:0:0:0:
182,192,138697,128,0,138765:0:0:0:0:
36,192,138765,128,0,138832:0:0:0:0:
256,192,138765,1,0,0:0:0:0:
109,192,138832,128,0,138900:0:0:0:0:
329,192,138900,1,0,0:0:0:0:
36,192,138967,128,0,139035:0:0:0:0:
109,192,139035,128,0,139102:0:0:0:0:
182,192,139035,1,0,0:0:0:0:
402,192,139035,1,0,0:0:0:0:
475,192,139035,1,0,0:0:0:0:
256,192,139170,128,0,139237:0:0:0:0:
329,192,139170,1,0,0:0:0:0:
182,192,139305,1,0,0:0:0:0:
402,192,139305,128,0,139372:0:0:0:0:
475,192,139372,128,0,139440:0:0:0:0:
109,192,139440,1,0,0:0:0:0:
402,192,139440,128,0,139507:0:0:0:0:
36,192,139575,1,0,0:0:0:0:
182,192,139575,1,0,0:0:0:0:
256,192,139575,1,0,0:0:0:0:
329,192,139575,128,0,139642:0:0:0:0:
475,192,139642,128,0,139710:0:0:0:0:
109,192,139710,1,0,0:0:0:0:
329,192,139710,128,0,139777:0:0:0:0:
182,192,139845,1,0,0:0:0:0:
256,192,139845,128,0,139912:0:0:0:0:
475,192,139912,128,0,139980:0:0:0:0:
36,192,139980,1,0,0:0:0:0:
256,192,139980,128,0,140047:0:0:0:0:
475,192,140047,128,0,140115:0:0:0:0:
182,192,140115,1,0,0:0:0:0:
329,192,140115,1,0,0:0:0:0:
402,192,140115,1,0,0:0:0:0:
256,192,140250,1,0,0:0:0:0:
182,192,140385,128,0,140452:0:0:0:0:
329,192,140385,1,0,0:0:0:0:
109,192,140452,128,0,140520:0:0:0:0:
36,192,140520,128,0,140587:0:0:0:0:
402,192,140520,1,0,0:0:0:0:
256,192,140587,128,0,140655:0:0:0:0:
182,192,140655,128,0,140722:0:0:0:0:
475,192,140655,1,0,0:0:0:0:
109,192,140722,128,0,140790:0:0:0:0:
329,192,140790,128,0,140857:0:0:0:0:
475,192,140790,1,0,0:0:0:0:
256,192,140857,128,0,140925:0:0:0:0:
182,192,140925,128,0,140992:0:0:0:0:
402,192,140992,128,0,141060:0:0:0:0:
109,192,141060,1,0,0:0:0:0:
182,192,141127,128,0,141195:0:0:0:0:
36,192,141195,1,0,0:0:0:0:
402,192,141195,128,0,141262:0:0:0:0:
109,192,141330,1,0,0:0:0:0:
256,192,141330,128,0,141397:0:0:0:0:
36,192,141465,128,0,141532:0:0:0:0:
329,192,141465,1,0,0:0:0:0:
256,192,141532,128,0,141600:0:0:0:0:
109,192,141600,1,0,0:0:0:0:
475,192,141600,128,0,141667:0:0:0:0:
182,192,141667,1,0,0:0:0:0:
329,192,141735,1,0,0:0:0:0:
402,192,141735,128,0,141802:0:0:0:0:
256,192,141802,128,0,141870:0:0:0:0:
109,192,141870,128,0,141937:0:0:0:0:
475,192,141870,1,0,0:0:0:0:
329,192,141937,1,0,0:0:0:0:
182,192,142005,1,0,0:0:0:0:
475,192,142005,128,0,142072:0:0:0:0:
256,192,142072,128,0,142140:0:0:0:0:
36,192,142140,128,0,142207:0:0:0:0:
182,192,142140,1,0,0:0:0:0:
329,192,142207,1,0,0:0:0:0:
109,192,142275,128,0,142342:0:0:0:0:
475,192,142275,1,0,0:0:0:0:
256,192,142342,128,0,142410:0:0:0:0:
329,192,142342,1,0,0:0:0:0:
182,192,142410,1,0,0:0:0:0:
402,192,142410,128,0,142477:0:0:0:0:
36,192,142477,1,0,0:0:0:0:
109,192,142545,1,0,0:0:0:0:
182,192,142545,1,0,0:0:0:0:
256,192,142545,1,0,0:0:0:0:
109,192,142680,1,0,0:0:0:0:
182,192,142680,1,0,0:0:0:0:
256,192,142680,1,0,0:0:0:0:
182,192,142815,1,0,0:0:0:0:
256,192,142815,1,0,0:0:0:0:
329,192,142815,1,0,0:0:0:0:
182,192,142950,1,0,0:0:0:0:
256,192,142950,1,0,0:0:0:0:
329,192,142950,1,0,0:0:0:0:
256,192,143085,1,0,0:0:0:0:
329,192,143085,1,0,0:0:0:0:
402,192,143085,1,0,0:0:0:0:
256,192,143220,1,0,0:0:0:0:
329,192,143220,1,0,0:0:0:0:
402,192,143220,1,0,0:0:0:0:
329,192,143355,1,0,0:0:0:0:
402,192,143355,1,0,0:0:0:0:
475,192,143355,1,0,0:0:0:0:
329,192,143490,1,0,0:0:0:0:
402,192,143490,1,0,0:0:0:0:
475,192,143490,1,0,0:0:0:0:
36,192,143625,1,0,0:0:0:0:
109,192,143625,1,0,0:0:0:0:
256,192,143625,1,0,0:0:0:0:
36,192,143760,1,0,0:0:0:0:
109,192,143760,1,0,0:0:0:0:
256,192,143760,1,0,0:0:0:0:
109,192,143895,1,0,0:0:0:0:
256,192,143895,1,0,0:0:0:0:
329,192,143895,1,0,0:0:0:0:
109,192,144030,1,0,0:0:0:0:
256,192,144030,1,0,0:0:0:0:
329,192,144030,1,0,0:0:0:0:
109,192,144165,1,0,0:0:0:0:
182,192,144165,1,0,0:0:0:0:
329,192,144165,1,0,0:0:0:0:
109,192,144300,1,0,0:0:0:0:
182,192,144300,1,0,0:0:0:0:
329,192,144300,1,0,0:0:0:0:
182,192,144435,1,0,0:0:0:0:
329,192,144435,1,0,0:0:0:0:
402,192,144435,1,0,0:0:0:0:
182,192,144570,1,0,0:0:0:0:
329,192,144570,1,0,0:0:0:0:
402,192,144570,1,0,0:0:0:0:
36,192,144705,1,0,0:0:0:0:
109,192,144705,1,0,0:0:0:0:
402,192,144705,1,0,0:0:0:0:
182,192,144772,1,0,0:0:0:0:
109,192,144840,1,0,0:0:0:0:
329,192,144840,1,0,0:0:0:0:
402,192,144840,1,0,0:0:0:0:
475,192,144907,1,0,0:0:0:0:
36,192,144975,1,0,0:0:0:0:
109,192,144975,1,0,0:0:0:0:
402,192,144975,1,0,0:0:0:0:
182,192,145042,1,0,0:0:0:0:
109,192,145110,1,0,0:0:0:0:
329,192,145110,1,0,0:0:0:0:
402,192,145110,1,0,0:0:0:0:
475,192,145177,1,0,0:0:0:0:
36,192,145245,1,0,0:0:0:0:
109,192,145245,1,0,0:0:0:0:
402,192,145245,1,0,0:0:0:0:
182,192,145312,1,0,0:0:0:0:
109,192,145380,1,0,0:0:0:0:
329,192,145380,1,0,0:0:0:0:
402,192,145380,1,0,0:0:0:0:
475,192,145447,1,0,0:0:0:0:
36,192,145515,1,0,0:0:0:0:
109,192,145515,1,0,0:0:0:0:
402,192,145515,1,0,0:0:0:0:
182,192,145582,1,0,0:0:0:0:
109,192,145650,1,0,0:0:0:0:
329,192,145650,1,0,0:0:0:0:
402,192,145650,1,0,0:0:0:0:
475,192,145717,1,0,0:0:0:0:
36,192,145785,1,0,0:0:0:0:
109,192,145785,1,0,0:0:0:0:
182,192,145785,1,0,0:0:0:0:
402,192,145852,1,0,0:0:0:0:
475,192,145852,1,0,0:0:0:0:
36,192,145920,1,0,0:0:0:0:
109,192,145920,1,0,0:0:0:0:
182,192,145920,1,0,0:0:0:0:
402,192,145987,1,0,0:0:0:0:
475,192,145987,1,0,0:0:0:0:
36,192,146055,1,0,0:0:0:0:
109,192,146055,1,0,0:0:0:0:
329,192,146055,1,0,0:0:0:0:
402,192,146122,1,0,0:0:0:0:
475,192,146122,1,0,0:0:0:0:
36,192,146190,1,0,0:0:0:0:
109,192,146190,1,0,0:0:0:0:
329,192,146190,1,0,0:0:0:0:
402,192,146257,1,0,0:0:0:0:
475,192,146257,1,0,0:0:0:0:
36,192,146325,1,0,0:0:0:0:
182,192,146325,1,0,0:0:0:0:
329,192,146325,1,0,0:0:0:0:
109,192,146392,1,0,0:0:0:0:
256,192,146392,1,0,0:0:0:0:
182,192,146460,1,0,0:0:0:0:
329,192,146460,1,0,0:0:0:0:
475,192,146460,1,0,0:0:0:0:
256,192,146527,1,0,0:0:0:0:
402,192,146527,1,0,0:0:0:0:
36,192,146595,1,0,0:0:0:0:
182,192,146595,1,0,0:0:0:0:
329,192,146595,1,0,0:0:0:0:
109,192,146662,1,0,0:0:0:0:
256,192,146662,1,0,0:0:0:0:
182,192,146730,1,0,0:0:0:0:
329,192,146730,1,0,0:0:0:0:
475,192,146730,1,0,0:0:0:0:
256,192,146797,1,0,0:0:0:0:
402,192,146797,1,0,0:0:0:0:
36,192,146865,1,0,0:0:0:0:
109,192,146865,1,0,0:0:0:0:
329,192,146865,1,0,0:0:0:0:
475,192,146865,1,0,0:0:0:0:
182,192,147000,1,0,0:0:0:0:
256,192,147135,1,0,0:0:0:0:
402,192,147135,1,0,0:0:0:0:
475,192,147135,1,0,0:0:0:0:
182,192,147270,1,0,0:0:0:0:
109,192,147405,1,0,0:0:0:0:
182,192,147540,1,0,0:0:0:0:
475,192,147675,1,0,0:0:0:0:
402,192,147675,1,0,0:0:0:0:
256,192,147675,1,0,0:0:0:0:
182,192,147810,1,0,0:0:0:0:
109,192,147945,1,0,0:0:0:0:
182,192,148080,1,0,0:0:0:0:
256,192,148215,1,0,0:0:0:0:
402,192,148215,1,0,0:0:0:0:
475,192,148215,1,0,0:0:0:0:
182,192,148350,1,0,0:0:0:0:
109,192,148485,1,0,0:0:0:0:
182,192,148620,1,0,0:0:0:0:
36,192,148755,1,0,0:0:0:0:
402,192,148755,1,0,0:0:0:0:
256,192,148755,1,0,0:0:0:0:
329,192,148890,1,0,0:0:0:0:
182,192,148890,1,0,0:0:0:0:
109,192,149025,1,0,0:0:0:0:
256,192,149025,1,0,0:0:0:0:
402,192,149025,1,0,0:0:0:0:
475,192,149025,1,0,0:0:0:0:
182,192,149160,1,0,0:0:0:0:
36,192,149295,1,0,0:0:0:0:
109,192,149295,1,0,0:0:0:0:
256,192,149295,1,0,0:0:0:0:
329,192,149430,1,0,0:0:0:0:
402,192,149565,1,0,0:0:0:0:
329,192,149700,1,0,0:0:0:0:
256,192,149835,1,0,0:0:0:0:
109,192,149835,1,0,0:0:0:0:
36,192,149835,1,0,0:0:0:0:
402,192,149970,1,0,0:0:0:0:
109,192,150105,1,0,0:0:0:0:
256,192,150240,1,0,0:0:0:0:
475,192,150375,1,0,0:0:0:0:
36,192,150375,1,0,0:0:0:0:
109,192,150375,1,0,0:0:0:0:
402,192,150375,1,0,0:0:0:0:
36,192,150645,1,0,0:0:0:0:
109,192,150645,1,0,0:0:0:0:
402,192,150645,1,0,0:0:0:0:
475,192,150645,1,0,0:0:0:0:
36,192,150848,1,0,0:0:0:0:
109,192,150848,1,0,0:0:0:0:
402,192,150848,1,0,0:0:0:0:
475,192,150848,1,0,0:0:0:0:
36,192,151050,1,0,0:0:0:0:
109,192,151050,1,0,0:0:0:0:
402,192,151050,1,0,0:0:0:0:
475,192,151050,1,0,0:0:0:0:
36,192,151185,1,0,0:0:0:0:
109,192,151185,1,0,0:0:0:0:
402,192,151185,1,0,0:0:0:0:
475,192,151185,1,0,0:0:0:0:
256,192,151320,1,0,0:0:0:0:
109,192,151455,1,0,0:0:0:0:
256,192,151455,1,0,0:0:0:0:
402,192,151455,1,0,0:0:0:0:
182,192,151590,1,0,0:0:0:0:
329,192,151725,1,0,0:0:0:0:
329,192,151860,1,0,0:0:0:0:
109,192,151995,1,0,0:0:0:0:
256,192,151995,1,0,0:0:0:0:
402,192,151995,1,0,0:0:0:0:
36,192,152130,1,0,0:0:0:0:
182,192,152130,1,0,0:0:0:0:
329,192,152130,1,0,0:0:0:0:
475,192,152130,1,0,0:0:0:0:
109,192,152400,1,0,0:0:0:0:
402,192,152400,1,0,0:0:0:0:
256,192,152468,1,0,0:0:0:0:
36,192,152535,1,0,0:0:0:0:
109,192,152535,1,0,0:0:0:0:
402,192,152535,1,0,0:0:0:0:
109,192,152670,1,0,0:0:0:0:
402,192,152670,1,0,0:0:0:0:
475,192,152670,1,0,0:0:0:0:
109,192,152805,1,0,0:0:0:0:
182,192,152805,1,0,0:0:0:0:
329,192,152805,1,0,0:0:0:0:
402,192,152805,1,0,0:0:0:0:
109,192,152940,1,0,0:0:0:0:
402,192,152940,1,0,0:0:0:0:
182,192,153008,1,0,0:0:0:0:
329,192,153008,1,0,0:0:0:0:
36,192,153075,1,0,0:0:0:0:
256,192,153075,1,0,0:0:0:0:
475,192,153075,1,0,0:0:0:0:
36,192,153210,1,0,0:0:0:0:
182,192,153210,1,0,0:0:0:0:
329,192,153210,1,0,0:0:0:0:
475,192,153210,1,0,0:0:0:0:
256,192,153278,1,0,0:0:0:0:
36,192,153345,1,0,0:0:0:0:
182,192,153345,1,0,0:0:0:0:
329,192,153345,1,0,0:0:0:0:
475,192,153345,1,0,0:0:0:0:
36,192,153480,1,0,0:0:0:0:
475,192,153480,1,0,0:0:0:0:
36,192,153615,1,0,0:0:0:0:
182,192,153615,1,0,0:0:0:0:
329,192,153615,1,0,0:0:0:0:
475,192,153615,1,0,0:0:0:0:
109,192,153750,1,0,0:0:0:0:
402,192,153750,1,0,0:0:0:0:
256,192,153818,1,0,0:0:0:0:
36,192,153885,1,0,0:0:0:0:
109,192,153885,1,0,0:0:0:0:
402,192,153885,1,0,0:0:0:0:
475,192,153885,1,0,0:0:0:0:
109,192,154020,1,0,0:0:0:0:
182,192,154020,1,0,0:0:0:0:
329,192,154020,1,0,0:0:0:0:
402,192,154020,1,0,0:0:0:0:
36,192,154155,1,0,0:0:0:0:
109,192,154155,1,0,0:0:0:0:
402,192,154155,1,0,0:0:0:0:
475,192,154155,1,0,0:0:0:0:
36,192,154290,1,0,0:0:0:0:
475,192,154290,1,0,0:0:0:0:
256,192,154358,1,0,0:0:0:0:
36,192,154425,1,0,0:0:0:0:
109,192,154425,1,0,0:0:0:0:
402,192,154425,1,0,0:0:0:0:
475,192,154425,1,0,0:0:0:0:
36,192,154560,1,0,0:0:0:0:
475,192,154560,1,0,0:0:0:0:
109,192,154695,1,0,0:0:0:0:
182,192,154695,1,0,0:0:0:0:
329,192,154695,1,0,0:0:0:0:
402,192,154695,1,0,0:0:0:0:
182,192,154830,1,0,0:0:0:0:
329,192,154830,1,0,0:0:0:0:
36,192,154965,1,0,0:0:0:0:
109,192,154965,1,0,0:0:0:0:
402,192,154965,1,0,0:0:0:0:
475,192,154965,1,0,0:0:0:0:
36,192,155100,1,0,0:0:0:0:
475,192,155100,1,0,0:0:0:0:
36,192,155235,1,0,0:0:0:0:
475,192,155235,1,0,0:0:0:0:
109,192,155303,1,0,0:0:0:0:
402,192,155303,1,0,0:0:0:0:
182,192,155370,1,0,0:0:0:0:
329,192,155370,1,0,0:0:0:0:
109,192,155438,1,0,0:0:0:0:
402,192,155438,1,0,0:0:0:0:
36,192,155505,1,0,0:0:0:0:
329,192,155505,1,0,0:0:0:0:
475,192,155505,1,0,0:0:0:0:
36,192,155640,1,0,0:0:0:0:
182,192,155640,1,0,0:0:0:0:
109,192,155775,1,0,0:0:0:0:
256,192,155775,1,0,0:0:0:0:
402,192,155775,1,0,0:0:0:0:
36,192,155910,1,0,0:0:0:0:
182,192,155910,1,0,0:0:0:0:
182,192,156045,1,0,0:0:0:0:
329,192,156045,1,0,0:0:0:0:
329,192,156180,1,0,0:0:0:0:
475,192,156180,1,0,0:0:0:0:
109,192,156315,1,0,0:0:0:0:
256,192,156315,1,0,0:0:0:0:
402,192,156315,1,0,0:0:0:0:
329,192,156450,1,0,0:0:0:0:
475,192,156450,1,0,0:0:0:0:
182,192,156585,1,0,0:0:0:0:
329,192,156585,1,0,0:0:0:0:
36,192,156720,1,0,0:0:0:0:
182,192,156720,1,0,0:0:0:0:
109,192,156855,1,0,0:0:0:0:
256,192,156855,1,0,0:0:0:0:
402,192,156855,1,0,0:0:0:0:
36,192,156990,1,0,0:0:0:0:
182,192,156990,1,0,0:0:0:0:
182,192,157125,1,0,0:0:0:0:
329,192,157125,1,0,0:0:0:0:
329,192,157260,1,0,0:0:0:0:
475,192,157260,1,0,0:0:0:0:
109,192,157395,1,0,0:0:0:0:
256,192,157395,1,0,0:0:0:0:
402,192,157395,1,0,0:0:0:0:
256,192,157530,1,0,0:0:0:0:
329,192,157530,1,0,0:0:0:0:
475,192,157530,1,0,0:0:0:0:
36,192,157665,1,0,0:0:0:0:
182,192,157665,1,0,0:0:0:0:
256,192,157665,1,0,0:0:0:0:
329,192,157800,1,0,0:0:0:0:
475,192,157800,1,0,0:0:0:0:
109,192,157935,1,0,0:0:0:0:
256,192,157935,1,0,0:0:0:0:
402,192,157935,1,0,0:0:0:0:
329,192,158070,1,0,0:0:0:0:
475,192,158070,1,0,0:0:0:0:
36,192,158205,1,0,0:0:0:0:
182,192,158205,1,0,0:0:0:0:
329,192,158340,1,0,0:0:0:0:
475,192,158340,1,0,0:0:0:0:
109,192,158475,1,0,0:0:0:0:
256,192,158475,1,0,0:0:0:0:
402,192,158475,1,0,0:0:0:0:
36,192,158610,1,0,0:0:0:0:
182,192,158610,1,0,0:0:0:0:
329,192,158745,1,0,0:0:0:0:
475,192,158745,1,0,0:0:0:0:
36,192,158880,1,0,0:0:0:0:
182,192,158880,1,0,0:0:0:0:
109,192,159015,1,0,0:0:0:0:
256,192,159015,1,0,0:0:0:0:
402,192,159015,1,0,0:0:0:0:
36,192,159285,1,0,0:0:0:0:
182,192,159285,1,0,0:0:0:0:
329,192,159285,1,0,0:0:0:0:
475,192,159285,1,0,0:0:0:0:
36,192,159488,1,0,0:0:0:0:
182,192,159488,1,0,0:0:0:0:
329,192,159488,1,0,0:0:0:0:
475,192,159488,1,0,0:0:0:0:
36,192,159690,1,0,0:0:0:0:
182,192,159690,1,0,0:0:0:0:
329,192,159690,1,0,0:0:0:0:
475,192,159690,1,0,0:0:0:0:
36,192,159825,1,0,0:0:0:0:
182,192,159825,1,0,0:0:0:0:
329,192,159825,1,0,0:0:0:0:
475,192,159825,1,0,0:0:0:0:
109,192,159960,1,0,0:0:0:0:
256,192,159960,1,0,0:0:0:0:
36,192,160095,1,0,0:0:0:0:
329,192,160095,1,0,0:0:0:0:
475,192,160095,1,0,0:0:0:0:
256,192,160230,1,0,0:0:0:0:
475,192,160230,1,0,0:0:0:0:
182,192,160365,1,0,0:0:0:0:
475,192,160365,1,0,0:0:0:0:
109,192,160500,1,0,0:0:0:0:
475,192,160500,1,0,0:0:0:0:
36,192,160635,1,0,0:0:0:0:
182,192,160635,1,0,0:0:0:0:
475,192,160635,1,0,0:0:0:0:
36,192,160770,1,0,0:0:0:0:
182,192,160770,1,0,0:0:0:0:
329,192,160770,1,0,0:0:0:0:
475,192,160770,1,0,0:0:0:0:
109,192,161040,1,0,0:0:0:0:
402,192,161040,1,0,0:0:0:0:
256,192,161108,1,0,0:0:0:0:
109,192,161175,1,0,0:0:0:0:
402,192,161175,1,0,0:0:0:0:
36,192,161310,1,0,0:0:0:0:
109,192,161310,1,0,0:0:0:0:
402,192,161310,1,0,0:0:0:0:
109,192,161445,1,0,0:0:0:0:
402,192,161445,1,0,0:0:0:0:
475,192,161445,1,0,0:0:0:0:
109,192,161580,1,0,0:0:0:0:
182,192,161580,1,0,0:0:0:0:
329,192,161580,1,0,0:0:0:0:
182,192,161715,1,0,0:0:0:0:
329,192,161715,1,0,0:0:0:0:
402,192,161715,1,0,0:0:0:0:
36,192,161850,1,0,0:0:0:0:
109,192,161850,1,0,0:0:0:0:
402,192,161850,1,0,0:0:0:0:
475,192,161850,1,0,0:0:0:0:
182,192,161985,1,0,0:0:0:0:
329,192,161985,1,0,0:0:0:0:
475,192,162053,1,0,0:0:0:0:
329,192,162120,1,0,0:0:0:0:
475,192,162188,1,0,0:0:0:0:
109,192,162255,1,0,0:0:0:0:
182,192,162255,1,0,0:0:0:0:
329,192,162255,1,0,0:0:0:0:
475,192,162323,1,0,0:0:0:0:
329,192,162390,1,0,0:0:0:0:
475,192,162458,1,0,0:0:0:0:
109,192,162525,1,0,0:0:0:0:
256,192,162525,1,0,0:0:0:0:
402,192,162593,1,0,0:0:0:0:
256,192,162660,1,0,0:0:0:0:
402,192,162728,1,0,0:0:0:0:
36,192,162795,1,0,0:0:0:0:
109,192,162795,1,0,0:0:0:0:
256,192,162795,1,0,0:0:0:0:
402,192,162863,1,0,0:0:0:0:
256,192,162930,1,0,0:0:0:0:
402,192,162998,1,0,0:0:0:0:
36,192,163065,1,0,0:0:0:0:
182,192,163065,1,0,0:0:0:0:
329,192,163133,1,0,0:0:0:0:
182,192,163200,1,0,0:0:0:0:
329,192,163268,1,0,0:0:0:0:
36,192,163335,1,0,0:0:0:0:
182,192,163335,1,0,0:0:0:0:
475,192,163335,1,0,0:0:0:0:
329,192,163403,1,0,0:0:0:0:
182,192,163470,1,0,0:0:0:0:
329,192,163538,1,0,0:0:0:0:
36,192,163605,1,0,0:0:0:0:
182,192,163673,1,0,0:0:0:0:
329,192,163740,1,0,0:0:0:0:
475,192,163808,1,0,0:0:0:0:
36,192,163808,1,0,0:0:0:0:
109,192,163875,1,0,0:0:0:0:
182,192,163909,1,0,0:0:0:0:
256,192,163943,1,0,0:0:0:0:
329,192,163976,1,0,0:0:0:0:
402,192,164010,1,0,0:0:0:0:
329,192,164044,1,0,0:0:0:0:
256,192,164078,1,0,0:0:0:0:
182,192,164111,1,0,0:0:0:0:
402,192,164145,1,0,0:0:0:0:
109,192,164145,1,0,0:0:0:0:
36,192,164415,1,0,0:0:0:0:
182,192,164415,1,0,0:0:0:0:
402,192,164415,1,0,0:0:0:0:
256,192,164483,1,0,0:0:0:0:
329,192,164550,1,0,0:0:0:0:
402,192,164618,1,0,0:0:0:0:
109,192,164685,1,0,0:0:0:0:
475,192,164685,1,0,0:0:0:0:
182,192,164753,1,0,0:0:0:0:
256,192,164820,1,0,0:0:0:0:
329,192,164888,1,0,0:0:0:0:
36,192,164955,1,0,0:0:0:0:
182,192,164955,1,0,0:0:0:0:
475,192,164955,1,0,0:0:0:0:
109,192,165023,1,0,0:0:0:0:
182,192,165090,1,0,0:0:0:0:
256,192,165158,1,0,0:0:0:0:
329,192,165225,1,0,0:0:0:0:
475,192,165225,1,0,0:0:0:0:
36,192,165293,128,0,165428:0:0:0:0:
182,192,165293,128,0,165428:0:0:0:0:
109,192,165495,128,0,165630:0:0:0:0:
256,192,165495,128,0,165630:0:0:0:0:
182,192,165698,128,0,165833:0:0:0:0:
329,192,165698,128,0,165833:0:0:0:0:
256,192,165900,128,0,166035:0:0:0:0:
402,192,165900,128,0,166035:0:0:0:0:
329,192,166103,128,0,166238:0:0:0:0:
475,192,166103,128,0,166238:0:0:0:0:
36,192,166305,1,0,0:0:0:0:
329,192,166305,1,0,0:0:0:0:
475,192,166305,1,0,0:0:0:0:
182,192,166373,1,0,0:0:0:0:
36,192,166440,1,0,0:0:0:0:
182,192,166508,1,0,0:0:0:0:
36,192,166575,1,0,0:0:0:0:
329,192,166575,1,0,0:0:0:0:
475,192,166575,1,0,0:0:0:0:
182,192,166643,1,0,0:0:0:0:
329,192,166710,1,0,0:0:0:0:
475,192,166778,1,0,0:0:0:0:
256,192,166845,1,0,0:0:0:0:
402,192,166845,1,0,0:0:0:0:
109,192,166913,1,0,0:0:0:0:
329,192,166980,1,0,0:0:0:0:
182,192,167048,1,0,0:0:0:0:
36,192,167115,1,0,0:0:0:0:
402,192,167115,1,0,0:0:0:0:
475,192,167115,1,0,0:0:0:0:
256,192,167183,1,0,0:0:0:0:
109,192,167250,1,0,0:0:0:0:
182,192,167318,1,0,0:0:0:0:
36,192,167385,1,0,0:0:0:0:
329,192,167520,1,0,0:0:0:0:
402,192,167520,1,0,0:0:0:0:
36,192,167655,1,0,0:0:0:0:
109,192,167655,1,0,0:0:0:0:
329,192,167655,1,0,0:0:0:0:
402,192,167655,1,0,0:0:0:0:
256,192,167925,1,0,0:0:0:0:
329,192,167925,1,0,0:0:0:0:
475,192,167925,1,0,0:0:0:0:
182,192,168128,1,0,0:0:0:0:
256,192,168128,1,0,0:0:0:0:
402,192,168128,1,0,0:0:0:0:
475,192,168128,1,0,0:0:0:0:
36,192,168330,1,0,0:0:0:0:
109,192,168330,1,0,0:0:0:0:
475,192,168330,1,0,0:0:0:0:
36,192,168465,1,0,0:0:0:0:
475,192,168465,1,0,0:0:0:0:
109,192,168600,1,0,0:0:0:0:
256,192,168668,1,0,0:0:0:0:
36,192,168735,1,0,0:0:0:0:
402,192,168735,1,0,0:0:0:0:
475,192,168735,1,0,0:0:0:0:
182,192,168803,1,0,0:0:0:0:
256,192,168870,1,0,0:0:0:0:
329,192,168870,1,0,0:0:0:0:
36,192,168938,1,0,0:0:0:0:
182,192,169005,1,0,0:0:0:0:
475,192,169005,1,0,0:0:0:0:
329,192,169073,1,0,0:0:0:0:
109,192,169140,1,0,0:0:0:0:
182,192,169208,1,0,0:0:0:0:
36,192,169275,1,0,0:0:0:0:
329,192,169275,1,0,0:0:0:0:
475,192,169275,1,0,0:0:0:0:
402,192,169343,1,0,0:0:0:0:
256,192,169410,1,0,0:0:0:0:
475,192,169478,1,0,0:0:0:0:
36,192,169545,1,0,0:0:0:0:
256,192,169545,1,0,0:0:0:0:
402,192,169613,1,0,0:0:0:0:
182,192,169680,1,0,0:0:0:0:
329,192,169748,1,0,0:0:0:0:
36,192,169815,1,0,0:0:0:0:
182,192,169815,1,0,0:0:0:0:
475,192,169815,1,0,0:0:0:0:
329,192,169883,1,0,0:0:0:0:
109,192,169950,1,0,0:0:0:0:
256,192,170018,1,0,0:0:0:0:
109,192,170085,1,0,0:0:0:0:
475,192,170085,1,0,0:0:0:0:
256,192,170153,1,0,0:0:0:0:
402,192,170220,1,0,0:0:0:0:
182,192,170288,1,0,0:0:0:0:
256,192,170355,1,0,0:0:0:0:
329,192,170355,1,0,0:0:0:0:
475,192,170355,1,0,0:0:0:0:
36,192,170423,1,0,0:0:0:0:
182,192,170490,1,0,0:0:0:0:
256,192,170490,1,0,0:0:0:0:
329,192,170558,1,0,0:0:0:0:
256,192,170625,1,0,0:0:0:0:
475,192,170625,1,0,0:0:0:0:
402,192,170693,1,0,0:0:0:0:
182,192,170760,1,0,0:0:0:0:
329,192,170828,1,0,0:0:0:0:
36,192,170895,1,0,0:0:0:0:
256,192,170895,1,0,0:0:0:0:
475,192,170895,1,0,0:0:0:0:
109,192,171030,1,0,0:0:0:0:
182,192,171098,1,0,0:0:0:0:
109,192,171165,1,0,0:0:0:0:
256,192,171165,1,0,0:0:0:0:
402,192,171165,1,0,0:0:0:0:
182,192,171368,1,0,0:0:0:0:
402,192,171368,1,0,0:0:0:0:
256,192,171435,1,0,0:0:0:0:
475,192,171435,1,0,0:0:0:0:
36,192,171570,1,0,0:0:0:0:
329,192,171570,1,0,0:0:0:0:
36,192,171705,1,0,0:0:0:0:
256,192,171705,1,0,0:0:0:0:
475,192,171705,1,0,0:0:0:0:
329,192,171773,128,0,171908:0:0:0:0:
475,192,171773,128,0,171908:0:0:0:0:
256,192,171975,128,0,172110:0:0:0:0:
402,192,171975,128,0,172110:0:0:0:0:
182,192,172178,128,0,172313:0:0:0:0:
329,192,172178,128,0,172313:0:0:0:0:
109,192,172380,128,0,172515:0:0:0:0:
256,192,172380,128,0,172515:0:0:0:0:
182,192,172583,128,0,172718:0:0:0:0:
36,192,172583,128,0,172718:0:0:0:0:
36,192,172785,1,0,0:0:0:0:
256,192,172785,1,0,0:0:0:0:
402,192,172785,1,0,0:0:0:0:
475,192,172785,1,0,0:0:0:0:
182,192,172920,1,0,0:0:0:0:
329,192,172988,1,0,0:0:0:0:
36,192,173055,1,0,0:0:0:0:
182,192,173055,1,0,0:0:0:0:
475,192,173055,1,0,0:0:0:0:
329,192,173123,1,0,0:0:0:0:
109,192,173190,1,0,0:0:0:0:
256,192,173258,1,0,0:0:0:0:
329,192,173325,1,0,0:0:0:0:
402,192,173325,1,0,0:0:0:0:
109,192,173393,1,0,0:0:0:0:
182,192,173460,1,0,0:0:0:0:
109,192,173528,1,0,0:0:0:0:
36,192,173595,1,0,0:0:0:0:
182,192,173595,1,0,0:0:0:0:
329,192,173595,1,0,0:0:0:0:
402,192,173595,1,0,0:0:0:0:
329,192,173730,1,0,0:0:0:0:
402,192,173730,1,0,0:0:0:0:
36,192,173865,1,0,0:0:0:0:
475,192,173865,1,0,0:0:0:0:
256,192,174000,1,0,0:0:0:0:
329,192,174068,1,0,0:0:0:0:
109,192,174135,1,0,0:0:0:0:
402,192,174135,1,0,0:0:0:0:
475,192,174135,1,0,0:0:0:0:
182,192,174203,1,0,0:0:0:0:
256,192,174270,1,0,0:0:0:0:
329,192,174338,1,0,0:0:0:0:
109,192,174405,1,0,0:0:0:0:
402,192,174405,1,0,0:0:0:0:
182,192,174473,1,0,0:0:0:0:
256,192,174540,1,0,0:0:0:0:
36,192,174608,1,0,0:0:0:0:
109,192,174675,1,0,0:0:0:0:
329,192,174675,1,0,0:0:0:0:
402,192,174675,1,0,0:0:0:0:
182,192,174743,1,0,0:0:0:0:
256,192,174810,1,0,0:0:0:0:
182,192,174878,1,0,0:0:0:0:
109,192,174945,1,0,0:0:0:0:
402,192,174945,1,0,0:0:0:0:
36,192,175013,1,0,0:0:0:0:
182,192,175080,1,0,0:0:0:0:
109,192,175148,1,0,0:0:0:0:
256,192,175215,1,0,0:0:0:0:
402,192,175215,1,0,0:0:0:0:
475,192,175215,1,0,0:0:0:0:
182,192,175283,1,0,0:0:0:0:
329,192,175350,1,0,0:0:0:0:
256,192,175418,1,0,0:0:0:0:
36,192,175485,1,0,0:0:0:0:
402,192,175485,1,0,0:0:0:0:
329,192,175553,1,0,0:0:0:0:
475,192,175620,1,0,0:0:0:0:
402,192,175688,1,0,0:0:0:0:
36,192,175755,1,0,0:0:0:0:
109,192,175755,1,0,0:0:0:0:
256,192,175755,1,0,0:0:0:0:
475,192,175755,1,0,0:0:0:0:
256,192,175890,1,0,0:0:0:0:
475,192,175890,1,0,0:0:0:0:
36,192,176025,1,0,0:0:0:0:
109,192,176025,1,0,0:0:0:0:
182,192,176295,1,0,0:0:0:0:
329,192,176295,1,0,0:0:0:0:
475,192,176295,1,0,0:0:0:0:
256,192,176430,1,0,0:0:0:0:
109,192,176565,1,0,0:0:0:0:
329,192,176565,1,0,0:0:0:0:
182,192,176700,1,0,0:0:0:0:
36,192,176835,1,0,0:0:0:0:
182,192,176835,1,0,0:0:0:0:
402,192,176835,1,0,0:0:0:0:
329,192,176903,1,0,0:0:0:0:
256,192,176970,1,0,0:0:0:0:
182,192,177038,1,0,0:0:0:0:
36,192,177105,1,0,0:0:0:0:
109,192,177105,1,0,0:0:0:0:
182,192,177173,1,0,0:0:0:0:
256,192,177240,1,0,0:0:0:0:
329,192,177308,1,0,0:0:0:0:
36,192,177375,1,0,0:0:0:0:
182,192,177375,1,0,0:0:0:0:
402,192,177375,1,0,0:0:0:0:
475,192,177443,1,0,0:0:0:0:
109,192,177510,1,0,0:0:0:0:
182,192,177578,1,0,0:0:0:0:
36,192,177645,1,0,0:0:0:0:
256,192,177645,1,0,0:0:0:0:
329,192,177713,1,0,0:0:0:0:
402,192,177780,1,0,0:0:0:0:
475,192,177848,1,0,0:0:0:0:
109,192,177915,1,0,0:0:0:0:
256,192,177915,1,0,0:0:0:0:
402,192,177915,1,0,0:0:0:0:
182,192,177983,1,0,0:0:0:0:
256,192,178050,1,0,0:0:0:0:
329,192,178118,1,0,0:0:0:0:
36,192,178185,1,0,0:0:0:0:
402,192,178185,1,0,0:0:0:0:
475,192,178253,1,0,0:0:0:0:
402,192,178320,1,0,0:0:0:0:
256,192,178388,1,0,0:0:0:0:
36,192,178455,1,0,0:0:0:0:
109,192,178455,1,0,0:0:0:0:
402,192,178455,1,0,0:0:0:0:
256,192,178725,1,0,0:0:0:0:
475,192,178725,1,0,0:0:0:0:
182,192,178793,1,0,0:0:0:0:
109,192,178860,1,0,0:0:0:0:
36,192,178928,1,0,0:0:0:0:
329,192,178995,1,0,0:0:0:0:
402,192,178995,1,0,0:0:0:0:
475,192,178995,1,0,0:0:0:0:
182,192,179130,1,0,0:0:0:0:
256,192,179130,1,0,0:0:0:0:
36,192,179265,1,0,0:0:0:0:
109,192,179265,1,0,0:0:0:0:
182,192,179333,1,0,0:0:0:0:
256,192,179400,1,0,0:0:0:0:
329,192,179468,1,0,0:0:0:0:
256,192,179535,128,0,179805:0:0:0:0:
329,192,179603,128,0,179873:0:0:0:0:
402,192,179670,128,0,179940:0:0:0:0:
475,192,179738,128,0,180008:0:0:0:0:
182,192,179805,128,0,180075:0:0:0:0:
256,192,179873,128,0,180143:0:0:0:0:
329,192,179940,128,0,180210:0:0:0:0:
402,192,180008,128,0,180278:0:0:0:0:
109,192,180075,128,0,180345:0:0:0:0:
182,192,180143,128,0,180413:0:0:0:0:
256,192,180210,128,0,180480:0:0:0:0:
329,192,180278,128,0,180548:0:0:0:0:
36,192,180345,128,0,180750:0:0:0:0:
109,192,180413,128,0,180818:0:0:0:0:
182,192,180480,128,0,180885:0:0:0:0:
256,192,180548,128,0,180953:0:0:0:0:
329,192,180615,1,0,0:0:0:0:
402,192,180683,1,0,0:0:0:0:
475,192,180750,1,0,0:0:0:0:
36,192,180818,1,0,0:0:0:0:
109,192,180885,1,0,0:0:0:0:
182,192,180953,1,0,0:0:0:0:
256,192,181020,1,0,0:0:0:0:
329,192,181088,1,0,0:0:0:0:
402,192,181155,1,0,0:0:0:0:
475,192,181223,1,0,0:0:0:0:
329,192,181290,128,0,181425:0:0:0:0:
182,192,181358,128,0,181425:0:0:0:0:
36,192,181425,128,0,181763:0:0:0:0:
109,192,181493,128,0,181830:0:0:0:0:
182,192,181560,128,0,181898:0:0:0:0:
256,192,181628,128,0,181965:0:0:0:0:
329,192,181695,128,0,182033:0:0:0:0:
36,192,181830,1,0,0:0:0:0:
109,192,181898,1,0,0:0:0:0:
182,192,181965,1,0,0:0:0:0:
256,192,182033,1,0,0:0:0:0:
329,192,182100,1,0,0:0:0:0:
402,192,182235,1,0,0:0:0:0:
475,192,182235,1,0,0:0:0:0:
402,192,182370,1,0,0:0:0:0:
475,192,182370,1,0,0:0:0:0:
36,192,182505,128,0,182640:0:0:0:0:
109,192,182573,128,0,182708:0:0:0:0:
182,192,182640,128,0,182775:0:0:0:0:
256,192,182708,128,0,182843:0:0:0:0:
109,192,182775,128,0,182910:0:0:0:0:
182,192,182843,128,0,182978:0:0:0:0:
256,192,182910,128,0,183045:0:0:0:0:
329,192,182978,128,0,183113:0:0:0:0:
182,192,183045,128,0,183180:0:0:0:0:
256,192,183113,128,0,183248:0:0:0:0:
329,192,183180,128,0,183315:0:0:0:0:
402,192,183248,128,0,183383:0:0:0:0:
256,192,183315,128,0,183450:0:0:0:0:
329,192,183383,128,0,183518:0:0:0:0:
402,192,183450,128,0,183585:0:0:0:0:
475,192,183518,128,0,183653:0:0:0:0:
36,192,183585,128,0,183923:0:0:0:0:
109,192,183653,128,0,183990:0:0:0:0:
182,192,183720,128,0,184058:0:0:0:0:
256,192,183788,128,0,184125:0:0:0:0:
329,192,183855,128,0,184193:0:0:0:0:
36,192,183990,1,0,0:0:0:0:
109,192,184058,1,0,0:0:0:0:
182,192,184125,1,0,0:0:0:0:
256,192,184193,1,0,0:0:0:0:
329,192,184260,1,0,0:0:0:0:
402,192,184260,1,0,0:0:0:0:
329,192,184530,1,0,0:0:0:0:
402,192,184530,1,0,0:0:0:0:
475,192,184665,128,0,184800:0:0:0:0:
402,192,184733,128,0,184868:0:0:0:0:
329,192,184800,128,0,184935:0:0:0:0:
256,192,184868,128,0,185003:0:0:0:0:
402,192,184935,128,0,185070:0:0:0:0:
329,192,185003,128,0,185138:0:0:0:0:
256,192,185070,128,0,185205:0:0:0:0:
182,192,185138,128,0,185273:0:0:0:0:
329,192,185205,128,0,185340:0:0:0:0:
256,192,185273,128,0,185408:0:0:0:0:
182,192,185340,128,0,185475:0:0:0:0:
109,192,185408,128,0,185543:0:0:0:0:
256,192,185475,128,0,185610:0:0:0:0:
182,192,185543,128,0,185678:0:0:0:0:
109,192,185610,128,0,185745:0:0:0:0:
36,192,185678,128,0,185813:0:0:0:0:
475,192,185745,128,0,185880:0:0:0:0:
402,192,185813,128,0,185948:0:0:0:0:
329,192,185880,128,0,186015:0:0:0:0:
256,192,185948,128,0,186083:0:0:0:0:
182,192,186015,128,0,186150:0:0:0:0:
109,192,186218,128,0,186285:0:0:0:0:
36,192,186285,1,0,0:0:0:0:
182,192,186420,128,0,186488:0:0:0:0:
109,192,186488,1,0,0:0:0:0:
256,192,186623,128,0,186690:0:0:0:0:
182,192,186690,1,0,0:0:0:0:
329,192,186825,128,0,186893:0:0:0:0:
402,192,186893,1,0,0:0:0:0:
256,192,187028,128,0,187095:0:0:0:0:
329,192,187095,1,0,0:0:0:0:
182,192,187230,128,0,187298:0:0:0:0:
256,192,187298,1,0,0:0:0:0:
109,192,187433,128,0,187500:0:0:0:0:
182,192,187500,1,0,0:0:0:0:
36,192,187635,128,0,187905:0:0:0:0:
109,192,187703,128,0,187905:0:0:0:0:
256,192,187770,128,0,187905:0:0:0:0:
329,192,187838,128,0,187905:0:0:0:0:
475,192,187905,128,0,188040:0:0:0:0:
402,192,187973,128,0,188108:0:0:0:0:
329,192,188040,128,0,188175:0:0:0:0:
256,192,188108,128,0,188243:0:0:0:0:
402,192,188175,128,0,188310:0:0:0:0:
329,192,188243,128,0,188378:0:0:0:0:
256,192,188310,128,0,188445:0:0:0:0:
182,192,188378,128,0,188513:0:0:0:0:
329,192,188445,128,0,188580:0:0:0:0:
256,192,188513,128,0,188648:0:0:0:0:
182,192,188580,128,0,188715:0:0:0:0:
109,192,188648,128,0,188783:0:0:0:0:
256,192,188715,128,0,188850:0:0:0:0:
182,192,188783,128,0,188918:0:0:0:0:
109,192,188850,128,0,188985:0:0:0:0:
36,192,188918,128,0,189053:0:0:0:0:
182,192,188985,128,0,189188:0:0:0:0:
329,192,189053,128,0,189188:0:0:0:0:
475,192,189053,128,0,189188:0:0:0:0:
256,192,189255,128,0,189390:0:0:0:0:
402,192,189255,128,0,189390:0:0:0:0:
182,192,189458,128,0,189593:0:0:0:0:
329,192,189458,128,0,189593:0:0:0:0:
36,192,189660,128,0,189795:0:0:0:0:
182,192,189660,128,0,189795:0:0:0:0:
109,192,189863,128,0,189998:0:0:0:0:
256,192,189863,128,0,189998:0:0:0:0:
182,192,190065,1,0,0:0:0:0:
329,192,190065,1,0,0:0:0:0:
109,192,190133,1,0,0:0:0:0:
36,192,190200,128,0,190403:0:0:0:0:
109,192,190268,128,0,190470:0:0:0:0:
182,192,190335,128,0,190538:0:0:0:0:
256,192,190403,128,0,190605:0:0:0:0:
329,192,190470,128,0,190673:0:0:0:0:
402,192,190538,128,0,190740:0:0:0:0:
182,192,190605,128,0,190808:0:0:0:0:
256,192,190673,128,0,190875:0:0:0:0:
329,192,190740,128,0,190943:0:0:0:0:
402,192,190808,128,0,191010:0:0:0:0:
182,192,190875,1,0,0:0:0:0:
256,192,190943,1,0,0:0:0:0:
329,192,191010,1,0,0:0:0:0:
402,192,191078,1,0,0:0:0:0:
475,192,191145,128,0,191213:0:0:0:0:
329,192,191213,128,0,191280:0:0:0:0:
475,192,191280,128,0,191348:0:0:0:0:
329,192,191348,128,0,191415:0:0:0:0:
109,192,191415,128,0,191483:0:0:0:0:
256,192,191483,128,0,191550:0:0:0:0:
109,192,191550,128,0,191618:0:0:0:0:
256,192,191618,128,0,191685:0:0:0:0:
329,192,191685,128,0,191753:0:0:0:0:
475,192,191753,128,0,191820:0:0:0:0:
329,192,191820,128,0,191888:0:0:0:0:
475,192,191888,128,0,191955:0:0:0:0:
36,192,191955,128,0,192023:0:0:0:0:
182,192,192023,128,0,192090:0:0:0:0:
329,192,192090,128,0,192158:0:0:0:0:
475,192,192158,128,0,192225:0:0:0:0:
109,192,192225,1,0,0:0:0:0:
256,192,192225,1,0,0:0:0:0:
402,192,192225,1,0,0:0:0:0:
182,192,192360,128,0,192495:0:0:0:0:
402,192,192360,128,0,192495:0:0:0:0:
109,192,192495,1,0,0:0:0:0:
475,192,192495,1,0,0:0:0:0:
36,192,192495,128,0,192698:0:0:0:0:
182,192,192765,1,0,0:0:0:0:
329,192,192765,128,0,192900:0:0:0:0:
256,192,192968,1,0,0:0:0:0:
402,192,192968,128,0,193103:0:0:0:0:
329,192,193170,1,0,0:0:0:0:
475,192,193170,128,0,193305:0:0:0:0:
182,192,193305,128,0,193373:0:0:0:0:
36,192,193373,128,0,193440:0:0:0:0:
182,192,193440,128,0,193508:0:0:0:0:
36,192,193508,128,0,193575:0:0:0:0:
329,192,193575,128,0,193643:0:0:0:0:
475,192,193643,128,0,193710:0:0:0:0:
329,192,193710,128,0,193778:0:0:0:0:
475,192,193778,128,0,193845:0:0:0:0:
256,192,193845,128,0,193913:0:0:0:0:
109,192,193913,128,0,193980:0:0:0:0:
256,192,193980,128,0,194048:0:0:0:0:
109,192,194048,128,0,194115:0:0:0:0:
329,192,194115,128,0,194183:0:0:0:0:
475,192,194183,128,0,194250:0:0:0:0:
329,192,194250,128,0,194318:0:0:0:0:
475,192,194318,128,0,194385:0:0:0:0:
256,192,194385,128,0,194655:0:0:0:0:
182,192,194520,1,0,0:0:0:0:
109,192,194588,1,0,0:0:0:0:
36,192,194655,1,0,0:0:0:0:
329,192,194925,1,0,0:0:0:0:
402,192,194993,1,0,0:0:0:0:
475,192,195060,1,0,0:0:0:0:
36,192,195195,128,0,195465:0:0:0:0:
182,192,195263,128,0,195465:0:0:0:0:
329,192,195330,128,0,195465:0:0:0:0:
475,192,195398,128,0,195465:0:0:0:0:
109,192,195465,128,0,195668:0:0:0:0:
256,192,195533,128,0,195668:0:0:0:0:
402,192,195600,128,0,195668:0:0:0:0:
182,192,195668,128,0,195803:0:0:0:0:
329,192,195668,128,0,195803:0:0:0:0:
36,192,195735,128,0,195803:0:0:0:0:
109,192,195803,128,0,195938:0:0:0:0:
256,192,195803,128,0,195870:0:0:0:0:
329,192,195870,128,0,196005:0:0:0:0:
256,192,195938,128,0,196005:0:0:0:0:
475,192,195938,128,0,196073:0:0:0:0:
109,192,196005,128,0,196073:0:0:0:0:
182,192,196073,128,0,196208:0:0:0:0:
329,192,196073,128,0,196208:0:0:0:0:
36,192,196140,128,0,196208:0:0:0:0:
109,192,196208,128,0,196343:0:0:0:0:
256,192,196208,128,0,196275:0:0:0:0:
475,192,196275,128,0,196410:0:0:0:0:
256,192,196343,128,0,196478:0:0:0:0:
402,192,196343,128,0,196410:0:0:0:0:
109,192,196410,128,0,196545:0:0:0:0:
329,192,196478,128,0,196545:0:0:0:0:
475,192,196478,128,0,196545:0:0:0:0:
256,192,196545,128,0,196613:0:0:0:0:
182,192,196613,128,0,196680:0:0:0:0:
109,192,196680,128,0,196748:0:0:0:0:
36,192,196748,128,0,196815:0:0:0:0:
329,192,196815,128,0,196883:0:0:0:0:
256,192,196883,128,0,196950:0:0:0:0:
182,192,196950,128,0,197018:0:0:0:0:
109,192,197018,128,0,197085:0:0:0:0:
402,192,197085,128,0,197153:0:0:0:0:
329,192,197153,128,0,197220:0:0:0:0:
256,192,197220,128,0,197288:0:0:0:0:
182,192,197288,128,0,197355:0:0:0:0:
475,192,197355,128,0,197423:0:0:0:0:
402,192,197423,128,0,197490:0:0:0:0:
329,192,197490,128,0,197558:0:0:0:0:
256,192,197558,128,0,197625:0:0:0:0:
36,192,197625,128,0,197760:0:0:0:0:
182,192,197625,128,0,197760:0:0:0:0:
256,192,197693,128,0,197760:0:0:0:0:
402,192,197693,128,0,197760:0:0:0:0:
109,192,197760,128,0,197828:0:0:0:0:
329,192,197760,128,0,197895:0:0:0:0:
402,192,197828,128,0,197895:0:0:0:0:
182,192,197828,128,0,198030:0:0:0:0:
256,192,197895,128,0,197963:0:0:0:0:
475,192,197895,128,0,198030:0:0:0:0:
109,192,197963,128,0,198030:0:0:0:0:
329,192,197963,128,0,198030:0:0:0:0:
36,192,198030,128,0,198165:0:0:0:0:
256,192,198030,128,0,198098:0:0:0:0:
182,192,198098,128,0,198165:0:0:0:0:
402,192,198098,128,0,198165:0:0:0:0:
256,192,198165,128,0,198368:0:0:0:0:
475,192,198165,128,0,198368:0:0:0:0:
182,192,198233,128,0,198300:0:0:0:0:
402,192,198233,128,0,198300:0:0:0:0:
329,192,198300,128,0,198368:0:0:0:0:
109,192,198300,128,0,198368:0:0:0:0:
36,192,198368,128,0,198435:0:0:0:0:
182,192,198368,128,0,198435:0:0:0:0:
329,192,198435,128,0,198503:0:0:0:0:
475,192,198435,128,0,198503:0:0:0:0:
36,192,198503,128,0,198638:0:0:0:0:
182,192,198503,128,0,198638:0:0:0:0:
329,192,198570,128,0,198638:0:0:0:0:
475,192,198570,128,0,198638:0:0:0:0:
109,192,198638,128,0,198705:0:0:0:0:
402,192,198638,128,0,198705:0:0:0:0:
36,192,198705,1,0,0:0:0:0:
256,192,198705,128,0,198773:0:0:0:0:
475,192,198705,1,0,0:0:0:0:
329,192,198773,128,0,198840:0:0:0:0:
402,192,198840,128,0,198908:0:0:0:0:
475,192,198908,128,0,198975:0:0:0:0:
182,192,198975,128,0,199043:0:0:0:0:
256,192,199043,128,0,199110:0:0:0:0:
329,192,199110,128,0,199178:0:0:0:0:
402,192,199178,128,0,199245:0:0:0:0:
109,192,199245,128,0,199313:0:0:0:0:
182,192,199313,128,0,199380:0:0:0:0:
256,192,199380,128,0,199448:0:0:0:0:
329,192,199448,128,0,199515:0:0:0:0:
36,192,199515,128,0,199583:0:0:0:0:
109,192,199583,128,0,199650:0:0:0:0:
182,192,199650,128,0,199718:0:0:0:0:
256,192,199718,128,0,199785:0:0:0:0:
329,192,199785,128,0,199920:0:0:0:0:
475,192,199785,128,0,199920:0:0:0:0:
109,192,199853,128,0,199920:0:0:0:0:
256,192,199853,128,0,199920:0:0:0:0:
182,192,199920,128,0,200056:0:0:0:0:
402,192,199920,128,0,200056:0:0:0:0:
109,192,199988,128,0,200056:0:0:0:0:
329,192,199988,128,0,200056:0:0:0:0:
36,192,200056,128,0,200258:0:0:0:0:
256,192,200056,128,0,200123:0:0:0:0:
182,192,200123,128,0,200258:0:0:0:0:
402,192,200123,128,0,200191:0:0:0:0:
256,192,200191,128,0,200258:0:0:0:0:
475,192,200191,128,0,200326:0:0:0:0:
109,192,200258,128,0,200326:0:0:0:0:
329,192,200258,128,0,200326:0:0:0:0:
36,192,200326,128,0,200528:0:0:0:0:
182,192,200326,128,0,200393:0:0:0:0:
109,192,200393,128,0,200528:0:0:0:0:
329,192,200393,128,0,200461:0:0:0:0:
182,192,200461,128,0,200528:0:0:0:0:
402,192,200461,128,0,200528:0:0:0:0:
329,192,200528,128,0,200663:0:0:0:0:
475,192,200528,128,0,200663:0:0:0:0:
36,192,200596,128,0,200663:0:0:0:0:
182,192,200596,128,0,200663:0:0:0:0:
256,192,200663,128,0,200731:0:0:0:0:
402,192,200663,128,0,200731:0:0:0:0:
36,192,200731,128,0,200866:0:0:0:0:
182,192,200731,128,0,200866:0:0:0:0:
329,192,200798,128,0,200866:0:0:0:0:
475,192,200798,128,0,200866:0:0:0:0:
256,192,200866,1,0,0:0:0:0:
329,192,201068,1,0,0:0:0:0:
256,192,201271,1,0,0:0:0:0:
182,192,201406,1,0,0:0:0:0:
329,192,201473,1,0,0:0:0:0:
182,192,201608,1,0,0:0:0:0:
329,192,201676,1,0,0:0:0:0:
182,192,201811,1,0,0:0:0:0:
402,192,201946,1,0,0:0:0:0:
475,192,202148,1,0,0:0:0:0:
402,192,202351,1,0,0:0:0:0:
109,192,202486,1,0,0:0:0:0:
256,192,202553,1,0,0:0:0:0:
109,192,202688,1,0,0:0:0:0:
256,192,202756,1,0,0:0:0:0:
109,192,202891,1,0,0:0:0:0:
329,192,203026,1,0,0:0:0:0:
402,192,203228,1,0,0:0:0:0:
329,192,203431,1,0,0:0:0:0:
36,192,203566,1,0,0:0:0:0:
182,192,203633,1,0,0:0:0:0:
36,192,203768,1,0,0:0:0:0:
182,192,203836,1,0,0:0:0:0:
36,192,203971,1,0,0:0:0:0:
256,192,204106,1,0,0:0:0:0:
329,192,204308,1,0,0:0:0:0:
256,192,204511,1,0,0:0:0:0:
36,192,204646,1,0,0:0:0:0:
475,192,204646,1,0,0:0:0:0:
109,192,204781,1,0,0:0:0:0:
402,192,204781,1,0,0:0:0:0:
182,192,204916,1,0,0:0:0:0:
329,192,204916,1,0,0:0:0:0:
109,192,205051,1,0,0:0:0:0:
402,192,205051,1,0,0:0:0:0:
36,192,205186,1,0,0:0:0:0:
475,192,205186,1,0,0:0:0:0:
256,192,205388,1,0,0:0:0:0:
256,192,205591,1,0,0:0:0:0:
36,192,205726,1,0,0:0:0:0:
109,192,205793,1,0,0:0:0:0:
182,192,205861,1,0,0:0:0:0:
329,192,205996,1,0,0:0:0:0:
256,192,206063,1,0,0:0:0:0:
182,192,206131,1,0,0:0:0:0:
256,192,206266,1,0,0:0:0:0:
329,192,206333,1,0,0:0:0:0:
402,192,206401,1,0,0:0:0:0:
182,192,206536,1,0,0:0:0:0:
256,192,206603,1,0,0:0:0:0:
329,192,206671,1,0,0:0:0:0:
182,192,206806,1,0,0:0:0:0:
109,192,206873,1,0,0:0:0:0:
36,192,206941,1,0,0:0:0:0:
256,192,207076,1,0,0:0:0:0:
182,192,207143,1,0,0:0:0:0:
109,192,207211,1,0,0:0:0:0:
329,192,207346,1,0,0:0:0:0:
402,192,207346,1,0,0:0:0:0:
402,192,207481,1,0,0:0:0:0:
109,192,207616,1,0,0:0:0:0:
182,192,207616,1,0,0:0:0:0:
109,192,207751,1,0,0:0:0:0:
475,192,207886,1,0,0:0:0:0:
402,192,207886,1,0,0:0:0:0:
475,192,208021,1,0,0:0:0:0:
36,192,208156,1,0,0:0:0:0:
109,192,208156,1,0,0:0:0:0:
36,192,208291,1,0,0:0:0:0:
256,192,208426,1,0,0:0:0:0:
402,192,208426,1,0,0:0:0:0:
256,192,208628,1,0,0:0:0:0:
402,192,208628,1,0,0:0:0:0:
256,192,208831,1,0,0:0:0:0:
402,192,208831,1,0,0:0:0:0:
182,192,208966,128,0,209033:0:0:0:0:
36,192,209033,128,0,209101:0:0:0:0:
256,192,209168,128,0,209236:0:0:0:0:
109,192,209236,128,0,209303:0:0:0:0:
329,192,209371,128,0,209438:0:0:0:0:
402,192,209371,1,0,0:0:0:0:
182,192,209438,128,0,209506:0:0:0:0:
256,192,209438,1,0,0:0:0:0:
36,192,209506,128,0,209641:0:0:0:0:
109,192,209506,1,0,0:0:0:0:
329,192,209506,1,0,0:0:0:0:
475,192,209506,1,0,0:0:0:0:
182,192,209641,1,0,0:0:0:0:
402,192,209776,1,0,0:0:0:0:
475,192,209776,128,0,209911:0:0:0:0:
329,192,209911,1,0,0:0:0:0:
36,192,210046,128,0,210181:0:0:0:0:
182,192,210046,1,0,0:0:0:0:
256,192,210181,1,0,0:0:0:0:
329,192,210316,1,0,0:0:0:0:
475,192,210316,128,0,210451:0:0:0:0:
256,192,210451,1,0,0:0:0:0:
402,192,210586,1,0,0:0:0:0:
182,192,210670,1,0,0:0:0:0:
402,192,210754,1,0,0:0:0:0:
182,192,210856,1,0,0:0:0:0:
329,192,211126,1,0,0:0:0:0:
402,192,211328,1,0,0:0:0:0:
256,192,211396,1,0,0:0:0:0:
182,192,211531,1,0,0:0:0:0:
36,192,211666,1,0,0:0:0:0:
329,192,211666,1,0,0:0:0:0:
475,192,211666,1,0,0:0:0:0:
36,192,211801,1,0,0:0:0:0:
109,192,211936,1,0,0:0:0:0:
109,192,212071,1,0,0:0:0:0:
182,192,212206,1,0,0:0:0:0:
182,192,212341,1,0,0:0:0:0:
329,192,212476,1,0,0:0:0:0:
329,192,212611,1,0,0:0:0:0:
475,192,212746,1,0,0:0:0:0:
329,192,212813,1,0,0:0:0:0:
475,192,212881,1,0,0:0:0:0:
402,192,213016,1,0,0:0:0:0:
256,192,213083,1,0,0:0:0:0:
402,192,213151,1,0,0:0:0:0:
182,192,213286,1,0,0:0:0:0:
329,192,213353,1,0,0:0:0:0:
182,192,213421,1,0,0:0:0:0:
109,192,213556,1,0,0:0:0:0:
256,192,213623,1,0,0:0:0:0:
109,192,213691,1,0,0:0:0:0:
182,192,213826,1,0,0:0:0:0:
402,192,213826,1,0,0:0:0:0:
475,192,213826,1,0,0:0:0:0:
109,192,213893,1,0,0:0:0:0:
36,192,213961,1,0,0:0:0:0:
256,192,214028,1,0,0:0:0:0:
182,192,214096,1,0,0:0:0:0:
109,192,214163,1,0,0:0:0:0:
329,192,214231,1,0,0:0:0:0:
256,192,214298,1,0,0:0:0:0:
182,192,214366,1,0,0:0:0:0:
329,192,214433,1,0,0:0:0:0:
109,192,214501,1,0,0:0:0:0:
256,192,214568,1,0,0:0:0:0:
36,192,214636,1,0,0:0:0:0:
182,192,214703,1,0,0:0:0:0:
36,192,214771,1,0,0:0:0:0:
329,192,214771,1,0,0:0:0:0:
182,192,214838,1,0,0:0:0:0:
475,192,214838,1,0,0:0:0:0:
109,192,214906,1,0,0:0:0:0:
256,192,214906,1,0,0:0:0:0:
402,192,214906,1,0,0:0:0:0:
256,192,215041,1,0,0:0:0:0:
182,192,215176,1,0,0:0:0:0:
182,192,215311,1,0,0:0:0:0:
36,192,215446,1,0,0:0:0:0:
329,192,215446,1,0,0:0:0:0:
475,192,215446,1,0,0:0:0:0:
182,192,215513,1,0,0:0:0:0:
329,192,215581,1,0,0:0:0:0:
36,192,215986,1,0,0:0:0:0:
182,192,215986,1,0,0:0:0:0:
329,192,215986,1,0,0:0:0:0:
402,192,216053,1,0,0:0:0:0:
475,192,216121,1,0,0:0:0:0:
329,192,216188,1,0,0:0:0:0:
36,192,216256,1,0,0:0:0:0:
402,192,216256,1,0,0:0:0:0:
109,192,216323,1,0,0:0:0:0:
475,192,216323,1,0,0:0:0:0:
36,192,216391,1,0,0:0:0:0:
256,192,216391,1,0,0:0:0:0:
182,192,216458,1,0,0:0:0:0:
402,192,216458,1,0,0:0:0:0:
109,192,216526,1,0,0:0:0:0:
256,192,216526,1,0,0:0:0:0:
36,192,216593,1,0,0:0:0:0:
329,192,216593,1,0,0:0:0:0:
475,192,216661,1,0,0:0:0:0:
182,192,216661,1,0,0:0:0:0:
36,192,216728,1,0,0:0:0:0:
329,192,216728,1,0,0:0:0:0:
182,192,216796,1,0,0:0:0:0:
475,192,216796,1,0,0:0:0:0:
36,192,216863,1,0,0:0:0:0:
329,192,216863,1,0,0:0:0:0:
182,192,216931,1,0,0:0:0:0:
475,192,216931,1,0,0:0:0:0:
256,192,216998,1,0,0:0:0:0:
402,192,216998,1,0,0:0:0:0:
36,192,217066,1,0,0:0:0:0:
109,192,217066,1,0,0:0:0:0:
329,192,217066,1,0,0:0:0:0:
256,192,217133,1,0,0:0:0:0:
329,192,217201,1,0,0:0:0:0:
109,192,217336,1,0,0:0:0:0:
182,192,217336,1,0,0:0:0:0:
402,192,217336,1,0,0:0:0:0:
329,192,217403,1,0,0:0:0:0:
402,192,217471,1,0,0:0:0:0:
109,192,217606,1,0,0:0:0:0:
329,192,217606,1,0,0:0:0:0:
402,192,217606,1,0,0:0:0:0:
182,192,217673,1,0,0:0:0:0:
109,192,217741,1,0,0:0:0:0:
36,192,217876,1,0,0:0:0:0:
256,192,217876,1,0,0:0:0:0:
329,192,217876,1,0,0:0:0:0:
109,192,217943,1,0,0:0:0:0:
182,192,218011,1,0,0:0:0:0:
109,192,218078,1,0,0:0:0:0:
256,192,218078,1,0,0:0:0:0:
36,192,218146,1,0,0:0:0:0:
329,192,218146,1,0,0:0:0:0:
402,192,218146,128,0,218213:0:0:0:0:
475,192,218146,1,0,0:0:0:0:
109,192,218213,1,0,0:0:0:0:
256,192,218213,128,0,218281:0:0:0:0:
182,192,218281,1,0,0:0:0:0:
36,192,218348,1,0,0:0:0:0:
475,192,218348,128,0,218416:0:0:0:0:
109,192,218416,1,0,0:0:0:0:
256,192,218416,1,0,0:0:0:0:
329,192,218416,128,0,218483:0:0:0:0:
402,192,218416,1,0,0:0:0:0:
36,192,218483,1,0,0:0:0:0:
256,192,218551,1,0,0:0:0:0:
475,192,218551,128,0,218618:0:0:0:0:
329,192,218618,1,0,0:0:0:0:
109,192,218686,128,0,218753:0:0:0:0:
182,192,218686,1,0,0:0:0:0:
475,192,218686,1,0,0:0:0:0:
256,192,218753,128,0,218821:0:0:0:0:
402,192,218753,1,0,0:0:0:0:
329,192,218821,1,0,0:0:0:0:
36,192,218888,128,0,218956:0:0:0:0:
475,192,218888,1,0,0:0:0:0:
109,192,218956,1,0,0:0:0:0:
182,192,218956,128,0,219023:0:0:0:0:
256,192,218956,1,0,0:0:0:0:
402,192,218956,1,0,0:0:0:0:
475,192,219023,1,0,0:0:0:0:
36,192,219091,128,0,219158:0:0:0:0:
256,192,219091,1,0,0:0:0:0:
182,192,219158,1,0,0:0:0:0:
256,192,219226,128,0,219293:0:0:0:0:
402,192,219226,1,0,0:0:0:0:
475,192,219226,1,0,0:0:0:0:
109,192,219293,128,0,219361:0:0:0:0:
329,192,219293,1,0,0:0:0:0:
475,192,219361,1,0,0:0:0:0:
329,192,219428,128,0,219496:0:0:0:0:
402,192,219428,1,0,0:0:0:0:
36,192,219496,128,0,219563:0:0:0:0:
109,192,219496,1,0,0:0:0:0:
182,192,219496,1,0,0:0:0:0:
475,192,219496,1,0,0:0:0:0:
329,192,219563,1,0,0:0:0:0:
182,192,219631,128,0,219698:0:0:0:0:
402,192,219631,1,0,0:0:0:0:
256,192,219698,1,0,0:0:0:0:
109,192,219766,1,0,0:0:0:0:
329,192,219766,128,0,219833:0:0:0:0:
402,192,219766,1,0,0:0:0:0:
182,192,219833,1,0,0:0:0:0:
475,192,219833,128,0,219901:0:0:0:0:
36,192,219901,1,0,0:0:0:0:
109,192,219968,1,0,0:0:0:0:
36,192,220036,1,0,0:0:0:0:
256,192,220036,1,0,0:0:0:0:
329,192,220036,1,0,0:0:0:0:
402,192,220036,128,0,220103:0:0:0:0:
109,192,220103,1,0,0:0:0:0:
182,192,220171,1,0,0:0:0:0:
256,192,220171,1,0,0:0:0:0:
475,192,220171,128,0,220238:0:0:0:0:
402,192,220238,1,0,0:0:0:0:
36,192,220306,1,0,0:0:0:0:
109,192,220306,128,0,220373:0:0:0:0:
329,192,220306,1,0,0:0:0:0:
182,192,220373,1,0,0:0:0:0:
256,192,220373,128,0,220441:0:0:0:0:
329,192,220441,1,0,0:0:0:0:
109,192,220508,1,0,0:0:0:0:
182,192,220508,128,0,220576:0:0:0:0:
256,192,220576,1,0,0:0:0:0:
329,192,220576,128,0,220643:0:0:0:0:
402,192,220576,1,0,0:0:0:0:
475,192,220576,1,0,0:0:0:0:
36,192,220643,1,0,0:0:0:0:
182,192,220711,1,0,0:0:0:0:
256,192,220711,128,0,220778:0:0:0:0:
329,192,220778,1,0,0:0:0:0:
36,192,220846,1,0,0:0:0:0:
402,192,220846,128,0,220913:0:0:0:0:
475,192,220846,1,0,0:0:0:0:
256,192,220913,128,0,220981:0:0:0:0:
329,192,220913,1,0,0:0:0:0:
182,192,220981,1,0,0:0:0:0:
329,192,221048,128,0,221116:0:0:0:0:
402,192,221048,1,0,0:0:0:0:
36,192,221116,1,0,0:0:0:0:
109,192,221116,1,0,0:0:0:0:
182,192,221116,128,0,221183:0:0:0:0:
256,192,221116,1,0,0:0:0:0:
475,192,221183,1,0,0:0:0:0:
256,192,221251,128,0,221318:0:0:0:0:
329,192,221251,1,0,0:0:0:0:
182,192,221318,1,0,0:0:0:0:
36,192,221386,1,0,0:0:0:0:
329,192,221386,128,0,221453:0:0:0:0:
475,192,221386,1,0,0:0:0:0:
182,192,221453,1,0,0:0:0:0:
402,192,221453,128,0,221521:0:0:0:0:
256,192,221521,1,0,0:0:0:0:
109,192,221588,1,0,0:0:0:0:
182,192,221588,128,0,221656:0:0:0:0:
36,192,221656,1,0,0:0:0:0:
256,192,221656,128,0,221723:0:0:0:0:
402,192,221656,1,0,0:0:0:0:
475,192,221656,1,0,0:0:0:0:
329,192,221723,1,0,0:0:0:0:
402,192,221791,1,0,0:0:0:0:
475,192,221791,128,0,221858:0:0:0:0:
256,192,221858,1,0,0:0:0:0:
36,192,221926,128,0,221993:0:0:0:0:
182,192,221926,1,0,0:0:0:0:
402,192,221993,1,0,0:0:0:0:
109,192,222061,128,0,222128:0:0:0:0:
256,192,222061,1,0,0:0:0:0:
475,192,222061,1,0,0:0:0:0:
329,192,222128,1,0,0:0:0:0:
36,192,222196,1,0,0:0:0:0:
182,192,222196,128,0,222263:0:0:0:0:
402,192,222196,1,0,0:0:0:0:
475,192,222263,1,0,0:0:0:0:
109,192,222331,1,0,0:0:0:0:
256,192,222331,128,0,222398:0:0:0:0:
402,192,222331,1,0,0:0:0:0:
475,192,222398,1,0,0:0:0:0:
36,192,222466,1,0,0:0:0:0:
256,192,222466,1,0,0:0:0:0:
329,192,222466,128,0,222533:0:0:0:0:
402,192,222466,1,0,0:0:0:0:
109,192,222533,1,0,0:0:0:0:
475,192,222533,128,0,222601:0:0:0:0:
182,192,222601,1,0,0:0:0:0:
36,192,222668,1,0,0:0:0:0:
256,192,222668,128,0,222736:0:0:0:0:
109,192,222736,1,0,0:0:0:0:
329,192,222736,1,0,0:0:0:0:
402,192,222736,128,0,222803:0:0:0:0:
475,192,222736,1,0,0:0:0:0:
182,192,222803,1,0,0:0:0:0:
36,192,222871,1,0,0:0:0:0:
329,192,222871,128,0,222938:0:0:0:0:
109,192,222938,1,0,0:0:0:0:
36,192,223006,128,0,223073:0:0:0:0:
182,192,223006,1,0,0:0:0:0:
402,192,223006,1,0,0:0:0:0:
329,192,223073,1,0,0:0:0:0:
36,192,223141,128,0,223208:0:0:0:0:
182,192,223141,1,0,0:0:0:0:
256,192,223208,1,0,0:0:0:0:
109,192,223276,128,0,223343:0:0:0:0:
182,192,223276,1,0,0:0:0:0:
402,192,223276,1,0,0:0:0:0:
475,192,223276,1,0,0:0:0:0:
256,192,223343,1,0,0:0:0:0:
109,192,223411,128,0,223478:0:0:0:0:
329,192,223411,1,0,0:0:0:0:
402,192,223411,1,0,0:0:0:0:
475,192,223478,1,0,0:0:0:0:
182,192,223546,128,0,223613:0:0:0:0:
329,192,223546,1,0,0:0:0:0:
402,192,223613,1,0,0:0:0:0:
182,192,223681,128,0,223748:0:0:0:0:
329,192,223681,1,0,0:0:0:0:
475,192,223748,1,0,0:0:0:0:
36,192,223816,1,0,0:0:0:0:
109,192,223816,128,0,223883:0:0:0:0:
256,192,223816,1,0,0:0:0:0:
329,192,223883,1,0,0:0:0:0:
109,192,223951,128,0,224018:0:0:0:0:
182,192,223951,1,0,0:0:0:0:
256,192,224018,1,0,0:0:0:0:
36,192,224086,128,0,224153:0:0:0:0:
182,192,224086,1,0,0:0:0:0:
475,192,224086,1,0,0:0:0:0:
329,192,224153,1,0,0:0:0:0:
36,192,224221,128,0,224288:0:0:0:0:
256,192,224221,1,0,0:0:0:0:
475,192,224221,1,0,0:0:0:0:
182,192,224288,1,0,0:0:0:0:
36,192,224356,1,0,0:0:0:0:
109,192,224356,128,0,224423:0:0:0:0:
329,192,224356,1,0,0:0:0:0:
475,192,224356,1,0,0:0:0:0:
256,192,224423,1,0,0:0:0:0:
36,192,224491,1,0,0:0:0:0:
109,192,224491,128,0,224558:0:0:0:0:
475,192,224558,1,0,0:0:0:0:
256,192,224626,1,0,0:0:0:0:
329,192,224626,128,0,224693:0:0:0:0:
402,192,224626,1,0,0:0:0:0:
36,192,224693,1,0,0:0:0:0:
182,192,224761,1,0,0:0:0:0:
475,192,224761,128,0,224828:0:0:0:0:
329,192,224828,1,0,0:0:0:0:
36,192,224896,1,0,0:0:0:0:
109,192,224896,1,0,0:0:0:0:
182,192,224896,128,0,224963:0:0:0:0:
402,192,224896,1,0,0:0:0:0:
256,192,224963,1,0,0:0:0:0:
36,192,225031,128,0,225098:0:0:0:0:
109,192,225031,1,0,0:0:0:0:
329,192,225098,1,0,0:0:0:0:
182,192,225166,1,0,0:0:0:0:
402,192,225166,128,0,225233:0:0:0:0:
475,192,225166,1,0,0:0:0:0:
329,192,225233,1,0,0:0:0:0:
109,192,225301,128,0,225368:0:0:0:0:
182,192,225301,1,0,0:0:0:0:
256,192,225368,1,0,0:0:0:0:
36,192,225436,128,0,225503:0:0:0:0:
182,192,225436,1,0,0:0:0:0:
329,192,225436,1,0,0:0:0:0:
402,192,225436,1,0,0:0:0:0:
475,192,225503,1,0,0:0:0:0:
182,192,225571,1,0,0:0:0:0:
329,192,225571,128,0,225638:0:0:0:0:
36,192,225638,1,0,0:0:0:0:
109,192,225706,128,0,226111:0:0:0:0:
256,192,225706,1,0,0:0:0:0:
402,192,225706,1,0,0:0:0:0:
475,192,225773,1,0,0:0:0:0:
256,192,225841,1,0,0:0:0:0:
475,192,225908,1,0,0:0:0:0:
36,192,225976,1,0,0:0:0:0:
182,192,225976,1,0,0:0:0:0:
329,192,225976,1,0,0:0:0:0:
402,192,226043,1,0,0:0:0:0:
182,192,226111,1,0,0:0:0:0:
402,192,226178,1,0,0:0:0:0:
109,192,226246,1,0,0:0:0:0:
256,192,226246,128,0,226313:0:0:0:0:
402,192,226313,128,0,226381:0:0:0:0:
109,192,226381,1,0,0:0:0:0:
329,192,226448,128,0,226516:0:0:0:0:
36,192,226516,1,0,0:0:0:0:
182,192,226516,1,0,0:0:0:0:
475,192,226516,128,0,226583:0:0:0:0:
256,192,226583,1,0,0:0:0:0:
36,192,226651,1,0,0:0:0:0:
182,192,226651,128,0,226786:0:0:0:0:
256,192,226718,1,0,0:0:0:0:
109,192,226786,1,0,0:0:0:0:
402,192,226786,1,0,0:0:0:0:
475,192,226786,128,0,226853:0:0:0:0:
256,192,226853,1,0,0:0:0:0:
329,192,226853,128,0,226921:0:0:0:0:
109,192,226921,1,0,0:0:0:0:
182,192,226921,128,0,226988:0:0:0:0:
402,192,226988,1,0,0:0:0:0:
36,192,227056,1,0,0:0:0:0:
109,192,227056,128,0,227123:0:0:0:0:
329,192,227056,1,0,0:0:0:0:
475,192,227056,1,0,0:0:0:0:
182,192,227123,1,0,0:0:0:0:
256,192,227123,128,0,227191:0:0:0:0:
329,192,227191,1,0,0:0:0:0:
402,192,227191,128,0,227258:0:0:0:0:
36,192,227258,1,0,0:0:0:0:
109,192,227326,1,0,0:0:0:0:
329,192,227326,128,0,227393:0:0:0:0:
402,192,227326,1,0,0:0:0:0:
182,192,227393,128,0,227461:0:0:0:0:
256,192,227393,1,0,0:0:0:0:
36,192,227461,128,0,227528:0:0:0:0:
109,192,227461,1,0,0:0:0:0:
402,192,227528,1,0,0:0:0:0:
109,192,227596,1,0,0:0:0:0:
182,192,227596,128,0,227663:0:0:0:0:
475,192,227596,1,0,0:0:0:0:
256,192,227663,1,0,0:0:0:0:
329,192,227663,128,0,227731:0:0:0:0:
36,192,227731,1,0,0:0:0:0:
402,192,227731,1,0,0:0:0:0:
475,192,227731,128,0,227798:0:0:0:0:
109,192,227798,1,0,0:0:0:0:
182,192,227866,128,0,227950:0:0:0:0:
256,192,227866,1,0,0:0:0:0:
475,192,227866,1,0,0:0:0:0:
36,192,227950,128,0,228035:0:0:0:0:
329,192,227950,1,0,0:0:0:0:
182,192,228035,128,0,228136:0:0:0:0:
475,192,228035,1,0,0:0:0:0:
36,192,228136,128,0,228338:0:0:0:0:
109,192,228136,1,0,0:0:0:0:
329,192,228136,1,0,0:0:0:0:
402,192,228136,1,0,0:0:0:0:
402,192,228271,1,0,0:0:0:0:
475,192,228271,1,0,0:0:0:0:
182,192,228406,128,0,228608:0:0:0:0:
256,192,228406,1,0,0:0:0:0:
36,192,228406,1,0,0:0:0:0:
329,192,228541,1,0,0:0:0:0:
475,192,228541,1,0,0:0:0:0:
109,192,228676,128,0,228878:0:0:0:0:
182,192,228676,1,0,0:0:0:0:
256,192,228676,1,0,0:0:0:0:
402,192,228676,1,0,0:0:0:0:
256,192,228811,1,0,0:0:0:0:
402,192,228811,1,0,0:0:0:0:
36,192,228946,1,0,0:0:0:0:
109,192,228946,128,0,229013:0:0:0:0:
329,192,228946,1,0,0:0:0:0:
475,192,228946,1,0,0:0:0:0:
182,192,229013,1,0,0:0:0:0:
256,192,229013,128,0,229081:0:0:0:0:
329,192,229081,1,0,0:0:0:0:
402,192,229081,128,0,229148:0:0:0:0:
36,192,229148,1,0,0:0:0:0:
109,192,229216,1,0,0:0:0:0:
182,192,229216,128,0,229283:0:0:0:0:
329,192,229216,1,0,0:0:0:0:
475,192,229216,1,0,0:0:0:0:
256,192,229283,1,0,0:0:0:0:
329,192,229283,128,0,229351:0:0:0:0:
402,192,229351,1,0,0:0:0:0:
475,192,229351,128,0,229418:0:0:0:0:
109,192,229418,1,0,0:0:0:0:
109,192,229486,128,0,229553:0:0:0:0:
182,192,229486,1,0,0:0:0:0:
402,192,229486,1,0,0:0:0:0:
256,192,229553,128,0,229621:0:0:0:0:
329,192,229553,1,0,0:0:0:0:
402,192,229621,128,0,229688:0:0:0:0:
475,192,229621,1,0,0:0:0:0:
109,192,229688,1,0,0:0:0:0:
36,192,229756,1,0,0:0:0:0:
109,192,229756,128,0,229823:0:0:0:0:
329,192,229756,1,0,0:0:0:0:
475,192,229756,1,0,0:0:0:0:
182,192,229823,1,0,0:0:0:0:
256,192,229823,128,0,229891:0:0:0:0:
329,192,229891,1,0,0:0:0:0:
402,192,229891,128,0,229958:0:0:0:0:
475,192,229958,1,0,0:0:0:0:
109,192,230026,128,0,230093:0:0:0:0:
182,192,230026,1,0,0:0:0:0:
329,192,230026,1,0,0:0:0:0:
36,192,230093,1,0,0:0:0:0:
256,192,230093,128,0,230161:0:0:0:0:
182,192,230161,1,0,0:0:0:0:
402,192,230161,128,0,230228:0:0:0:0:
329,192,230228,1,0,0:0:0:0:
36,192,230296,1,0,0:0:0:0:
182,192,230296,128,0,230363:0:0:0:0:
256,192,230296,1,0,0:0:0:0:
475,192,230296,1,0,0:0:0:0:
109,192,230363,1,0,0:0:0:0:
329,192,230363,128,0,230431:0:0:0:0:
256,192,230431,1,0,0:0:0:0:
475,192,230431,128,0,230498:0:0:0:0:
402,192,230498,1,0,0:0:0:0:
36,192,230566,1,0,0:0:0:0:
109,192,230566,128,0,230633:0:0:0:0:
329,192,230566,1,0,0:0:0:0:
182,192,230633,1,0,0:0:0:0:
256,192,230633,128,0,230701:0:0:0:0:
329,192,230701,1,0,0:0:0:0:
402,192,230701,128,0,230768:0:0:0:0:
475,192,230768,1,0,0:0:0:0:
36,192,230836,128,0,230903:0:0:0:0:
182,192,230836,1,0,0:0:0:0:
256,192,230836,1,0,0:0:0:0:
329,192,230836,1,0,0:0:0:0:
109,192,230903,1,0,0:0:0:0:
182,192,230903,128,0,230971:0:0:0:0:
256,192,230971,1,0,0:0:0:0:
329,192,230971,128,0,231038:0:0:0:0:
402,192,231038,1,0,0:0:0:0:
36,192,231106,1,0,0:0:0:0:
256,192,231106,1,0,0:0:0:0:
475,192,231106,128,0,231173:0:0:0:0:
109,192,231173,1,0,0:0:0:0:
329,192,231173,128,0,231241:0:0:0:0:
182,192,231241,1,0,0:0:0:0:
36,192,231308,128,0,231376:0:0:0:0:
475,192,231308,1,0,0:0:0:0:
109,192,231376,1,0,0:0:0:0:
182,192,231376,128,0,231443:0:0:0:0:
256,192,231376,1,0,0:0:0:0:
402,192,231376,1,0,0:0:0:0:
329,192,231443,1,0,0:0:0:0:
36,192,231511,1,0,0:0:0:0:
256,192,231511,128,0,231578:0:0:0:0:
109,192,231578,1,0,0:0:0:0:
36,192,231646,128,0,231713:0:0:0:0:
182,192,231646,1,0,0:0:0:0:
402,192,231646,1,0,0:0:0:0:
329,192,231713,1,0,0:0:0:0:
475,192,231713,128,0,231781:0:0:0:0:
36,192,231781,128,0,231848:0:0:0:0:
182,192,231781,1,0,0:0:0:0:
329,192,231848,1,0,0:0:0:0:
475,192,231848,128,0,231916:0:0:0:0:
36,192,231916,1,0,0:0:0:0:
109,192,231916,1,0,0:0:0:0:
182,192,231916,128,0,231983:0:0:0:0:
402,192,231916,1,0,0:0:0:0:
256,192,231983,1,0,0:0:0:0:
329,192,231983,128,0,232051:0:0:0:0:
36,192,232051,1,0,0:0:0:0:
109,192,232051,128,0,232118:0:0:0:0:
402,192,232051,1,0,0:0:0:0:
182,192,232118,1,0,0:0:0:0:
256,192,232118,128,0,232186:0:0:0:0:
329,192,232186,1,0,0:0:0:0:
402,192,232186,128,0,232253:0:0:0:0:
182,192,232253,1,0,0:0:0:0:
256,192,232253,128,0,232321:0:0:0:0:
329,192,232321,1,0,0:0:0:0:
402,192,232321,128,0,232388:0:0:0:0:
475,192,232321,1,0,0:0:0:0:
36,192,232456,128,0,232523:0:0:0:0:
256,192,232456,1,0,0:0:0:0:
109,192,232456,1,0,0:0:0:0:
475,192,232456,1,0,0:0:0:0:
182,192,232523,128,0,232591:0:0:0:0:
402,192,232523,1,0,0:0:0:0:
36,192,232591,128,0,232658:0:0:0:0:
256,192,232591,1,0,0:0:0:0:
36,192,232726,1,0,0:0:0:0:
109,192,232726,1,0,0:0:0:0:
329,192,232726,1,0,0:0:0:0:
402,192,232726,128,0,232793:0:0:0:0:
182,192,232861,1,0,0:0:0:0:
256,192,232861,128,0,232928:0:0:0:0:
329,192,232928,1,0,0:0:0:0:
402,192,232928,128,0,232996:0:0:0:0:
182,192,232996,1,0,0:0:0:0:
475,192,232996,1,0,0:0:0:0:
36,192,233131,128,0,233198:0:0:0:0:
109,192,233131,1,0,0:0:0:0:
329,192,233131,1,0,0:0:0:0:
475,192,233131,1,0,0:0:0:0:
182,192,233198,128,0,233266:0:0:0:0:
256,192,233198,1,0,0:0:0:0:
329,192,233266,128,0,233333:0:0:0:0:
402,192,233266,1,0,0:0:0:0:
475,192,233266,1,0,0:0:0:0:
36,192,233333,128,0,233401:0:0:0:0:
256,192,233333,1,0,0:0:0:0:
109,192,233401,1,0,0:0:0:0:
182,192,233401,1,0,0:0:0:0:
256,192,233468,128,0,233536:0:0:0:0:
475,192,233468,1,0,0:0:0:0:
36,192,233536,1,0,0:0:0:0:
109,192,233536,128,0,233603:0:0:0:0:
182,192,233536,1,0,0:0:0:0:
402,192,233536,1,0,0:0:0:0:
475,192,233603,1,0,0:0:0:0:
36,192,233671,1,0,0:0:0:0:
182,192,233671,128,0,233738:0:0:0:0:
256,192,233671,1,0,0:0:0:0:
402,192,233671,1,0,0:0:0:0:
329,192,233738,1,0,0:0:0:0:
36,192,233806,128,0,233873:0:0:0:0:
109,192,233806,1,0,0:0:0:0:
402,192,233806,1,0,0:0:0:0:
182,192,233873,1,0,0:0:0:0:
329,192,233873,128,0,233941:0:0:0:0:
256,192,233941,1,0,0:0:0:0:
475,192,233941,1,0,0:0:0:0:
182,192,234008,128,0,234076:0:0:0:0:
329,192,234008,1,0,0:0:0:0:
36,192,234076,1,0,0:0:0:0:
109,192,234076,1,0,0:0:0:0:
475,192,234076,128,0,234143:0:0:0:0:
182,192,234143,1,0,0:0:0:0:
256,192,234211,1,0,0:0:0:0:
329,192,234211,1,0,0:0:0:0:
402,192,234211,128,0,234278:0:0:0:0:
109,192,234278,1,0,0:0:0:0:
36,192,234346,1,0,0:0:0:0:
402,192,234346,1,0,0:0:0:0:
475,192,234346,1,0,0:0:0:0:
109,192,234413,1,0,0:0:0:0:
182,192,234481,1,0,0:0:0:0:
329,192,234481,1,0,0:0:0:0:
402,192,234481,1,0,0:0:0:0:
256,192,234548,1,0,0:0:0:0:
36,192,234616,1,0,0:0:0:0:
109,192,234616,1,0,0:0:0:0:
475,192,234616,1,0,0:0:0:0:
402,192,234683,1,0,0:0:0:0:
109,192,234751,1,0,0:0:0:0:
182,192,234751,1,0,0:0:0:0:
329,192,234751,1,0,0:0:0:0:
256,192,234818,1,0,0:0:0:0:
182,192,234886,1,0,0:0:0:0:
402,192,234886,1,0,0:0:0:0:
475,192,234886,1,0,0:0:0:0:
109,192,234953,1,0,0:0:0:0:
36,192,235021,1,0,0:0:0:0:
402,192,235021,1,0,0:0:0:0:
475,192,235021,1,0,0:0:0:0:
256,192,235088,1,0,0:0:0:0:
36,192,235156,1,0,0:0:0:0:
109,192,235156,1,0,0:0:0:0:
329,192,235156,1,0,0:0:0:0:
402,192,235223,1,0,0:0:0:0:
109,192,235291,1,0,0:0:0:0:
182,192,235291,1,0,0:0:0:0:
329,192,235291,1,0,0:0:0:0:
402,192,235358,1,0,0:0:0:0:
36,192,235426,128,0,235763:0:0:0:0:
182,192,235426,1,0,0:0:0:0:
256,192,235426,1,0,0:0:0:0:
475,192,235426,1,0,0:0:0:0:
329,192,235493,1,0,0:0:0:0:
475,192,235561,1,0,0:0:0:0:
109,192,235628,1,0,0:0:0:0:
329,192,235628,128,0,235898:0:0:0:0:
182,192,235696,1,0,0:0:0:0:
256,192,235696,1,0,0:0:0:0:
475,192,235696,1,0,0:0:0:0:
402,192,235763,1,0,0:0:0:0:
36,192,235831,128,0,236168:0:0:0:0:
109,192,235831,1,0,0:0:0:0:
256,192,235898,1,0,0:0:0:0:
109,192,235966,1,0,0:0:0:0:
329,192,235966,1,0,0:0:0:0:
402,192,235966,1,0,0:0:0:0:
256,192,236033,1,0,0:0:0:0:
329,192,236033,128,0,236371:0:0:0:0:
182,192,236101,1,0,0:0:0:0:
475,192,236168,1,0,0:0:0:0:
109,192,236236,128,0,236438:0:0:0:0:
36,192,236236,1,0,0:0:0:0:
182,192,236236,1,0,0:0:0:0:
402,192,236236,1,0,0:0:0:0:
256,192,236303,1,0,0:0:0:0:
402,192,236371,1,0,0:0:0:0:
182,192,236371,1,0,0:0:0:0:
329,192,236438,1,0,0:0:0:0:
36,192,236506,1,0,0:0:0:0:
109,192,236506,128,0,236776:0:0:0:0:
256,192,236506,1,0,0:0:0:0:
182,192,236573,1,0,0:0:0:0:
329,192,236641,1,0,0:0:0:0:
256,192,236708,1,0,0:0:0:0:
402,192,236708,128,0,236911:0:0:0:0:
36,192,236776,1,0,0:0:0:0:
182,192,236776,1,0,0:0:0:0:
475,192,236776,1,0,0:0:0:0:
329,192,236843,1,0,0:0:0:0:
109,192,236911,128,0,237046:0:0:0:0:
182,192,236911,1,0,0:0:0:0:
256,192,236978,1,0,0:0:0:0:
36,192,237046,1,0,0:0:0:0:
329,192,237046,1,0,0:0:0:0:
182,192,237046,1,0,0:0:0:0:
402,192,237113,1,0,0:0:0:0:
475,192,237113,128,0,237248:0:0:0:0:
329,192,237248,1,0,0:0:0:0:
182,192,237248,1,0,0:0:0:0:
109,192,237316,1,0,0:0:0:0:
256,192,237316,1,0,0:0:0:0:
475,192,237316,128,0,237586:0:0:0:0:
402,192,237316,1,0,0:0:0:0:
36,192,237383,1,0,0:0:0:0:
329,192,237451,128,0,237586:0:0:0:0:
182,192,237451,1,0,0:0:0:0:
109,192,237518,1,0,0:0:0:0:
36,192,237586,128,0,237923:0:0:0:0:
182,192,237586,1,0,0:0:0:0:
475,192,237653,1,0,0:0:0:0:
329,192,237721,1,0,0:0:0:0:
182,192,237788,128,0,238126:0:0:0:0:
402,192,237788,1,0,0:0:0:0:
109,192,237856,1,0,0:0:0:0:
256,192,237856,1,0,0:0:0:0:
475,192,237856,1,0,0:0:0:0:
329,192,237923,1,0,0:0:0:0:
36,192,237991,128,0,238126:0:0:0:0:
475,192,237991,1,0,0:0:0:0:
329,192,238058,1,0,0:0:0:0:
109,192,238126,1,0,0:0:0:0:
256,192,238126,1,0,0:0:0:0:
475,192,238126,1,0,0:0:0:0:
329,192,238193,1,0,0:0:0:0:
475,192,238193,128,0,238463:0:0:0:0:
256,192,238261,1,0,0:0:0:0:
109,192,238328,1,0,0:0:0:0:
36,192,238396,1,0,0:0:0:0:
256,192,238396,1,0,0:0:0:0:
329,192,238396,128,0,238666:0:0:0:0:
402,192,238396,1,0,0:0:0:0:
109,192,238463,1,0,0:0:0:0:
256,192,238531,1,0,0:0:0:0:
475,192,238531,128,0,238666:0:0:0:0:
109,192,238598,1,0,0:0:0:0:
36,192,238666,1,0,0:0:0:0:
182,192,238666,1,0,0:0:0:0:
256,192,238666,128,0,238801:0:0:0:0:
109,192,238733,128,0,238868:0:0:0:0:
402,192,238733,1,0,0:0:0:0:
36,192,238801,1,0,0:0:0:0:
256,192,238868,128,0,239003:0:0:0:0:
402,192,238868,1,0,0:0:0:0:
109,192,238936,128,0,239071:0:0:0:0:
182,192,238936,1,0,0:0:0:0:
329,192,238936,1,0,0:0:0:0:
475,192,238936,1,0,0:0:0:0:
36,192,239003,1,0,0:0:0:0:
182,192,239071,128,0,239138:0:0:0:0:
329,192,239071,128,0,239138:0:0:0:0:
475,192,239071,1,0,0:0:0:0:
36,192,239138,1,0,0:0:0:0:
182,192,239206,1,0,0:0:0:0:
329,192,239206,128,0,239273:0:0:0:0:
402,192,239206,1,0,0:0:0:0:
475,192,239206,128,0,239273:0:0:0:0:
36,192,239341,1,0,0:0:0:0:
182,192,239341,128,0,239408:0:0:0:0:
256,192,239341,1,0,0:0:0:0:
329,192,239341,128,0,239408:0:0:0:0:
36,192,239476,128,0,239543:0:0:0:0:
109,192,239476,1,0,0:0:0:0:
182,192,239476,128,0,239543:0:0:0:0:
329,192,239476,1,0,0:0:0:0:
109,192,239611,128,0,239678:0:0:0:0:
256,192,239611,1,0,0:0:0:0:
402,192,239611,128,0,239678:0:0:0:0:
475,192,239611,1,0,0:0:0:0:
36,192,239746,1,0,0:0:0:0:
109,192,239746,1,0,0:0:0:0:
256,192,239746,1,0,0:0:0:0:
402,192,239746,1,0,0:0:0:0:
475,192,239746,1,0,0:0:0:0:
182,192,239813,1,0,0:0:0:0:
329,192,239813,1,0,0:0:0:0:
36,192,239881,1,0,0:0:0:0:
475,192,239881,1,0,0:0:0:0:
182,192,239948,1,0,0:0:0:0:
329,192,239948,1,0,0:0:0:0:
109,192,240016,1,0,0:0:0:0:
256,192,240016,1,0,0:0:0:0:
402,192,240016,1,0,0:0:0:0:
36,192,240083,1,0,0:0:0:0:
475,192,240083,1,0,0:0:0:0:
109,192,240151,1,0,0:0:0:0:
402,192,240151,1,0,0:0:0:0:
182,192,240218,1,0,0:0:0:0:
329,192,240218,1,0,0:0:0:0:
36,192,240286,128,0,240488:0:0:0:0:
109,192,240286,1,0,0:0:0:0:
402,192,240286,1,0,0:0:0:0:
182,192,240353,128,0,240556:0:0:0:0:
329,192,240421,128,0,240623:0:0:0:0:
36,192,240556,1,0,0:0:0:0:
475,192,240556,1,0,0:0:0:0:
182,192,240623,1,0,0:0:0:0:
329,192,240691,1,0,0:0:0:0:
256,192,240758,1,0,0:0:0:0:
402,192,240826,1,0,0:0:0:0:
475,192,240826,128,0,241028:0:0:0:0:
109,192,240826,1,0,0:0:0:0:
329,192,240893,128,0,241096:0:0:0:0:
182,192,240961,128,0,241163:0:0:0:0:
475,192,241096,1,0,0:0:0:0:
36,192,241096,1,0,0:0:0:0:
329,192,241163,1,0,0:0:0:0:
182,192,241231,1,0,0:0:0:0:
256,192,241298,1,0,0:0:0:0:
36,192,241366,128,0,241568:0:0:0:0:
109,192,241366,1,0,0:0:0:0:
402,192,241366,1,0,0:0:0:0:
256,192,241433,128,0,241636:0:0:0:0:
475,192,241501,128,0,241703:0:0:0:0:
36,192,241636,1,0,0:0:0:0:
109,192,241636,1,0,0:0:0:0:
256,192,241703,1,0,0:0:0:0:
475,192,241771,1,0,0:0:0:0:
329,192,241838,1,0,0:0:0:0:
109,192,241906,128,0,242041:0:0:0:0:
36,192,241906,1,0,0:0:0:0:
402,192,241906,1,0,0:0:0:0:
329,192,241973,1,0,0:0:0:0:
256,192,242041,1,0,0:0:0:0:
475,192,242041,1,0,0:0:0:0:
329,192,242176,1,0,0:0:0:0:
402,192,242176,128,0,242311:0:0:0:0:
475,192,242176,1,0,0:0:0:0:
109,192,242176,1,0,0:0:0:0:
182,192,242243,1,0,0:0:0:0:
36,192,242311,1,0,0:0:0:0:
256,192,242311,1,0,0:0:0:0:
109,192,242446,128,0,242581:0:0:0:0:
182,192,242446,1,0,0:0:0:0:
329,192,242446,1,0,0:0:0:0:
402,192,242513,1,0,0:0:0:0:
36,192,242581,1,0,0:0:0:0:
256,192,242581,1,0,0:0:0:0:
109,192,242716,1,0,0:0:0:0:
256,192,242716,1,0,0:0:0:0:
329,192,242716,128,0,242851:0:0:0:0:
475,192,242716,1,0,0:0:0:0:
36,192,242783,1,0,0:0:0:0:
182,192,242851,1,0,0:0:0:0:
402,192,242851,1,0,0:0:0:0:
256,192,242918,1,0,0:0:0:0:
36,192,242986,1,0,0:0:0:0:
109,192,242986,1,0,0:0:0:0:
329,192,242986,1,0,0:0:0:0:
402,192,243053,1,0,0:0:0:0:
475,192,243053,1,0,0:0:0:0:
36,192,243121,1,0,0:0:0:0:
109,192,243121,1,0,0:0:0:0:
402,192,243188,1,0,0:0:0:0:
475,192,243188,1,0,0:0:0:0:
109,192,243256,1,0,0:0:0:0:
182,192,243256,1,0,0:0:0:0:
329,192,243323,1,0,0:0:0:0:
402,192,243323,1,0,0:0:0:0:
109,192,243391,1,0,0:0:0:0:
182,192,243391,1,0,0:0:0:0:
329,192,243458,1,0,0:0:0:0:
402,192,243458,1,0,0:0:0:0:
36,192,243526,1,0,0:0:0:0:
109,192,243526,1,0,0:0:0:0:
402,192,243593,1,0,0:0:0:0:
475,192,243593,1,0,0:0:0:0:
36,192,243661,1,0,0:0:0:0:
109,192,243661,1,0,0:0:0:0:
402,192,243728,1,0,0:0:0:0:
475,192,243728,1,0,0:0:0:0:
256,192,243762,1,0,0:0:0:0:
109,192,243796,1,0,0:0:0:0:
36,192,243796,1,0,0:0:0:0:
329,192,243863,1,0,0:0:0:0:
402,192,243863,1,0,0:0:0:0:
109,192,243931,1,0,0:0:0:0:
182,192,243931,1,0,0:0:0:0:
402,192,243998,1,0,0:0:0:0:
475,192,243998,1,0,0:0:0:0:
36,192,244066,128,0,244268:0:0:0:0:
109,192,244066,1,0,0:0:0:0:
256,192,244066,1,0,0:0:0:0:
182,192,244133,128,0,244336:0:0:0:0:
329,192,244201,128,0,244403:0:0:0:0:
402,192,244201,1,0,0:0:0:0:
36,192,244336,1,0,0:0:0:0:
256,192,244336,1,0,0:0:0:0:
475,192,244336,1,0,0:0:0:0:
182,192,244403,1,0,0:0:0:0:
329,192,244471,1,0,0:0:0:0:
402,192,244471,1,0,0:0:0:0:
36,192,244538,1,0,0:0:0:0:
256,192,244606,1,0,0:0:0:0:
475,192,244606,128,0,244808:0:0:0:0:
109,192,244606,1,0,0:0:0:0:
329,192,244673,128,0,244876:0:0:0:0:
109,192,244741,1,0,0:0:0:0:
182,192,244741,128,0,244943:0:0:0:0:
36,192,244876,1,0,0:0:0:0:
256,192,244876,1,0,0:0:0:0:
475,192,244876,1,0,0:0:0:0:
329,192,244943,1,0,0:0:0:0:
109,192,245011,1,0,0:0:0:0:
182,192,245011,1,0,0:0:0:0:
475,192,245078,1,0,0:0:0:0:
36,192,245146,1,0,0:0:0:0:
402,192,245146,1,0,0:0:0:0:
109,192,245230,1,0,0:0:0:0:
36,192,245315,1,0,0:0:0:0:
109,192,245416,1,0,0:0:0:0:
256,192,245416,1,0,0:0:0:0:
402,192,245416,1,0,0:0:0:0:
256,192,245686,1,0,0:0:0:0:
402,192,245686,1,0,0:0:0:0:
475,192,245686,1,0,0:0:0:0:
109,192,245686,1,0,0:0:0:0:
402,192,245821,1,0,0:0:0:0:
475,192,245821,1,0,0:0:0:0:
36,192,245956,1,0,0:0:0:0:
182,192,245956,1,0,0:0:0:0:
329,192,245956,1,0,0:0:0:0:
402,192,245956,1,0,0:0:0:0:
182,192,246091,1,0,0:0:0:0:
329,192,246091,1,0,0:0:0:0:
402,192,246091,1,0,0:0:0:0:
36,192,246226,1,0,0:0:0:0:
402,192,246226,1,0,0:0:0:0:
182,192,246293,1,0,0:0:0:0:
36,192,246361,128,0,246496:0:0:0:0:
329,192,246361,1,0,0:0:0:0:
182,192,246496,1,0,0:0:0:0:
256,192,246496,1,0,0:0:0:0:
475,192,246496,1,0,0:0:0:0:
329,192,246563,1,0,0:0:0:0:
109,192,246631,1,0,0:0:0:0:
182,192,246631,128,0,246766:0:0:0:0:
36,192,246766,1,0,0:0:0:0:
475,192,246766,1,0,0:0:0:0:
329,192,246833,1,0,0:0:0:0:
182,192,246901,1,0,0:0:0:0:
475,192,246901,128,0,247036:0:0:0:0:
36,192,247036,1,0,0:0:0:0:
256,192,247036,1,0,0:0:0:0:
329,192,247036,1,0,0:0:0:0:
182,192,247103,1,0,0:0:0:0:
329,192,247171,128,0,247306:0:0:0:0:
402,192,247171,1,0,0:0:0:0:
36,192,247306,128,0,247441:0:0:0:0:
109,192,247306,1,0,0:0:0:0:
475,192,247306,1,0,0:0:0:0:
402,192,247373,1,0,0:0:0:0:
256,192,247373,1,0,0:0:0:0:
182,192,247441,1,0,0:0:0:0:
475,192,247441,1,0,0:0:0:0:
109,192,247576,128,0,247711:0:0:0:0:
182,192,247576,1,0,0:0:0:0:
402,192,247576,1,0,0:0:0:0:
475,192,247643,1,0,0:0:0:0:
329,192,247643,1,0,0:0:0:0:
256,192,247711,1,0,0:0:0:0:
402,192,247711,1,0,0:0:0:0:
182,192,247778,1,0,0:0:0:0:
402,192,247846,1,0,0:0:0:0:
475,192,247846,128,0,247981:0:0:0:0:
109,192,247913,1,0,0:0:0:0:
256,192,247913,1,0,0:0:0:0:
329,192,247981,1,0,0:0:0:0:
182,192,247981,1,0,0:0:0:0:
329,192,248116,1,0,0:0:0:0:
402,192,248116,128,0,248251:0:0:0:0:
109,192,248116,1,0,0:0:0:0:
36,192,248183,1,0,0:0:0:0:
182,192,248183,1,0,0:0:0:0:
256,192,248251,1,0,0:0:0:0:
109,192,248251,1,0,0:0:0:0:
109,192,248386,1,0,0:0:0:0:
329,192,248386,128,0,248453:0:0:0:0:
402,192,248386,1,0,0:0:0:0:
256,192,248453,1,0,0:0:0:0:
475,192,248453,128,0,248521:0:0:0:0:
36,192,248521,1,0,0:0:0:0:
182,192,248588,1,0,0:0:0:0:
256,192,248588,128,0,248656:0:0:0:0:
109,192,248656,1,0,0:0:0:0:
329,192,248656,1,0,0:0:0:0:
402,192,248656,128,0,248723:0:0:0:0:
475,192,248656,1,0,0:0:0:0:
36,192,248723,1,0,0:0:0:0:
182,192,248791,128,0,248858:0:0:0:0:
256,192,248791,1,0,0:0:0:0:
329,192,248858,128,0,248926:0:0:0:0:
475,192,248858,1,0,0:0:0:0:
109,192,248926,1,0,0:0:0:0:
182,192,248926,128,0,248993:0:0:0:0:
256,192,248926,1,0,0:0:0:0:
402,192,248993,1,0,0:0:0:0:
36,192,249061,1,0,0:0:0:0:
329,192,249061,128,0,249128:0:0:0:0:
475,192,249128,1,0,0:0:0:0:
36,192,249196,128,0,249263:0:0:0:0:
182,192,249196,1,0,0:0:0:0:
256,192,249196,1,0,0:0:0:0:
402,192,249196,1,0,0:0:0:0:
329,192,249263,1,0,0:0:0:0:
109,192,249331,1,0,0:0:0:0:
182,192,249331,128,0,249398:0:0:0:0:
402,192,249398,1,0,0:0:0:0:
36,192,249466,1,0,0:0:0:0:
109,192,249466,1,0,0:0:0:0:
329,192,249466,128,0,249533:0:0:0:0:
256,192,249533,1,0,0:0:0:0:
475,192,249533,128,0,249601:0:0:0:0:
109,192,249601,1,0,0:0:0:0:
329,192,249601,128,0,249668:0:0:0:0:
36,192,249668,1,0,0:0:0:0:
109,192,249736,1,0,0:0:0:0:
182,192,249736,1,0,0:0:0:0:
402,192,249736,128,0,249803:0:0:0:0:
475,192,249736,1,0,0:0:0:0:
36,192,249803,1,0,0:0:0:0:
256,192,249803,128,0,249871:0:0:0:0:
182,192,249871,1,0,0:0:0:0:
402,192,249871,128,0,249938:0:0:0:0:
329,192,249938,1,0,0:0:0:0:
182,192,250006,128,0,250141:0:0:0:0:
256,192,250006,1,0,0:0:0:0:
475,192,250006,1,0,0:0:0:0:
36,192,250074,1,0,0:0:0:0:
109,192,250141,1,0,0:0:0:0:
329,192,250141,128,0,250209:0:0:0:0:
182,192,250209,1,0,0:0:0:0:
256,192,250276,1,0,0:0:0:0:
329,192,250276,1,0,0:0:0:0:
475,192,250276,1,0,0:0:0:0:
402,192,250344,1,0,0:0:0:0:
475,192,250411,1,0,0:0:0:0:
329,192,250479,1,0,0:0:0:0:
36,192,250546,128,0,250614:0:0:0:0:
256,192,250546,1,0,0:0:0:0:
475,192,250546,1,0,0:0:0:0:
109,192,250614,1,0,0:0:0:0:
182,192,250614,128,0,250681:0:0:0:0:
256,192,250681,1,0,0:0:0:0:
329,192,250681,128,0,250749:0:0:0:0:
109,192,250749,128,0,250816:0:0:0:0:
402,192,250749,1,0,0:0:0:0:
36,192,250816,1,0,0:0:0:0:
182,192,250816,1,0,0:0:0:0:
256,192,250816,128,0,250884:0:0:0:0:
475,192,250816,1,0,0:0:0:0:
329,192,250884,1,0,0:0:0:0:
402,192,250884,128,0,250951:0:0:0:0:
182,192,250951,128,0,251019:0:0:0:0:
475,192,250951,1,0,0:0:0:0:
256,192,251019,1,0,0:0:0:0:
329,192,251019,128,0,251086:0:0:0:0:
109,192,251086,1,0,0:0:0:0:
402,192,251086,1,0,0:0:0:0:
475,192,251086,128,0,251154:0:0:0:0:
36,192,251154,128,0,251221:0:0:0:0:
182,192,251154,1,0,0:0:0:0:
256,192,251154,128,0,251221:0:0:0:0:
329,192,251221,1,0,0:0:0:0:
475,192,251289,1,0,0:0:0:0:
36,192,251356,1,0,0:0:0:0:
182,192,251356,128,0,251424:0:0:0:0:
256,192,251356,1,0,0:0:0:0:
329,192,251356,1,0,0:0:0:0:
475,192,251424,1,0,0:0:0:0:
256,192,251491,1,0,0:0:0:0:
329,192,251491,128,0,251559:0:0:0:0:
402,192,251559,1,0,0:0:0:0:
36,192,251626,1,0,0:0:0:0:
182,192,251626,1,0,0:0:0:0:
475,192,251626,128,0,251694:0:0:0:0:
256,192,251694,128,0,251761:0:0:0:0:
329,192,251694,1,0,0:0:0:0:
36,192,251761,128,0,251829:0:0:0:0:
182,192,251761,1,0,0:0:0:0:
329,192,251829,1,0,0:0:0:0:
36,192,251896,1,0,0:0:0:0:
109,192,251896,1,0,0:0:0:0:
402,192,251896,128,0,251964:0:0:0:0:
475,192,251896,1,0,0:0:0:0:
256,192,251964,128,0,252031:0:0:0:0:
329,192,251964,1,0,0:0:0:0:
109,192,252031,128,0,252099:0:0:0:0:
182,192,252031,1,0,0:0:0:0:
36,192,252099,1,0,0:0:0:0:
36,192,252166,128,0,252234:0:0:0:0:
182,192,252166,1,0,0:0:0:0:
475,192,252166,1,0,0:0:0:0:
256,192,252234,128,0,252301:0:0:0:0:
329,192,252234,1,0,0:0:0:0:
182,192,252301,1,0,0:0:0:0:
475,192,252301,128,0,252369:0:0:0:0:
329,192,252369,1,0,0:0:0:0:
36,192,252436,1,0,0:0:0:0:
109,192,252436,128,0,252504:0:0:0:0:
402,192,252436,1,0,0:0:0:0:
475,192,252436,1,0,0:0:0:0:
182,192,252504,1,0,0:0:0:0:
256,192,252504,128,0,252571:0:0:0:0:
329,192,252571,1,0,0:0:0:0:
402,192,252571,128,0,252639:0:0:0:0:
475,192,252639,1,0,0:0:0:0:
36,192,252706,1,0,0:0:0:0:
109,192,252706,1,0,0:0:0:0:
36,192,252841,1,0,0:0:0:0:
182,192,252841,1,0,0:0:0:0:
109,192,252976,1,0,0:0:0:0:
182,192,252976,1,0,0:0:0:0:
109,192,253111,1,0,0:0:0:0:
256,192,253111,1,0,0:0:0:0:
182,192,253246,1,0,0:0:0:0:
256,192,253246,1,0,0:0:0:0:
182,192,253381,1,0,0:0:0:0:
329,192,253381,1,0,0:0:0:0:
256,192,253516,1,0,0:0:0:0:
329,192,253516,1,0,0:0:0:0:
256,192,253651,1,0,0:0:0:0:
402,192,253651,1,0,0:0:0:0:
36,192,253786,1,0,0:0:0:0:
182,192,253786,1,0,0:0:0:0:
36,192,253921,1,0,0:0:0:0:
256,192,253921,1,0,0:0:0:0:
109,192,254056,1,0,0:0:0:0:
256,192,254056,1,0,0:0:0:0:
109,192,254191,1,0,0:0:0:0:
329,192,254191,1,0,0:0:0:0:
182,192,254326,1,0,0:0:0:0:
329,192,254326,1,0,0:0:0:0:
182,192,254461,1,0,0:0:0:0:
402,192,254461,1,0,0:0:0:0:
256,192,254596,1,0,0:0:0:0:
402,192,254596,1,0,0:0:0:0:
256,192,254731,1,0,0:0:0:0:
475,192,254731,1,0,0:0:0:0:
36,192,254866,1,0,0:0:0:0:
475,192,254866,1,0,0:0:0:0:
109,192,254934,1,0,0:0:0:0:
182,192,255001,1,0,0:0:0:0:
256,192,255069,1,0,0:0:0:0:
329,192,255136,1,0,0:0:0:0:
256,192,255204,1,0,0:0:0:0:
182,192,255271,1,0,0:0:0:0:
109,192,255339,1,0,0:0:0:0:
36,192,255406,1,0,0:0:0:0:
475,192,255406,1,0,0:0:0:0:
402,192,255474,1,0,0:0:0:0:
329,192,255541,1,0,0:0:0:0:
256,192,255609,1,0,0:0:0:0:
182,192,255676,1,0,0:0:0:0:
256,192,255744,1,0,0:0:0:0:
329,192,255811,1,0,0:0:0:0:
402,192,255879,1,0,0:0:0:0:
475,192,255946,1,0,0:0:0:0:
36,192,255946,1,0,0:0:0:0:
256,192,255946,1,0,0:0:0:0:
182,192,256014,1,0,0:0:0:0:
329,192,256014,1,0,0:0:0:0:
36,192,256081,1,0,0:0:0:0:
402,192,256081,1,0,0:0:0:0:
182,192,256149,1,0,0:0:0:0:
475,192,256149,1,0,0:0:0:0:
109,192,256216,1,0,0:0:0:0:
329,192,256216,1,0,0:0:0:0:
256,192,256284,1,0,0:0:0:0:
475,192,256284,1,0,0:0:0:0:
109,192,256351,1,0,0:0:0:0:
329,192,256351,1,0,0:0:0:0:
256,192,256419,1,0,0:0:0:0:
475,192,256419,1,0,0:0:0:0:
182,192,256486,1,0,0:0:0:0:
402,192,256486,1,0,0:0:0:0:
36,192,256554,1,0,0:0:0:0:
256,192,256554,1,0,0:0:0:0:
182,192,256621,1,0,0:0:0:0:
402,192,256621,1,0,0:0:0:0:
36,192,256689,1,0,0:0:0:0:
256,192,256689,1,0,0:0:0:0:
329,192,256756,1,0,0:0:0:0:
182,192,256756,1,0,0:0:0:0:
256,192,256824,1,0,0:0:0:0:
182,192,256891,1,0,0:0:0:0:
329,192,256891,1,0,0:0:0:0:
109,192,256959,1,0,0:0:0:0:
402,192,256959,1,0,0:0:0:0:
36,192,257026,1,0,0:0:0:0:
475,192,257026,1,0,0:0:0:0:
256,192,257026,128,0,261346:0:0:0:0:
