osu file format v12

[General]
AudioFilename: Xi - Freedom Dive - Another -.mp3
AudioLeadIn: 0
PreviewTime: 125265
Countdown: 0
SampleSet: None
StackLeniency: 0.7
Mode: 3
LetterboxInBreaks: 0
SpecialStyle: 0
WidescreenStoryboard: 0

[Editor]
DistanceSpacing: 1.2
BeatDivisor: 2
GridSize: 4
TimelineZoom: 1

[Metadata]
Title:FREEDOM DiVE
TitleUnicode:FREEDOM DiVE
Artist:xi
ArtistUnicode:xi
Creator:ExPew
Version:7K MX
Source:BMS
Tags:ishimaru94 - R u m i a - parousia
BeatmapID:432036
BeatmapSetID:179727

[Difficulty]
HPDrainRate:8
CircleSize:7
OverallDifficulty:7
ApproachRate:0
SliderMultiplier:1.4
SliderTickRate:1

[Events]
//Background and Video events
0,0,"Freedom Dive - Another -.jpg",0,0
//Break Periods
//Storyboard Layer 0 (Background)
//Storyboard Layer 1 (Fail)
//Storyboard Layer 2 (Pass)
//Storyboard Layer 3 (Foreground)
//Storyboard Sound Samples
//Background Colour Transformations
3,100,163,162,255

[TimingPoints]
-16,270.002700027,4,2,2,30,1,0
28064,-100,4,2,2,25,0,0
44264,-100,4,2,2,28,0,0
45344,-100,4,2,2,35,0,0
47504,-100,4,2,2,30,0,0
64784,-100,4,2,2,35,0,1
82064,-133.333333333333,4,2,2,40,0,0
84224,-133.333333333333,4,2,2,20,0,0
84764,-133.333333333333,4,2,2,40,0,0
90704,-133.333333333333,4,2,2,35,0,0
98264,-133.333333333333,4,2,2,32,0,0
99344,-128.205128205128,4,2,2,32,0,0
100425,-123.456790123457,4,2,2,32,0,0
101505,-119.047619047619,4,2,2,32,0,0
102585,-114.942528735632,4,2,2,32,0,0
103665,-111.111111111111,4,2,2,32,0,0
104745,-107.52688172043,4,2,2,32,0,0
105825,-104.166666666667,4,2,2,32,0,0
106365,-100,4,2,2,32,0,0
106905,-100,4,2,2,32,0,0
107715,-200,4,2,2,70,0,0
107782,-400,4,2,2,70,0,0
107850,-100,4,2,2,70,0,0
107917,-66.6666666666667,4,2,2,70,0,0
107985,-100,4,2,2,30,0,1
141465,-100,4,2,2,33,0,1
142545,-100,4,2,2,35,0,0
146865,-100,4,2,2,35,0,0
161985,-100,4,2,2,40,0,0
164145,-100,4,2,2,35,0,0
197625,-100,4,2,2,30,0,0
198705,-100,4,2,2,35,0,0
199785,-100,4,2,2,30,0,0
200866,-100,4,2,2,40,0,0
208426,-100,4,2,2,35,0,0
209506,-100,4,2,2,40,0,0
215986,-100,4,2,2,35,0,0
218146,-100,4,2,2,35,0,1
235426,-100,4,2,2,32,0,1
244066,-100,4,2,2,38,0,1
252706,-100,4,2,2,35,0,0
261346,-100,4,2,2,5,0,0

[HitObjects]
36,192,2144,1,0,0:0:0:0:
329,192,2144,1,0,0:0:0:0:
475,192,2144,1,0,0:0:0:0:
109,192,2346,1,0,0:0:0:0:
36,192,2549,1,0,0:0:0:0:
256,192,2684,1,0,0:0:0:0:
402,192,2684,1,0,0:0:0:0:
36,192,2819,1,0,0:0:0:0:
182,192,2819,1,0,0:0:0:0:
329,192,2954,1,0,0:0:0:0:
475,192,2954,1,0,0:0:0:0:
109,192,3089,1,0,0:0:0:0:
256,192,3089,1,0,0:0:0:0:
475,192,3224,1,0,0:0:0:0:
402,192,3426,1,0,0:0:0:0:
475,192,3629,1,0,0:0:0:0:
182,192,3764,1,0,0:0:0:0:
256,192,3764,1,0,0:0:0:0:
109,192,3899,1,0,0:0:0:0:
329,192,3899,1,0,0:0:0:0:
36,192,4034,1,0,0:0:0:0:
402,192,4034,1,0,0:0:0:0:
36,192,4304,1,0,0:0:0:0:
182,192,4304,1,0,0:0:0:0:
475,192,4304,1,0,0:0:0:0:
402,192,4506,1,0,0:0:0:0:
329,192,4709,1,0,0:0:0:0:
109,192,4844,1,0,0:0:0:0:
182,192,4844,1,0,0:0:0:0:
256,192,4979,1,0,0:0:0:0:
329,192,4979,1,0,0:0:0:0:
36,192,5114,1,0,0:0:0:0:
109,192,5114,1,0,0:0:0:0:
182,192,5249,1,0,0:0:0:0:
256,192,5249,1,0,0:0:0:0:
475,192,5384,1,0,0:0:0:0:
329,192,5586,1,0,0:0:0:0:
182,192,5789,1,0,0:0:0:0:
475,192,5924,1,0,0:0:0:0:
402,192,5991,1,0,0:0:0:0:
329,192,6059,1,0,0:0:0:0:
256,192,6126,1,0,0:0:0:0:
36,192,6194,1,0,0:0:0:0:
109,192,6261,1,0,0:0:0:0:
182,192,6329,1,0,0:0:0:0:
256,192,6396,1,0,0:0:0:0:
36,192,6464,1,0,0:0:0:0:
329,192,6464,1,0,0:0:0:0:
475,192,6464,1,0,0:0:0:0:
109,192,6666,1,0,0:0:0:0:
182,192,6869,1,0,0:0:0:0:
36,192,7004,1,0,0:0:0:0:
329,192,7004,1,0,0:0:0:0:
109,192,7139,1,0,0:0:0:0:
402,192,7139,1,0,0:0:0:0:
182,192,7274,1,0,0:0:0:0:
475,192,7274,1,0,0:0:0:0:
109,192,7409,1,0,0:0:0:0:
402,192,7409,1,0,0:0:0:0:
182,192,7544,1,0,0:0:0:0:
475,192,7544,1,0,0:0:0:0:
256,192,7746,1,0,0:0:0:0:
329,192,7949,1,0,0:0:0:0:
182,192,8084,1,0,0:0:0:0:
402,192,8084,1,0,0:0:0:0:
182,192,8219,1,0,0:0:0:0:
402,192,8219,1,0,0:0:0:0:
109,192,8354,1,0,0:0:0:0:
475,192,8354,1,0,0:0:0:0:
36,192,8624,1,0,0:0:0:0:
182,192,8624,1,0,0:0:0:0:
329,192,8624,1,0,0:0:0:0:
256,192,8826,1,0,0:0:0:0:
109,192,9029,1,0,0:0:0:0:
182,192,9164,1,0,0:0:0:0:
329,192,9164,1,0,0:0:0:0:
475,192,9164,1,0,0:0:0:0:
109,192,9299,1,0,0:0:0:0:
256,192,9299,1,0,0:0:0:0:
329,192,9434,1,0,0:0:0:0:
475,192,9434,1,0,0:0:0:0:
256,192,9569,1,0,0:0:0:0:
402,192,9569,1,0,0:0:0:0:
36,192,9704,1,0,0:0:0:0:
329,192,9704,1,0,0:0:0:0:
475,192,9704,1,0,0:0:0:0:
182,192,9839,1,0,0:0:0:0:
36,192,9974,1,0,0:0:0:0:
402,192,9974,1,0,0:0:0:0:
475,192,9974,1,0,0:0:0:0:
182,192,10109,1,0,0:0:0:0:
36,192,10244,1,0,0:0:0:0:
329,192,10244,1,0,0:0:0:0:
109,192,10311,1,0,0:0:0:0:
256,192,10379,1,0,0:0:0:0:
329,192,10446,1,0,0:0:0:0:
36,192,10514,1,0,0:0:0:0:
182,192,10514,1,0,0:0:0:0:
475,192,10514,1,0,0:0:0:0:
402,192,10581,1,0,0:0:0:0:
256,192,10649,1,0,0:0:0:0:
182,192,10716,1,0,0:0:0:0:
36,192,10784,1,0,0:0:0:0:
329,192,10784,1,0,0:0:0:0:
475,192,10784,1,0,0:0:0:0:
182,192,10919,1,0,0:0:0:0:
36,192,11054,1,0,0:0:0:0:
402,192,11054,1,0,0:0:0:0:
256,192,11189,1,0,0:0:0:0:
329,192,11324,1,0,0:0:0:0:
182,192,11459,1,0,0:0:0:0:
329,192,11594,1,0,0:0:0:0:
475,192,11594,1,0,0:0:0:0:
109,192,11729,1,0,0:0:0:0:
402,192,11864,1,0,0:0:0:0:
182,192,11999,1,0,0:0:0:0:
36,192,12134,1,0,0:0:0:0:
329,192,12134,1,0,0:0:0:0:
182,192,12269,1,0,0:0:0:0:
402,192,12404,1,0,0:0:0:0:
182,192,12539,1,0,0:0:0:0:
36,192,12674,1,0,0:0:0:0:
402,192,12674,1,0,0:0:0:0:
256,192,12809,1,0,0:0:0:0:
36,192,12944,1,0,0:0:0:0:
475,192,12944,1,0,0:0:0:0:
402,192,13079,1,0,0:0:0:0:
182,192,13214,1,0,0:0:0:0:
475,192,13214,1,0,0:0:0:0:
256,192,13349,1,0,0:0:0:0:
402,192,13484,1,0,0:0:0:0:
182,192,13619,1,0,0:0:0:0:
36,192,13754,1,0,0:0:0:0:
329,192,13754,1,0,0:0:0:0:
109,192,13889,1,0,0:0:0:0:
256,192,14024,1,0,0:0:0:0:
475,192,14159,1,0,0:0:0:0:
182,192,14294,1,0,0:0:0:0:
329,192,14294,1,0,0:0:0:0:
109,192,14564,1,0,0:0:0:0:
256,192,14564,1,0,0:0:0:0:
329,192,14766,1,0,0:0:0:0:
475,192,14766,1,0,0:0:0:0:
109,192,14969,1,0,0:0:0:0:
329,192,14969,1,0,0:0:0:0:
109,192,15104,1,0,0:0:0:0:
475,192,15104,1,0,0:0:0:0:
402,192,15239,1,0,0:0:0:0:
36,192,15374,1,0,0:0:0:0:
256,192,15374,1,0,0:0:0:0:
329,192,15509,1,0,0:0:0:0:
475,192,15644,1,0,0:0:0:0:
402,192,15779,1,0,0:0:0:0:
36,192,15914,1,0,0:0:0:0:
182,192,15914,1,0,0:0:0:0:
329,192,16049,1,0,0:0:0:0:
475,192,16049,1,0,0:0:0:0:
109,192,16319,1,0,0:0:0:0:
182,192,16319,1,0,0:0:0:0:
329,192,16454,1,0,0:0:0:0:
475,192,16454,1,0,0:0:0:0:
36,192,16589,1,0,0:0:0:0:
109,192,16589,1,0,0:0:0:0:
256,192,16724,1,0,0:0:0:0:
402,192,16724,1,0,0:0:0:0:
36,192,16859,1,0,0:0:0:0:
182,192,16859,1,0,0:0:0:0:
329,192,16994,1,0,0:0:0:0:
402,192,16994,1,0,0:0:0:0:
109,192,17129,1,0,0:0:0:0:
256,192,17129,1,0,0:0:0:0:
402,192,17264,1,0,0:0:0:0:
475,192,17264,1,0,0:0:0:0:
329,192,17399,1,0,0:0:0:0:
182,192,17534,1,0,0:0:0:0:
256,192,17534,1,0,0:0:0:0:
256,192,17669,1,0,0:0:0:0:
36,192,17804,1,0,0:0:0:0:
109,192,17804,1,0,0:0:0:0:
182,192,17939,1,0,0:0:0:0:
256,192,18074,1,0,0:0:0:0:
329,192,18074,1,0,0:0:0:0:
256,192,18209,1,0,0:0:0:0:
36,192,18344,1,0,0:0:0:0:
329,192,18344,1,0,0:0:0:0:
36,192,18479,1,0,0:0:0:0:
329,192,18479,1,0,0:0:0:0:
109,192,18614,1,0,0:0:0:0:
402,192,18614,1,0,0:0:0:0:
109,192,18749,1,0,0:0:0:0:
402,192,18749,1,0,0:0:0:0:
36,192,18884,1,0,0:0:0:0:
475,192,18884,1,0,0:0:0:0:
109,192,18951,1,0,0:0:0:0:
329,192,19019,1,0,0:0:0:0:
256,192,19086,1,0,0:0:0:0:
109,192,19154,1,0,0:0:0:0:
475,192,19154,1,0,0:0:0:0:
36,192,19221,1,0,0:0:0:0:
256,192,19289,1,0,0:0:0:0:
329,192,19356,1,0,0:0:0:0:
36,192,19424,1,0,0:0:0:0:
475,192,19424,1,0,0:0:0:0:
402,192,19559,1,0,0:0:0:0:
182,192,19694,1,0,0:0:0:0:
475,192,19694,1,0,0:0:0:0:
182,192,19829,1,0,0:0:0:0:
36,192,19964,1,0,0:0:0:0:
109,192,20099,1,0,0:0:0:0:
36,192,20234,1,0,0:0:0:0:
329,192,20234,1,0,0:0:0:0:
329,192,20369,1,0,0:0:0:0:
182,192,20504,1,0,0:0:0:0:
329,192,20639,1,0,0:0:0:0:
36,192,20774,1,0,0:0:0:0:
402,192,20774,1,0,0:0:0:0:
329,192,20909,1,0,0:0:0:0:
182,192,21044,1,0,0:0:0:0:
402,192,21179,1,0,0:0:0:0:
109,192,21314,1,0,0:0:0:0:
475,192,21314,1,0,0:0:0:0:
402,192,21449,1,0,0:0:0:0:
36,192,21584,1,0,0:0:0:0:
256,192,21584,1,0,0:0:0:0:
329,192,21584,1,0,0:0:0:0:
329,192,21719,1,0,0:0:0:0:
109,192,21854,1,0,0:0:0:0:
402,192,21854,1,0,0:0:0:0:
182,192,21989,1,0,0:0:0:0:
182,192,22124,1,0,0:0:0:0:
402,192,22259,1,0,0:0:0:0:
36,192,22394,1,0,0:0:0:0:
329,192,22394,1,0,0:0:0:0:
402,192,22529,1,0,0:0:0:0:
109,192,22664,1,0,0:0:0:0:
109,192,22799,1,0,0:0:0:0:
36,192,22934,1,0,0:0:0:0:
256,192,22934,1,0,0:0:0:0:
109,192,23204,1,0,0:0:0:0:
329,192,23204,1,0,0:0:0:0:
109,192,23406,1,0,0:0:0:0:
329,192,23406,1,0,0:0:0:0:
182,192,23609,1,0,0:0:0:0:
329,192,23609,1,0,0:0:0:0:
36,192,23744,1,0,0:0:0:0:
329,192,23744,1,0,0:0:0:0:
109,192,23879,1,0,0:0:0:0:
182,192,24014,1,0,0:0:0:0:
475,192,24014,1,0,0:0:0:0:
182,192,24149,1,0,0:0:0:0:
402,192,24284,1,0,0:0:0:0:
329,192,24419,1,0,0:0:0:0:
109,192,24554,1,0,0:0:0:0:
329,192,24554,1,0,0:0:0:0:
109,192,24689,1,0,0:0:0:0:
475,192,24689,1,0,0:0:0:0:
256,192,24959,1,0,0:0:0:0:
402,192,24959,1,0,0:0:0:0:
109,192,25094,1,0,0:0:0:0:
402,192,25094,1,0,0:0:0:0:
36,192,25229,1,0,0:0:0:0:
329,192,25229,1,0,0:0:0:0:
182,192,25364,1,0,0:0:0:0:
475,192,25364,1,0,0:0:0:0:
109,192,25499,1,0,0:0:0:0:
402,192,25499,1,0,0:0:0:0:
36,192,25634,1,0,0:0:0:0:
256,192,25634,1,0,0:0:0:0:
36,192,25769,1,0,0:0:0:0:
256,192,25769,1,0,0:0:0:0:
329,192,25904,1,0,0:0:0:0:
475,192,25904,128,0,26174:0:0:0:0:
256,192,26174,1,0,0:0:0:0:
402,192,26174,128,0,26444:0:0:0:0:
182,192,26444,1,0,0:0:0:0:
329,192,26444,128,0,26714:0:0:0:0:
36,192,26511,1,0,0:0:0:0:
182,192,26579,1,0,0:0:0:0:
36,192,26646,1,0,0:0:0:0:
182,192,26714,1,0,0:0:0:0:
256,192,26714,128,0,26984:0:0:0:0:
36,192,26984,128,0,27254:0:0:0:0:
182,192,26984,1,0,0:0:0:0:
109,192,27254,128,0,27524:0:0:0:0:
256,192,27254,1,0,0:0:0:0:
182,192,27524,128,0,27794:0:0:0:0:
475,192,27524,1,0,0:0:0:0:
329,192,27591,1,0,0:0:0:0:
475,192,27659,1,0,0:0:0:0:
329,192,27726,1,0,0:0:0:0:
109,192,27794,1,0,0:0:0:0:
256,192,27794,128,0,28064:0:0:0:0:
402,192,27861,1,0,0:0:0:0:
109,192,27929,1,0,0:0:0:0:
402,192,27996,1,0,0:0:0:0:
36,192,28064,128,0,30224:0:0:0:0:
475,192,28064,1,0,0:0:0:0:
182,192,28604,1,0,0:0:0:0:
329,192,28806,1,0,0:0:0:0:
329,192,29009,1,0,0:0:0:0:
475,192,29144,1,0,0:0:0:0:
475,192,29684,1,0,0:0:0:0:
329,192,29886,1,0,0:0:0:0:
329,192,30089,1,0,0:0:0:0:
475,192,30224,128,0,31304:0:0:0:0:
182,192,30224,1,0,0:0:0:0:
402,192,30764,1,0,0:0:0:0:
182,192,30966,1,0,0:0:0:0:
402,192,31169,1,0,0:0:0:0:
36,192,31304,128,0,31844:0:0:0:0:
182,192,31304,1,0,0:0:0:0:
109,192,31844,1,0,0:0:0:0:
256,192,31844,128,0,32384:0:0:0:0:
182,192,31979,1,0,0:0:0:0:
329,192,32114,1,0,0:0:0:0:
402,192,32249,1,0,0:0:0:0:
329,192,32384,1,0,0:0:0:0:
475,192,32384,128,0,33464:0:0:0:0:
256,192,32924,1,0,0:0:0:0:
329,192,33194,1,0,0:0:0:0:
36,192,33464,128,0,34004:0:0:0:0:
402,192,33464,1,0,0:0:0:0:
329,192,33734,1,0,0:0:0:0:
256,192,34004,1,0,0:0:0:0:
475,192,34004,128,0,34544:0:0:0:0:
182,192,34274,1,0,0:0:0:0:
36,192,34544,128,0,35624:0:0:0:0:
402,192,34544,1,0,0:0:0:0:
329,192,34814,1,0,0:0:0:0:
256,192,35084,1,0,0:0:0:0:
402,192,35354,1,0,0:0:0:0:
109,192,35624,128,0,36704:0:0:0:0:
256,192,35624,1,0,0:0:0:0:
475,192,36164,128,0,36704:0:0:0:0:
36,192,36704,1,0,0:0:0:0:
256,192,36704,128,0,37784:0:0:0:0:
402,192,36704,1,0,0:0:0:0:
329,192,36974,1,0,0:0:0:0:
402,192,37244,1,0,0:0:0:0:
475,192,37514,1,0,0:0:0:0:
36,192,37784,128,0,38864:0:0:0:0:
402,192,37784,1,0,0:0:0:0:
329,192,38189,1,0,0:0:0:0:
109,192,38324,128,0,38864:0:0:0:0:
256,192,38594,1,0,0:0:0:0:
256,192,38864,1,0,0:0:0:0:
475,192,38864,128,0,39944:0:0:0:0:
182,192,39134,1,0,0:0:0:0:
109,192,39404,1,0,0:0:0:0:
402,192,39404,128,0,39944:0:0:0:0:
36,192,39674,1,0,0:0:0:0:
36,192,39944,1,0,0:0:0:0:
256,192,39944,128,0,41024:0:0:0:0:
329,192,40214,1,0,0:0:0:0:
36,192,40484,1,0,0:0:0:0:
182,192,40484,128,0,41024:0:0:0:0:
329,192,40754,1,0,0:0:0:0:
36,192,41024,128,0,42104:0:0:0:0:
402,192,41024,1,0,0:0:0:0:
475,192,41024,1,0,0:0:0:0:
402,192,41834,1,0,0:0:0:0:
182,192,42104,128,0,43184:0:0:0:0:
329,192,42104,1,0,0:0:0:0:
475,192,42104,1,0,0:0:0:0:
109,192,42644,1,0,0:0:0:0:
256,192,42644,1,0,0:0:0:0:
402,192,42644,128,0,43184:0:0:0:0:
36,192,43184,128,0,44264:0:0:0:0:
109,192,43184,1,0,0:0:0:0:
475,192,43184,1,0,0:0:0:0:
109,192,43724,128,0,44264:0:0:0:0:
182,192,43724,1,0,0:0:0:0:
256,192,43994,128,0,44264:0:0:0:0:
329,192,43994,1,0,0:0:0:0:
402,192,44264,1,0,0:0:0:0:
475,192,44264,1,0,0:0:0:0:
329,192,44534,1,0,0:0:0:0:
402,192,44534,1,0,0:0:0:0:
256,192,44804,1,0,0:0:0:0:
329,192,44804,1,0,0:0:0:0:
182,192,45074,1,0,0:0:0:0:
256,192,45074,1,0,0:0:0:0:
109,192,45344,1,0,0:0:0:0:
475,192,45344,1,0,0:0:0:0:
256,192,45479,1,0,0:0:0:0:
109,192,45614,1,0,0:0:0:0:
256,192,45749,1,0,0:0:0:0:
182,192,45884,1,0,0:0:0:0:
475,192,45884,1,0,0:0:0:0:
36,192,46019,1,0,0:0:0:0:
182,192,46154,1,0,0:0:0:0:
36,192,46289,1,0,0:0:0:0:
182,192,46424,1,0,0:0:0:0:
475,192,46424,1,0,0:0:0:0:
402,192,46559,1,0,0:0:0:0:
182,192,46694,1,0,0:0:0:0:
475,192,46694,1,0,0:0:0:0:
402,192,46829,1,0,0:0:0:0:
256,192,46964,1,0,0:0:0:0:
475,192,46964,1,0,0:0:0:0:
36,192,47099,1,0,0:0:0:0:
256,192,47234,1,0,0:0:0:0:
475,192,47234,1,0,0:0:0:0:
402,192,47301,1,0,0:0:0:0:
256,192,47369,1,0,0:0:0:0:
182,192,47436,1,0,0:0:0:0:
36,192,47504,1,0,0:0:0:0:
329,192,47504,1,0,0:0:0:0:
329,192,47639,1,0,0:0:0:0:
36,192,47774,1,0,0:0:0:0:
402,192,47774,1,0,0:0:0:0:
256,192,47909,1,0,0:0:0:0:
109,192,48044,1,0,0:0:0:0:
109,192,48179,1,0,0:0:0:0:
36,192,48314,1,0,0:0:0:0:
402,192,48314,1,0,0:0:0:0:
329,192,48449,1,0,0:0:0:0:
256,192,48584,1,0,0:0:0:0:
256,192,48719,1,0,0:0:0:0:
182,192,48854,1,0,0:0:0:0:
475,192,48854,1,0,0:0:0:0:
36,192,48989,1,0,0:0:0:0:
402,192,49124,1,0,0:0:0:0:
402,192,49259,1,0,0:0:0:0:
182,192,49394,1,0,0:0:0:0:
475,192,49394,1,0,0:0:0:0:
329,192,49529,1,0,0:0:0:0:
109,192,49664,1,0,0:0:0:0:
109,192,49799,1,0,0:0:0:0:
36,192,49934,1,0,0:0:0:0:
256,192,49934,1,0,0:0:0:0:
182,192,50069,1,0,0:0:0:0:
402,192,50204,1,0,0:0:0:0:
402,192,50339,1,0,0:0:0:0:
256,192,50474,1,0,0:0:0:0:
475,192,50474,1,0,0:0:0:0:
329,192,50609,1,0,0:0:0:0:
109,192,50744,1,0,0:0:0:0:
182,192,50812,1,0,0:0:0:0:
256,192,50879,1,0,0:0:0:0:
329,192,50947,1,0,0:0:0:0:
36,192,51014,1,0,0:0:0:0:
402,192,51014,1,0,0:0:0:0:
109,192,51149,1,0,0:0:0:0:
475,192,51284,1,0,0:0:0:0:
402,192,51352,1,0,0:0:0:0:
329,192,51419,1,0,0:0:0:0:
256,192,51487,1,0,0:0:0:0:
182,192,51554,1,0,0:0:0:0:
475,192,51554,1,0,0:0:0:0:
402,192,51689,1,0,0:0:0:0:
182,192,51824,1,0,0:0:0:0:
256,192,51824,1,0,0:0:0:0:
36,192,51959,1,0,0:0:0:0:
256,192,52094,1,0,0:0:0:0:
329,192,52094,1,0,0:0:0:0:
475,192,52094,1,0,0:0:0:0:
36,192,52229,1,0,0:0:0:0:
329,192,52364,1,0,0:0:0:0:
402,192,52364,1,0,0:0:0:0:
36,192,52634,1,0,0:0:0:0:
329,192,52634,1,0,0:0:0:0:
475,192,52634,1,0,0:0:0:0:
256,192,52769,1,0,0:0:0:0:
402,192,52769,1,0,0:0:0:0:
182,192,52904,1,0,0:0:0:0:
329,192,52904,1,0,0:0:0:0:
256,192,53174,1,0,0:0:0:0:
109,192,53242,1,0,0:0:0:0:
256,192,53309,1,0,0:0:0:0:
109,192,53377,1,0,0:0:0:0:
402,192,53444,1,0,0:0:0:0:
475,192,53444,1,0,0:0:0:0:
256,192,53579,1,0,0:0:0:0:
329,192,53714,1,0,0:0:0:0:
402,192,53714,1,0,0:0:0:0:
182,192,53849,1,0,0:0:0:0:
256,192,53984,1,0,0:0:0:0:
329,192,53984,1,0,0:0:0:0:
475,192,54119,1,0,0:0:0:0:
36,192,54254,1,0,0:0:0:0:
182,192,54254,1,0,0:0:0:0:
256,192,54254,1,0,0:0:0:0:
402,192,54389,1,0,0:0:0:0:
109,192,54524,1,0,0:0:0:0:
182,192,54524,1,0,0:0:0:0:
329,192,54659,1,0,0:0:0:0:
36,192,54794,1,0,0:0:0:0:
256,192,54794,1,0,0:0:0:0:
475,192,54794,1,0,0:0:0:0:
182,192,54929,1,0,0:0:0:0:
475,192,55064,1,0,0:0:0:0:
402,192,55132,1,0,0:0:0:0:
329,192,55199,1,0,0:0:0:0:
256,192,55267,1,0,0:0:0:0:
36,192,55334,1,0,0:0:0:0:
182,192,55334,1,0,0:0:0:0:
256,192,55469,1,0,0:0:0:0:
36,192,55604,1,0,0:0:0:0:
402,192,55604,1,0,0:0:0:0:
329,192,55672,1,0,0:0:0:0:
109,192,55739,1,0,0:0:0:0:
36,192,55807,1,0,0:0:0:0:
109,192,55874,1,0,0:0:0:0:
475,192,55874,1,0,0:0:0:0:
256,192,55942,1,0,0:0:0:0:
402,192,56009,1,0,0:0:0:0:
475,192,56077,1,0,0:0:0:0:
36,192,56144,1,0,0:0:0:0:
402,192,56144,1,0,0:0:0:0:
256,192,56279,1,0,0:0:0:0:
402,192,56414,1,0,0:0:0:0:
256,192,56549,1,0,0:0:0:0:
36,192,56684,1,0,0:0:0:0:
329,192,56684,1,0,0:0:0:0:
475,192,56819,1,0,0:0:0:0:
329,192,56954,1,0,0:0:0:0:
475,192,57089,1,0,0:0:0:0:
36,192,57224,1,0,0:0:0:0:
329,192,57224,1,0,0:0:0:0:
109,192,57359,1,0,0:0:0:0:
36,192,57494,1,0,0:0:0:0:
329,192,57494,1,0,0:0:0:0:
109,192,57629,1,0,0:0:0:0:
36,192,57764,1,0,0:0:0:0:
256,192,57764,1,0,0:0:0:0:
475,192,57899,1,0,0:0:0:0:
36,192,58034,1,0,0:0:0:0:
256,192,58034,1,0,0:0:0:0:
256,192,58169,1,0,0:0:0:0:
182,192,58304,1,0,0:0:0:0:
475,192,58304,1,0,0:0:0:0:
182,192,58439,1,0,0:0:0:0:
109,192,58574,1,0,0:0:0:0:
475,192,58574,1,0,0:0:0:0:
256,192,58709,1,0,0:0:0:0:
402,192,58844,1,0,0:0:0:0:
402,192,58979,1,0,0:0:0:0:
109,192,59114,1,0,0:0:0:0:
475,192,59114,1,0,0:0:0:0:
182,192,59249,1,0,0:0:0:0:
109,192,59384,1,0,0:0:0:0:
256,192,59384,1,0,0:0:0:0:
329,192,59452,1,0,0:0:0:0:
402,192,59519,1,0,0:0:0:0:
182,192,59654,1,0,0:0:0:0:
329,192,59654,1,0,0:0:0:0:
475,192,59654,1,0,0:0:0:0:
109,192,59722,1,0,0:0:0:0:
36,192,59789,1,0,0:0:0:0:
182,192,59924,1,0,0:0:0:0:
329,192,59924,1,0,0:0:0:0:
402,192,59992,1,0,0:0:0:0:
475,192,60059,1,0,0:0:0:0:
36,192,60194,1,0,0:0:0:0:
256,192,60194,1,0,0:0:0:0:
402,192,60194,1,0,0:0:0:0:
182,192,60262,1,0,0:0:0:0:
109,192,60329,1,0,0:0:0:0:
402,192,60464,1,0,0:0:0:0:
402,192,60599,1,0,0:0:0:0:
256,192,60734,1,0,0:0:0:0:
475,192,60734,1,0,0:0:0:0:
329,192,60869,1,0,0:0:0:0:
109,192,61004,1,0,0:0:0:0:
109,192,61139,1,0,0:0:0:0:
36,192,61274,1,0,0:0:0:0:
256,192,61274,1,0,0:0:0:0:
182,192,61409,1,0,0:0:0:0:
402,192,61544,1,0,0:0:0:0:
329,192,61612,1,0,0:0:0:0:
256,192,61679,1,0,0:0:0:0:
182,192,61747,1,0,0:0:0:0:
109,192,61814,1,0,0:0:0:0:
475,192,61814,1,0,0:0:0:0:
402,192,61949,1,0,0:0:0:0:
36,192,62084,1,0,0:0:0:0:
109,192,62152,1,0,0:0:0:0:
182,192,62219,1,0,0:0:0:0:
256,192,62287,1,0,0:0:0:0:
36,192,62354,1,0,0:0:0:0:
329,192,62354,1,0,0:0:0:0:
109,192,62489,1,0,0:0:0:0:
36,192,62624,1,0,0:0:0:0:
475,192,62624,1,0,0:0:0:0:
402,192,62759,1,0,0:0:0:0:
475,192,62894,1,0,0:0:0:0:
329,192,63029,1,0,0:0:0:0:
36,192,63164,1,0,0:0:0:0:
475,192,63164,1,0,0:0:0:0:
256,192,63299,1,0,0:0:0:0:
475,192,63434,1,0,0:0:0:0:
182,192,63569,1,0,0:0:0:0:
36,192,63704,1,0,0:0:0:0:
475,192,63704,1,0,0:0:0:0:
109,192,63839,1,0,0:0:0:0:
256,192,63974,1,0,0:0:0:0:
475,192,64042,1,0,0:0:0:0:
256,192,64109,1,0,0:0:0:0:
475,192,64177,1,0,0:0:0:0:
182,192,64244,1,0,0:0:0:0:
402,192,64312,1,0,0:0:0:0:
109,192,64379,1,0,0:0:0:0:
329,192,64447,1,0,0:0:0:0:
36,192,64514,1,0,0:0:0:0:
182,192,64582,1,0,0:0:0:0:
329,192,64649,1,0,0:0:0:0:
475,192,64717,1,0,0:0:0:0:
182,192,64784,1,0,0:0:0:0:
329,192,64852,1,0,0:0:0:0:
475,192,64919,1,0,0:0:0:0:
182,192,64987,1,0,0:0:0:0:
256,192,65054,1,0,0:0:0:0:
402,192,65122,1,0,0:0:0:0:
256,192,65189,1,0,0:0:0:0:
402,192,65257,1,0,0:0:0:0:
36,192,65324,128,0,65459:0:0:0:0:
475,192,65324,1,0,0:0:0:0:
182,192,65459,128,0,65594:0:0:0:0:
329,192,65594,128,0,65729:0:0:0:0:
475,192,65729,128,0,65864:0:0:0:0:
329,192,65864,1,0,0:0:0:0:
182,192,65932,1,0,0:0:0:0:
36,192,65999,1,0,0:0:0:0:
329,192,66067,1,0,0:0:0:0:
256,192,66134,1,0,0:0:0:0:
109,192,66202,1,0,0:0:0:0:
256,192,66269,1,0,0:0:0:0:
109,192,66337,1,0,0:0:0:0:
36,192,66404,1,0,0:0:0:0:
475,192,66404,128,0,66539:0:0:0:0:
329,192,66539,128,0,66674:0:0:0:0:
182,192,66674,128,0,66809:0:0:0:0:
36,192,66809,128,0,66944:0:0:0:0:
475,192,66944,1,0,0:0:0:0:
402,192,67012,1,0,0:0:0:0:
256,192,67079,1,0,0:0:0:0:
182,192,67147,1,0,0:0:0:0:
402,192,67214,1,0,0:0:0:0:
329,192,67282,1,0,0:0:0:0:
182,192,67349,1,0,0:0:0:0:
109,192,67417,1,0,0:0:0:0:
329,192,67484,128,0,67619:0:0:0:0:
182,192,67619,128,0,67754:0:0:0:0:
475,192,67754,128,0,67889:0:0:0:0:
329,192,67889,128,0,68024:0:0:0:0:
36,192,68024,1,0,0:0:0:0:
109,192,68092,1,0,0:0:0:0:
256,192,68159,1,0,0:0:0:0:
329,192,68227,1,0,0:0:0:0:
109,192,68294,1,0,0:0:0:0:
182,192,68362,1,0,0:0:0:0:
329,192,68429,1,0,0:0:0:0:
402,192,68497,1,0,0:0:0:0:
109,192,68564,128,0,68699:0:0:0:0:
182,192,68564,1,0,0:0:0:0:
256,192,68699,128,0,68834:0:0:0:0:
329,192,68699,1,0,0:0:0:0:
109,192,68834,128,0,68969:0:0:0:0:
182,192,68834,1,0,0:0:0:0:
256,192,68969,128,0,69104:0:0:0:0:
329,192,68969,1,0,0:0:0:0:
36,192,69104,1,0,0:0:0:0:
475,192,69104,128,0,69374:0:0:0:0:
329,192,69307,1,0,0:0:0:0:
182,192,69374,1,0,0:0:0:0:
402,192,69374,1,0,0:0:0:0:
256,192,69509,1,0,0:0:0:0:
36,192,69644,128,0,69914:0:0:0:0:
329,192,69644,1,0,0:0:0:0:
402,192,69779,1,0,0:0:0:0:
109,192,69914,1,0,0:0:0:0:
475,192,69914,1,0,0:0:0:0:
329,192,70049,1,0,0:0:0:0:
182,192,70184,1,0,0:0:0:0:
402,192,70184,128,0,70454:0:0:0:0:
36,192,70319,1,0,0:0:0:0:
475,192,70319,1,0,0:0:0:0:
182,192,70454,1,0,0:0:0:0:
329,192,70454,1,0,0:0:0:0:
256,192,70589,1,0,0:0:0:0:
36,192,70724,1,0,0:0:0:0:
109,192,70724,128,0,70994:0:0:0:0:
182,192,70859,1,0,0:0:0:0:
256,192,70994,1,0,0:0:0:0:
329,192,70994,1,0,0:0:0:0:
256,192,71129,1,0,0:0:0:0:
402,192,71264,1,0,0:0:0:0:
329,192,71332,1,0,0:0:0:0:
256,192,71399,1,0,0:0:0:0:
182,192,71467,1,0,0:0:0:0:
36,192,71534,1,0,0:0:0:0:
109,192,71534,1,0,0:0:0:0:
329,192,71669,1,0,0:0:0:0:
109,192,71804,1,0,0:0:0:0:
182,192,71872,1,0,0:0:0:0:
256,192,71939,1,0,0:0:0:0:
329,192,72007,1,0,0:0:0:0:
402,192,72074,1,0,0:0:0:0:
475,192,72074,1,0,0:0:0:0:
182,192,72209,1,0,0:0:0:0:
109,192,72344,1,0,0:0:0:0:
256,192,72344,1,0,0:0:0:0:
256,192,72479,1,0,0:0:0:0:
36,192,72614,1,0,0:0:0:0:
329,192,72614,1,0,0:0:0:0:
182,192,72884,1,0,0:0:0:0:
475,192,72884,1,0,0:0:0:0:
182,192,73087,1,0,0:0:0:0:
475,192,73087,1,0,0:0:0:0:
109,192,73289,1,0,0:0:0:0:
402,192,73289,1,0,0:0:0:0:
475,192,73289,1,0,0:0:0:0:
256,192,73424,1,0,0:0:0:0:
182,192,73559,1,0,0:0:0:0:
36,192,73694,1,0,0:0:0:0:
329,192,73694,1,0,0:0:0:0:
256,192,73829,1,0,0:0:0:0:
182,192,73964,1,0,0:0:0:0:
329,192,74099,1,0,0:0:0:0:
109,192,74234,1,0,0:0:0:0:
402,192,74234,1,0,0:0:0:0:
182,192,74369,1,0,0:0:0:0:
36,192,74504,1,0,0:0:0:0:
402,192,74589,1,0,0:0:0:0:
109,192,74673,1,0,0:0:0:0:
475,192,74774,1,0,0:0:0:0:
329,192,74909,1,0,0:0:0:0:
182,192,75044,1,0,0:0:0:0:
256,192,75044,1,0,0:0:0:0:
329,192,75146,1,0,0:0:0:0:
402,192,75314,1,0,0:0:0:0:
475,192,75314,1,0,0:0:0:0:
329,192,75449,1,0,0:0:0:0:
36,192,75584,1,0,0:0:0:0:
182,192,75584,1,0,0:0:0:0:
256,192,75719,1,0,0:0:0:0:
329,192,75854,1,0,0:0:0:0:
475,192,75854,1,0,0:0:0:0:
256,192,75989,1,0,0:0:0:0:
36,192,76124,1,0,0:0:0:0:
182,192,76124,1,0,0:0:0:0:
256,192,76259,1,0,0:0:0:0:
329,192,76394,1,0,0:0:0:0:
475,192,76394,1,0,0:0:0:0:
256,192,76529,1,0,0:0:0:0:
36,192,76664,1,0,0:0:0:0:
109,192,76732,1,0,0:0:0:0:
182,192,76799,1,0,0:0:0:0:
256,192,76867,1,0,0:0:0:0:
109,192,76934,1,0,0:0:0:0:
182,192,77002,1,0,0:0:0:0:
256,192,77069,1,0,0:0:0:0:
329,192,77137,1,0,0:0:0:0:
182,192,77204,1,0,0:0:0:0:
256,192,77272,1,0,0:0:0:0:
329,192,77339,1,0,0:0:0:0:
402,192,77407,1,0,0:0:0:0:
256,192,77474,1,0,0:0:0:0:
329,192,77542,1,0,0:0:0:0:
402,192,77609,1,0,0:0:0:0:
475,192,77677,1,0,0:0:0:0:
182,192,77744,1,0,0:0:0:0:
256,192,77744,1,0,0:0:0:0:
36,192,77812,1,0,0:0:0:0:
329,192,77947,1,0,0:0:0:0:
109,192,78014,1,0,0:0:0:0:
182,192,78014,1,0,0:0:0:0:
475,192,78149,1,0,0:0:0:0:
256,192,78284,1,0,0:0:0:0:
329,192,78284,1,0,0:0:0:0:
109,192,78352,1,0,0:0:0:0:
475,192,78487,1,0,0:0:0:0:
256,192,78554,1,0,0:0:0:0:
329,192,78554,1,0,0:0:0:0:
109,192,78689,1,0,0:0:0:0:
256,192,78824,1,0,0:0:0:0:
475,192,78824,1,0,0:0:0:0:
402,192,78892,1,0,0:0:0:0:
329,192,78959,1,0,0:0:0:0:
182,192,79094,1,0,0:0:0:0:
475,192,79094,1,0,0:0:0:0:
109,192,79162,1,0,0:0:0:0:
36,192,79229,1,0,0:0:0:0:
256,192,79364,1,0,0:0:0:0:
475,192,79364,1,0,0:0:0:0:
36,192,79499,1,0,0:0:0:0:
182,192,79567,1,0,0:0:0:0:
329,192,79634,1,0,0:0:0:0:
475,192,79634,1,0,0:0:0:0:
329,192,79769,1,0,0:0:0:0:
109,192,79904,1,0,0:0:0:0:
182,192,79904,1,0,0:0:0:0:
329,192,79972,1,0,0:0:0:0:
182,192,80107,1,0,0:0:0:0:
329,192,80174,1,0,0:0:0:0:
402,192,80174,1,0,0:0:0:0:
109,192,80309,1,0,0:0:0:0:
182,192,80377,1,0,0:0:0:0:
256,192,80444,1,0,0:0:0:0:
329,192,80512,1,0,0:0:0:0:
402,192,80579,1,0,0:0:0:0:
36,192,80714,1,0,0:0:0:0:
182,192,80782,1,0,0:0:0:0:
329,192,80849,1,0,0:0:0:0:
475,192,80917,1,0,0:0:0:0:
182,192,80984,1,0,0:0:0:0:
402,192,80984,1,0,0:0:0:0:
256,192,81052,1,0,0:0:0:0:
329,192,81119,1,0,0:0:0:0:
256,192,81187,1,0,0:0:0:0:
109,192,81254,1,0,0:0:0:0:
329,192,81254,1,0,0:0:0:0:
36,192,81322,1,0,0:0:0:0:
109,192,81389,1,0,0:0:0:0:
182,192,81457,1,0,0:0:0:0:
109,192,81524,1,0,0:0:0:0:
329,192,81524,1,0,0:0:0:0:
402,192,81592,1,0,0:0:0:0:
475,192,81659,1,0,0:0:0:0:
402,192,81727,1,0,0:0:0:0:
36,192,81794,1,0,0:0:0:0:
256,192,81794,1,0,0:0:0:0:
182,192,81862,1,0,0:0:0:0:
256,192,81929,1,0,0:0:0:0:
329,192,81997,1,0,0:0:0:0:
36,192,82064,1,0,0:0:0:0:
256,192,82064,1,0,0:0:0:0:
475,192,82064,128,0,84224:0:0:0:0:
109,192,82604,1,0,0:0:0:0:
256,192,83144,1,0,0:0:0:0:
329,192,83684,1,0,0:0:0:0:
329,192,83954,1,0,0:0:0:0:
182,192,84224,1,0,0:0:0:0:
36,192,84224,1,0,0:0:0:0:
329,192,84764,1,0,0:0:0:0:
182,192,85304,1,0,0:0:0:0:
402,192,85574,1,0,0:0:0:0:
109,192,85844,1,0,0:0:0:0:
329,192,86114,1,0,0:0:0:0:
36,192,86384,1,0,0:0:0:0:
475,192,86924,5,0,0:0:0:0:
36,192,87464,1,0,0:0:0:0:
329,192,88004,1,0,0:0:0:0:
329,192,88274,1,0,0:0:0:0:
475,192,88544,1,0,0:0:0:0:
256,192,88544,1,0,0:0:0:0:
329,192,89084,1,0,0:0:0:0:
402,192,89624,1,0,0:0:0:0:
256,192,89894,5,0,0:0:0:0:
329,192,90164,1,0,0:0:0:0:
182,192,90434,1,0,0:0:0:0:
36,192,90704,5,0,0:0:0:0:
475,192,90704,1,0,0:0:0:0:
329,192,90839,1,0,0:0:0:0:
329,192,91109,1,0,0:0:0:0:
182,192,91379,1,0,0:0:0:0:
182,192,91649,1,0,0:0:0:0:
402,192,91919,1,0,0:0:0:0:
402,192,92189,1,0,0:0:0:0:
109,192,92459,1,0,0:0:0:0:
109,192,92729,1,0,0:0:0:0:
402,192,92729,1,0,0:0:0:0:
329,192,92864,1,0,0:0:0:0:
475,192,92864,1,0,0:0:0:0:
36,192,92999,1,0,0:0:0:0:
36,192,93269,1,0,0:0:0:0:
182,192,93539,1,0,0:0:0:0:
182,192,93809,1,0,0:0:0:0:
109,192,94079,1,0,0:0:0:0:
109,192,94349,1,0,0:0:0:0:
256,192,94619,1,0,0:0:0:0:
256,192,94889,1,0,0:0:0:0:
402,192,94889,1,0,0:0:0:0:
109,192,95024,1,0,0:0:0:0:
402,192,95024,1,0,0:0:0:0:
182,192,95159,1,0,0:0:0:0:
182,192,95429,1,0,0:0:0:0:
329,192,95699,1,0,0:0:0:0:
182,192,95834,1,0,0:0:0:0:
329,192,95969,1,0,0:0:0:0:
109,192,96104,1,0,0:0:0:0:
402,192,96104,1,0,0:0:0:0:
256,192,96374,1,0,0:0:0:0:
182,192,96509,1,0,0:0:0:0:
36,192,96644,1,0,0:0:0:0:
256,192,96644,1,0,0:0:0:0:
329,192,96914,1,0,0:0:0:0:
402,192,97049,1,0,0:0:0:0:
256,192,97184,1,0,0:0:0:0:
475,192,97184,1,0,0:0:0:0:
182,192,97319,1,0,0:0:0:0:
36,192,97454,1,0,0:0:0:0:
256,192,97454,1,0,0:0:0:0:
182,192,97589,1,0,0:0:0:0:
36,192,97724,1,0,0:0:0:0:
402,192,97724,1,0,0:0:0:0:
329,192,97859,1,0,0:0:0:0:
36,192,97994,1,0,0:0:0:0:
402,192,97994,1,0,0:0:0:0:
329,192,98129,1,0,0:0:0:0:
36,192,98264,1,0,0:0:0:0:
109,192,98264,1,0,0:0:0:0:
256,192,98264,1,0,0:0:0:0:
256,192,98534,1,0,0:0:0:0:
256,192,98804,1,0,0:0:0:0:
256,192,99074,1,0,0:0:0:0:
36,192,99344,1,0,0:0:0:0:
182,192,99344,1,0,0:0:0:0:
329,192,99344,1,0,0:0:0:0:
329,192,99614,1,0,0:0:0:0:
329,192,99884,1,0,0:0:0:0:
329,192,100155,1,0,0:0:0:0:
36,192,100425,1,0,0:0:0:0:
256,192,100425,1,0,0:0:0:0:
402,192,100425,1,0,0:0:0:0:
402,192,100695,1,0,0:0:0:0:
402,192,100965,1,0,0:0:0:0:
402,192,101235,1,0,0:0:0:0:
36,192,101505,1,0,0:0:0:0:
329,192,101505,1,0,0:0:0:0:
475,192,101505,1,0,0:0:0:0:
475,192,101775,1,0,0:0:0:0:
475,192,102045,1,0,0:0:0:0:
475,192,102315,1,0,0:0:0:0:
329,192,102450,1,0,0:0:0:0:
36,192,102585,1,0,0:0:0:0:
402,192,102585,1,0,0:0:0:0:
109,192,102585,1,0,0:0:0:0:
109,192,102855,1,0,0:0:0:0:
109,192,103125,1,0,0:0:0:0:
109,192,103395,1,0,0:0:0:0:
36,192,103665,1,0,0:0:0:0:
475,192,103665,1,0,0:0:0:0:
182,192,103665,1,0,0:0:0:0:
182,192,103935,1,0,0:0:0:0:
182,192,104205,1,0,0:0:0:0:
182,192,104475,1,0,0:0:0:0:
109,192,104745,1,0,0:0:0:0:
475,192,104745,1,0,0:0:0:0:
256,192,104745,1,0,0:0:0:0:
256,192,105015,1,0,0:0:0:0:
256,192,105285,1,0,0:0:0:0:
256,192,105555,1,0,0:0:0:0:
182,192,105825,1,0,0:0:0:0:
475,192,105825,1,0,0:0:0:0:
329,192,105825,1,0,0:0:0:0:
329,192,106095,1,0,0:0:0:0:
256,192,106365,1,0,0:0:0:0:
475,192,106365,1,0,0:0:0:0:
402,192,106365,1,0,0:0:0:0:
402,192,106635,1,0,0:0:0:0:
36,192,106905,128,0,107715:0:0:0:0:
329,192,106905,1,0,0:0:0:0:
475,192,106905,1,0,0:0:0:0:
475,192,107715,1,0,0:0:0:0:
182,192,107985,1,0,0:0:0:0:
256,192,107985,1,0,0:0:0:0:
402,192,108052,1,0,0:0:0:0:
109,192,108187,1,0,0:0:0:0:
329,192,108255,1,0,0:0:0:0:
402,192,108255,1,0,0:0:0:0:
109,192,108390,1,0,0:0:0:0:
36,192,108525,1,0,0:0:0:0:
475,192,108525,1,0,0:0:0:0:
109,192,108592,1,0,0:0:0:0:
182,192,108660,1,0,0:0:0:0:
256,192,108727,1,0,0:0:0:0:
329,192,108795,1,0,0:0:0:0:
475,192,108795,1,0,0:0:0:0:
402,192,108930,1,0,0:0:0:0:
256,192,109065,1,0,0:0:0:0:
329,192,109065,1,0,0:0:0:0:
109,192,109132,1,0,0:0:0:0:
402,192,109267,1,0,0:0:0:0:
182,192,109335,1,0,0:0:0:0:
256,192,109335,1,0,0:0:0:0:
402,192,109470,1,0,0:0:0:0:
36,192,109605,1,0,0:0:0:0:
475,192,109605,1,0,0:0:0:0:
402,192,109672,1,0,0:0:0:0:
329,192,109740,1,0,0:0:0:0:
256,192,109807,1,0,0:0:0:0:
36,192,109875,1,0,0:0:0:0:
182,192,109875,1,0,0:0:0:0:
109,192,110010,1,0,0:0:0:0:
182,192,110145,1,0,0:0:0:0:
256,192,110212,1,0,0:0:0:0:
329,192,110280,1,0,0:0:0:0:
402,192,110347,1,0,0:0:0:0:
36,192,110415,1,0,0:0:0:0:
475,192,110415,1,0,0:0:0:0:
109,192,110550,1,0,0:0:0:0:
402,192,110550,1,0,0:0:0:0:
329,192,110685,1,0,0:0:0:0:
256,192,110752,1,0,0:0:0:0:
182,192,110820,1,0,0:0:0:0:
109,192,110887,1,0,0:0:0:0:
36,192,110955,1,0,0:0:0:0:
475,192,110955,1,0,0:0:0:0:
109,192,111090,1,0,0:0:0:0:
402,192,111090,1,0,0:0:0:0:
182,192,111225,1,0,0:0:0:0:
256,192,111225,1,0,0:0:0:0:
36,192,111292,1,0,0:0:0:0:
329,192,111427,1,0,0:0:0:0:
109,192,111495,1,0,0:0:0:0:
182,192,111495,1,0,0:0:0:0:
329,192,111630,1,0,0:0:0:0:
475,192,111630,1,0,0:0:0:0:
182,192,111765,1,0,0:0:0:0:
329,192,111765,1,0,0:0:0:0:
109,192,111900,1,0,0:0:0:0:
329,192,111900,1,0,0:0:0:0:
36,192,112035,1,0,0:0:0:0:
256,192,112035,1,0,0:0:0:0:
36,192,112170,1,0,0:0:0:0:
329,192,112170,1,0,0:0:0:0:
402,192,112305,1,0,0:0:0:0:
475,192,112305,1,0,0:0:0:0:
256,192,112372,1,0,0:0:0:0:
256,192,112507,1,0,0:0:0:0:
36,192,112575,1,0,0:0:0:0:
109,192,112575,1,0,0:0:0:0:
329,192,112710,1,0,0:0:0:0:
256,192,112777,1,0,0:0:0:0:
36,192,112845,1,0,0:0:0:0:
182,192,112845,1,0,0:0:0:0:
329,192,112980,1,0,0:0:0:0:
475,192,112980,1,0,0:0:0:0:
36,192,113115,1,0,0:0:0:0:
182,192,113115,1,0,0:0:0:0:
329,192,113250,1,0,0:0:0:0:
475,192,113250,1,0,0:0:0:0:
182,192,113385,1,0,0:0:0:0:
475,192,113385,1,0,0:0:0:0:
109,192,113452,1,0,0:0:0:0:
36,192,113520,1,0,0:0:0:0:
329,192,113520,1,0,0:0:0:0:
182,192,113655,1,0,0:0:0:0:
475,192,113655,1,0,0:0:0:0:
182,192,113790,1,0,0:0:0:0:
36,192,113925,1,0,0:0:0:0:
329,192,113925,1,0,0:0:0:0:
402,192,113992,1,0,0:0:0:0:
182,192,114060,1,0,0:0:0:0:
475,192,114060,1,0,0:0:0:0:
36,192,114195,1,0,0:0:0:0:
329,192,114195,1,0,0:0:0:0:
329,192,114330,1,0,0:0:0:0:
36,192,114465,1,0,0:0:0:0:
182,192,114465,1,0,0:0:0:0:
109,192,114600,1,0,0:0:0:0:
402,192,114600,1,0,0:0:0:0:
329,192,114735,1,0,0:0:0:0:
475,192,114735,1,0,0:0:0:0:
256,192,114802,1,0,0:0:0:0:
36,192,114870,1,0,0:0:0:0:
182,192,114870,1,0,0:0:0:0:
256,192,115005,1,0,0:0:0:0:
256,192,115140,1,0,0:0:0:0:
36,192,115275,1,0,0:0:0:0:
182,192,115275,1,0,0:0:0:0:
256,192,115342,1,0,0:0:0:0:
329,192,115410,1,0,0:0:0:0:
475,192,115410,1,0,0:0:0:0:
109,192,115545,1,0,0:0:0:0:
182,192,115680,1,0,0:0:0:0:
329,192,115815,1,0,0:0:0:0:
402,192,115950,1,0,0:0:0:0:
109,192,116085,1,0,0:0:0:0:
402,192,116152,1,0,0:0:0:0:
36,192,116220,1,0,0:0:0:0:
475,192,116287,1,0,0:0:0:0:
109,192,116355,1,0,0:0:0:0:
402,192,116422,1,0,0:0:0:0:
36,192,116490,1,0,0:0:0:0:
475,192,116557,1,0,0:0:0:0:
36,192,116625,1,0,0:0:0:0:
329,192,116625,1,0,0:0:0:0:
182,192,116760,1,0,0:0:0:0:
109,192,116827,1,0,0:0:0:0:
36,192,116895,1,0,0:0:0:0:
475,192,116895,1,0,0:0:0:0:
182,192,117030,1,0,0:0:0:0:
182,192,117165,1,0,0:0:0:0:
329,192,117165,1,0,0:0:0:0:
36,192,117300,1,0,0:0:0:0:
109,192,117367,1,0,0:0:0:0:
182,192,117435,1,0,0:0:0:0:
475,192,117435,1,0,0:0:0:0:
36,192,117570,1,0,0:0:0:0:
256,192,117705,1,0,0:0:0:0:
475,192,117789,1,0,0:0:0:0:
256,192,117873,1,0,0:0:0:0:
36,192,117975,1,0,0:0:0:0:
475,192,117975,1,0,0:0:0:0:
36,192,118110,1,0,0:0:0:0:
475,192,118110,1,0,0:0:0:0:
329,192,118245,1,0,0:0:0:0:
182,192,118312,1,0,0:0:0:0:
36,192,118380,1,0,0:0:0:0:
402,192,118447,1,0,0:0:0:0:
256,192,118515,1,0,0:0:0:0:
109,192,118582,1,0,0:0:0:0:
475,192,118650,1,0,0:0:0:0:
329,192,118717,1,0,0:0:0:0:
36,192,118785,1,0,0:0:0:0:
182,192,118785,1,0,0:0:0:0:
182,192,118920,1,0,0:0:0:0:
329,192,119055,1,0,0:0:0:0:
475,192,119055,1,0,0:0:0:0:
329,192,119190,1,0,0:0:0:0:
109,192,119325,1,0,0:0:0:0:
256,192,119325,1,0,0:0:0:0:
256,192,119460,1,0,0:0:0:0:
329,192,119595,1,0,0:0:0:0:
475,192,119595,1,0,0:0:0:0:
329,192,119730,1,0,0:0:0:0:
109,192,119865,1,0,0:0:0:0:
475,192,119865,1,0,0:0:0:0:
182,192,119932,1,0,0:0:0:0:
36,192,120000,1,0,0:0:0:0:
329,192,120000,1,0,0:0:0:0:
256,192,120135,1,0,0:0:0:0:
402,192,120135,1,0,0:0:0:0:
109,192,120270,1,0,0:0:0:0:
36,192,120405,1,0,0:0:0:0:
402,192,120405,1,0,0:0:0:0:
329,192,120472,1,0,0:0:0:0:
182,192,120540,1,0,0:0:0:0:
475,192,120540,1,0,0:0:0:0:
109,192,120675,1,0,0:0:0:0:
256,192,120675,1,0,0:0:0:0:
402,192,120810,1,0,0:0:0:0:
36,192,120945,1,0,0:0:0:0:
109,192,120945,1,0,0:0:0:0:
182,192,121012,1,0,0:0:0:0:
329,192,121147,1,0,0:0:0:0:
402,192,121215,1,0,0:0:0:0:
475,192,121215,1,0,0:0:0:0:
36,192,121350,1,0,0:0:0:0:
109,192,121417,1,0,0:0:0:0:
182,192,121485,1,0,0:0:0:0:
329,192,121485,1,0,0:0:0:0:
402,192,121552,1,0,0:0:0:0:
475,192,121620,1,0,0:0:0:0:
109,192,121755,1,0,0:0:0:0:
256,192,121755,1,0,0:0:0:0:
109,192,121890,1,0,0:0:0:0:
256,192,121890,1,0,0:0:0:0:
402,192,122025,1,0,0:0:0:0:
475,192,122025,1,0,0:0:0:0:
329,192,122092,1,0,0:0:0:0:
475,192,122160,1,0,0:0:0:0:
109,192,122295,1,0,0:0:0:0:
256,192,122295,1,0,0:0:0:0:
402,192,122430,1,0,0:0:0:0:
36,192,122565,1,0,0:0:0:0:
182,192,122565,1,0,0:0:0:0:
329,192,122700,1,0,0:0:0:0:
402,192,122767,1,0,0:0:0:0:
475,192,122835,1,0,0:0:0:0:
329,192,122970,1,0,0:0:0:0:
256,192,123037,1,0,0:0:0:0:
36,192,123105,1,0,0:0:0:0:
182,192,123105,1,0,0:0:0:0:
109,192,123307,1,0,0:0:0:0:
256,192,123307,1,0,0:0:0:0:
329,192,123375,1,0,0:0:0:0:
475,192,123375,1,0,0:0:0:0:
109,192,123510,1,0,0:0:0:0:
256,192,123510,1,0,0:0:0:0:
329,192,123577,1,0,0:0:0:0:
475,192,123577,1,0,0:0:0:0:
182,192,123712,1,0,0:0:0:0:
402,192,123780,1,0,0:0:0:0:
182,192,123847,1,0,0:0:0:0:
402,192,123915,1,0,0:0:0:0:
36,192,124050,1,0,0:0:0:0:
109,192,124185,1,0,0:0:0:0:
329,192,124185,1,0,0:0:0:0:
256,192,124252,1,0,0:0:0:0:
109,192,124320,1,0,0:0:0:0:
36,192,124387,1,0,0:0:0:0:
182,192,124455,1,0,0:0:0:0:
475,192,124455,1,0,0:0:0:0:
256,192,124522,1,0,0:0:0:0:
402,192,124590,1,0,0:0:0:0:
475,192,124657,1,0,0:0:0:0:
36,192,124725,1,0,0:0:0:0:
329,192,124725,1,0,0:0:0:0:
256,192,124792,1,0,0:0:0:0:
109,192,124860,1,0,0:0:0:0:
36,192,124927,1,0,0:0:0:0:
182,192,124995,1,0,0:0:0:0:
402,192,124995,1,0,0:0:0:0:
256,192,125062,1,0,0:0:0:0:
402,192,125130,1,0,0:0:0:0:
475,192,125197,1,0,0:0:0:0:
182,192,125265,1,0,0:0:0:0:
329,192,125265,1,0,0:0:0:0:
36,192,125265,1,0,0:0:0:0:
182,192,125467,1,0,0:0:0:0:
329,192,125535,1,0,0:0:0:0:
475,192,125535,1,0,0:0:0:0:
256,192,125670,1,0,0:0:0:0:
36,192,125805,1,0,0:0:0:0:
182,192,125805,1,0,0:0:0:0:
475,192,125805,1,0,0:0:0:0:
36,192,126075,1,0,0:0:0:0:
329,192,126075,1,0,0:0:0:0:
256,192,126142,1,0,0:0:0:0:
182,192,126210,1,0,0:0:0:0:
109,192,126277,1,0,0:0:0:0:
36,192,126345,1,0,0:0:0:0:
329,192,126345,1,0,0:0:0:0:
402,192,126345,1,0,0:0:0:0:
182,192,126412,1,0,0:0:0:0:
182,192,126547,1,0,0:0:0:0:
36,192,126615,1,0,0:0:0:0:
329,192,126615,1,0,0:0:0:0:
256,192,126750,1,0,0:0:0:0:
109,192,126885,1,0,0:0:0:0:
329,192,126885,1,0,0:0:0:0:
475,192,126885,1,0,0:0:0:0:
36,192,127155,1,0,0:0:0:0:
329,192,127155,1,0,0:0:0:0:
109,192,127222,1,0,0:0:0:0:
182,192,127290,1,0,0:0:0:0:
256,192,127357,1,0,0:0:0:0:
329,192,127425,1,0,0:0:0:0:
475,192,127425,1,0,0:0:0:0:
256,192,127560,1,0,0:0:0:0:
402,192,127560,1,0,0:0:0:0:
182,192,127695,1,0,0:0:0:0:
329,192,127695,1,0,0:0:0:0:
256,192,127762,1,0,0:0:0:0:
109,192,127830,1,0,0:0:0:0:
36,192,127897,1,0,0:0:0:0:
329,192,127965,1,0,0:0:0:0:
475,192,127965,1,0,0:0:0:0:
256,192,128100,1,0,0:0:0:0:
402,192,128100,1,0,0:0:0:0:
36,192,128235,1,0,0:0:0:0:
182,192,128235,1,0,0:0:0:0:
109,192,128302,1,0,0:0:0:0:
256,192,128370,1,0,0:0:0:0:
329,192,128437,1,0,0:0:0:0:
475,192,128505,1,0,0:0:0:0:
256,192,128572,1,0,0:0:0:0:
402,192,128572,1,0,0:0:0:0:
475,192,128707,1,0,0:0:0:0:
182,192,128775,1,0,0:0:0:0:
402,192,128775,1,0,0:0:0:0:
36,192,128910,1,0,0:0:0:0:
256,192,128910,1,0,0:0:0:0:
256,192,129045,1,0,0:0:0:0:
475,192,129045,1,0,0:0:0:0:
182,192,129112,1,0,0:0:0:0:
109,192,129180,1,0,0:0:0:0:
475,192,129180,1,0,0:0:0:0:
182,192,129247,1,0,0:0:0:0:
36,192,129315,1,0,0:0:0:0:
256,192,129315,1,0,0:0:0:0:
329,192,129382,1,0,0:0:0:0:
36,192,129450,1,0,0:0:0:0:
402,192,129450,1,0,0:0:0:0:
329,192,129517,1,0,0:0:0:0:
36,192,129585,1,0,0:0:0:0:
256,192,129585,1,0,0:0:0:0:
109,192,129652,1,0,0:0:0:0:
36,192,129787,1,0,0:0:0:0:
182,192,129855,1,0,0:0:0:0:
475,192,129855,1,0,0:0:0:0:
402,192,129990,1,0,0:0:0:0:
329,192,130057,1,0,0:0:0:0:
256,192,130125,1,0,0:0:0:0:
182,192,130192,1,0,0:0:0:0:
109,192,130260,1,0,0:0:0:0:
402,192,130260,1,0,0:0:0:0:
182,192,130395,1,0,0:0:0:0:
402,192,130395,1,0,0:0:0:0:
109,192,130530,1,0,0:0:0:0:
329,192,130530,1,0,0:0:0:0:
36,192,130665,1,0,0:0:0:0:
256,192,130665,1,0,0:0:0:0:
329,192,130732,1,0,0:0:0:0:
256,192,130800,1,0,0:0:0:0:
109,192,130935,1,0,0:0:0:0:
402,192,130935,1,0,0:0:0:0:
109,192,131070,1,0,0:0:0:0:
402,192,131070,1,0,0:0:0:0:
256,192,131205,1,0,0:0:0:0:
475,192,131205,1,0,0:0:0:0:
182,192,131272,1,0,0:0:0:0:
256,192,131340,1,0,0:0:0:0:
109,192,131475,1,0,0:0:0:0:
402,192,131475,1,0,0:0:0:0:
109,192,131610,1,0,0:0:0:0:
402,192,131610,1,0,0:0:0:0:
256,192,131745,1,0,0:0:0:0:
475,192,131745,1,0,0:0:0:0:
109,192,131880,1,0,0:0:0:0:
329,192,131947,1,0,0:0:0:0:
109,192,132015,1,0,0:0:0:0:
256,192,132150,1,0,0:0:0:0:
475,192,132150,1,0,0:0:0:0:
109,192,132285,1,0,0:0:0:0:
329,192,132352,1,0,0:0:0:0:
109,192,132420,1,0,0:0:0:0:
256,192,132555,1,0,0:0:0:0:
475,192,132555,1,0,0:0:0:0:
402,192,132622,1,0,0:0:0:0:
329,192,132690,1,0,0:0:0:0:
256,192,132757,1,0,0:0:0:0:
36,192,132825,1,0,0:0:0:0:
182,192,132825,1,0,0:0:0:0:
329,192,133027,1,0,0:0:0:0:
475,192,133027,1,0,0:0:0:0:
36,192,133230,1,0,0:0:0:0:
182,192,133230,1,0,0:0:0:0:
256,192,133365,1,0,0:0:0:0:
329,192,133432,1,0,0:0:0:0:
475,192,133432,1,0,0:0:0:0:
256,192,133500,1,0,0:0:0:0:
36,192,133635,1,0,0:0:0:0:
182,192,133635,1,0,0:0:0:0:
256,192,133702,1,0,0:0:0:0:
329,192,133770,1,0,0:0:0:0:
402,192,133837,1,0,0:0:0:0:
182,192,133905,1,0,0:0:0:0:
475,192,133905,1,0,0:0:0:0:
402,192,134040,1,0,0:0:0:0:
36,192,134175,1,0,0:0:0:0:
256,192,134175,1,0,0:0:0:0:
329,192,134310,1,0,0:0:0:0:
182,192,134445,1,0,0:0:0:0:
475,192,134445,1,0,0:0:0:0:
402,192,134580,1,0,0:0:0:0:
36,192,134715,1,0,0:0:0:0:
256,192,134715,1,0,0:0:0:0:
329,192,134850,1,0,0:0:0:0:
36,192,134985,1,0,0:0:0:0:
182,192,134985,1,0,0:0:0:0:
475,192,135069,1,0,0:0:0:0:
36,192,135154,1,0,0:0:0:0:
329,192,135255,1,0,0:0:0:0:
475,192,135255,1,0,0:0:0:0:
109,192,135525,1,0,0:0:0:0:
182,192,135592,1,0,0:0:0:0:
256,192,135660,1,0,0:0:0:0:
329,192,135727,1,0,0:0:0:0:
109,192,135795,1,0,0:0:0:0:
402,192,135795,1,0,0:0:0:0:
256,192,135930,1,0,0:0:0:0:
109,192,136065,1,0,0:0:0:0:
329,192,136065,1,0,0:0:0:0:
36,192,136200,1,0,0:0:0:0:
182,192,136335,1,0,0:0:0:0:
402,192,136335,1,0,0:0:0:0:
109,192,136470,1,0,0:0:0:0:
256,192,136605,1,0,0:0:0:0:
475,192,136605,1,0,0:0:0:0:
182,192,136740,1,0,0:0:0:0:
36,192,136875,1,0,0:0:0:0:
329,192,136875,1,0,0:0:0:0:
256,192,137010,1,0,0:0:0:0:
475,192,137145,1,0,0:0:0:0:
329,192,137212,1,0,0:0:0:0:
256,192,137280,1,0,0:0:0:0:
109,192,137347,1,0,0:0:0:0:
329,192,137415,1,0,0:0:0:0:
475,192,137415,1,0,0:0:0:0:
475,192,137550,1,0,0:0:0:0:
36,192,137685,1,0,0:0:0:0:
182,192,137752,1,0,0:0:0:0:
256,192,137820,1,0,0:0:0:0:
402,192,137887,1,0,0:0:0:0:
36,192,137955,1,0,0:0:0:0:
182,192,137955,1,0,0:0:0:0:
36,192,138090,1,0,0:0:0:0:
329,192,138225,1,0,0:0:0:0:
475,192,138292,1,0,0:0:0:0:
256,192,138427,1,0,0:0:0:0:
402,192,138495,1,0,0:0:0:0:
109,192,138495,1,0,0:0:0:0:
475,192,138630,1,0,0:0:0:0:
329,192,138697,1,0,0:0:0:0:
182,192,138765,1,0,0:0:0:0:
36,192,138832,1,0,0:0:0:0:
109,192,138900,1,0,0:0:0:0:
182,192,138967,1,0,0:0:0:0:
256,192,139035,1,0,0:0:0:0:
475,192,139035,1,0,0:0:0:0:
475,192,139170,1,0,0:0:0:0:
402,192,139237,1,0,0:0:0:0:
182,192,139305,1,0,0:0:0:0:
329,192,139305,1,0,0:0:0:0:
109,192,139440,1,0,0:0:0:0:
109,192,139575,1,0,0:0:0:0:
329,192,139575,1,0,0:0:0:0:
36,192,139710,1,0,0:0:0:0:
36,192,139845,1,0,0:0:0:0:
256,192,139845,1,0,0:0:0:0:
475,192,139980,1,0,0:0:0:0:
329,192,140047,1,0,0:0:0:0:
36,192,140115,1,0,0:0:0:0:
182,192,140115,1,0,0:0:0:0:
182,192,140250,1,0,0:0:0:0:
329,192,140317,1,0,0:0:0:0:
36,192,140385,1,0,0:0:0:0:
475,192,140385,1,0,0:0:0:0:
182,192,140452,1,0,0:0:0:0:
329,192,140587,1,0,0:0:0:0:
36,192,140655,1,0,0:0:0:0:
475,192,140655,1,0,0:0:0:0:
256,192,140790,1,0,0:0:0:0:
109,192,140857,1,0,0:0:0:0:
475,192,140992,1,0,0:0:0:0:
329,192,141060,1,0,0:0:0:0:
182,192,141127,1,0,0:0:0:0:
36,192,141195,1,0,0:0:0:0:
475,192,141195,1,0,0:0:0:0:
109,192,141330,1,0,0:0:0:0:
402,192,141330,1,0,0:0:0:0:
256,192,141465,1,0,0:0:0:0:
329,192,141532,1,0,0:0:0:0:
402,192,141600,1,0,0:0:0:0:
475,192,141667,1,0,0:0:0:0:
182,192,141735,1,0,0:0:0:0:
256,192,141802,1,0,0:0:0:0:
329,192,141870,1,0,0:0:0:0:
402,192,141937,1,0,0:0:0:0:
109,192,142005,1,0,0:0:0:0:
182,192,142072,1,0,0:0:0:0:
256,192,142140,1,0,0:0:0:0:
329,192,142207,1,0,0:0:0:0:
36,192,142275,1,0,0:0:0:0:
109,192,142342,1,0,0:0:0:0:
182,192,142410,1,0,0:0:0:0:
256,192,142477,1,0,0:0:0:0:
36,192,142545,1,0,0:0:0:0:
182,192,142680,1,0,0:0:0:0:
36,192,142815,1,0,0:0:0:0:
256,192,142950,1,0,0:0:0:0:
36,192,143085,1,0,0:0:0:0:
329,192,143220,1,0,0:0:0:0:
36,192,143355,1,0,0:0:0:0:
402,192,143490,1,0,0:0:0:0:
36,192,143625,1,0,0:0:0:0:
182,192,143760,1,0,0:0:0:0:
36,192,143895,1,0,0:0:0:0:
256,192,144030,1,0,0:0:0:0:
36,192,144165,1,0,0:0:0:0:
329,192,144300,1,0,0:0:0:0:
36,192,144435,1,0,0:0:0:0:
402,192,144570,1,0,0:0:0:0:
256,192,144705,1,0,0:0:0:0:
182,192,144772,1,0,0:0:0:0:
109,192,144840,1,0,0:0:0:0:
36,192,144907,1,0,0:0:0:0:
329,192,144975,1,0,0:0:0:0:
475,192,144975,1,0,0:0:0:0:
402,192,145110,1,0,0:0:0:0:
36,192,145245,1,0,0:0:0:0:
109,192,145312,1,0,0:0:0:0:
182,192,145380,1,0,0:0:0:0:
256,192,145447,1,0,0:0:0:0:
329,192,145515,1,0,0:0:0:0:
475,192,145515,1,0,0:0:0:0:
402,192,145650,1,0,0:0:0:0:
36,192,145785,1,0,0:0:0:0:
109,192,145852,1,0,0:0:0:0:
182,192,145920,1,0,0:0:0:0:
256,192,145987,1,0,0:0:0:0:
109,192,146055,1,0,0:0:0:0:
182,192,146122,1,0,0:0:0:0:
256,192,146190,1,0,0:0:0:0:
329,192,146257,1,0,0:0:0:0:
182,192,146325,1,0,0:0:0:0:
256,192,146392,1,0,0:0:0:0:
329,192,146460,1,0,0:0:0:0:
402,192,146527,1,0,0:0:0:0:
256,192,146595,1,0,0:0:0:0:
329,192,146662,1,0,0:0:0:0:
402,192,146730,1,0,0:0:0:0:
475,192,146797,1,0,0:0:0:0:
36,192,146865,128,0,149025:0:0:0:0:
256,192,146865,1,0,0:0:0:0:
109,192,146865,1,0,0:0:0:0:
182,192,147135,1,0,0:0:0:0:
402,192,147135,1,0,0:0:0:0:
329,192,147405,1,0,0:0:0:0:
182,192,147675,1,0,0:0:0:0:
402,192,147675,1,0,0:0:0:0:
256,192,147945,1,0,0:0:0:0:
182,192,148215,1,0,0:0:0:0:
402,192,148215,1,0,0:0:0:0:
329,192,148485,1,0,0:0:0:0:
182,192,148755,1,0,0:0:0:0:
402,192,148755,1,0,0:0:0:0:
402,192,148890,1,0,0:0:0:0:
256,192,149025,1,0,0:0:0:0:
475,192,149025,1,0,0:0:0:0:
109,192,149295,1,0,0:0:0:0:
402,192,149295,1,0,0:0:0:0:
329,192,149565,1,0,0:0:0:0:
109,192,149835,1,0,0:0:0:0:
402,192,149835,1,0,0:0:0:0:
475,192,150105,1,0,0:0:0:0:
329,192,150240,1,0,0:0:0:0:
36,192,150375,1,0,0:0:0:0:
182,192,150375,1,0,0:0:0:0:
182,192,150645,1,0,0:0:0:0:
36,192,150645,1,0,0:0:0:0:
182,192,150848,1,0,0:0:0:0:
36,192,150848,1,0,0:0:0:0:
36,192,151050,1,0,0:0:0:0:
256,192,151050,1,0,0:0:0:0:
36,192,151185,1,0,0:0:0:0:
256,192,151185,1,0,0:0:0:0:
475,192,151455,1,0,0:0:0:0:
182,192,151455,1,0,0:0:0:0:
402,192,151725,1,0,0:0:0:0:
475,192,151995,1,0,0:0:0:0:
182,192,151995,1,0,0:0:0:0:
475,192,152130,1,0,0:0:0:0:
182,192,152130,1,0,0:0:0:0:
402,192,152400,1,0,0:0:0:0:
329,192,152468,1,0,0:0:0:0:
256,192,152535,1,0,0:0:0:0:
36,192,152535,1,0,0:0:0:0:
256,192,152670,1,0,0:0:0:0:
182,192,152805,1,0,0:0:0:0:
182,192,152940,1,0,0:0:0:0:
402,192,153075,1,0,0:0:0:0:
36,192,153075,1,0,0:0:0:0:
402,192,153210,1,0,0:0:0:0:
329,192,153345,1,0,0:0:0:0:
329,192,153480,5,0,0:0:0:0:
475,192,153615,1,0,0:0:0:0:
182,192,153615,1,0,0:0:0:0:
182,192,153750,1,0,0:0:0:0:
256,192,153885,1,0,0:0:0:0:
256,192,154020,1,0,0:0:0:0:
475,192,154155,1,0,0:0:0:0:
329,192,154155,1,0,0:0:0:0:
329,192,154290,1,0,0:0:0:0:
402,192,154425,1,0,0:0:0:0:
36,192,154425,1,0,0:0:0:0:
256,192,154560,1,0,0:0:0:0:
402,192,154695,1,0,0:0:0:0:
109,192,154695,1,0,0:0:0:0:
256,192,154830,1,0,0:0:0:0:
36,192,154965,1,0,0:0:0:0:
475,192,154965,1,0,0:0:0:0:
329,192,155100,1,0,0:0:0:0:
109,192,155235,1,0,0:0:0:0:
402,192,155235,1,0,0:0:0:0:
329,192,155303,1,0,0:0:0:0:
256,192,155370,1,0,0:0:0:0:
182,192,155438,1,0,0:0:0:0:
402,192,155505,1,0,0:0:0:0:
109,192,155505,1,0,0:0:0:0:
256,192,155640,1,0,0:0:0:0:
329,192,155775,1,0,0:0:0:0:
36,192,155775,1,0,0:0:0:0:
256,192,155910,1,0,0:0:0:0:
109,192,156045,1,0,0:0:0:0:
256,192,156180,1,0,0:0:0:0:
329,192,156315,1,0,0:0:0:0:
36,192,156315,1,0,0:0:0:0:
109,192,156450,1,0,0:0:0:0:
256,192,156518,1,0,0:0:0:0:
402,192,156585,1,0,0:0:0:0:
329,192,156720,1,0,0:0:0:0:
182,192,156855,1,0,0:0:0:0:
475,192,156855,1,0,0:0:0:0:
329,192,156990,1,0,0:0:0:0:
109,192,157125,1,0,0:0:0:0:
182,192,157260,1,0,0:0:0:0:
329,192,157395,1,0,0:0:0:0:
36,192,157395,1,0,0:0:0:0:
182,192,157530,1,0,0:0:0:0:
256,192,157598,1,0,0:0:0:0:
329,192,157665,1,0,0:0:0:0:
109,192,157800,1,0,0:0:0:0:
182,192,157868,1,0,0:0:0:0:
256,192,157935,1,0,0:0:0:0:
475,192,157935,1,0,0:0:0:0:
36,192,158070,1,0,0:0:0:0:
109,192,158138,1,0,0:0:0:0:
182,192,158205,1,0,0:0:0:0:
256,192,158273,1,0,0:0:0:0:
329,192,158340,1,0,0:0:0:0:
402,192,158408,1,0,0:0:0:0:
256,192,158475,1,0,0:0:0:0:
475,192,158475,1,0,0:0:0:0:
182,192,158610,1,0,0:0:0:0:
109,192,158745,1,0,0:0:0:0:
182,192,158880,1,0,0:0:0:0:
36,192,159015,1,0,0:0:0:0:
256,192,159015,1,0,0:0:0:0:
329,192,159150,1,0,0:0:0:0:
402,192,159285,1,0,0:0:0:0:
329,192,159420,1,0,0:0:0:0:
256,192,159555,1,0,0:0:0:0:
475,192,159555,1,0,0:0:0:0:
182,192,159690,1,0,0:0:0:0:
402,192,159690,1,0,0:0:0:0:
109,192,159825,1,0,0:0:0:0:
329,192,159825,1,0,0:0:0:0:
475,192,159825,1,0,0:0:0:0:
182,192,159960,1,0,0:0:0:0:
36,192,160095,1,0,0:0:0:0:
256,192,160095,1,0,0:0:0:0:
402,192,160230,1,0,0:0:0:0:
109,192,160365,1,0,0:0:0:0:
402,192,160500,1,0,0:0:0:0:
256,192,160635,1,0,0:0:0:0:
475,192,160635,1,0,0:0:0:0:
109,192,160770,1,0,0:0:0:0:
182,192,160838,1,0,0:0:0:0:
256,192,160905,1,0,0:0:0:0:
402,192,161040,1,0,0:0:0:0:
329,192,161108,1,0,0:0:0:0:
256,192,161175,1,0,0:0:0:0:
36,192,161310,1,0,0:0:0:0:
109,192,161378,1,0,0:0:0:0:
182,192,161445,1,0,0:0:0:0:
256,192,161513,1,0,0:0:0:0:
329,192,161580,1,0,0:0:0:0:
402,192,161648,1,0,0:0:0:0:
475,192,161715,1,0,0:0:0:0:
402,192,161783,1,0,0:0:0:0:
256,192,161850,1,0,0:0:0:0:
109,192,161918,1,0,0:0:0:0:
36,192,161985,128,0,164145:0:0:0:0:
182,192,162525,128,0,163065:0:0:0:0:
475,192,163065,128,0,163605:0:0:0:0:
402,192,163335,128,0,163605:0:0:0:0:
109,192,163605,128,0,164145:0:0:0:0:
182,192,163875,128,0,164145:0:0:0:0:
329,192,163875,1,0,0:0:0:0:
402,192,163943,1,0,0:0:0:0:
329,192,164010,1,0,0:0:0:0:
402,192,164078,1,0,0:0:0:0:
475,192,164145,1,0,0:0:0:0:
36,192,164415,1,0,0:0:0:0:
109,192,164483,1,0,0:0:0:0:
182,192,164550,1,0,0:0:0:0:
256,192,164618,1,0,0:0:0:0:
109,192,164685,1,0,0:0:0:0:
182,192,164753,1,0,0:0:0:0:
256,192,164820,1,0,0:0:0:0:
329,192,164888,1,0,0:0:0:0:
182,192,164955,1,0,0:0:0:0:
256,192,165023,1,0,0:0:0:0:
329,192,165090,1,0,0:0:0:0:
402,192,165158,1,0,0:0:0:0:
36,192,165293,1,0,0:0:0:0:
182,192,165293,1,0,0:0:0:0:
109,192,165495,1,0,0:0:0:0:
256,192,165495,1,0,0:0:0:0:
182,192,165698,1,0,0:0:0:0:
329,192,165698,1,0,0:0:0:0:
256,192,165900,1,0,0:0:0:0:
402,192,165900,1,0,0:0:0:0:
329,192,166103,1,0,0:0:0:0:
475,192,166103,1,0,0:0:0:0:
402,192,166305,1,0,0:0:0:0:
256,192,166373,1,0,0:0:0:0:
182,192,166575,1,0,0:0:0:0:
36,192,166643,1,0,0:0:0:0:
182,192,166845,1,0,0:0:0:0:
36,192,166913,1,0,0:0:0:0:
256,192,166980,1,0,0:0:0:0:
109,192,167048,1,0,0:0:0:0:
329,192,167115,1,0,0:0:0:0:
182,192,167183,1,0,0:0:0:0:
402,192,167250,1,0,0:0:0:0:
256,192,167318,1,0,0:0:0:0:
475,192,167385,1,0,0:0:0:0:
36,192,167520,1,0,0:0:0:0:
182,192,167520,1,0,0:0:0:0:
36,192,167655,1,0,0:0:0:0:
182,192,167655,1,0,0:0:0:0:
256,192,167925,1,0,0:0:0:0:
402,192,167925,1,0,0:0:0:0:
182,192,168128,1,0,0:0:0:0:
329,192,168128,1,0,0:0:0:0:
109,192,168330,1,0,0:0:0:0:
256,192,168330,1,0,0:0:0:0:
36,192,168465,1,0,0:0:0:0:
256,192,168465,1,0,0:0:0:0:
329,192,168735,1,0,0:0:0:0:
475,192,168735,1,0,0:0:0:0:
182,192,168803,1,0,0:0:0:0:
329,192,168870,1,0,0:0:0:0:
475,192,168870,1,0,0:0:0:0:
182,192,168938,1,0,0:0:0:0:
475,192,169005,1,0,0:0:0:0:
36,192,169140,1,0,0:0:0:0:
109,192,169208,1,0,0:0:0:0:
182,192,169275,1,0,0:0:0:0:
109,192,169343,1,0,0:0:0:0:
182,192,169410,1,0,0:0:0:0:
256,192,169478,1,0,0:0:0:0:
182,192,169545,1,0,0:0:0:0:
256,192,169613,1,0,0:0:0:0:
329,192,169680,1,0,0:0:0:0:
256,192,169748,1,0,0:0:0:0:
329,192,169815,1,0,0:0:0:0:
402,192,169883,1,0,0:0:0:0:
329,192,169950,1,0,0:0:0:0:
402,192,170018,1,0,0:0:0:0:
475,192,170085,1,0,0:0:0:0:
402,192,170153,1,0,0:0:0:0:
256,192,170220,1,0,0:0:0:0:
329,192,170288,1,0,0:0:0:0:
475,192,170355,1,0,0:0:0:0:
402,192,170423,1,0,0:0:0:0:
256,192,170490,1,0,0:0:0:0:
329,192,170558,1,0,0:0:0:0:
36,192,170625,1,0,0:0:0:0:
109,192,170693,1,0,0:0:0:0:
256,192,170760,1,0,0:0:0:0:
329,192,170828,1,0,0:0:0:0:
36,192,170895,1,0,0:0:0:0:
182,192,170895,1,0,0:0:0:0:
109,192,171165,1,0,0:0:0:0:
256,192,171165,1,0,0:0:0:0:
36,192,171368,1,0,0:0:0:0:
182,192,171368,1,0,0:0:0:0:
36,192,171570,1,0,0:0:0:0:
182,192,171570,1,0,0:0:0:0:
329,192,171705,1,0,0:0:0:0:
475,192,171705,1,0,0:0:0:0:
182,192,171975,1,0,0:0:0:0:
402,192,171975,1,0,0:0:0:0:
256,192,172178,1,0,0:0:0:0:
109,192,172178,1,0,0:0:0:0:
402,192,172380,1,0,0:0:0:0:
475,192,172380,1,0,0:0:0:0:
256,192,172583,1,0,0:0:0:0:
329,192,172583,1,0,0:0:0:0:
109,192,172785,1,0,0:0:0:0:
182,192,172785,1,0,0:0:0:0:
329,192,172853,1,0,0:0:0:0:
182,192,172920,1,0,0:0:0:0:
329,192,172988,1,0,0:0:0:0:
109,192,173055,1,0,0:0:0:0:
402,192,173123,1,0,0:0:0:0:
109,192,173190,1,0,0:0:0:0:
402,192,173258,1,0,0:0:0:0:
36,192,173325,1,0,0:0:0:0:
182,192,173393,1,0,0:0:0:0:
329,192,173460,1,0,0:0:0:0:
475,192,173528,1,0,0:0:0:0:
36,192,173595,1,0,0:0:0:0:
256,192,173595,1,0,0:0:0:0:
36,192,173730,1,0,0:0:0:0:
256,192,173730,1,0,0:0:0:0:
329,192,174000,1,0,0:0:0:0:
475,192,174000,1,0,0:0:0:0:
256,192,174135,1,0,0:0:0:0:
402,192,174135,1,0,0:0:0:0:
36,192,174270,1,0,0:0:0:0:
182,192,174270,1,0,0:0:0:0:
109,192,174405,1,0,0:0:0:0:
256,192,174405,1,0,0:0:0:0:
36,192,174540,1,0,0:0:0:0:
475,192,174540,1,0,0:0:0:0:
329,192,174675,1,0,0:0:0:0:
475,192,174675,1,0,0:0:0:0:
256,192,174743,1,0,0:0:0:0:
182,192,174810,1,0,0:0:0:0:
109,192,174878,1,0,0:0:0:0:
36,192,174945,1,0,0:0:0:0:
402,192,174945,1,0,0:0:0:0:
475,192,175013,1,0,0:0:0:0:
329,192,175080,1,0,0:0:0:0:
402,192,175148,1,0,0:0:0:0:
256,192,175215,1,0,0:0:0:0:
329,192,175283,1,0,0:0:0:0:
182,192,175350,1,0,0:0:0:0:
256,192,175418,1,0,0:0:0:0:
109,192,175485,1,0,0:0:0:0:
182,192,175553,1,0,0:0:0:0:
36,192,175620,1,0,0:0:0:0:
109,192,175688,1,0,0:0:0:0:
182,192,175755,1,0,0:0:0:0:
329,192,175755,1,0,0:0:0:0:
182,192,175890,1,0,0:0:0:0:
329,192,175890,1,0,0:0:0:0:
109,192,176160,1,0,0:0:0:0:
329,192,176160,1,0,0:0:0:0:
109,192,176295,1,0,0:0:0:0:
402,192,176295,1,0,0:0:0:0:
109,192,176430,1,0,0:0:0:0:
475,192,176430,1,0,0:0:0:0:
36,192,176565,1,0,0:0:0:0:
402,192,176565,1,0,0:0:0:0:
36,192,176700,1,0,0:0:0:0:
475,192,176835,1,0,0:0:0:0:
402,192,176903,1,0,0:0:0:0:
256,192,176970,1,0,0:0:0:0:
182,192,177038,1,0,0:0:0:0:
36,192,177105,1,0,0:0:0:0:
109,192,177173,1,0,0:0:0:0:
182,192,177240,1,0,0:0:0:0:
256,192,177308,1,0,0:0:0:0:
329,192,177375,1,0,0:0:0:0:
109,192,177510,1,0,0:0:0:0:
182,192,177578,1,0,0:0:0:0:
256,192,177645,1,0,0:0:0:0:
329,192,177713,1,0,0:0:0:0:
402,192,177780,1,0,0:0:0:0:
36,192,177915,1,0,0:0:0:0:
109,192,177983,1,0,0:0:0:0:
182,192,178050,1,0,0:0:0:0:
256,192,178118,1,0,0:0:0:0:
36,192,178185,1,0,0:0:0:0:
329,192,178185,1,0,0:0:0:0:
182,192,178320,1,0,0:0:0:0:
402,192,178388,1,0,0:0:0:0:
182,192,178455,1,0,0:0:0:0:
36,192,178590,1,0,0:0:0:0:
329,192,178725,1,0,0:0:0:0:
182,192,178793,1,0,0:0:0:0:
329,192,178860,1,0,0:0:0:0:
182,192,178928,1,0,0:0:0:0:
36,192,178995,1,0,0:0:0:0:
475,192,178995,1,0,0:0:0:0:
109,192,179130,1,0,0:0:0:0:
402,192,179130,1,0,0:0:0:0:
182,192,179265,1,0,0:0:0:0:
329,192,179265,1,0,0:0:0:0:
256,192,179400,1,0,0:0:0:0:
182,192,179468,1,0,0:0:0:0:
109,192,179535,1,0,0:0:0:0:
36,192,179603,1,0,0:0:0:0:
329,192,179670,1,0,0:0:0:0:
256,192,179738,1,0,0:0:0:0:
182,192,179805,1,0,0:0:0:0:
109,192,179873,1,0,0:0:0:0:
402,192,179940,1,0,0:0:0:0:
329,192,180008,1,0,0:0:0:0:
256,192,180075,1,0,0:0:0:0:
182,192,180143,1,0,0:0:0:0:
475,192,180210,1,0,0:0:0:0:
402,192,180278,1,0,0:0:0:0:
329,192,180345,1,0,0:0:0:0:
475,192,180413,1,0,0:0:0:0:
256,192,180480,1,0,0:0:0:0:
402,192,180548,1,0,0:0:0:0:
182,192,180615,1,0,0:0:0:0:
329,192,180683,1,0,0:0:0:0:
109,192,180750,1,0,0:0:0:0:
256,192,180818,1,0,0:0:0:0:
36,192,180885,1,0,0:0:0:0:
182,192,180953,1,0,0:0:0:0:
36,192,181020,1,0,0:0:0:0:
256,192,181088,1,0,0:0:0:0:
109,192,181155,1,0,0:0:0:0:
329,192,181223,1,0,0:0:0:0:
182,192,181290,1,0,0:0:0:0:
402,192,181358,1,0,0:0:0:0:
256,192,181425,1,0,0:0:0:0:
475,192,181425,1,0,0:0:0:0:
402,192,181493,1,0,0:0:0:0:
329,192,181560,1,0,0:0:0:0:
256,192,181628,1,0,0:0:0:0:
36,192,181695,1,0,0:0:0:0:
182,192,181695,1,0,0:0:0:0:
329,192,181830,1,0,0:0:0:0:
109,192,181898,1,0,0:0:0:0:
329,192,181965,1,0,0:0:0:0:
109,192,182033,1,0,0:0:0:0:
329,192,182100,1,0,0:0:0:0:
475,192,182100,1,0,0:0:0:0:
256,192,182235,1,0,0:0:0:0:
475,192,182235,1,0,0:0:0:0:
182,192,182370,1,0,0:0:0:0:
475,192,182370,1,0,0:0:0:0:
36,192,182505,1,0,0:0:0:0:
109,192,182573,1,0,0:0:0:0:
182,192,182640,1,0,0:0:0:0:
256,192,182708,1,0,0:0:0:0:
182,192,182775,1,0,0:0:0:0:
256,192,182843,1,0,0:0:0:0:
329,192,182910,1,0,0:0:0:0:
402,192,182978,1,0,0:0:0:0:
475,192,183045,1,0,0:0:0:0:
402,192,183113,1,0,0:0:0:0:
329,192,183180,1,0,0:0:0:0:
256,192,183248,1,0,0:0:0:0:
329,192,183315,1,0,0:0:0:0:
256,192,183383,1,0,0:0:0:0:
182,192,183450,1,0,0:0:0:0:
109,192,183518,1,0,0:0:0:0:
36,192,183585,1,0,0:0:0:0:
256,192,183585,1,0,0:0:0:0:
329,192,183653,1,0,0:0:0:0:
402,192,183720,1,0,0:0:0:0:
475,192,183788,1,0,0:0:0:0:
109,192,183855,1,0,0:0:0:0:
256,192,183855,1,0,0:0:0:0:
109,192,183990,1,0,0:0:0:0:
402,192,183990,1,0,0:0:0:0:
329,192,184058,1,0,0:0:0:0:
256,192,184125,1,0,0:0:0:0:
329,192,184193,1,0,0:0:0:0:
402,192,184260,1,0,0:0:0:0:
36,192,184260,1,0,0:0:0:0:
182,192,184395,1,0,0:0:0:0:
36,192,184395,1,0,0:0:0:0:
256,192,184463,1,0,0:0:0:0:
329,192,184530,1,0,0:0:0:0:
475,192,184665,1,0,0:0:0:0:
36,192,184665,1,0,0:0:0:0:
402,192,184733,1,0,0:0:0:0:
329,192,184800,1,0,0:0:0:0:
256,192,184868,1,0,0:0:0:0:
329,192,184935,1,0,0:0:0:0:
256,192,185003,1,0,0:0:0:0:
182,192,185070,1,0,0:0:0:0:
109,192,185138,1,0,0:0:0:0:
36,192,185205,1,0,0:0:0:0:
109,192,185273,1,0,0:0:0:0:
182,192,185340,1,0,0:0:0:0:
256,192,185408,1,0,0:0:0:0:
182,192,185475,1,0,0:0:0:0:
256,192,185543,1,0,0:0:0:0:
329,192,185610,1,0,0:0:0:0:
402,192,185678,1,0,0:0:0:0:
256,192,185745,1,0,0:0:0:0:
475,192,185745,1,0,0:0:0:0:
182,192,185813,1,0,0:0:0:0:
109,192,185880,1,0,0:0:0:0:
36,192,185948,1,0,0:0:0:0:
256,192,186015,1,0,0:0:0:0:
402,192,186015,1,0,0:0:0:0:
402,192,186150,1,0,0:0:0:0:
256,192,186218,1,0,0:0:0:0:
36,192,186285,1,0,0:0:0:0:
109,192,186285,1,0,0:0:0:0:
256,192,186420,1,0,0:0:0:0:
402,192,186488,1,0,0:0:0:0:
475,192,186488,1,0,0:0:0:0:
182,192,186623,1,0,0:0:0:0:
36,192,186690,1,0,0:0:0:0:
109,192,186690,1,0,0:0:0:0:
256,192,186825,1,0,0:0:0:0:
402,192,186893,1,0,0:0:0:0:
475,192,186893,1,0,0:0:0:0:
182,192,187028,1,0,0:0:0:0:
329,192,187095,1,0,0:0:0:0:
402,192,187095,1,0,0:0:0:0:
256,192,187230,1,0,0:0:0:0:
36,192,187298,1,0,0:0:0:0:
109,192,187298,1,0,0:0:0:0:
475,192,187433,1,0,0:0:0:0:
256,192,187500,1,0,0:0:0:0:
329,192,187500,1,0,0:0:0:0:
36,192,187635,1,0,0:0:0:0:
402,192,187635,1,0,0:0:0:0:
182,192,187703,1,0,0:0:0:0:
36,192,187770,1,0,0:0:0:0:
182,192,187838,1,0,0:0:0:0:
475,192,187905,1,0,0:0:0:0:
36,192,187905,1,0,0:0:0:0:
402,192,187973,1,0,0:0:0:0:
329,192,188040,1,0,0:0:0:0:
256,192,188108,1,0,0:0:0:0:
402,192,188175,1,0,0:0:0:0:
329,192,188243,1,0,0:0:0:0:
256,192,188310,1,0,0:0:0:0:
182,192,188378,1,0,0:0:0:0:
329,192,188445,1,0,0:0:0:0:
256,192,188513,1,0,0:0:0:0:
182,192,188580,1,0,0:0:0:0:
109,192,188648,1,0,0:0:0:0:
256,192,188715,1,0,0:0:0:0:
182,192,188783,1,0,0:0:0:0:
109,192,188850,1,0,0:0:0:0:
36,192,188918,1,0,0:0:0:0:
182,192,188985,1,0,0:0:0:0:
329,192,188985,1,0,0:0:0:0:
402,192,189053,1,0,0:0:0:0:
475,192,189120,1,0,0:0:0:0:
256,192,189255,1,0,0:0:0:0:
329,192,189323,1,0,0:0:0:0:
182,192,189458,1,0,0:0:0:0:
256,192,189525,1,0,0:0:0:0:
109,192,189660,1,0,0:0:0:0:
182,192,189728,1,0,0:0:0:0:
36,192,189863,1,0,0:0:0:0:
109,192,189930,1,0,0:0:0:0:
182,192,189998,1,0,0:0:0:0:
256,192,190065,1,0,0:0:0:0:
475,192,190065,1,0,0:0:0:0:
182,192,190335,1,0,0:0:0:0:
256,192,190403,1,0,0:0:0:0:
329,192,190470,1,0,0:0:0:0:
402,192,190538,1,0,0:0:0:0:
329,192,190605,1,0,0:0:0:0:
182,192,190673,1,0,0:0:0:0:
109,192,190740,1,0,0:0:0:0:
182,192,190808,1,0,0:0:0:0:
256,192,190875,1,0,0:0:0:0:
329,192,190943,1,0,0:0:0:0:
36,192,191010,1,0,0:0:0:0:
256,192,191078,1,0,0:0:0:0:
36,192,191145,1,0,0:0:0:0:
109,192,191280,1,0,0:0:0:0:
329,192,191348,1,0,0:0:0:0:
109,192,191415,1,0,0:0:0:0:
182,192,191550,1,0,0:0:0:0:
402,192,191618,1,0,0:0:0:0:
182,192,191685,1,0,0:0:0:0:
402,192,191820,1,0,0:0:0:0:
475,192,191888,1,0,0:0:0:0:
402,192,191955,1,0,0:0:0:0:
256,192,192023,1,0,0:0:0:0:
402,192,192090,1,0,0:0:0:0:
256,192,192158,1,0,0:0:0:0:
402,192,192225,1,0,0:0:0:0:
109,192,192360,1,0,0:0:0:0:
329,192,192360,1,0,0:0:0:0:
109,192,192495,1,0,0:0:0:0:
402,192,192495,1,0,0:0:0:0:
109,192,192765,1,0,0:0:0:0:
402,192,192765,1,0,0:0:0:0:
109,192,192968,1,0,0:0:0:0:
402,192,192968,1,0,0:0:0:0:
109,192,193170,1,0,0:0:0:0:
329,192,193170,1,0,0:0:0:0:
475,192,193305,1,0,0:0:0:0:
402,192,193373,1,0,0:0:0:0:
329,192,193440,1,0,0:0:0:0:
256,192,193508,1,0,0:0:0:0:
36,192,193575,1,0,0:0:0:0:
109,192,193643,1,0,0:0:0:0:
182,192,193710,1,0,0:0:0:0:
256,192,193778,1,0,0:0:0:0:
475,192,193845,1,0,0:0:0:0:
402,192,193913,1,0,0:0:0:0:
329,192,193980,1,0,0:0:0:0:
256,192,194048,1,0,0:0:0:0:
36,192,194115,1,0,0:0:0:0:
109,192,194183,1,0,0:0:0:0:
182,192,194250,1,0,0:0:0:0:
256,192,194318,1,0,0:0:0:0:
36,192,194385,1,0,0:0:0:0:
329,192,194385,1,0,0:0:0:0:
109,192,194520,1,0,0:0:0:0:
256,192,194588,1,0,0:0:0:0:
402,192,194655,1,0,0:0:0:0:
36,192,194790,1,0,0:0:0:0:
402,192,194925,1,0,0:0:0:0:
256,192,194993,1,0,0:0:0:0:
109,192,195060,1,0,0:0:0:0:
475,192,195195,1,0,0:0:0:0:
329,192,195263,1,0,0:0:0:0:
256,192,195330,1,0,0:0:0:0:
109,192,195398,1,0,0:0:0:0:
36,192,195465,1,0,0:0:0:0:
329,192,195465,1,0,0:0:0:0:
402,192,195600,1,0,0:0:0:0:
329,192,195668,1,0,0:0:0:0:
182,192,195735,1,0,0:0:0:0:
109,192,195803,1,0,0:0:0:0:
329,192,195870,1,0,0:0:0:0:
402,192,195938,1,0,0:0:0:0:
109,192,196005,1,0,0:0:0:0:
182,192,196073,1,0,0:0:0:0:
475,192,196140,1,0,0:0:0:0:
329,192,196208,1,0,0:0:0:0:
36,192,196275,1,0,0:0:0:0:
182,192,196343,1,0,0:0:0:0:
402,192,196410,1,0,0:0:0:0:
329,192,196478,1,0,0:0:0:0:
36,192,196545,1,0,0:0:0:0:
402,192,196545,1,0,0:0:0:0:
109,192,196613,1,0,0:0:0:0:
182,192,196680,1,0,0:0:0:0:
256,192,196748,1,0,0:0:0:0:
109,192,196815,1,0,0:0:0:0:
182,192,196883,1,0,0:0:0:0:
256,192,196950,1,0,0:0:0:0:
329,192,197018,1,0,0:0:0:0:
182,192,197085,1,0,0:0:0:0:
256,192,197153,1,0,0:0:0:0:
329,192,197220,1,0,0:0:0:0:
402,192,197288,1,0,0:0:0:0:
256,192,197355,1,0,0:0:0:0:
329,192,197423,1,0,0:0:0:0:
402,192,197490,1,0,0:0:0:0:
475,192,197558,1,0,0:0:0:0:
36,192,197625,1,0,0:0:0:0:
329,192,197625,1,0,0:0:0:0:
256,192,197693,1,0,0:0:0:0:
109,192,197760,1,0,0:0:0:0:
402,192,197760,1,0,0:0:0:0:
329,192,197828,1,0,0:0:0:0:
182,192,197895,1,0,0:0:0:0:
475,192,197895,1,0,0:0:0:0:
402,192,197963,1,0,0:0:0:0:
109,192,198030,1,0,0:0:0:0:
256,192,198030,1,0,0:0:0:0:
36,192,198098,1,0,0:0:0:0:
182,192,198165,1,0,0:0:0:0:
329,192,198165,1,0,0:0:0:0:
109,192,198233,1,0,0:0:0:0:
256,192,198300,1,0,0:0:0:0:
402,192,198300,1,0,0:0:0:0:
475,192,198368,1,0,0:0:0:0:
182,192,198435,1,0,0:0:0:0:
329,192,198435,1,0,0:0:0:0:
402,192,198503,1,0,0:0:0:0:
109,192,198570,1,0,0:0:0:0:
256,192,198570,1,0,0:0:0:0:
329,192,198638,1,0,0:0:0:0:
36,192,198705,1,0,0:0:0:0:
182,192,198705,1,0,0:0:0:0:
475,192,198705,1,0,0:0:0:0:
402,192,198773,1,0,0:0:0:0:
329,192,198840,1,0,0:0:0:0:
256,192,198908,1,0,0:0:0:0:
402,192,198975,1,0,0:0:0:0:
329,192,199043,1,0,0:0:0:0:
256,192,199110,1,0,0:0:0:0:
182,192,199178,1,0,0:0:0:0:
329,192,199245,1,0,0:0:0:0:
256,192,199313,1,0,0:0:0:0:
182,192,199380,1,0,0:0:0:0:
109,192,199448,1,0,0:0:0:0:
256,192,199515,1,0,0:0:0:0:
182,192,199583,1,0,0:0:0:0:
109,192,199650,1,0,0:0:0:0:
36,192,199718,1,0,0:0:0:0:
182,192,199785,1,0,0:0:0:0:
475,192,199785,1,0,0:0:0:0:
256,192,199853,1,0,0:0:0:0:
109,192,199920,1,0,0:0:0:0:
402,192,199920,1,0,0:0:0:0:
182,192,199988,1,0,0:0:0:0:
36,192,200056,1,0,0:0:0:0:
329,192,200056,1,0,0:0:0:0:
109,192,200123,1,0,0:0:0:0:
256,192,200191,1,0,0:0:0:0:
402,192,200191,1,0,0:0:0:0:
475,192,200258,1,0,0:0:0:0:
182,192,200326,1,0,0:0:0:0:
329,192,200326,1,0,0:0:0:0:
402,192,200393,1,0,0:0:0:0:
109,192,200461,1,0,0:0:0:0:
256,192,200461,1,0,0:0:0:0:
36,192,200528,1,0,0:0:0:0:
182,192,200596,1,0,0:0:0:0:
329,192,200596,1,0,0:0:0:0:
109,192,200663,1,0,0:0:0:0:
256,192,200731,1,0,0:0:0:0:
402,192,200731,1,0,0:0:0:0:
182,192,200798,1,0,0:0:0:0:
109,192,200866,1,0,0:0:0:0:
329,192,200866,1,0,0:0:0:0:
475,192,200866,1,0,0:0:0:0:
109,192,201068,1,0,0:0:0:0:
109,192,201271,1,0,0:0:0:0:
182,192,201406,1,0,0:0:0:0:
182,192,201608,1,0,0:0:0:0:
182,192,201811,1,0,0:0:0:0:
256,192,201946,1,0,0:0:0:0:
256,192,202148,1,0,0:0:0:0:
256,192,202351,1,0,0:0:0:0:
475,192,202486,1,0,0:0:0:0:
329,192,202553,1,0,0:0:0:0:
256,192,202688,1,0,0:0:0:0:
109,192,202756,1,0,0:0:0:0:
109,192,202891,1,0,0:0:0:0:
402,192,203026,1,0,0:0:0:0:
402,192,203228,1,0,0:0:0:0:
402,192,203431,1,0,0:0:0:0:
329,192,203566,1,0,0:0:0:0:
329,192,203768,1,0,0:0:0:0:
329,192,203971,1,0,0:0:0:0:
256,192,204106,1,0,0:0:0:0:
256,192,204308,1,0,0:0:0:0:
256,192,204511,1,0,0:0:0:0:
109,192,204646,1,0,0:0:0:0:
182,192,204781,1,0,0:0:0:0:
329,192,204916,1,0,0:0:0:0:
402,192,205051,1,0,0:0:0:0:
36,192,205186,1,0,0:0:0:0:
182,192,205253,1,0,0:0:0:0:
256,192,205388,1,0,0:0:0:0:
402,192,205456,1,0,0:0:0:0:
402,192,205591,1,0,0:0:0:0:
36,192,205726,1,0,0:0:0:0:
109,192,205861,1,0,0:0:0:0:
256,192,205996,1,0,0:0:0:0:
329,192,206131,1,0,0:0:0:0:
109,192,206266,1,0,0:0:0:0:
182,192,206401,1,0,0:0:0:0:
329,192,206536,1,0,0:0:0:0:
402,192,206671,1,0,0:0:0:0:
182,192,206806,1,0,0:0:0:0:
256,192,206941,1,0,0:0:0:0:
402,192,207076,1,0,0:0:0:0:
475,192,207211,1,0,0:0:0:0:
109,192,207346,1,0,0:0:0:0:
36,192,207481,1,0,0:0:0:0:
329,192,207616,1,0,0:0:0:0:
402,192,207751,1,0,0:0:0:0:
256,192,207886,1,0,0:0:0:0:
329,192,208021,1,0,0:0:0:0:
182,192,208156,1,0,0:0:0:0:
256,192,208291,1,0,0:0:0:0:
402,192,208426,1,0,0:0:0:0:
109,192,208426,1,0,0:0:0:0:
36,192,208628,5,0,0:0:0:0:
329,192,208628,1,0,0:0:0:0:
36,192,208831,1,0,0:0:0:0:
256,192,208831,1,0,0:0:0:0:
36,192,209033,1,0,0:0:0:0:
256,192,209033,1,0,0:0:0:0:
182,192,209236,1,0,0:0:0:0:
402,192,209236,1,0,0:0:0:0:
329,192,209371,1,0,0:0:0:0:
182,192,209506,128,0,210046:0:0:0:0:
402,192,209506,1,0,0:0:0:0:
36,192,209506,1,0,0:0:0:0:
329,192,210046,1,0,0:0:0:0:
256,192,210586,1,0,0:0:0:0:
402,192,210586,128,0,211126:0:0:0:0:
182,192,210856,1,0,0:0:0:0:
109,192,211126,1,0,0:0:0:0:
329,192,211126,128,0,211666:0:0:0:0:
36,192,211396,1,0,0:0:0:0:
109,192,211666,128,0,212206:0:0:0:0:
182,192,211666,1,0,0:0:0:0:
402,192,211666,1,0,0:0:0:0:
256,192,212206,1,0,0:0:0:0:
36,192,212746,128,0,213286:0:0:0:0:
329,192,212746,1,0,0:0:0:0:
256,192,213016,1,0,0:0:0:0:
475,192,213083,1,0,0:0:0:0:
109,192,213286,128,0,213826:0:0:0:0:
402,192,213286,1,0,0:0:0:0:
475,192,213556,1,0,0:0:0:0:
182,192,213826,1,0,0:0:0:0:
329,192,213826,1,0,0:0:0:0:
475,192,213826,1,0,0:0:0:0:
256,192,214366,1,0,0:0:0:0:
402,192,214636,1,0,0:0:0:0:
402,192,214771,1,0,0:0:0:0:
256,192,214906,1,0,0:0:0:0:
475,192,214906,1,0,0:0:0:0:
182,192,215446,1,0,0:0:0:0:
402,192,215446,1,0,0:0:0:0:
109,192,215851,1,0,0:0:0:0:
329,192,215986,1,0,0:0:0:0:
475,192,215986,1,0,0:0:0:0:
36,192,216121,1,0,0:0:0:0:
256,192,216256,1,0,0:0:0:0:
402,192,216256,1,0,0:0:0:0:
109,192,216391,1,0,0:0:0:0:
182,192,216526,1,0,0:0:0:0:
329,192,216526,1,0,0:0:0:0:
36,192,216661,1,0,0:0:0:0:
109,192,216796,1,0,0:0:0:0:
256,192,216796,1,0,0:0:0:0:
402,192,216931,1,0,0:0:0:0:
329,192,216998,1,0,0:0:0:0:
256,192,217066,1,0,0:0:0:0:
475,192,217066,1,0,0:0:0:0:
402,192,217201,1,0,0:0:0:0:
36,192,217336,1,0,0:0:0:0:
256,192,217336,1,0,0:0:0:0:
109,192,217471,1,0,0:0:0:0:
182,192,217606,1,0,0:0:0:0:
402,192,217606,1,0,0:0:0:0:
329,192,217741,1,0,0:0:0:0:
36,192,217876,1,0,0:0:0:0:
256,192,217876,1,0,0:0:0:0:
329,192,217943,1,0,0:0:0:0:
256,192,218011,1,0,0:0:0:0:
182,192,218078,1,0,0:0:0:0:
256,192,218146,1,0,0:0:0:0:
475,192,218146,1,0,0:0:0:0:
36,192,218213,1,0,0:0:0:0:
256,192,218348,1,0,0:0:0:0:
36,192,218416,1,0,0:0:0:0:
329,192,218416,1,0,0:0:0:0:
256,192,218551,1,0,0:0:0:0:
109,192,218686,1,0,0:0:0:0:
329,192,218686,1,0,0:0:0:0:
402,192,218753,1,0,0:0:0:0:
329,192,218821,1,0,0:0:0:0:
402,192,218888,1,0,0:0:0:0:
182,192,218956,1,0,0:0:0:0:
475,192,218956,1,0,0:0:0:0:
256,192,219023,1,0,0:0:0:0:
182,192,219091,1,0,0:0:0:0:
109,192,219158,1,0,0:0:0:0:
36,192,219226,1,0,0:0:0:0:
329,192,219226,1,0,0:0:0:0:
256,192,219293,1,0,0:0:0:0:
402,192,219428,1,0,0:0:0:0:
182,192,219496,1,0,0:0:0:0:
475,192,219496,1,0,0:0:0:0:
329,192,219631,1,0,0:0:0:0:
256,192,219698,1,0,0:0:0:0:
182,192,219766,1,0,0:0:0:0:
329,192,219833,1,0,0:0:0:0:
402,192,219901,1,0,0:0:0:0:
182,192,219968,1,0,0:0:0:0:
256,192,220036,1,0,0:0:0:0:
402,192,220103,1,0,0:0:0:0:
256,192,220171,1,0,0:0:0:0:
402,192,220238,1,0,0:0:0:0:
109,192,220306,1,0,0:0:0:0:
256,192,220306,1,0,0:0:0:0:
402,192,220373,1,0,0:0:0:0:
109,192,220441,1,0,0:0:0:0:
402,192,220508,1,0,0:0:0:0:
36,192,220576,1,0,0:0:0:0:
256,192,220576,1,0,0:0:0:0:
182,192,220711,1,0,0:0:0:0:
402,192,220846,1,0,0:0:0:0:
109,192,220913,1,0,0:0:0:0:
402,192,220981,1,0,0:0:0:0:
109,192,221048,1,0,0:0:0:0:
256,192,221116,1,0,0:0:0:0:
475,192,221116,1,0,0:0:0:0:
329,192,221251,1,0,0:0:0:0:
36,192,221386,1,0,0:0:0:0:
475,192,221386,1,0,0:0:0:0:
182,192,221453,1,0,0:0:0:0:
475,192,221521,1,0,0:0:0:0:
329,192,221588,1,0,0:0:0:0:
109,192,221656,1,0,0:0:0:0:
182,192,221723,1,0,0:0:0:0:
402,192,221791,1,0,0:0:0:0:
329,192,221858,1,0,0:0:0:0:
36,192,221926,128,0,222061:0:0:0:0:
182,192,221926,1,0,0:0:0:0:
256,192,221993,1,0,0:0:0:0:
109,192,222061,128,0,222196:0:0:0:0:
329,192,222061,1,0,0:0:0:0:
402,192,222128,1,0,0:0:0:0:
182,192,222196,128,0,222331:0:0:0:0:
256,192,222196,1,0,0:0:0:0:
329,192,222263,1,0,0:0:0:0:
256,192,222331,128,0,222466:0:0:0:0:
402,192,222331,1,0,0:0:0:0:
475,192,222398,1,0,0:0:0:0:
36,192,222466,1,0,0:0:0:0:
109,192,222466,1,0,0:0:0:0:
402,192,222466,1,0,0:0:0:0:
182,192,222533,1,0,0:0:0:0:
182,192,222668,1,0,0:0:0:0:
402,192,222736,1,0,0:0:0:0:
475,192,222736,1,0,0:0:0:0:
475,192,222871,1,0,0:0:0:0:
329,192,222938,1,0,0:0:0:0:
182,192,223006,128,0,223276:0:0:0:0:
475,192,223006,1,0,0:0:0:0:
402,192,223073,1,0,0:0:0:0:
329,192,223141,1,0,0:0:0:0:
36,192,223276,1,0,0:0:0:0:
256,192,223276,128,0,223546:0:0:0:0:
109,192,223343,1,0,0:0:0:0:
182,192,223411,1,0,0:0:0:0:
36,192,223546,1,0,0:0:0:0:
329,192,223546,128,0,223816:0:0:0:0:
109,192,223613,1,0,0:0:0:0:
182,192,223681,1,0,0:0:0:0:
256,192,223816,128,0,224086:0:0:0:0:
475,192,223816,1,0,0:0:0:0:
402,192,223883,1,0,0:0:0:0:
329,192,223951,1,0,0:0:0:0:
182,192,224086,128,0,224356:0:0:0:0:
475,192,224086,1,0,0:0:0:0:
402,192,224153,1,0,0:0:0:0:
329,192,224221,1,0,0:0:0:0:
109,192,224356,128,0,224626:0:0:0:0:
402,192,224356,1,0,0:0:0:0:
329,192,224423,1,0,0:0:0:0:
256,192,224491,1,0,0:0:0:0:
329,192,224626,1,0,0:0:0:0:
402,192,224626,128,0,224896:0:0:0:0:
256,192,224693,1,0,0:0:0:0:
182,192,224761,1,0,0:0:0:0:
109,192,224828,1,0,0:0:0:0:
36,192,224896,1,0,0:0:0:0:
329,192,224896,128,0,225166:0:0:0:0:
36,192,225166,1,0,0:0:0:0:
182,192,225166,128,0,225436:0:0:0:0:
109,192,225233,1,0,0:0:0:0:
256,192,225301,1,0,0:0:0:0:
402,192,225368,1,0,0:0:0:0:
329,192,225436,128,0,225706:0:0:0:0:
475,192,225436,1,0,0:0:0:0:
182,192,225706,1,0,0:0:0:0:
256,192,225706,128,0,226786:0:0:0:0:
329,192,225773,1,0,0:0:0:0:
182,192,225841,1,0,0:0:0:0:
329,192,225908,1,0,0:0:0:0:
109,192,225976,1,0,0:0:0:0:
402,192,226043,1,0,0:0:0:0:
109,192,226111,1,0,0:0:0:0:
402,192,226178,1,0,0:0:0:0:
182,192,226246,1,0,0:0:0:0:
329,192,226313,1,0,0:0:0:0:
182,192,226381,1,0,0:0:0:0:
329,192,226448,1,0,0:0:0:0:
109,192,226516,1,0,0:0:0:0:
402,192,226583,1,0,0:0:0:0:
109,192,226651,1,0,0:0:0:0:
402,192,226718,1,0,0:0:0:0:
36,192,226786,128,0,226921:0:0:0:0:
182,192,226786,1,0,0:0:0:0:
329,192,226786,1,0,0:0:0:0:
109,192,226921,1,0,0:0:0:0:
109,192,227056,128,0,227191:0:0:0:0:
182,192,227056,1,0,0:0:0:0:
329,192,227056,1,0,0:0:0:0:
475,192,227191,1,0,0:0:0:0:
182,192,227326,128,0,227461:0:0:0:0:
256,192,227326,1,0,0:0:0:0:
402,192,227326,1,0,0:0:0:0:
109,192,227461,1,0,0:0:0:0:
256,192,227596,128,0,227731:0:0:0:0:
329,192,227596,1,0,0:0:0:0:
475,192,227596,1,0,0:0:0:0:
182,192,227731,1,0,0:0:0:0:
36,192,227866,128,0,228136:0:0:0:0:
475,192,227866,1,0,0:0:0:0:
182,192,227950,1,0,0:0:0:0:
475,192,228035,1,0,0:0:0:0:
109,192,228136,128,0,228406:0:0:0:0:
182,192,228136,1,0,0:0:0:0:
256,192,228136,1,0,0:0:0:0:
329,192,228271,1,0,0:0:0:0:
256,192,228406,128,0,228676:0:0:0:0:
402,192,228406,1,0,0:0:0:0:
475,192,228406,1,0,0:0:0:0:
329,192,228541,1,0,0:0:0:0:
109,192,228676,1,0,0:0:0:0:
402,192,228676,128,0,228946:0:0:0:0:
109,192,228811,1,0,0:0:0:0:
36,192,228946,1,0,0:0:0:0:
182,192,228946,1,0,0:0:0:0:
256,192,229013,1,0,0:0:0:0:
329,192,229081,1,0,0:0:0:0:
402,192,229148,1,0,0:0:0:0:
36,192,229216,1,0,0:0:0:0:
109,192,229216,1,0,0:0:0:0:
182,192,229283,1,0,0:0:0:0:
256,192,229351,1,0,0:0:0:0:
182,192,229418,1,0,0:0:0:0:
329,192,229486,1,0,0:0:0:0:
475,192,229486,1,0,0:0:0:0:
256,192,229553,1,0,0:0:0:0:
182,192,229621,1,0,0:0:0:0:
256,192,229688,1,0,0:0:0:0:
402,192,229756,1,0,0:0:0:0:
475,192,229756,1,0,0:0:0:0:
329,192,229823,1,0,0:0:0:0:
256,192,229891,1,0,0:0:0:0:
182,192,229958,1,0,0:0:0:0:
109,192,230026,1,0,0:0:0:0:
402,192,230026,1,0,0:0:0:0:
329,192,230161,1,0,0:0:0:0:
36,192,230296,1,0,0:0:0:0:
402,192,230296,1,0,0:0:0:0:
182,192,230363,1,0,0:0:0:0:
36,192,230431,1,0,0:0:0:0:
182,192,230498,1,0,0:0:0:0:
36,192,230566,1,0,0:0:0:0:
475,192,230566,1,0,0:0:0:0:
402,192,230701,1,0,0:0:0:0:
36,192,230836,1,0,0:0:0:0:
475,192,230836,1,0,0:0:0:0:
329,192,230903,1,0,0:0:0:0:
109,192,230971,1,0,0:0:0:0:
475,192,230971,1,0,0:0:0:0:
329,192,231038,1,0,0:0:0:0:
36,192,231106,1,0,0:0:0:0:
475,192,231106,1,0,0:0:0:0:
182,192,231173,1,0,0:0:0:0:
329,192,231308,1,0,0:0:0:0:
36,192,231376,1,0,0:0:0:0:
475,192,231376,1,0,0:0:0:0:
329,192,231511,1,0,0:0:0:0:
182,192,231578,1,0,0:0:0:0:
36,192,231646,1,0,0:0:0:0:
329,192,231646,1,0,0:0:0:0:
182,192,231713,1,0,0:0:0:0:
475,192,231781,1,0,0:0:0:0:
402,192,231848,1,0,0:0:0:0:
36,192,231916,1,0,0:0:0:0:
256,192,231916,1,0,0:0:0:0:
182,192,231983,1,0,0:0:0:0:
402,192,232051,1,0,0:0:0:0:
256,192,232118,1,0,0:0:0:0:
329,192,232186,1,0,0:0:0:0:
402,192,232186,1,0,0:0:0:0:
109,192,232253,1,0,0:0:0:0:
402,192,232321,1,0,0:0:0:0:
36,192,232456,1,0,0:0:0:0:
109,192,232456,1,0,0:0:0:0:
329,192,232523,1,0,0:0:0:0:
36,192,232591,1,0,0:0:0:0:
256,192,232726,1,0,0:0:0:0:
475,192,232726,1,0,0:0:0:0:
329,192,232861,1,0,0:0:0:0:
256,192,232928,1,0,0:0:0:0:
182,192,232996,1,0,0:0:0:0:
475,192,232996,1,0,0:0:0:0:
402,192,233131,1,0,0:0:0:0:
182,192,233266,128,0,233468:0:0:0:0:
36,192,233333,128,0,233536:0:0:0:0:
475,192,233468,1,0,0:0:0:0:
329,192,233536,1,0,0:0:0:0:
182,192,233671,128,0,233738:0:0:0:0:
329,192,233738,128,0,233806:0:0:0:0:
182,192,233806,1,0,0:0:0:0:
329,192,233873,1,0,0:0:0:0:
109,192,234008,128,0,234278:0:0:0:0:
256,192,234076,128,0,234211:0:0:0:0:
402,192,234211,1,0,0:0:0:0:
256,192,234278,1,0,0:0:0:0:
109,192,234346,1,0,0:0:0:0:
402,192,234346,1,0,0:0:0:0:
182,192,234413,1,0,0:0:0:0:
256,192,234481,1,0,0:0:0:0:
329,192,234548,1,0,0:0:0:0:
402,192,234616,1,0,0:0:0:0:
329,192,234683,1,0,0:0:0:0:
256,192,234751,1,0,0:0:0:0:
182,192,234818,1,0,0:0:0:0:
109,192,234886,1,0,0:0:0:0:
402,192,234886,1,0,0:0:0:0:
182,192,234953,1,0,0:0:0:0:
256,192,235021,1,0,0:0:0:0:
329,192,235088,1,0,0:0:0:0:
402,192,235156,1,0,0:0:0:0:
329,192,235223,1,0,0:0:0:0:
256,192,235291,1,0,0:0:0:0:
475,192,235291,1,0,0:0:0:0:
182,192,235358,1,0,0:0:0:0:
402,192,235358,1,0,0:0:0:0:
109,192,235426,1,0,0:0:0:0:
329,192,235426,1,0,0:0:0:0:
475,192,235493,128,0,235628:0:0:0:0:
256,192,235493,1,0,0:0:0:0:
256,192,235628,1,0,0:0:0:0:
109,192,235696,1,0,0:0:0:0:
329,192,235696,1,0,0:0:0:0:
475,192,235696,128,0,235831:0:0:0:0:
256,192,235831,1,0,0:0:0:0:
109,192,235966,1,0,0:0:0:0:
402,192,235966,1,0,0:0:0:0:
36,192,236033,128,0,236168:0:0:0:0:
329,192,236033,1,0,0:0:0:0:
182,192,236168,1,0,0:0:0:0:
36,192,236236,128,0,236371:0:0:0:0:
256,192,236236,1,0,0:0:0:0:
475,192,236236,1,0,0:0:0:0:
109,192,236371,1,0,0:0:0:0:
36,192,236438,1,0,0:0:0:0:
182,192,236506,1,0,0:0:0:0:
475,192,236506,1,0,0:0:0:0:
256,192,236573,1,0,0:0:0:0:
402,192,236573,128,0,236708:0:0:0:0:
182,192,236708,1,0,0:0:0:0:
36,192,236776,1,0,0:0:0:0:
256,192,236776,1,0,0:0:0:0:
402,192,236776,128,0,236911:0:0:0:0:
109,192,236911,1,0,0:0:0:0:
36,192,237046,1,0,0:0:0:0:
182,192,237046,1,0,0:0:0:0:
329,192,237113,128,0,237248:0:0:0:0:
475,192,237113,1,0,0:0:0:0:
36,192,237248,1,0,0:0:0:0:
182,192,237316,1,0,0:0:0:0:
329,192,237316,128,0,237451:0:0:0:0:
475,192,237316,1,0,0:0:0:0:
109,192,237451,1,0,0:0:0:0:
182,192,237586,1,0,0:0:0:0:
402,192,237586,1,0,0:0:0:0:
36,192,237653,128,0,237788:0:0:0:0:
329,192,237653,1,0,0:0:0:0:
256,192,237788,1,0,0:0:0:0:
36,192,237856,128,0,237991:0:0:0:0:
182,192,237856,1,0,0:0:0:0:
402,192,237856,1,0,0:0:0:0:
329,192,237991,1,0,0:0:0:0:
109,192,238126,1,0,0:0:0:0:
475,192,238126,1,0,0:0:0:0:
182,192,238193,128,0,238328:0:0:0:0:
329,192,238193,1,0,0:0:0:0:
402,192,238328,1,0,0:0:0:0:
109,192,238396,1,0,0:0:0:0:
182,192,238396,128,0,238531:0:0:0:0:
475,192,238396,1,0,0:0:0:0:
329,192,238531,1,0,0:0:0:0:
256,192,238666,1,0,0:0:0:0:
475,192,238666,1,0,0:0:0:0:
109,192,238733,128,0,238868:0:0:0:0:
182,192,238733,1,0,0:0:0:0:
402,192,238868,1,0,0:0:0:0:
109,192,238936,1,0,0:0:0:0:
256,192,238936,128,0,239071:0:0:0:0:
329,192,238936,1,0,0:0:0:0:
36,192,239071,1,0,0:0:0:0:
182,192,239071,1,0,0:0:0:0:
402,192,239206,1,0,0:0:0:0:
475,192,239206,1,0,0:0:0:0:
256,192,239341,1,0,0:0:0:0:
329,192,239341,1,0,0:0:0:0:
109,192,239476,1,0,0:0:0:0:
182,192,239476,1,0,0:0:0:0:
329,192,239611,1,0,0:0:0:0:
402,192,239611,1,0,0:0:0:0:
182,192,239746,1,0,0:0:0:0:
256,192,239746,1,0,0:0:0:0:
402,192,239813,1,0,0:0:0:0:
256,192,239948,1,0,0:0:0:0:
182,192,240016,1,0,0:0:0:0:
402,192,240016,1,0,0:0:0:0:
256,192,240151,1,0,0:0:0:0:
182,192,240218,1,0,0:0:0:0:
36,192,240286,1,0,0:0:0:0:
109,192,240286,1,0,0:0:0:0:
329,192,240286,128,0,240421:0:0:0:0:
182,192,240421,1,0,0:0:0:0:
109,192,240556,1,0,0:0:0:0:
256,192,240556,1,0,0:0:0:0:
402,192,240556,128,0,240691:0:0:0:0:
329,192,240691,1,0,0:0:0:0:
36,192,240826,1,0,0:0:0:0:
182,192,240826,1,0,0:0:0:0:
475,192,240826,128,0,240961:0:0:0:0:
329,192,240961,1,0,0:0:0:0:
109,192,241096,1,0,0:0:0:0:
256,192,241096,1,0,0:0:0:0:
402,192,241096,128,0,241231:0:0:0:0:
36,192,241231,1,0,0:0:0:0:
182,192,241366,1,0,0:0:0:0:
329,192,241366,128,0,241501:0:0:0:0:
402,192,241366,1,0,0:0:0:0:
109,192,241501,1,0,0:0:0:0:
36,192,241636,1,0,0:0:0:0:
329,192,241636,1,0,0:0:0:0:
475,192,241636,128,0,241771:0:0:0:0:
256,192,241771,1,0,0:0:0:0:
109,192,241906,1,0,0:0:0:0:
329,192,241906,1,0,0:0:0:0:
402,192,241906,128,0,242041:0:0:0:0:
36,192,242041,1,0,0:0:0:0:
182,192,242176,1,0,0:0:0:0:
329,192,242176,128,0,242311:0:0:0:0:
475,192,242176,1,0,0:0:0:0:
109,192,242311,1,0,0:0:0:0:
36,192,242446,1,0,0:0:0:0:
256,192,242446,128,0,242581:0:0:0:0:
402,192,242446,1,0,0:0:0:0:
109,192,242581,1,0,0:0:0:0:
182,192,242716,1,0,0:0:0:0:
329,192,242716,128,0,242851:0:0:0:0:
475,192,242716,1,0,0:0:0:0:
402,192,242851,1,0,0:0:0:0:
36,192,242986,1,0,0:0:0:0:
256,192,242986,128,0,244066:0:0:0:0:
109,192,242986,1,0,0:0:0:0:
475,192,243188,1,0,0:0:0:0:
402,192,243188,1,0,0:0:0:0:
36,192,243391,1,0,0:0:0:0:
182,192,243391,1,0,0:0:0:0:
475,192,243593,1,0,0:0:0:0:
329,192,243593,1,0,0:0:0:0:
36,192,243796,1,0,0:0:0:0:
109,192,243796,1,0,0:0:0:0:
329,192,243863,1,0,0:0:0:0:
182,192,243931,1,0,0:0:0:0:
402,192,243998,1,0,0:0:0:0:
109,192,244066,1,0,0:0:0:0:
475,192,244066,1,0,0:0:0:0:
402,192,244133,1,0,0:0:0:0:
329,192,244201,1,0,0:0:0:0:
256,192,244268,1,0,0:0:0:0:
182,192,244336,1,0,0:0:0:0:
402,192,244336,1,0,0:0:0:0:
329,192,244471,1,0,0:0:0:0:
36,192,244606,1,0,0:0:0:0:
109,192,244673,1,0,0:0:0:0:
182,192,244741,1,0,0:0:0:0:
256,192,244808,1,0,0:0:0:0:
109,192,244876,1,0,0:0:0:0:
329,192,244876,1,0,0:0:0:0:
182,192,245011,1,0,0:0:0:0:
36,192,245146,1,0,0:0:0:0:
475,192,245230,1,0,0:0:0:0:
36,192,245315,1,0,0:0:0:0:
475,192,245416,1,0,0:0:0:0:
36,192,245686,128,0,246226:0:0:0:0:
475,192,245686,1,0,0:0:0:0:
402,192,245753,1,0,0:0:0:0:
329,192,245821,1,0,0:0:0:0:
402,192,245888,1,0,0:0:0:0:
256,192,245956,1,0,0:0:0:0:
475,192,245956,1,0,0:0:0:0:
182,192,246091,1,0,0:0:0:0:
402,192,246091,1,0,0:0:0:0:
109,192,246226,1,0,0:0:0:0:
329,192,246226,1,0,0:0:0:0:
256,192,246361,1,0,0:0:0:0:
182,192,246496,1,0,0:0:0:0:
402,192,246496,1,0,0:0:0:0:
329,192,246631,1,0,0:0:0:0:
256,192,246766,1,0,0:0:0:0:
475,192,246766,1,0,0:0:0:0:
402,192,246901,1,0,0:0:0:0:
36,192,247036,1,0,0:0:0:0:
256,192,247036,1,0,0:0:0:0:
329,192,247171,1,0,0:0:0:0:
109,192,247306,1,0,0:0:0:0:
402,192,247306,1,0,0:0:0:0:
182,192,247373,1,0,0:0:0:0:
256,192,247441,1,0,0:0:0:0:
329,192,247508,1,0,0:0:0:0:
109,192,247576,1,0,0:0:0:0:
402,192,247576,1,0,0:0:0:0:
329,192,247643,1,0,0:0:0:0:
256,192,247711,1,0,0:0:0:0:
182,192,247778,1,0,0:0:0:0:
109,192,247846,1,0,0:0:0:0:
402,192,247846,1,0,0:0:0:0:
182,192,247913,1,0,0:0:0:0:
256,192,247981,1,0,0:0:0:0:
329,192,248048,1,0,0:0:0:0:
109,192,248116,1,0,0:0:0:0:
402,192,248116,1,0,0:0:0:0:
329,192,248183,1,0,0:0:0:0:
256,192,248251,1,0,0:0:0:0:
182,192,248318,1,0,0:0:0:0:
329,192,248318,1,0,0:0:0:0:
109,192,248386,1,0,0:0:0:0:
475,192,248386,1,0,0:0:0:0:
329,192,248453,1,0,0:0:0:0:
182,192,248588,1,0,0:0:0:0:
36,192,248656,1,0,0:0:0:0:
402,192,248656,1,0,0:0:0:0:
256,192,248791,1,0,0:0:0:0:
109,192,248858,1,0,0:0:0:0:
402,192,248926,1,0,0:0:0:0:
475,192,248926,1,0,0:0:0:0:
329,192,248993,1,0,0:0:0:0:
182,192,249061,1,0,0:0:0:0:
256,192,249128,1,0,0:0:0:0:
109,192,249196,1,0,0:0:0:0:
182,192,249196,1,0,0:0:0:0:
256,192,249331,1,0,0:0:0:0:
329,192,249331,1,0,0:0:0:0:
402,192,249466,1,0,0:0:0:0:
475,192,249466,1,0,0:0:0:0:
256,192,249533,1,0,0:0:0:0:
109,192,249601,1,0,0:0:0:0:
36,192,249736,1,0,0:0:0:0:
109,192,249736,1,0,0:0:0:0:
256,192,249803,1,0,0:0:0:0:
402,192,249871,1,0,0:0:0:0:
182,192,250006,1,0,0:0:0:0:
329,192,250006,1,0,0:0:0:0:
109,192,250141,1,0,0:0:0:0:
36,192,250209,1,0,0:0:0:0:
329,192,250209,1,0,0:0:0:0:
256,192,250276,1,0,0:0:0:0:
475,192,250276,1,0,0:0:0:0:
36,192,250411,1,0,0:0:0:0:
329,192,250411,1,0,0:0:0:0:
182,192,250546,1,0,0:0:0:0:
475,192,250546,1,0,0:0:0:0:
402,192,250614,1,0,0:0:0:0:
329,192,250681,1,0,0:0:0:0:
475,192,250749,1,0,0:0:0:0:
109,192,250816,1,0,0:0:0:0:
329,192,250816,1,0,0:0:0:0:
256,192,250884,1,0,0:0:0:0:
475,192,250951,1,0,0:0:0:0:
256,192,251019,1,0,0:0:0:0:
36,192,251086,1,0,0:0:0:0:
182,192,251086,1,0,0:0:0:0:
475,192,251086,128,0,251221:0:0:0:0:
256,192,251221,128,0,251356:0:0:0:0:
402,192,251221,1,0,0:0:0:0:
36,192,251356,1,0,0:0:0:0:
182,192,251356,1,0,0:0:0:0:
475,192,251356,128,0,251491:0:0:0:0:
256,192,251491,128,0,251626:0:0:0:0:
402,192,251491,1,0,0:0:0:0:
36,192,251626,1,0,0:0:0:0:
182,192,251626,1,0,0:0:0:0:
329,192,251694,1,0,0:0:0:0:
402,192,251761,1,0,0:0:0:0:
475,192,251829,1,0,0:0:0:0:
36,192,251896,1,0,0:0:0:0:
109,192,251896,1,0,0:0:0:0:
256,192,251964,1,0,0:0:0:0:
329,192,252031,1,0,0:0:0:0:
402,192,252099,1,0,0:0:0:0:
329,192,252166,1,0,0:0:0:0:
475,192,252166,1,0,0:0:0:0:
256,192,252234,1,0,0:0:0:0:
109,192,252301,1,0,0:0:0:0:
36,192,252369,1,0,0:0:0:0:
402,192,252436,1,0,0:0:0:0:
475,192,252436,1,0,0:0:0:0:
329,192,252504,1,0,0:0:0:0:
182,192,252571,1,0,0:0:0:0:
109,192,252639,1,0,0:0:0:0:
36,192,252706,128,0,253786:0:0:0:0:
256,192,252706,1,0,0:0:0:0:
329,192,252841,1,0,0:0:0:0:
182,192,252976,1,0,0:0:0:0:
256,192,253111,1,0,0:0:0:0:
109,192,253246,1,0,0:0:0:0:
475,192,253246,128,0,253786:0:0:0:0:
182,192,253381,1,0,0:0:0:0:
329,192,253516,1,0,0:0:0:0:
402,192,253516,128,0,253786:0:0:0:0:
256,192,253651,1,0,0:0:0:0:
109,192,253786,128,0,254866:0:0:0:0:
182,192,253786,1,0,0:0:0:0:
256,192,253921,1,0,0:0:0:0:
329,192,254056,1,0,0:0:0:0:
402,192,254191,1,0,0:0:0:0:
256,192,254326,1,0,0:0:0:0:
475,192,254326,128,0,254866:0:0:0:0:
329,192,254461,1,0,0:0:0:0:
182,192,254596,1,0,0:0:0:0:
402,192,254596,128,0,254866:0:0:0:0:
256,192,254731,1,0,0:0:0:0:
182,192,254866,128,0,255946:0:0:0:0:
329,192,254866,1,0,0:0:0:0:
475,192,255001,1,0,0:0:0:0:
256,192,255136,1,0,0:0:0:0:
402,192,255271,1,0,0:0:0:0:
256,192,255406,1,0,0:0:0:0:
475,192,255406,128,0,255946:0:0:0:0:
329,192,255541,1,0,0:0:0:0:
36,192,255676,1,0,0:0:0:0:
402,192,255676,128,0,255946:0:0:0:0:
109,192,255811,1,0,0:0:0:0:
36,192,255946,1,0,0:0:0:0:
256,192,255946,128,0,257026:0:0:0:0:
329,192,255946,1,0,0:0:0:0:
109,192,256014,1,0,0:0:0:0:
182,192,256081,1,0,0:0:0:0:
109,192,256149,1,0,0:0:0:0:
36,192,256216,1,0,0:0:0:0:
475,192,256216,1,0,0:0:0:0:
109,192,256284,1,0,0:0:0:0:
182,192,256351,1,0,0:0:0:0:
109,192,256419,1,0,0:0:0:0:
36,192,256486,1,0,0:0:0:0:
475,192,256486,1,0,0:0:0:0:
402,192,256554,1,0,0:0:0:0:
329,192,256621,1,0,0:0:0:0:
402,192,256689,1,0,0:0:0:0:
36,192,256756,1,0,0:0:0:0:
475,192,256756,1,0,0:0:0:0:
402,192,256824,1,0,0:0:0:0:
329,192,256891,1,0,0:0:0:0:
402,192,256959,1,0,0:0:0:0:
36,192,257026,1,0,0:0:0:0:
475,192,257026,1,0,0:0:0:0:
329,192,257026,128,0,261346:0:0:0:0:
182,192,257026,128,0,261346:0:0:0:0:
