osu file format v12

[General]
AudioFilename: Xi - Freedom Dive - Another -.mp3
AudioLeadIn: 0
PreviewTime: 125265
Countdown: 0
SampleSet: None
StackLeniency: 0.7
Mode: 3
LetterboxInBreaks: 0
SpecialStyle: 0
WidescreenStoryboard: 0

[Editor]
DistanceSpacing: 1.2
BeatDivisor: 4
GridSize: 4
TimelineZoom: 1

[Metadata]
Title:FREEDOM DiVE
TitleUnicode:FREEDOM DiVE
Artist:xi
ArtistUnicode:xi
Creator:ExPew
Version:4K ONI
Source:BMS
Tags:ishimaru94 - R u m i a - parousia
BeatmapID:432035
BeatmapSetID:179727

[Difficulty]
HPDrainRate:8
CircleSize:4
OverallDifficulty:7
ApproachRate:0
SliderMultiplier:1.4
SliderTickRate:1

[Events]
//Background and Video events
0,0,"Freedom Dive - Another -.jpg",0,0
//Break Periods
//Storyboard Layer 0 (Background)
//Storyboard Layer 1 (Fail)
//Storyboard Layer 2 (Pass)
//Storyboard Layer 3 (Foreground)
//Storyboard Sound Samples
//Background Colour Transformations
3,100,163,162,255

[TimingPoints]
-16,270.002700027,4,2,2,30,1,0
6059,-100,4,2,2,40,0,0
6194,-100,4,2,2,30,0,0
19424,-100,4,2,2,35,0,0
22934,-100,4,2,2,30,0,0
23811,-100,4,2,2,35,0,0
24689,-100,4,2,2,30,0,0
28064,-100,4,2,2,40,0,0
34544,-100,4,2,2,35,0,0
36164,-100,4,2,2,40,0,0
36704,-100,4,2,2,35,0,0
37784,-100,4,2,2,40,0,0
41969,-100,4,2,2,30,0,0
42171,-100,4,2,2,40,0,0
43184,-100,4,2,2,35,0,0
45344,-100,4,2,2,30,0,0
51824,-100,4,2,2,26,0,0
54254,-100,4,2,2,30,0,0
60464,-100,4,2,2,26,0,0
64784,-100,4,2,2,26,0,1
82064,-133.333333333333,4,2,2,35,0,0
82199,-133.333333333333,4,2,2,40,0,0
90704,-133.333333333333,4,2,2,30,0,0
90839,-133.333333333333,4,2,2,40,0,0
98264,-133.333333333333,4,2,2,30,0,0
99344,-128.205128205128,4,2,2,30,0,0
100425,-123.456790123457,4,2,2,30,0,0
101505,-119.047619047619,4,2,2,30,0,0
102585,-114.942528735632,4,2,2,30,0,0
103665,-111.111111111111,4,2,2,30,0,0
104745,-107.52688172043,4,2,2,30,0,0
105825,-104.166666666667,4,2,2,30,0,0
106365,-100,4,2,2,30,0,0
106905,-100,4,2,2,30,0,0
107715,-200,4,2,2,35,0,0
107782,-400,4,2,2,70,0,0
107850,-100,4,2,2,70,0,0
107917,-66.6666666666667,4,2,2,70,0,0
107985,-100,4,2,2,30,0,1
142545,-100,4,2,2,45,0,0
143625,-100,4,2,2,30,0,0
145785,-100,4,2,2,28,0,0
146865,-100,4,2,2,30,0,0
162525,-100,4,2,2,40,0,0
164145,-100,4,2,2,35,0,0
200866,-100,4,2,2,30,0,0
205726,-100,4,2,2,35,0,0
218146,-100,4,2,2,35,0,1
252706,-100,4,2,2,30,0,0
255136,-100,4,2,2,35,0,0
255946,-100,4,2,2,40,0,0
257026,-100,4,2,2,30,0,0
261346,-100,4,2,2,5,0,0

[HitObjects]
320,192,2144,1,0,0:0:0:0:
448,192,2144,1,0,0:0:0:0:
64,192,2346,1,0,0:0:0:0:
192,192,2346,1,0,0:0:0:0:
320,192,2549,1,0,0:0:0:0:
448,192,2549,1,0,0:0:0:0:
64,192,2684,1,0,0:0:0:0:
192,192,2684,1,0,0:0:0:0:
192,192,2819,1,0,0:0:0:0:
320,192,2819,1,0,0:0:0:0:
320,192,2954,1,0,0:0:0:0:
448,192,2954,1,0,0:0:0:0:
64,192,3089,1,0,0:0:0:0:
192,192,3089,1,0,0:0:0:0:
320,192,3224,1,0,0:0:0:0:
448,192,3224,1,0,0:0:0:0:
64,192,3426,1,0,0:0:0:0:
320,192,3426,1,0,0:0:0:0:
192,192,3629,1,0,0:0:0:0:
448,192,3629,1,0,0:0:0:0:
192,192,3764,1,0,0:0:0:0:
448,192,3764,1,0,0:0:0:0:
64,192,3899,1,0,0:0:0:0:
320,192,3899,1,0,0:0:0:0:
64,192,4034,1,0,0:0:0:0:
320,192,4034,1,0,0:0:0:0:
64,192,4304,1,0,0:0:0:0:
192,192,4304,1,0,0:0:0:0:
320,192,4304,1,0,0:0:0:0:
320,192,4506,1,0,0:0:0:0:
448,192,4506,1,0,0:0:0:0:
192,192,4709,1,0,0:0:0:0:
320,192,4709,1,0,0:0:0:0:
64,192,4844,1,0,0:0:0:0:
320,192,4844,1,0,0:0:0:0:
192,192,4979,1,0,0:0:0:0:
448,192,4979,1,0,0:0:0:0:
64,192,5114,1,0,0:0:0:0:
320,192,5114,1,0,0:0:0:0:
192,192,5249,1,0,0:0:0:0:
448,192,5249,1,0,0:0:0:0:
64,192,5384,1,0,0:0:0:0:
192,192,5384,1,0,0:0:0:0:
192,192,5586,1,0,0:0:0:0:
320,192,5586,1,0,0:0:0:0:
320,192,5789,1,0,0:0:0:0:
448,192,5789,1,0,0:0:0:0:
64,192,5924,1,0,0:0:0:0:
448,192,5991,1,0,0:0:0:0:
64,192,6059,1,0,0:0:0:0:
320,192,6092,1,0,0:0:0:0:
64,192,6126,1,0,0:0:0:0:
320,192,6160,1,0,0:0:0:0:
64,192,6194,1,0,0:0:0:0:
192,192,6194,1,0,0:0:0:0:
320,192,6329,1,0,0:0:0:0:
448,192,6329,1,0,0:0:0:0:
64,192,6464,1,0,0:0:0:0:
192,192,6464,1,0,0:0:0:0:
64,192,6666,1,0,0:0:0:0:
192,192,6666,1,0,0:0:0:0:
192,192,6869,1,0,0:0:0:0:
448,192,6869,1,0,0:0:0:0:
192,192,7004,1,0,0:0:0:0:
448,192,7004,1,0,0:0:0:0:
320,192,7139,1,0,0:0:0:0:
448,192,7139,1,0,0:0:0:0:
64,192,7274,1,0,0:0:0:0:
320,192,7274,1,0,0:0:0:0:
192,192,7409,1,0,0:0:0:0:
448,192,7409,1,0,0:0:0:0:
64,192,7544,1,0,0:0:0:0:
192,192,7544,1,0,0:0:0:0:
192,192,7746,1,0,0:0:0:0:
320,192,7746,1,0,0:0:0:0:
64,192,7949,1,0,0:0:0:0:
192,192,7949,1,0,0:0:0:0:
320,192,8084,1,0,0:0:0:0:
448,192,8084,1,0,0:0:0:0:
192,192,8219,1,0,0:0:0:0:
320,192,8219,1,0,0:0:0:0:
64,192,8354,1,0,0:0:0:0:
192,192,8354,1,0,0:0:0:0:
64,192,8624,1,0,0:0:0:0:
320,192,8624,1,0,0:0:0:0:
64,192,8826,1,0,0:0:0:0:
320,192,8826,1,0,0:0:0:0:
64,192,9029,1,0,0:0:0:0:
320,192,9029,1,0,0:0:0:0:
320,192,9164,1,0,0:0:0:0:
448,192,9164,1,0,0:0:0:0:
192,192,9299,1,0,0:0:0:0:
320,192,9299,1,0,0:0:0:0:
64,192,9434,1,0,0:0:0:0:
192,192,9434,1,0,0:0:0:0:
192,192,9569,1,0,0:0:0:0:
320,192,9569,1,0,0:0:0:0:
64,192,9704,1,0,0:0:0:0:
448,192,9704,1,0,0:0:0:0:
64,192,9839,1,0,0:0:0:0:
448,192,9839,1,0,0:0:0:0:
192,192,9974,1,0,0:0:0:0:
448,192,9974,1,0,0:0:0:0:
192,192,10109,1,0,0:0:0:0:
448,192,10109,1,0,0:0:0:0:
64,192,10244,1,0,0:0:0:0:
192,192,10311,1,0,0:0:0:0:
320,192,10379,1,0,0:0:0:0:
192,192,10446,1,0,0:0:0:0:
320,192,10514,1,0,0:0:0:0:
448,192,10581,1,0,0:0:0:0:
320,192,10649,1,0,0:0:0:0:
192,192,10716,1,0,0:0:0:0:
64,192,10784,1,0,0:0:0:0:
320,192,10784,1,0,0:0:0:0:
448,192,10784,1,0,0:0:0:0:
320,192,10919,1,0,0:0:0:0:
192,192,11054,1,0,0:0:0:0:
448,192,11054,1,0,0:0:0:0:
192,192,11189,1,0,0:0:0:0:
64,192,11324,1,0,0:0:0:0:
320,192,11324,1,0,0:0:0:0:
320,192,11459,1,0,0:0:0:0:
64,192,11594,1,0,0:0:0:0:
192,192,11594,1,0,0:0:0:0:
448,192,11594,1,0,0:0:0:0:
64,192,11729,1,0,0:0:0:0:
192,192,11864,1,0,0:0:0:0:
448,192,11864,1,0,0:0:0:0:
192,192,11999,1,0,0:0:0:0:
64,192,12134,1,0,0:0:0:0:
320,192,12134,1,0,0:0:0:0:
448,192,12134,1,0,0:0:0:0:
448,192,12269,1,0,0:0:0:0:
64,192,12404,1,0,0:0:0:0:
320,192,12404,1,0,0:0:0:0:
320,192,12539,1,0,0:0:0:0:
64,192,12674,1,0,0:0:0:0:
192,192,12674,1,0,0:0:0:0:
448,192,12674,1,0,0:0:0:0:
64,192,12809,1,0,0:0:0:0:
192,192,12944,1,0,0:0:0:0:
320,192,12944,1,0,0:0:0:0:
448,192,12944,1,0,0:0:0:0:
192,192,13079,1,0,0:0:0:0:
64,192,13214,1,0,0:0:0:0:
320,192,13214,1,0,0:0:0:0:
448,192,13214,1,0,0:0:0:0:
448,192,13349,1,0,0:0:0:0:
64,192,13484,1,0,0:0:0:0:
320,192,13484,1,0,0:0:0:0:
320,192,13619,1,0,0:0:0:0:
64,192,13754,1,0,0:0:0:0:
192,192,13754,1,0,0:0:0:0:
448,192,13754,1,0,0:0:0:0:
320,192,13889,1,0,0:0:0:0:
448,192,13889,1,0,0:0:0:0:
192,192,14024,1,0,0:0:0:0:
448,192,14024,1,0,0:0:0:0:
192,192,14159,1,0,0:0:0:0:
64,192,14294,1,0,0:0:0:0:
320,192,14294,1,0,0:0:0:0:
64,192,14564,1,0,0:0:0:0:
320,192,14564,1,0,0:0:0:0:
64,192,14766,1,0,0:0:0:0:
320,192,14766,1,0,0:0:0:0:
64,192,14969,1,0,0:0:0:0:
320,192,14969,1,0,0:0:0:0:
64,192,15104,1,0,0:0:0:0:
320,192,15104,1,0,0:0:0:0:
448,192,15104,1,0,0:0:0:0:
192,192,15239,1,0,0:0:0:0:
448,192,15239,1,0,0:0:0:0:
64,192,15374,1,0,0:0:0:0:
320,192,15374,1,0,0:0:0:0:
448,192,15374,1,0,0:0:0:0:
192,192,15509,1,0,0:0:0:0:
320,192,15509,1,0,0:0:0:0:
64,192,15644,1,0,0:0:0:0:
192,192,15644,1,0,0:0:0:0:
64,192,15779,1,0,0:0:0:0:
320,192,15779,1,0,0:0:0:0:
64,192,15914,1,0,0:0:0:0:
192,192,15914,1,0,0:0:0:0:
448,192,15914,1,0,0:0:0:0:
64,192,16049,1,0,0:0:0:0:
448,192,16049,1,0,0:0:0:0:
64,192,16319,1,0,0:0:0:0:
448,192,16319,1,0,0:0:0:0:
320,192,16386,1,0,0:0:0:0:
64,192,16454,1,0,0:0:0:0:
192,192,16454,1,0,0:0:0:0:
448,192,16454,1,0,0:0:0:0:
192,192,16589,1,0,0:0:0:0:
320,192,16589,1,0,0:0:0:0:
192,192,16724,1,0,0:0:0:0:
320,192,16724,1,0,0:0:0:0:
64,192,16859,1,0,0:0:0:0:
192,192,16859,1,0,0:0:0:0:
64,192,16994,1,0,0:0:0:0:
192,192,16994,1,0,0:0:0:0:
448,192,16994,1,0,0:0:0:0:
192,192,17129,1,0,0:0:0:0:
320,192,17129,1,0,0:0:0:0:
64,192,17264,1,0,0:0:0:0:
320,192,17264,1,0,0:0:0:0:
448,192,17264,1,0,0:0:0:0:
64,192,17399,1,0,0:0:0:0:
320,192,17399,1,0,0:0:0:0:
192,192,17534,1,0,0:0:0:0:
448,192,17534,1,0,0:0:0:0:
64,192,17669,1,0,0:0:0:0:
320,192,17669,1,0,0:0:0:0:
64,192,17804,1,0,0:0:0:0:
192,192,17804,1,0,0:0:0:0:
448,192,17804,1,0,0:0:0:0:
64,192,17939,1,0,0:0:0:0:
448,192,17939,1,0,0:0:0:0:
64,192,18074,1,0,0:0:0:0:
320,192,18074,1,0,0:0:0:0:
64,192,18209,1,0,0:0:0:0:
320,192,18209,1,0,0:0:0:0:
64,192,18344,1,0,0:0:0:0:
192,192,18344,1,0,0:0:0:0:
448,192,18344,1,0,0:0:0:0:
64,192,18479,1,0,0:0:0:0:
448,192,18479,1,0,0:0:0:0:
192,192,18614,1,0,0:0:0:0:
320,192,18614,1,0,0:0:0:0:
448,192,18614,1,0,0:0:0:0:
192,192,18749,1,0,0:0:0:0:
448,192,18749,1,0,0:0:0:0:
64,192,18884,1,0,0:0:0:0:
320,192,18884,1,0,0:0:0:0:
448,192,18884,1,0,0:0:0:0:
192,192,18951,1,0,0:0:0:0:
320,192,19019,1,0,0:0:0:0:
448,192,19086,1,0,0:0:0:0:
64,192,19154,1,0,0:0:0:0:
192,192,19154,1,0,0:0:0:0:
320,192,19154,1,0,0:0:0:0:
448,192,19221,1,0,0:0:0:0:
320,192,19289,1,0,0:0:0:0:
192,192,19356,1,0,0:0:0:0:
64,192,19424,1,0,0:0:0:0:
448,192,19424,1,0,0:0:0:0:
192,192,19491,1,0,0:0:0:0:
320,192,19559,1,0,0:0:0:0:
448,192,19626,1,0,0:0:0:0:
64,192,19694,1,0,0:0:0:0:
192,192,19694,1,0,0:0:0:0:
320,192,19761,1,0,0:0:0:0:
192,192,19829,1,0,0:0:0:0:
64,192,19896,1,0,0:0:0:0:
448,192,19964,1,0,0:0:0:0:
320,192,19964,1,0,0:0:0:0:
192,192,20031,1,0,0:0:0:0:
320,192,20099,1,0,0:0:0:0:
448,192,20166,1,0,0:0:0:0:
192,192,20234,1,0,0:0:0:0:
64,192,20234,1,0,0:0:0:0:
320,192,20301,1,0,0:0:0:0:
192,192,20369,1,0,0:0:0:0:
64,192,20436,1,0,0:0:0:0:
320,192,20504,1,0,0:0:0:0:
448,192,20504,1,0,0:0:0:0:
64,192,20571,1,0,0:0:0:0:
192,192,20639,1,0,0:0:0:0:
320,192,20706,1,0,0:0:0:0:
192,192,20774,1,0,0:0:0:0:
64,192,20774,1,0,0:0:0:0:
448,192,20841,1,0,0:0:0:0:
320,192,20909,1,0,0:0:0:0:
192,192,20976,1,0,0:0:0:0:
320,192,21044,1,0,0:0:0:0:
448,192,21044,1,0,0:0:0:0:
64,192,21111,1,0,0:0:0:0:
192,192,21179,1,0,0:0:0:0:
320,192,21246,1,0,0:0:0:0:
192,192,21314,1,0,0:0:0:0:
64,192,21314,1,0,0:0:0:0:
448,192,21381,1,0,0:0:0:0:
320,192,21449,1,0,0:0:0:0:
192,192,21516,1,0,0:0:0:0:
320,192,21584,1,0,0:0:0:0:
448,192,21584,1,0,0:0:0:0:
64,192,21651,1,0,0:0:0:0:
192,192,21719,1,0,0:0:0:0:
320,192,21786,1,0,0:0:0:0:
192,192,21854,1,0,0:0:0:0:
64,192,21854,1,0,0:0:0:0:
320,192,21921,1,0,0:0:0:0:
192,192,21989,1,0,0:0:0:0:
64,192,22056,1,0,0:0:0:0:
448,192,22124,1,0,0:0:0:0:
320,192,22124,1,0,0:0:0:0:
64,192,22191,1,0,0:0:0:0:
192,192,22259,1,0,0:0:0:0:
320,192,22326,1,0,0:0:0:0:
192,192,22394,1,0,0:0:0:0:
64,192,22394,1,0,0:0:0:0:
448,192,22461,1,0,0:0:0:0:
320,192,22529,1,0,0:0:0:0:
448,192,22596,1,0,0:0:0:0:
64,192,22664,1,0,0:0:0:0:
192,192,22664,1,0,0:0:0:0:
320,192,22731,1,0,0:0:0:0:
64,192,22799,1,0,0:0:0:0:
192,192,22866,1,0,0:0:0:0:
64,192,22934,1,0,0:0:0:0:
320,192,22934,1,0,0:0:0:0:
448,192,22934,1,0,0:0:0:0:
64,192,23204,1,0,0:0:0:0:
192,192,23204,1,0,0:0:0:0:
448,192,23204,1,0,0:0:0:0:
64,192,23406,1,0,0:0:0:0:
192,192,23406,1,0,0:0:0:0:
320,192,23406,1,0,0:0:0:0:
192,192,23609,1,0,0:0:0:0:
320,192,23609,1,0,0:0:0:0:
448,192,23609,1,0,0:0:0:0:
64,192,23744,1,0,0:0:0:0:
192,192,23744,1,0,0:0:0:0:
448,192,23744,1,0,0:0:0:0:
320,192,23811,1,0,0:0:0:0:
192,192,23879,1,0,0:0:0:0:
320,192,23946,1,0,0:0:0:0:
64,192,24014,1,0,0:0:0:0:
448,192,24014,1,0,0:0:0:0:
192,192,24081,1,0,0:0:0:0:
320,192,24149,1,0,0:0:0:0:
192,192,24216,1,0,0:0:0:0:
64,192,24284,1,0,0:0:0:0:
448,192,24284,1,0,0:0:0:0:
320,192,24351,1,0,0:0:0:0:
192,192,24419,1,0,0:0:0:0:
320,192,24486,1,0,0:0:0:0:
64,192,24554,1,0,0:0:0:0:
448,192,24554,1,0,0:0:0:0:
64,192,24689,1,0,0:0:0:0:
320,192,24689,1,0,0:0:0:0:
448,192,24689,1,0,0:0:0:0:
64,192,24959,1,0,0:0:0:0:
448,192,24959,1,0,0:0:0:0:
192,192,25026,1,0,0:0:0:0:
320,192,25094,1,0,0:0:0:0:
448,192,25094,1,0,0:0:0:0:
64,192,25229,1,0,0:0:0:0:
192,192,25229,1,0,0:0:0:0:
320,192,25364,1,0,0:0:0:0:
448,192,25364,1,0,0:0:0:0:
64,192,25499,1,0,0:0:0:0:
448,192,25499,1,0,0:0:0:0:
320,192,25566,1,0,0:0:0:0:
64,192,25634,1,0,0:0:0:0:
192,192,25634,1,0,0:0:0:0:
64,192,25769,1,0,0:0:0:0:
448,192,25769,1,0,0:0:0:0:
192,192,25836,1,0,0:0:0:0:
64,192,25904,128,0,26174:0:0:0:0:
320,192,25904,1,0,0:0:0:0:
320,192,26039,1,0,0:0:0:0:
192,192,26174,128,0,26444:0:0:0:0:
448,192,26174,1,0,0:0:0:0:
448,192,26309,1,0,0:0:0:0:
64,192,26444,1,0,0:0:0:0:
320,192,26444,128,0,26714:0:0:0:0:
64,192,26579,1,0,0:0:0:0:
192,192,26714,1,0,0:0:0:0:
448,192,26714,128,0,26984:0:0:0:0:
192,192,26849,1,0,0:0:0:0:
64,192,26984,128,0,27254:0:0:0:0:
320,192,26984,1,0,0:0:0:0:
320,192,27119,1,0,0:0:0:0:
192,192,27254,128,0,27524:0:0:0:0:
448,192,27254,1,0,0:0:0:0:
448,192,27389,1,0,0:0:0:0:
64,192,27524,1,0,0:0:0:0:
320,192,27524,128,0,27794:0:0:0:0:
64,192,27659,1,0,0:0:0:0:
192,192,27794,1,0,0:0:0:0:
448,192,27794,128,0,28064:0:0:0:0:
192,192,27929,1,0,0:0:0:0:
64,192,28064,1,0,0:0:0:0:
320,192,28064,1,0,0:0:0:0:
64,192,28266,1,0,0:0:0:0:
64,192,28469,1,0,0:0:0:0:
448,192,28604,1,0,0:0:0:0:
192,192,28671,1,0,0:0:0:0:
192,192,28806,1,0,0:0:0:0:
448,192,28874,1,0,0:0:0:0:
320,192,29009,1,0,0:0:0:0:
64,192,29144,1,0,0:0:0:0:
64,192,29346,1,0,0:0:0:0:
64,192,29549,1,0,0:0:0:0:
192,192,29684,1,0,0:0:0:0:
448,192,29751,1,0,0:0:0:0:
448,192,29886,1,0,0:0:0:0:
192,192,29954,1,0,0:0:0:0:
320,192,30089,1,0,0:0:0:0:
448,192,30224,1,0,0:0:0:0:
448,192,30426,1,0,0:0:0:0:
448,192,30629,1,0,0:0:0:0:
64,192,30764,1,0,0:0:0:0:
320,192,30831,1,0,0:0:0:0:
320,192,30966,1,0,0:0:0:0:
64,192,31034,1,0,0:0:0:0:
192,192,31169,1,0,0:0:0:0:
448,192,31304,1,0,0:0:0:0:
448,192,31506,1,0,0:0:0:0:
448,192,31709,1,0,0:0:0:0:
64,192,31844,1,0,0:0:0:0:
192,192,31979,1,0,0:0:0:0:
320,192,32114,1,0,0:0:0:0:
448,192,32249,1,0,0:0:0:0:
448,192,32384,1,0,0:0:0:0:
320,192,32451,1,0,0:0:0:0:
448,192,32586,1,0,0:0:0:0:
320,192,32654,1,0,0:0:0:0:
448,192,32789,1,0,0:0:0:0:
320,192,32856,1,0,0:0:0:0:
192,192,32924,1,0,0:0:0:0:
320,192,32991,1,0,0:0:0:0:
448,192,33059,1,0,0:0:0:0:
64,192,33194,1,0,0:0:0:0:
192,192,33261,1,0,0:0:0:0:
320,192,33329,1,0,0:0:0:0:
320,192,33464,1,0,0:0:0:0:
192,192,33531,1,0,0:0:0:0:
64,192,33599,1,0,0:0:0:0:
448,192,33734,1,0,0:0:0:0:
320,192,33801,1,0,0:0:0:0:
192,192,33869,1,0,0:0:0:0:
448,192,34004,1,0,0:0:0:0:
320,192,34071,1,0,0:0:0:0:
448,192,34139,1,0,0:0:0:0:
64,192,34274,1,0,0:0:0:0:
192,192,34341,1,0,0:0:0:0:
64,192,34409,1,0,0:0:0:0:
64,192,34544,1,0,0:0:0:0:
448,192,34544,1,0,0:0:0:0:
192,192,34611,1,0,0:0:0:0:
320,192,34679,1,0,0:0:0:0:
448,192,34679,1,0,0:0:0:0:
64,192,34814,1,0,0:0:0:0:
448,192,34814,1,0,0:0:0:0:
320,192,34881,1,0,0:0:0:0:
64,192,34949,1,0,0:0:0:0:
192,192,34949,1,0,0:0:0:0:
64,192,35084,1,0,0:0:0:0:
448,192,35084,1,0,0:0:0:0:
192,192,35151,1,0,0:0:0:0:
320,192,35219,1,0,0:0:0:0:
448,192,35219,1,0,0:0:0:0:
64,192,35354,1,0,0:0:0:0:
448,192,35354,1,0,0:0:0:0:
320,192,35421,1,0,0:0:0:0:
64,192,35489,1,0,0:0:0:0:
192,192,35489,1,0,0:0:0:0:
192,192,35624,1,0,0:0:0:0:
448,192,35624,1,0,0:0:0:0:
192,192,35826,1,0,0:0:0:0:
448,192,35826,1,0,0:0:0:0:
192,192,36029,1,0,0:0:0:0:
448,192,36029,1,0,0:0:0:0:
64,192,36164,1,0,0:0:0:0:
192,192,36231,1,0,0:0:0:0:
192,192,36366,1,0,0:0:0:0:
320,192,36434,1,0,0:0:0:0:
448,192,36569,1,0,0:0:0:0:
320,192,36636,1,0,0:0:0:0:
64,192,36704,1,0,0:0:0:0:
192,192,36704,1,0,0:0:0:0:
320,192,36839,1,0,0:0:0:0:
64,192,36974,1,0,0:0:0:0:
192,192,36974,1,0,0:0:0:0:
448,192,37109,1,0,0:0:0:0:
64,192,37244,1,0,0:0:0:0:
192,192,37244,1,0,0:0:0:0:
320,192,37379,1,0,0:0:0:0:
64,192,37514,1,0,0:0:0:0:
192,192,37514,1,0,0:0:0:0:
448,192,37649,1,0,0:0:0:0:
192,192,37784,1,0,0:0:0:0:
448,192,37851,1,0,0:0:0:0:
192,192,37964,1,0,0:0:0:0:
64,192,38054,1,0,0:0:0:0:
448,192,38054,1,0,0:0:0:0:
192,192,38189,1,0,0:0:0:0:
320,192,38324,1,0,0:0:0:0:
448,192,38459,1,0,0:0:0:0:
320,192,38594,1,0,0:0:0:0:
192,192,38729,1,0,0:0:0:0:
64,192,38864,1,0,0:0:0:0:
192,192,38931,1,0,0:0:0:0:
320,192,38999,1,0,0:0:0:0:
192,192,39134,1,0,0:0:0:0:
320,192,39201,1,0,0:0:0:0:
448,192,39269,1,0,0:0:0:0:
64,192,39404,1,0,0:0:0:0:
192,192,39471,1,0,0:0:0:0:
320,192,39539,1,0,0:0:0:0:
192,192,39674,1,0,0:0:0:0:
320,192,39741,1,0,0:0:0:0:
448,192,39809,1,0,0:0:0:0:
448,192,39944,1,0,0:0:0:0:
320,192,40011,1,0,0:0:0:0:
192,192,40079,1,0,0:0:0:0:
320,192,40214,1,0,0:0:0:0:
192,192,40281,1,0,0:0:0:0:
64,192,40349,1,0,0:0:0:0:
448,192,40484,1,0,0:0:0:0:
320,192,40551,1,0,0:0:0:0:
192,192,40619,1,0,0:0:0:0:
320,192,40754,1,0,0:0:0:0:
192,192,40821,1,0,0:0:0:0:
64,192,40889,1,0,0:0:0:0:
320,192,41024,1,0,0:0:0:0:
448,192,41091,1,0,0:0:0:0:
64,192,41159,1,0,0:0:0:0:
192,192,41226,1,0,0:0:0:0:
320,192,41294,1,0,0:0:0:0:
448,192,41361,1,0,0:0:0:0:
320,192,41429,1,0,0:0:0:0:
192,192,41496,1,0,0:0:0:0:
64,192,41564,1,0,0:0:0:0:
320,192,41631,1,0,0:0:0:0:
192,192,41699,1,0,0:0:0:0:
448,192,41766,1,0,0:0:0:0:
320,192,41834,1,0,0:0:0:0:
448,192,41901,1,0,0:0:0:0:
64,192,41969,1,0,0:0:0:0:
192,192,41969,1,0,0:0:0:0:
320,192,42036,1,0,0:0:0:0:
448,192,42036,1,0,0:0:0:0:
64,192,42104,1,0,0:0:0:0:
192,192,42104,1,0,0:0:0:0:
64,192,42374,1,0,0:0:0:0:
320,192,42441,1,0,0:0:0:0:
64,192,42509,1,0,0:0:0:0:
320,192,42576,1,0,0:0:0:0:
192,192,42644,1,0,0:0:0:0:
448,192,42644,1,0,0:0:0:0:
64,192,42779,1,0,0:0:0:0:
320,192,42846,1,0,0:0:0:0:
64,192,43184,1,0,0:0:0:0:
448,192,43184,1,0,0:0:0:0:
320,192,43251,1,0,0:0:0:0:
192,192,43319,1,0,0:0:0:0:
320,192,43386,1,0,0:0:0:0:
192,192,43454,1,0,0:0:0:0:
64,192,43521,1,0,0:0:0:0:
192,192,43589,1,0,0:0:0:0:
320,192,43656,1,0,0:0:0:0:
64,192,43724,1,0,0:0:0:0:
448,192,43724,1,0,0:0:0:0:
320,192,43791,1,0,0:0:0:0:
192,192,43859,1,0,0:0:0:0:
448,192,43926,1,0,0:0:0:0:
64,192,43994,1,0,0:0:0:0:
320,192,43994,1,0,0:0:0:0:
448,192,44061,1,0,0:0:0:0:
192,192,44129,1,0,0:0:0:0:
320,192,44196,1,0,0:0:0:0:
64,192,44264,1,0,0:0:0:0:
448,192,44264,1,0,0:0:0:0:
192,192,44331,1,0,0:0:0:0:
320,192,44399,1,0,0:0:0:0:
64,192,44534,1,0,0:0:0:0:
448,192,44534,1,0,0:0:0:0:
320,192,44601,1,0,0:0:0:0:
192,192,44669,1,0,0:0:0:0:
64,192,44804,1,0,0:0:0:0:
448,192,44804,1,0,0:0:0:0:
192,192,44871,1,0,0:0:0:0:
320,192,44939,1,0,0:0:0:0:
64,192,45074,1,0,0:0:0:0:
448,192,45074,1,0,0:0:0:0:
320,192,45141,1,0,0:0:0:0:
192,192,45209,1,0,0:0:0:0:
64,192,45344,1,0,0:0:0:0:
192,192,45344,1,0,0:0:0:0:
64,192,45479,1,0,0:0:0:0:
192,192,45614,1,0,0:0:0:0:
64,192,45749,1,0,0:0:0:0:
192,192,45816,1,0,0:0:0:0:
320,192,45884,1,0,0:0:0:0:
448,192,45884,1,0,0:0:0:0:
448,192,46019,1,0,0:0:0:0:
320,192,46154,1,0,0:0:0:0:
448,192,46289,1,0,0:0:0:0:
320,192,46356,1,0,0:0:0:0:
64,192,46424,1,0,0:0:0:0:
192,192,46424,1,0,0:0:0:0:
320,192,46491,1,0,0:0:0:0:
64,192,46559,1,0,0:0:0:0:
192,192,46626,1,0,0:0:0:0:
320,192,46694,1,0,0:0:0:0:
448,192,46694,1,0,0:0:0:0:
192,192,46761,1,0,0:0:0:0:
448,192,46829,1,0,0:0:0:0:
64,192,46829,1,0,0:0:0:0:
320,192,46896,1,0,0:0:0:0:
64,192,46964,1,0,0:0:0:0:
448,192,46964,1,0,0:0:0:0:
192,192,46964,1,0,0:0:0:0:
320,192,47031,1,0,0:0:0:0:
64,192,47099,1,0,0:0:0:0:
192,192,47099,1,0,0:0:0:0:
320,192,47166,1,0,0:0:0:0:
192,192,47234,1,0,0:0:0:0:
448,192,47234,1,0,0:0:0:0:
64,192,47301,1,0,0:0:0:0:
448,192,47369,1,0,0:0:0:0:
320,192,47369,1,0,0:0:0:0:
192,192,47436,1,0,0:0:0:0:
64,192,47504,1,0,0:0:0:0:
320,192,47504,1,0,0:0:0:0:
320,192,47639,1,0,0:0:0:0:
64,192,47774,1,0,0:0:0:0:
192,192,47774,1,0,0:0:0:0:
448,192,47774,1,0,0:0:0:0:
320,192,47909,1,0,0:0:0:0:
64,192,48044,1,0,0:0:0:0:
192,192,48044,1,0,0:0:0:0:
192,192,48179,1,0,0:0:0:0:
64,192,48314,1,0,0:0:0:0:
320,192,48314,1,0,0:0:0:0:
448,192,48314,1,0,0:0:0:0:
192,192,48449,1,0,0:0:0:0:
64,192,48584,1,0,0:0:0:0:
448,192,48584,1,0,0:0:0:0:
320,192,48719,1,0,0:0:0:0:
64,192,48854,1,0,0:0:0:0:
192,192,48854,1,0,0:0:0:0:
448,192,48854,1,0,0:0:0:0:
320,192,48989,1,0,0:0:0:0:
64,192,49124,1,0,0:0:0:0:
448,192,49124,1,0,0:0:0:0:
192,192,49259,1,0,0:0:0:0:
64,192,49394,1,0,0:0:0:0:
320,192,49394,1,0,0:0:0:0:
448,192,49394,1,0,0:0:0:0:
192,192,49529,1,0,0:0:0:0:
64,192,49664,1,0,0:0:0:0:
320,192,49664,1,0,0:0:0:0:
320,192,49799,1,0,0:0:0:0:
64,192,49934,1,0,0:0:0:0:
192,192,49934,1,0,0:0:0:0:
448,192,49934,1,0,0:0:0:0:
320,192,50069,1,0,0:0:0:0:
192,192,50204,1,0,0:0:0:0:
448,192,50204,1,0,0:0:0:0:
192,192,50339,1,0,0:0:0:0:
64,192,50474,1,0,0:0:0:0:
320,192,50474,1,0,0:0:0:0:
448,192,50474,1,0,0:0:0:0:
192,192,50609,1,0,0:0:0:0:
64,192,50744,1,0,0:0:0:0:
448,192,50744,1,0,0:0:0:0:
320,192,50879,1,0,0:0:0:0:
64,192,51014,1,0,0:0:0:0:
192,192,51014,1,0,0:0:0:0:
448,192,51014,1,0,0:0:0:0:
320,192,51149,1,0,0:0:0:0:
64,192,51284,1,0,0:0:0:0:
448,192,51284,1,0,0:0:0:0:
192,192,51419,1,0,0:0:0:0:
64,192,51554,1,0,0:0:0:0:
320,192,51554,1,0,0:0:0:0:
448,192,51554,1,0,0:0:0:0:
192,192,51689,1,0,0:0:0:0:
64,192,51824,1,0,0:0:0:0:
320,192,51824,1,0,0:0:0:0:
64,192,51959,1,0,0:0:0:0:
320,192,51959,1,0,0:0:0:0:
64,192,52094,1,0,0:0:0:0:
192,192,52094,1,0,0:0:0:0:
448,192,52094,1,0,0:0:0:0:
64,192,52229,1,0,0:0:0:0:
448,192,52229,1,0,0:0:0:0:
192,192,52364,1,0,0:0:0:0:
448,192,52364,1,0,0:0:0:0:
192,192,52499,1,0,0:0:0:0:
448,192,52499,1,0,0:0:0:0:
64,192,52634,1,0,0:0:0:0:
320,192,52634,1,0,0:0:0:0:
448,192,52634,1,0,0:0:0:0:
64,192,52769,1,0,0:0:0:0:
320,192,52769,1,0,0:0:0:0:
64,192,52904,1,0,0:0:0:0:
448,192,52904,1,0,0:0:0:0:
64,192,53039,1,0,0:0:0:0:
448,192,53039,1,0,0:0:0:0:
64,192,53174,1,0,0:0:0:0:
192,192,53174,1,0,0:0:0:0:
448,192,53174,1,0,0:0:0:0:
192,192,53309,1,0,0:0:0:0:
448,192,53309,1,0,0:0:0:0:
64,192,53444,1,0,0:0:0:0:
192,192,53444,1,0,0:0:0:0:
64,192,53579,1,0,0:0:0:0:
192,192,53579,1,0,0:0:0:0:
64,192,53714,1,0,0:0:0:0:
320,192,53714,1,0,0:0:0:0:
448,192,53714,1,0,0:0:0:0:
64,192,53849,1,0,0:0:0:0:
320,192,53849,1,0,0:0:0:0:
192,192,53984,1,0,0:0:0:0:
448,192,53984,1,0,0:0:0:0:
192,192,54119,1,0,0:0:0:0:
448,192,54119,1,0,0:0:0:0:
64,192,54254,1,0,0:0:0:0:
192,192,54254,1,0,0:0:0:0:
448,192,54254,128,0,54524:0:0:0:0:
64,192,54524,1,0,0:0:0:0:
320,192,54524,1,0,0:0:0:0:
64,192,54659,1,0,0:0:0:0:
320,192,54659,1,0,0:0:0:0:
64,192,54794,128,0,55064:0:0:0:0:
320,192,54794,1,0,0:0:0:0:
448,192,54794,1,0,0:0:0:0:
320,192,55064,128,0,55334:0:0:0:0:
448,192,55064,1,0,0:0:0:0:
192,192,55199,1,0,0:0:0:0:
448,192,55199,1,0,0:0:0:0:
64,192,55334,1,0,0:0:0:0:
192,192,55334,128,0,55604:0:0:0:0:
64,192,55469,1,0,0:0:0:0:
320,192,55469,1,0,0:0:0:0:
320,192,55604,128,0,55874:0:0:0:0:
448,192,55604,1,0,0:0:0:0:
192,192,55739,1,0,0:0:0:0:
448,192,55739,1,0,0:0:0:0:
64,192,55874,1,0,0:0:0:0:
192,192,55874,128,0,56144:0:0:0:0:
64,192,56009,1,0,0:0:0:0:
320,192,56077,1,0,0:0:0:0:
64,192,56144,1,0,0:0:0:0:
448,192,56144,1,0,0:0:0:0:
192,192,56279,1,0,0:0:0:0:
64,192,56414,1,0,0:0:0:0:
320,192,56414,1,0,0:0:0:0:
448,192,56414,1,0,0:0:0:0:
192,192,56549,1,0,0:0:0:0:
320,192,56684,1,0,0:0:0:0:
448,192,56684,1,0,0:0:0:0:
320,192,56819,1,0,0:0:0:0:
64,192,56954,1,0,0:0:0:0:
192,192,56954,1,0,0:0:0:0:
448,192,56954,1,0,0:0:0:0:
320,192,57089,1,0,0:0:0:0:
64,192,57224,1,0,0:0:0:0:
448,192,57224,1,0,0:0:0:0:
192,192,57359,1,0,0:0:0:0:
64,192,57494,1,0,0:0:0:0:
320,192,57494,1,0,0:0:0:0:
448,192,57494,1,0,0:0:0:0:
192,192,57629,1,0,0:0:0:0:
64,192,57764,1,0,0:0:0:0:
448,192,57764,1,0,0:0:0:0:
320,192,57899,1,0,0:0:0:0:
64,192,58034,1,0,0:0:0:0:
192,192,58034,1,0,0:0:0:0:
448,192,58034,1,0,0:0:0:0:
320,192,58169,1,0,0:0:0:0:
192,192,58304,1,0,0:0:0:0:
448,192,58304,1,0,0:0:0:0:
192,192,58439,1,0,0:0:0:0:
64,192,58574,1,0,0:0:0:0:
320,192,58574,1,0,0:0:0:0:
448,192,58574,1,0,0:0:0:0:
192,192,58709,1,0,0:0:0:0:
64,192,58844,1,0,0:0:0:0:
320,192,58844,1,0,0:0:0:0:
320,192,58979,1,0,0:0:0:0:
64,192,59114,1,0,0:0:0:0:
192,192,59114,1,0,0:0:0:0:
448,192,59114,1,0,0:0:0:0:
320,192,59249,1,0,0:0:0:0:
64,192,59384,1,0,0:0:0:0:
448,192,59384,1,0,0:0:0:0:
192,192,59519,1,0,0:0:0:0:
64,192,59654,1,0,0:0:0:0:
320,192,59654,1,0,0:0:0:0:
448,192,59654,1,0,0:0:0:0:
192,192,59789,1,0,0:0:0:0:
64,192,59924,1,0,0:0:0:0:
448,192,59924,1,0,0:0:0:0:
320,192,60059,1,0,0:0:0:0:
64,192,60194,1,0,0:0:0:0:
192,192,60194,1,0,0:0:0:0:
448,192,60194,1,0,0:0:0:0:
320,192,60329,1,0,0:0:0:0:
192,192,60464,1,0,0:0:0:0:
448,192,60464,1,0,0:0:0:0:
192,192,60599,1,0,0:0:0:0:
448,192,60599,1,0,0:0:0:0:
64,192,60734,1,0,0:0:0:0:
320,192,60734,1,0,0:0:0:0:
448,192,60734,1,0,0:0:0:0:
64,192,60869,1,0,0:0:0:0:
448,192,60869,1,0,0:0:0:0:
64,192,61004,1,0,0:0:0:0:
320,192,61004,1,0,0:0:0:0:
64,192,61139,1,0,0:0:0:0:
320,192,61139,1,0,0:0:0:0:
64,192,61274,1,0,0:0:0:0:
192,192,61274,1,0,0:0:0:0:
448,192,61274,1,0,0:0:0:0:
192,192,61409,1,0,0:0:0:0:
448,192,61409,1,0,0:0:0:0:
64,192,61544,1,0,0:0:0:0:
448,192,61544,1,0,0:0:0:0:
64,192,61679,1,0,0:0:0:0:
448,192,61679,1,0,0:0:0:0:
64,192,61814,1,0,0:0:0:0:
320,192,61814,1,0,0:0:0:0:
448,192,61814,1,0,0:0:0:0:
64,192,61949,1,0,0:0:0:0:
320,192,61949,1,0,0:0:0:0:
320,192,62084,1,0,0:0:0:0:
448,192,62084,1,0,0:0:0:0:
320,192,62219,1,0,0:0:0:0:
448,192,62219,1,0,0:0:0:0:
64,192,62354,1,0,0:0:0:0:
192,192,62354,1,0,0:0:0:0:
448,192,62354,1,0,0:0:0:0:
192,192,62489,1,0,0:0:0:0:
448,192,62489,1,0,0:0:0:0:
64,192,62624,128,0,62759:0:0:0:0:
320,192,62624,1,0,0:0:0:0:
192,192,62759,128,0,62894:0:0:0:0:
448,192,62759,1,0,0:0:0:0:
320,192,62894,128,0,63029:0:0:0:0:
64,192,62894,1,0,0:0:0:0:
448,192,63029,128,0,63164:0:0:0:0:
192,192,63029,1,0,0:0:0:0:
192,192,63164,128,0,63299:0:0:0:0:
64,192,63164,1,0,0:0:0:0:
320,192,63299,128,0,63434:0:0:0:0:
64,192,63299,1,0,0:0:0:0:
64,192,63434,128,0,63569:0:0:0:0:
448,192,63434,1,0,0:0:0:0:
192,192,63569,128,0,63704:0:0:0:0:
448,192,63569,1,0,0:0:0:0:
64,192,63704,1,0,0:0:0:0:
320,192,63704,128,0,63839:0:0:0:0:
192,192,63839,1,0,0:0:0:0:
448,192,63839,128,0,63974:0:0:0:0:
192,192,63974,128,0,64109:0:0:0:0:
320,192,63974,1,0,0:0:0:0:
64,192,64109,128,0,64244:0:0:0:0:
448,192,64109,1,0,0:0:0:0:
320,192,64244,1,0,0:0:0:0:
448,192,64244,128,0,64379:0:0:0:0:
192,192,64379,1,0,0:0:0:0:
320,192,64379,128,0,64514:0:0:0:0:
64,192,64514,1,0,0:0:0:0:
192,192,64514,128,0,64649:0:0:0:0:
64,192,64649,128,0,64784:0:0:0:0:
320,192,64649,1,0,0:0:0:0:
448,192,64784,128,0,65054:0:0:0:0:
192,192,64784,1,0,0:0:0:0:
64,192,65054,1,0,0:0:0:0:
192,192,65054,1,0,0:0:0:0:
64,192,65189,1,0,0:0:0:0:
320,192,65189,1,0,0:0:0:0:
64,192,65324,128,0,65594:0:0:0:0:
448,192,65324,1,0,0:0:0:0:
320,192,65594,1,0,0:0:0:0:
448,192,65594,1,0,0:0:0:0:
192,192,65729,1,0,0:0:0:0:
448,192,65729,1,0,0:0:0:0:
64,192,65864,1,0,0:0:0:0:
448,192,65864,128,0,66134:0:0:0:0:
64,192,66134,1,0,0:0:0:0:
192,192,66134,1,0,0:0:0:0:
64,192,66269,1,0,0:0:0:0:
320,192,66269,1,0,0:0:0:0:
64,192,66404,1,0,0:0:0:0:
448,192,66404,1,0,0:0:0:0:
320,192,66472,1,0,0:0:0:0:
320,192,66607,1,0,0:0:0:0:
64,192,66674,1,0,0:0:0:0:
448,192,66674,1,0,0:0:0:0:
64,192,66809,1,0,0:0:0:0:
320,192,66809,1,0,0:0:0:0:
192,192,66944,128,0,67214:0:0:0:0:
448,192,66944,1,0,0:0:0:0:
64,192,67214,1,0,0:0:0:0:
448,192,67214,1,0,0:0:0:0:
64,192,67349,1,0,0:0:0:0:
320,192,67349,1,0,0:0:0:0:
64,192,67484,1,0,0:0:0:0:
192,192,67484,1,0,0:0:0:0:
320,192,67484,128,0,67754:0:0:0:0:
64,192,67754,1,0,0:0:0:0:
448,192,67754,1,0,0:0:0:0:
192,192,67889,1,0,0:0:0:0:
448,192,67889,1,0,0:0:0:0:
64,192,68024,128,0,68294:0:0:0:0:
320,192,68024,1,0,0:0:0:0:
448,192,68024,1,0,0:0:0:0:
320,192,68294,1,0,0:0:0:0:
448,192,68294,1,0,0:0:0:0:
192,192,68429,1,0,0:0:0:0:
320,192,68429,1,0,0:0:0:0:
64,192,68564,1,0,0:0:0:0:
192,192,68564,1,0,0:0:0:0:
64,192,68699,1,0,0:0:0:0:
320,192,68699,1,0,0:0:0:0:
192,192,68834,1,0,0:0:0:0:
448,192,68834,1,0,0:0:0:0:
320,192,68969,1,0,0:0:0:0:
448,192,68969,1,0,0:0:0:0:
64,192,69104,1,0,0:0:0:0:
192,192,69104,128,0,69374:0:0:0:0:
320,192,69104,1,0,0:0:0:0:
448,192,69172,1,0,0:0:0:0:
448,192,69307,1,0,0:0:0:0:
64,192,69374,1,0,0:0:0:0:
320,192,69374,1,0,0:0:0:0:
320,192,69509,1,0,0:0:0:0:
448,192,69577,1,0,0:0:0:0:
64,192,69644,1,0,0:0:0:0:
192,192,69712,1,0,0:0:0:0:
320,192,69779,1,0,0:0:0:0:
64,192,69914,1,0,0:0:0:0:
448,192,69914,1,0,0:0:0:0:
320,192,69982,1,0,0:0:0:0:
64,192,70049,1,0,0:0:0:0:
192,192,70049,1,0,0:0:0:0:
448,192,70184,1,0,0:0:0:0:
320,192,70252,1,0,0:0:0:0:
64,192,70319,1,0,0:0:0:0:
192,192,70319,1,0,0:0:0:0:
64,192,70454,1,0,0:0:0:0:
192,192,70454,1,0,0:0:0:0:
320,192,70522,1,0,0:0:0:0:
64,192,70589,1,0,0:0:0:0:
448,192,70589,1,0,0:0:0:0:
192,192,70724,1,0,0:0:0:0:
320,192,70724,1,0,0:0:0:0:
64,192,70859,1,0,0:0:0:0:
320,192,70859,1,0,0:0:0:0:
192,192,70994,1,0,0:0:0:0:
448,192,70994,1,0,0:0:0:0:
320,192,71129,1,0,0:0:0:0:
448,192,71129,1,0,0:0:0:0:
64,192,71264,1,0,0:0:0:0:
448,192,71264,1,0,0:0:0:0:
192,192,71332,1,0,0:0:0:0:
320,192,71399,1,0,0:0:0:0:
64,192,71534,1,0,0:0:0:0:
192,192,71534,1,0,0:0:0:0:
448,192,71534,1,0,0:0:0:0:
320,192,71602,1,0,0:0:0:0:
192,192,71669,1,0,0:0:0:0:
64,192,71804,1,0,0:0:0:0:
448,192,71804,1,0,0:0:0:0:
320,192,71872,1,0,0:0:0:0:
448,192,71939,1,0,0:0:0:0:
64,192,72074,1,0,0:0:0:0:
320,192,72074,1,0,0:0:0:0:
448,192,72074,1,0,0:0:0:0:
192,192,72142,1,0,0:0:0:0:
64,192,72209,1,0,0:0:0:0:
448,192,72209,1,0,0:0:0:0:
320,192,72277,1,0,0:0:0:0:
192,192,72344,1,0,0:0:0:0:
448,192,72344,128,0,72884:0:0:0:0:
64,192,72479,1,0,0:0:0:0:
192,192,72479,1,0,0:0:0:0:
320,192,72614,1,0,0:0:0:0:
64,192,72749,1,0,0:0:0:0:
192,192,72749,1,0,0:0:0:0:
64,192,72884,1,0,0:0:0:0:
320,192,72884,1,0,0:0:0:0:
192,192,72952,1,0,0:0:0:0:
320,192,73019,1,0,0:0:0:0:
448,192,73087,1,0,0:0:0:0:
64,192,73154,1,0,0:0:0:0:
192,192,73154,1,0,0:0:0:0:
448,192,73222,1,0,0:0:0:0:
320,192,73289,1,0,0:0:0:0:
192,192,73357,1,0,0:0:0:0:
64,192,73424,128,0,73559:0:0:0:0:
320,192,73424,1,0,0:0:0:0:
448,192,73559,1,0,0:0:0:0:
192,192,73694,1,0,0:0:0:0:
320,192,73694,1,0,0:0:0:0:
448,192,73694,128,0,73829:0:0:0:0:
64,192,73829,1,0,0:0:0:0:
64,192,73964,128,0,74099:0:0:0:0:
192,192,73964,1,0,0:0:0:0:
448,192,74099,1,0,0:0:0:0:
192,192,74234,1,0,0:0:0:0:
320,192,74234,1,0,0:0:0:0:
448,192,74234,128,0,74369:0:0:0:0:
64,192,74369,1,0,0:0:0:0:
192,192,74504,1,0,0:0:0:0:
448,192,74594,1,0,0:0:0:0:
192,192,74684,1,0,0:0:0:0:
64,192,74774,128,0,75044:0:0:0:0:
320,192,74774,1,0,0:0:0:0:
448,192,74774,1,0,0:0:0:0:
192,192,75044,128,0,75314:0:0:0:0:
320,192,75044,1,0,0:0:0:0:
448,192,75044,1,0,0:0:0:0:
64,192,75314,1,0,0:0:0:0:
320,192,75314,128,0,75584:0:0:0:0:
448,192,75314,1,0,0:0:0:0:
64,192,75449,1,0,0:0:0:0:
64,192,75584,1,0,0:0:0:0:
448,192,75584,1,0,0:0:0:0:
320,192,75719,1,0,0:0:0:0:
448,192,75719,1,0,0:0:0:0:
64,192,75854,1,0,0:0:0:0:
192,192,75854,1,0,0:0:0:0:
448,192,75854,1,0,0:0:0:0:
192,192,75989,1,0,0:0:0:0:
448,192,75989,1,0,0:0:0:0:
64,192,76124,1,0,0:0:0:0:
320,192,76124,1,0,0:0:0:0:
320,192,76259,1,0,0:0:0:0:
448,192,76259,1,0,0:0:0:0:
64,192,76394,1,0,0:0:0:0:
192,192,76394,1,0,0:0:0:0:
448,192,76394,1,0,0:0:0:0:
64,192,76529,1,0,0:0:0:0:
192,192,76529,1,0,0:0:0:0:
64,192,76664,1,0,0:0:0:0:
448,192,76664,1,0,0:0:0:0:
320,192,76732,1,0,0:0:0:0:
448,192,76799,1,0,0:0:0:0:
64,192,76934,1,0,0:0:0:0:
320,192,76934,1,0,0:0:0:0:
448,192,76934,1,0,0:0:0:0:
192,192,77002,1,0,0:0:0:0:
320,192,77069,1,0,0:0:0:0:
64,192,77204,1,0,0:0:0:0:
448,192,77204,1,0,0:0:0:0:
192,192,77272,1,0,0:0:0:0:
64,192,77339,1,0,0:0:0:0:
64,192,77474,1,0,0:0:0:0:
192,192,77474,1,0,0:0:0:0:
448,192,77474,1,0,0:0:0:0:
320,192,77542,1,0,0:0:0:0:
192,192,77609,1,0,0:0:0:0:
64,192,77744,1,0,0:0:0:0:
448,192,77744,1,0,0:0:0:0:
320,192,77812,1,0,0:0:0:0:
64,192,77947,1,0,0:0:0:0:
192,192,78014,1,0,0:0:0:0:
320,192,78014,1,0,0:0:0:0:
448,192,78014,1,0,0:0:0:0:
64,192,78149,1,0,0:0:0:0:
320,192,78217,1,0,0:0:0:0:
192,192,78284,1,0,0:0:0:0:
448,192,78284,1,0,0:0:0:0:
64,192,78352,1,0,0:0:0:0:
320,192,78487,1,0,0:0:0:0:
64,192,78554,1,0,0:0:0:0:
192,192,78554,1,0,0:0:0:0:
448,192,78554,1,0,0:0:0:0:
192,192,78689,1,0,0:0:0:0:
64,192,78824,1,0,0:0:0:0:
448,192,78824,1,0,0:0:0:0:
192,192,78892,1,0,0:0:0:0:
64,192,78959,1,0,0:0:0:0:
64,192,79094,1,0,0:0:0:0:
320,192,79094,1,0,0:0:0:0:
448,192,79094,1,0,0:0:0:0:
192,192,79162,1,0,0:0:0:0:
320,192,79229,1,0,0:0:0:0:
64,192,79364,1,0,0:0:0:0:
320,192,79364,1,0,0:0:0:0:
192,192,79499,1,0,0:0:0:0:
64,192,79567,1,0,0:0:0:0:
320,192,79634,1,0,0:0:0:0:
448,192,79634,1,0,0:0:0:0:
64,192,79769,1,0,0:0:0:0:
64,192,79904,1,0,0:0:0:0:
320,192,79904,1,0,0:0:0:0:
192,192,80039,1,0,0:0:0:0:
64,192,80107,1,0,0:0:0:0:
320,192,80174,1,0,0:0:0:0:
448,192,80174,1,0,0:0:0:0:
192,192,80242,1,0,0:0:0:0:
64,192,80309,1,0,0:0:0:0:
192,192,80444,1,0,0:0:0:0:
448,192,80444,1,0,0:0:0:0:
64,192,80512,1,0,0:0:0:0:
192,192,80647,1,0,0:0:0:0:
64,192,80714,1,0,0:0:0:0:
320,192,80714,1,0,0:0:0:0:
448,192,80714,1,0,0:0:0:0:
448,192,80849,1,0,0:0:0:0:
64,192,80984,1,0,0:0:0:0:
192,192,80984,1,0,0:0:0:0:
320,192,81052,1,0,0:0:0:0:
448,192,81119,1,0,0:0:0:0:
64,192,81254,1,0,0:0:0:0:
320,192,81254,1,0,0:0:0:0:
448,192,81254,1,0,0:0:0:0:
192,192,81322,1,0,0:0:0:0:
64,192,81389,1,0,0:0:0:0:
192,192,81524,1,0,0:0:0:0:
448,192,81524,1,0,0:0:0:0:
64,192,81592,1,0,0:0:0:0:
320,192,81592,1,0,0:0:0:0:
192,192,81659,1,0,0:0:0:0:
448,192,81659,1,0,0:0:0:0:
320,192,81727,1,0,0:0:0:0:
64,192,81794,1,0,0:0:0:0:
448,192,81794,1,0,0:0:0:0:
192,192,81862,1,0,0:0:0:0:
320,192,81862,1,0,0:0:0:0:
64,192,81929,1,0,0:0:0:0:
448,192,81929,1,0,0:0:0:0:
320,192,81997,1,0,0:0:0:0:
64,192,82064,1,0,0:0:0:0:
192,192,82064,1,0,0:0:0:0:
448,192,82064,1,0,0:0:0:0:
320,192,82199,1,0,0:0:0:0:
64,192,82334,1,0,0:0:0:0:
192,192,82469,1,0,0:0:0:0:
448,192,82604,1,0,0:0:0:0:
192,192,82739,1,0,0:0:0:0:
448,192,82874,1,0,0:0:0:0:
64,192,83009,1,0,0:0:0:0:
320,192,83144,1,0,0:0:0:0:
192,192,83279,1,0,0:0:0:0:
448,192,83414,1,0,0:0:0:0:
320,192,83549,1,0,0:0:0:0:
320,192,83684,1,0,0:0:0:0:
192,192,83819,1,0,0:0:0:0:
64,192,83954,1,0,0:0:0:0:
64,192,84089,1,0,0:0:0:0:
448,192,84224,1,0,0:0:0:0:
192,192,84359,1,0,0:0:0:0:
64,192,84494,1,0,0:0:0:0:
192,192,84629,1,0,0:0:0:0:
320,192,84764,1,0,0:0:0:0:
192,192,84899,1,0,0:0:0:0:
320,192,85034,1,0,0:0:0:0:
448,192,85169,1,0,0:0:0:0:
64,192,85304,1,0,0:0:0:0:
192,192,85439,1,0,0:0:0:0:
320,192,85574,1,0,0:0:0:0:
448,192,85709,1,0,0:0:0:0:
448,192,85844,1,0,0:0:0:0:
320,192,85979,1,0,0:0:0:0:
192,192,86114,1,0,0:0:0:0:
64,192,86249,1,0,0:0:0:0:
320,192,86384,1,0,0:0:0:0:
64,192,86519,1,0,0:0:0:0:
192,192,86654,1,0,0:0:0:0:
320,192,86789,1,0,0:0:0:0:
448,192,86924,1,0,0:0:0:0:
320,192,87059,1,0,0:0:0:0:
448,192,87194,1,0,0:0:0:0:
64,192,87329,1,0,0:0:0:0:
320,192,87464,1,0,0:0:0:0:
192,192,87599,1,0,0:0:0:0:
320,192,87734,1,0,0:0:0:0:
64,192,87869,1,0,0:0:0:0:
448,192,88004,1,0,0:0:0:0:
320,192,88139,1,0,0:0:0:0:
448,192,88274,1,0,0:0:0:0:
192,192,88409,1,0,0:0:0:0:
192,192,88544,1,0,0:0:0:0:
64,192,88679,1,0,0:0:0:0:
192,192,88814,1,0,0:0:0:0:
320,192,88949,1,0,0:0:0:0:
448,192,89084,1,0,0:0:0:0:
192,192,89219,1,0,0:0:0:0:
320,192,89354,1,0,0:0:0:0:
448,192,89489,1,0,0:0:0:0:
448,192,89624,1,0,0:0:0:0:
320,192,89759,1,0,0:0:0:0:
64,192,89894,1,0,0:0:0:0:
448,192,90029,1,0,0:0:0:0:
192,192,90164,1,0,0:0:0:0:
64,192,90434,1,0,0:0:0:0:
448,192,90434,1,0,0:0:0:0:
64,192,90704,1,0,0:0:0:0:
192,192,90704,1,0,0:0:0:0:
448,192,90704,1,0,0:0:0:0:
320,192,90839,1,0,0:0:0:0:
320,192,91109,1,0,0:0:0:0:
192,192,91379,1,0,0:0:0:0:
192,192,91649,1,0,0:0:0:0:
448,192,91919,1,0,0:0:0:0:
448,192,92189,1,0,0:0:0:0:
64,192,92459,1,0,0:0:0:0:
64,192,92729,1,0,0:0:0:0:
192,192,92864,1,0,0:0:0:0:
448,192,92864,1,0,0:0:0:0:
320,192,92999,1,0,0:0:0:0:
192,192,93269,1,0,0:0:0:0:
448,192,93539,1,0,0:0:0:0:
64,192,93809,1,0,0:0:0:0:
192,192,94079,1,0,0:0:0:0:
320,192,94349,1,0,0:0:0:0:
192,192,94619,1,0,0:0:0:0:
320,192,94889,1,0,0:0:0:0:
64,192,95024,1,0,0:0:0:0:
448,192,95024,1,0,0:0:0:0:
320,192,95159,1,0,0:0:0:0:
192,192,95429,1,0,0:0:0:0:
64,192,95429,1,0,0:0:0:0:
192,192,95699,1,0,0:0:0:0:
320,192,95969,1,0,0:0:0:0:
64,192,96104,1,0,0:0:0:0:
448,192,96104,1,0,0:0:0:0:
320,192,96239,1,0,0:0:0:0:
192,192,96509,1,0,0:0:0:0:
64,192,96644,1,0,0:0:0:0:
448,192,96644,1,0,0:0:0:0:
320,192,96779,1,0,0:0:0:0:
192,192,97049,1,0,0:0:0:0:
64,192,97184,1,0,0:0:0:0:
448,192,97184,1,0,0:0:0:0:
192,192,97319,1,0,0:0:0:0:
64,192,97454,1,0,0:0:0:0:
320,192,97454,1,0,0:0:0:0:
192,192,97589,1,0,0:0:0:0:
64,192,97724,1,0,0:0:0:0:
448,192,97724,1,0,0:0:0:0:
320,192,97859,1,0,0:0:0:0:
192,192,97994,1,0,0:0:0:0:
448,192,97994,1,0,0:0:0:0:
320,192,98129,1,0,0:0:0:0:
64,192,98264,1,0,0:0:0:0:
192,192,98264,1,0,0:0:0:0:
448,192,98264,1,0,0:0:0:0:
64,192,99344,1,0,0:0:0:0:
320,192,99344,1,0,0:0:0:0:
448,192,99344,1,0,0:0:0:0:
64,192,100425,1,0,0:0:0:0:
192,192,100425,1,0,0:0:0:0:
448,192,100425,1,0,0:0:0:0:
64,192,101505,1,0,0:0:0:0:
320,192,101505,1,0,0:0:0:0:
448,192,101505,1,0,0:0:0:0:
64,192,102585,1,0,0:0:0:0:
192,192,102585,1,0,0:0:0:0:
448,192,102585,1,0,0:0:0:0:
64,192,103665,1,0,0:0:0:0:
192,192,103665,1,0,0:0:0:0:
448,192,103665,1,0,0:0:0:0:
64,192,104745,1,0,0:0:0:0:
320,192,104745,1,0,0:0:0:0:
448,192,104745,1,0,0:0:0:0:
64,192,105825,1,0,0:0:0:0:
192,192,105825,1,0,0:0:0:0:
448,192,105825,1,0,0:0:0:0:
64,192,106365,1,0,0:0:0:0:
320,192,106365,1,0,0:0:0:0:
448,192,106365,1,0,0:0:0:0:
64,192,106905,1,0,0:0:0:0:
192,192,106905,1,0,0:0:0:0:
448,192,106905,1,0,0:0:0:0:
192,192,107715,1,0,0:0:0:0:
320,192,107715,1,0,0:0:0:0:
64,192,107985,1,0,0:0:0:0:
448,192,107985,1,0,0:0:0:0:
320,192,108052,1,0,0:0:0:0:
448,192,108187,1,0,0:0:0:0:
64,192,108255,1,0,0:0:0:0:
192,192,108255,1,0,0:0:0:0:
320,192,108255,1,0,0:0:0:0:
320,192,108390,1,0,0:0:0:0:
64,192,108525,1,0,0:0:0:0:
448,192,108525,1,0,0:0:0:0:
192,192,108592,1,0,0:0:0:0:
64,192,108727,1,0,0:0:0:0:
192,192,108795,1,0,0:0:0:0:
320,192,108795,1,0,0:0:0:0:
448,192,108795,1,0,0:0:0:0:
192,192,108930,1,0,0:0:0:0:
64,192,109065,1,0,0:0:0:0:
448,192,109065,1,0,0:0:0:0:
320,192,109132,1,0,0:0:0:0:
64,192,109267,1,0,0:0:0:0:
192,192,109335,1,0,0:0:0:0:
320,192,109335,1,0,0:0:0:0:
448,192,109335,1,0,0:0:0:0:
320,192,109470,1,0,0:0:0:0:
64,192,109605,1,0,0:0:0:0:
192,192,109605,1,0,0:0:0:0:
448,192,109672,1,0,0:0:0:0:
192,192,109807,1,0,0:0:0:0:
64,192,109875,1,0,0:0:0:0:
320,192,109875,1,0,0:0:0:0:
448,192,109875,1,0,0:0:0:0:
448,192,110010,1,0,0:0:0:0:
64,192,110145,1,0,0:0:0:0:
320,192,110145,1,0,0:0:0:0:
192,192,110212,1,0,0:0:0:0:
448,192,110347,1,0,0:0:0:0:
64,192,110415,1,0,0:0:0:0:
192,192,110415,1,0,0:0:0:0:
320,192,110415,1,0,0:0:0:0:
320,192,110550,1,0,0:0:0:0:
192,192,110685,1,0,0:0:0:0:
448,192,110685,1,0,0:0:0:0:
64,192,110752,1,0,0:0:0:0:
320,192,110887,1,0,0:0:0:0:
64,192,110955,1,0,0:0:0:0:
192,192,110955,1,0,0:0:0:0:
448,192,110955,1,0,0:0:0:0:
448,192,111090,1,0,0:0:0:0:
64,192,111225,1,0,0:0:0:0:
320,192,111225,1,0,0:0:0:0:
192,192,111292,1,0,0:0:0:0:
192,192,111427,1,0,0:0:0:0:
64,192,111495,1,0,0:0:0:0:
320,192,111495,1,0,0:0:0:0:
448,192,111495,1,0,0:0:0:0:
320,192,111630,1,0,0:0:0:0:
64,192,111765,1,0,0:0:0:0:
192,192,111765,1,0,0:0:0:0:
448,192,111765,1,0,0:0:0:0:
64,192,111900,1,0,0:0:0:0:
320,192,111900,1,0,0:0:0:0:
192,192,112035,1,0,0:0:0:0:
448,192,112035,1,0,0:0:0:0:
64,192,112170,1,0,0:0:0:0:
320,192,112170,1,0,0:0:0:0:
448,192,112170,1,0,0:0:0:0:
448,192,112305,1,0,0:0:0:0:
320,192,112372,1,0,0:0:0:0:
192,192,112440,1,0,0:0:0:0:
64,192,112507,1,0,0:0:0:0:
448,192,112507,1,0,0:0:0:0:
320,192,112575,1,0,0:0:0:0:
192,192,112642,1,0,0:0:0:0:
64,192,112710,1,0,0:0:0:0:
448,192,112710,1,0,0:0:0:0:
64,192,112845,1,0,0:0:0:0:
192,192,112845,1,0,0:0:0:0:
64,192,112980,1,0,0:0:0:0:
192,192,112980,1,0,0:0:0:0:
192,192,113115,1,0,0:0:0:0:
320,192,113115,1,0,0:0:0:0:
192,192,113250,1,0,0:0:0:0:
320,192,113250,1,0,0:0:0:0:
320,192,113385,1,0,0:0:0:0:
448,192,113385,1,0,0:0:0:0:
320,192,113520,1,0,0:0:0:0:
448,192,113520,1,0,0:0:0:0:
192,192,113655,1,0,0:0:0:0:
320,192,113655,1,0,0:0:0:0:
192,192,113790,1,0,0:0:0:0:
320,192,113790,1,0,0:0:0:0:
64,192,113925,1,0,0:0:0:0:
192,192,113925,1,0,0:0:0:0:
64,192,114060,1,0,0:0:0:0:
192,192,114060,1,0,0:0:0:0:
320,192,114195,1,0,0:0:0:0:
448,192,114195,1,0,0:0:0:0:
320,192,114330,1,0,0:0:0:0:
448,192,114330,1,0,0:0:0:0:
64,192,114465,1,0,0:0:0:0:
448,192,114465,1,0,0:0:0:0:
64,192,114600,1,0,0:0:0:0:
448,192,114600,1,0,0:0:0:0:
64,192,114735,1,0,0:0:0:0:
320,192,114735,1,0,0:0:0:0:
64,192,114870,1,0,0:0:0:0:
320,192,114870,1,0,0:0:0:0:
64,192,115005,1,0,0:0:0:0:
192,192,115005,1,0,0:0:0:0:
64,192,115140,1,0,0:0:0:0:
192,192,115140,1,0,0:0:0:0:
64,192,115275,1,0,0:0:0:0:
448,192,115275,1,0,0:0:0:0:
64,192,115410,1,0,0:0:0:0:
448,192,115410,1,0,0:0:0:0:
64,192,115545,1,0,0:0:0:0:
320,192,115545,1,0,0:0:0:0:
64,192,115680,1,0,0:0:0:0:
320,192,115680,1,0,0:0:0:0:
64,192,115815,1,0,0:0:0:0:
192,192,115815,1,0,0:0:0:0:
448,192,115815,1,0,0:0:0:0:
64,192,115950,1,0,0:0:0:0:
448,192,115950,1,0,0:0:0:0:
448,192,116017,1,0,0:0:0:0:
320,192,116085,1,0,0:0:0:0:
192,192,116152,1,0,0:0:0:0:
320,192,116220,1,0,0:0:0:0:
64,192,116287,1,0,0:0:0:0:
448,192,116287,1,0,0:0:0:0:
192,192,116355,1,0,0:0:0:0:
320,192,116355,1,0,0:0:0:0:
64,192,116422,1,0,0:0:0:0:
192,192,116490,1,0,0:0:0:0:
320,192,116490,1,0,0:0:0:0:
448,192,116490,1,0,0:0:0:0:
64,192,116557,1,0,0:0:0:0:
192,192,116625,1,0,0:0:0:0:
320,192,116625,1,0,0:0:0:0:
448,192,116625,128,0,116760:0:0:0:0:
64,192,116760,1,0,0:0:0:0:
192,192,116760,1,0,0:0:0:0:
192,192,116895,1,0,0:0:0:0:
320,192,116895,128,0,117030:0:0:0:0:
448,192,116895,1,0,0:0:0:0:
64,192,117030,1,0,0:0:0:0:
448,192,117030,1,0,0:0:0:0:
64,192,117165,1,0,0:0:0:0:
192,192,117165,128,0,117300:0:0:0:0:
320,192,117165,1,0,0:0:0:0:
64,192,117300,1,0,0:0:0:0:
448,192,117300,1,0,0:0:0:0:
64,192,117435,128,0,117570:0:0:0:0:
192,192,117435,1,0,0:0:0:0:
320,192,117435,1,0,0:0:0:0:
320,192,117570,1,0,0:0:0:0:
448,192,117570,1,0,0:0:0:0:
448,192,117705,1,0,0:0:0:0:
192,192,117795,1,0,0:0:0:0:
448,192,117885,1,0,0:0:0:0:
64,192,117975,1,0,0:0:0:0:
192,192,117975,128,0,118245:0:0:0:0:
320,192,118110,1,0,0:0:0:0:
64,192,118245,128,0,118515:0:0:0:0:
448,192,118245,1,0,0:0:0:0:
320,192,118380,1,0,0:0:0:0:
320,192,118515,128,0,118785:0:0:0:0:
448,192,118515,1,0,0:0:0:0:
64,192,118650,128,0,118785:0:0:0:0:
192,192,118650,1,0,0:0:0:0:
448,192,118650,1,0,0:0:0:0:
448,192,118785,1,0,0:0:0:0:
192,192,118785,1,0,0:0:0:0:
448,192,118920,1,0,0:0:0:0:
320,192,118920,1,0,0:0:0:0:
192,192,119055,1,0,0:0:0:0:
448,192,119055,1,0,0:0:0:0:
64,192,119055,1,0,0:0:0:0:
192,192,119190,1,0,0:0:0:0:
448,192,119190,1,0,0:0:0:0:
320,192,119325,1,0,0:0:0:0:
64,192,119325,1,0,0:0:0:0:
320,192,119460,1,0,0:0:0:0:
64,192,119460,1,0,0:0:0:0:
64,192,119595,1,0,0:0:0:0:
448,192,119595,1,0,0:0:0:0:
320,192,119595,1,0,0:0:0:0:
64,192,119730,1,0,0:0:0:0:
192,192,119730,1,0,0:0:0:0:
448,192,119865,1,0,0:0:0:0:
320,192,119865,1,0,0:0:0:0:
448,192,120000,1,0,0:0:0:0:
192,192,120000,1,0,0:0:0:0:
64,192,120135,1,0,0:0:0:0:
320,192,120135,1,0,0:0:0:0:
448,192,120135,1,0,0:0:0:0:
64,192,120270,1,0,0:0:0:0:
320,192,120270,1,0,0:0:0:0:
448,192,120405,1,0,0:0:0:0:
64,192,120405,1,0,0:0:0:0:
448,192,120540,1,0,0:0:0:0:
192,192,120540,1,0,0:0:0:0:
64,192,120675,1,0,0:0:0:0:
192,192,120675,1,0,0:0:0:0:
448,192,120675,1,0,0:0:0:0:
64,192,120810,1,0,0:0:0:0:
64,192,120945,1,0,0:0:0:0:
448,192,120945,1,0,0:0:0:0:
192,192,121012,1,0,0:0:0:0:
448,192,121080,1,0,0:0:0:0:
320,192,121147,1,0,0:0:0:0:
64,192,121215,1,0,0:0:0:0:
448,192,121215,1,0,0:0:0:0:
320,192,121282,1,0,0:0:0:0:
192,192,121350,1,0,0:0:0:0:
192,192,121485,1,0,0:0:0:0:
448,192,121485,1,0,0:0:0:0:
64,192,121552,1,0,0:0:0:0:
64,192,121687,1,0,0:0:0:0:
192,192,121755,1,0,0:0:0:0:
320,192,121755,1,0,0:0:0:0:
448,192,121755,1,0,0:0:0:0:
192,192,121890,1,0,0:0:0:0:
448,192,121890,1,0,0:0:0:0:
64,192,122025,1,0,0:0:0:0:
448,192,122025,1,0,0:0:0:0:
192,192,122092,1,0,0:0:0:0:
64,192,122160,1,0,0:0:0:0:
64,192,122295,1,0,0:0:0:0:
192,192,122295,1,0,0:0:0:0:
448,192,122295,1,0,0:0:0:0:
320,192,122362,1,0,0:0:0:0:
448,192,122430,1,0,0:0:0:0:
64,192,122565,1,0,0:0:0:0:
192,192,122565,1,0,0:0:0:0:
192,192,122700,1,0,0:0:0:0:
320,192,122767,1,0,0:0:0:0:
192,192,122835,1,0,0:0:0:0:
448,192,122835,1,0,0:0:0:0:
64,192,122970,1,0,0:0:0:0:
64,192,123105,1,0,0:0:0:0:
448,192,123105,1,0,0:0:0:0:
320,192,123172,1,0,0:0:0:0:
192,192,123240,1,0,0:0:0:0:
320,192,123307,1,0,0:0:0:0:
192,192,123375,1,0,0:0:0:0:
448,192,123375,1,0,0:0:0:0:
64,192,123442,1,0,0:0:0:0:
320,192,123510,1,0,0:0:0:0:
192,192,123577,1,0,0:0:0:0:
64,192,123645,1,0,0:0:0:0:
448,192,123645,1,0,0:0:0:0:
320,192,123712,1,0,0:0:0:0:
448,192,123780,1,0,0:0:0:0:
192,192,123847,1,0,0:0:0:0:
64,192,123915,1,0,0:0:0:0:
320,192,123915,1,0,0:0:0:0:
448,192,123982,1,0,0:0:0:0:
192,192,124050,1,0,0:0:0:0:
320,192,124117,1,0,0:0:0:0:
448,192,124185,1,0,0:0:0:0:
64,192,124185,1,0,0:0:0:0:
192,192,124252,1,0,0:0:0:0:
320,192,124320,1,0,0:0:0:0:
192,192,124387,1,0,0:0:0:0:
64,192,124455,1,0,0:0:0:0:
448,192,124455,1,0,0:0:0:0:
320,192,124522,1,0,0:0:0:0:
192,192,124590,1,0,0:0:0:0:
320,192,124657,1,0,0:0:0:0:
64,192,124725,1,0,0:0:0:0:
448,192,124725,1,0,0:0:0:0:
192,192,124792,1,0,0:0:0:0:
320,192,124860,1,0,0:0:0:0:
192,192,124927,1,0,0:0:0:0:
64,192,124995,1,0,0:0:0:0:
320,192,124995,1,0,0:0:0:0:
192,192,125062,1,0,0:0:0:0:
448,192,125062,1,0,0:0:0:0:
64,192,125130,1,0,0:0:0:0:
320,192,125130,1,0,0:0:0:0:
448,192,125197,1,0,0:0:0:0:
192,192,125197,1,0,0:0:0:0:
64,192,125265,1,0,0:0:0:0:
320,192,125265,1,0,0:0:0:0:
192,192,125332,1,0,0:0:0:0:
320,192,125467,1,0,0:0:0:0:
192,192,125535,1,0,0:0:0:0:
448,192,125535,1,0,0:0:0:0:
64,192,125535,1,0,0:0:0:0:
448,192,125670,1,0,0:0:0:0:
64,192,125670,1,0,0:0:0:0:
192,192,125737,1,0,0:0:0:0:
64,192,125805,1,0,0:0:0:0:
320,192,125805,1,0,0:0:0:0:
448,192,125872,1,0,0:0:0:0:
320,192,125940,1,0,0:0:0:0:
192,192,126007,1,0,0:0:0:0:
320,192,126075,1,0,0:0:0:0:
64,192,126075,1,0,0:0:0:0:
448,192,126075,1,0,0:0:0:0:
448,192,126210,1,0,0:0:0:0:
320,192,126277,1,0,0:0:0:0:
64,192,126345,1,0,0:0:0:0:
448,192,126345,1,0,0:0:0:0:
192,192,126412,1,0,0:0:0:0:
448,192,126547,1,0,0:0:0:0:
192,192,126615,1,0,0:0:0:0:
320,192,126615,1,0,0:0:0:0:
64,192,126615,1,0,0:0:0:0:
448,192,126750,1,0,0:0:0:0:
320,192,126817,1,0,0:0:0:0:
192,192,126885,1,0,0:0:0:0:
64,192,126885,1,0,0:0:0:0:
320,192,126952,1,0,0:0:0:0:
448,192,127020,1,0,0:0:0:0:
320,192,127155,1,0,0:0:0:0:
64,192,127155,1,0,0:0:0:0:
448,192,127155,1,0,0:0:0:0:
192,192,127222,1,0,0:0:0:0:
320,192,127290,1,0,0:0:0:0:
192,192,127357,1,0,0:0:0:0:
320,192,127425,1,0,0:0:0:0:
448,192,127425,1,0,0:0:0:0:
192,192,127560,1,0,0:0:0:0:
320,192,127627,1,0,0:0:0:0:
192,192,127695,1,0,0:0:0:0:
448,192,127695,1,0,0:0:0:0:
64,192,127695,1,0,0:0:0:0:
320,192,127762,1,0,0:0:0:0:
192,192,127897,1,0,0:0:0:0:
64,192,127965,1,0,0:0:0:0:
448,192,127965,1,0,0:0:0:0:
192,192,128100,1,0,0:0:0:0:
320,192,128167,1,0,0:0:0:0:
192,192,128235,1,0,0:0:0:0:
448,192,128235,1,0,0:0:0:0:
64,192,128235,1,0,0:0:0:0:
320,192,128302,1,0,0:0:0:0:
192,192,128370,1,0,0:0:0:0:
448,192,128437,1,0,0:0:0:0:
64,192,128505,1,0,0:0:0:0:
320,192,128505,1,0,0:0:0:0:
192,192,128572,1,0,0:0:0:0:
64,192,128640,1,0,0:0:0:0:
192,192,128707,1,0,0:0:0:0:
64,192,128775,1,0,0:0:0:0:
320,192,128775,1,0,0:0:0:0:
448,192,128775,1,0,0:0:0:0:
192,192,128910,1,0,0:0:0:0:
320,192,128910,1,0,0:0:0:0:
192,192,129045,1,0,0:0:0:0:
448,192,129045,1,0,0:0:0:0:
64,192,129180,1,0,0:0:0:0:
320,192,129180,1,0,0:0:0:0:
192,192,129315,1,0,0:0:0:0:
448,192,129315,1,0,0:0:0:0:
64,192,129450,1,0,0:0:0:0:
448,192,129450,1,0,0:0:0:0:
64,192,129585,1,0,0:0:0:0:
320,192,129585,1,0,0:0:0:0:
448,192,129585,1,0,0:0:0:0:
192,192,129652,1,0,0:0:0:0:
320,192,129720,1,0,0:0:0:0:
64,192,129787,1,0,0:0:0:0:
192,192,129855,1,0,0:0:0:0:
448,192,129922,1,0,0:0:0:0:
64,192,129990,1,0,0:0:0:0:
320,192,130057,1,0,0:0:0:0:
64,192,130125,1,0,0:0:0:0:
192,192,130125,1,0,0:0:0:0:
64,192,130260,1,0,0:0:0:0:
192,192,130260,1,0,0:0:0:0:
192,192,130395,1,0,0:0:0:0:
320,192,130395,1,0,0:0:0:0:
192,192,130530,1,0,0:0:0:0:
320,192,130530,1,0,0:0:0:0:
320,192,130665,1,0,0:0:0:0:
448,192,130665,1,0,0:0:0:0:
320,192,130800,1,0,0:0:0:0:
448,192,130800,1,0,0:0:0:0:
192,192,130935,1,0,0:0:0:0:
320,192,130935,1,0,0:0:0:0:
192,192,131070,1,0,0:0:0:0:
320,192,131070,1,0,0:0:0:0:
64,192,131205,1,0,0:0:0:0:
192,192,131205,1,0,0:0:0:0:
64,192,131340,1,0,0:0:0:0:
192,192,131340,1,0,0:0:0:0:
64,192,131475,1,0,0:0:0:0:
448,192,131475,1,0,0:0:0:0:
64,192,131610,1,0,0:0:0:0:
448,192,131610,1,0,0:0:0:0:
192,192,131745,1,0,0:0:0:0:
320,192,131745,1,0,0:0:0:0:
64,192,131880,1,0,0:0:0:0:
192,192,131880,1,0,0:0:0:0:
320,192,132015,1,0,0:0:0:0:
448,192,132015,1,0,0:0:0:0:
192,192,132150,1,0,0:0:0:0:
320,192,132150,1,0,0:0:0:0:
192,192,132285,1,0,0:0:0:0:
320,192,132285,1,0,0:0:0:0:
320,192,132420,1,0,0:0:0:0:
448,192,132420,1,0,0:0:0:0:
64,192,132555,1,0,0:0:0:0:
192,192,132555,1,0,0:0:0:0:
192,192,132690,1,0,0:0:0:0:
320,192,132690,1,0,0:0:0:0:
64,192,132825,1,0,0:0:0:0:
448,192,132825,1,0,0:0:0:0:
320,192,132892,1,0,0:0:0:0:
448,192,132960,1,0,0:0:0:0:
320,192,133027,1,0,0:0:0:0:
192,192,133095,1,0,0:0:0:0:
320,192,133162,1,0,0:0:0:0:
192,192,133230,1,0,0:0:0:0:
64,192,133297,1,0,0:0:0:0:
320,192,133365,1,0,0:0:0:0:
64,192,133432,1,0,0:0:0:0:
192,192,133500,1,0,0:0:0:0:
448,192,133567,1,0,0:0:0:0:
192,192,133635,1,0,0:0:0:0:
320,192,133702,1,0,0:0:0:0:
64,192,133770,1,0,0:0:0:0:
320,192,133837,1,0,0:0:0:0:
192,192,133905,1,0,0:0:0:0:
448,192,133905,1,0,0:0:0:0:
64,192,133972,1,0,0:0:0:0:
320,192,134040,1,0,0:0:0:0:
192,192,134107,1,0,0:0:0:0:
64,192,134175,1,0,0:0:0:0:
448,192,134175,128,0,134445:0:0:0:0:
320,192,134310,1,0,0:0:0:0:
64,192,134445,1,0,0:0:0:0:
192,192,134445,1,0,0:0:0:0:
320,192,134512,1,0,0:0:0:0:
192,192,134580,1,0,0:0:0:0:
448,192,134647,1,0,0:0:0:0:
64,192,134715,128,0,134985:0:0:0:0:
192,192,134715,1,0,0:0:0:0:
320,192,134715,1,0,0:0:0:0:
192,192,134850,1,0,0:0:0:0:
320,192,134985,1,0,0:0:0:0:
448,192,134985,1,0,0:0:0:0:
192,192,135075,1,0,0:0:0:0:
320,192,135075,1,0,0:0:0:0:
192,192,135165,1,0,0:0:0:0:
64,192,135165,1,0,0:0:0:0:
64,192,135255,1,0,0:0:0:0:
320,192,135255,1,0,0:0:0:0:
448,192,135255,1,0,0:0:0:0:
320,192,135390,1,0,0:0:0:0:
64,192,135525,1,0,0:0:0:0:
192,192,135525,1,0,0:0:0:0:
192,192,135660,1,0,0:0:0:0:
320,192,135795,1,0,0:0:0:0:
448,192,135795,1,0,0:0:0:0:
320,192,135930,1,0,0:0:0:0:
64,192,136065,128,0,136132:0:0:0:0:
192,192,136065,1,0,0:0:0:0:
448,192,136200,128,0,136267:0:0:0:0:
320,192,136200,1,0,0:0:0:0:
64,192,136335,1,0,0:0:0:0:
192,192,136335,128,0,136402:0:0:0:0:
320,192,136335,1,0,0:0:0:0:
320,192,136470,128,0,136537:0:0:0:0:
448,192,136470,1,0,0:0:0:0:
192,192,136605,1,0,0:0:0:0:
64,192,136605,128,0,136672:0:0:0:0:
192,192,136740,1,0,0:0:0:0:
448,192,136740,128,0,136807:0:0:0:0:
64,192,136875,1,0,0:0:0:0:
320,192,136875,1,0,0:0:0:0:
192,192,136875,128,0,136942:0:0:0:0:
64,192,137010,1,0,0:0:0:0:
320,192,137010,128,0,137077:0:0:0:0:
64,192,137145,128,0,137212:0:0:0:0:
192,192,137145,1,0,0:0:0:0:
192,192,137280,128,0,137347:0:0:0:0:
448,192,137280,1,0,0:0:0:0:
64,192,137415,1,0,0:0:0:0:
320,192,137415,1,0,0:0:0:0:
448,192,137415,128,0,137482:0:0:0:0:
64,192,137550,1,0,0:0:0:0:
320,192,137550,128,0,137617:0:0:0:0:
192,192,137685,128,0,137752:0:0:0:0:
448,192,137685,1,0,0:0:0:0:
64,192,137820,128,0,137887:0:0:0:0:
320,192,137820,1,0,0:0:0:0:
64,192,137955,1,0,0:0:0:0:
320,192,137955,128,0,138022:0:0:0:0:
448,192,137955,1,0,0:0:0:0:
192,192,138090,1,0,0:0:0:0:
448,192,138090,128,0,138157:0:0:0:0:
64,192,138225,1,0,0:0:0:0:
320,192,138225,1,0,0:0:0:0:
192,192,138292,1,0,0:0:0:0:
320,192,138360,1,0,0:0:0:0:
64,192,138427,1,0,0:0:0:0:
192,192,138495,1,0,0:0:0:0:
448,192,138495,1,0,0:0:0:0:
320,192,138562,1,0,0:0:0:0:
64,192,138630,1,0,0:0:0:0:
192,192,138697,1,0,0:0:0:0:
64,192,138765,1,0,0:0:0:0:
320,192,138765,1,0,0:0:0:0:
192,192,138832,1,0,0:0:0:0:
320,192,138900,1,0,0:0:0:0:
192,192,138967,1,0,0:0:0:0:
320,192,139035,1,0,0:0:0:0:
448,192,139035,1,0,0:0:0:0:
64,192,139102,1,0,0:0:0:0:
448,192,139170,1,0,0:0:0:0:
64,192,139237,1,0,0:0:0:0:
320,192,139305,1,0,0:0:0:0:
448,192,139305,1,0,0:0:0:0:
192,192,139372,1,0,0:0:0:0:
320,192,139440,1,0,0:0:0:0:
448,192,139440,1,0,0:0:0:0:
64,192,139507,1,0,0:0:0:0:
192,192,139575,1,0,0:0:0:0:
320,192,139575,1,0,0:0:0:0:
64,192,139642,1,0,0:0:0:0:
320,192,139710,1,0,0:0:0:0:
448,192,139777,1,0,0:0:0:0:
192,192,139845,1,0,0:0:0:0:
448,192,139980,1,0,0:0:0:0:
192,192,140047,1,0,0:0:0:0:
64,192,140115,1,0,0:0:0:0:
448,192,140115,1,0,0:0:0:0:
64,192,140250,1,0,0:0:0:0:
320,192,140250,1,0,0:0:0:0:
320,192,140385,1,0,0:0:0:0:
192,192,140452,1,0,0:0:0:0:
64,192,140520,1,0,0:0:0:0:
320,192,140587,1,0,0:0:0:0:
192,192,140655,1,0,0:0:0:0:
64,192,140722,1,0,0:0:0:0:
448,192,140790,1,0,0:0:0:0:
320,192,140857,1,0,0:0:0:0:
192,192,140925,1,0,0:0:0:0:
320,192,140992,1,0,0:0:0:0:
448,192,141060,1,0,0:0:0:0:
64,192,141127,1,0,0:0:0:0:
192,192,141195,1,0,0:0:0:0:
320,192,141262,1,0,0:0:0:0:
64,192,141330,1,0,0:0:0:0:
192,192,141397,1,0,0:0:0:0:
64,192,141465,1,0,0:0:0:0:
448,192,141465,1,0,0:0:0:0:
320,192,141532,1,0,0:0:0:0:
448,192,141600,1,0,0:0:0:0:
64,192,141735,1,0,0:0:0:0:
320,192,141735,1,0,0:0:0:0:
192,192,141802,1,0,0:0:0:0:
320,192,141870,1,0,0:0:0:0:
64,192,142005,1,0,0:0:0:0:
448,192,142005,1,0,0:0:0:0:
192,192,142072,1,0,0:0:0:0:
64,192,142140,1,0,0:0:0:0:
192,192,142275,1,0,0:0:0:0:
448,192,142275,1,0,0:0:0:0:
320,192,142342,1,0,0:0:0:0:
192,192,142410,1,0,0:0:0:0:
64,192,142545,1,0,0:0:0:0:
64,192,142680,1,0,0:0:0:0:
192,192,142815,1,0,0:0:0:0:
192,192,142950,1,0,0:0:0:0:
320,192,143085,1,0,0:0:0:0:
320,192,143220,1,0,0:0:0:0:
448,192,143355,1,0,0:0:0:0:
448,192,143490,1,0,0:0:0:0:
64,192,143625,1,0,0:0:0:0:
192,192,143625,1,0,0:0:0:0:
64,192,143760,1,0,0:0:0:0:
192,192,143760,1,0,0:0:0:0:
64,192,143895,1,0,0:0:0:0:
320,192,143895,1,0,0:0:0:0:
64,192,144030,1,0,0:0:0:0:
320,192,144030,1,0,0:0:0:0:
192,192,144165,1,0,0:0:0:0:
320,192,144165,1,0,0:0:0:0:
192,192,144300,1,0,0:0:0:0:
320,192,144300,1,0,0:0:0:0:
192,192,144435,1,0,0:0:0:0:
448,192,144435,1,0,0:0:0:0:
192,192,144570,1,0,0:0:0:0:
448,192,144570,1,0,0:0:0:0:
64,192,144705,1,0,0:0:0:0:
320,192,144705,1,0,0:0:0:0:
64,192,144840,1,0,0:0:0:0:
320,192,144840,1,0,0:0:0:0:
192,192,144975,1,0,0:0:0:0:
448,192,144975,1,0,0:0:0:0:
192,192,145110,1,0,0:0:0:0:
448,192,145110,1,0,0:0:0:0:
64,192,145245,1,0,0:0:0:0:
320,192,145245,1,0,0:0:0:0:
64,192,145380,1,0,0:0:0:0:
320,192,145380,1,0,0:0:0:0:
192,192,145515,1,0,0:0:0:0:
448,192,145515,1,0,0:0:0:0:
192,192,145650,1,0,0:0:0:0:
448,192,145650,1,0,0:0:0:0:
64,192,145785,1,0,0:0:0:0:
320,192,145785,1,0,0:0:0:0:
448,192,145785,1,0,0:0:0:0:
64,192,145920,1,0,0:0:0:0:
192,192,145920,1,0,0:0:0:0:
448,192,145920,1,0,0:0:0:0:
64,192,146055,1,0,0:0:0:0:
320,192,146055,1,0,0:0:0:0:
448,192,146055,1,0,0:0:0:0:
64,192,146190,1,0,0:0:0:0:
192,192,146190,1,0,0:0:0:0:
448,192,146190,1,0,0:0:0:0:
192,192,146325,1,0,0:0:0:0:
320,192,146325,1,0,0:0:0:0:
448,192,146325,1,0,0:0:0:0:
64,192,146460,1,0,0:0:0:0:
192,192,146460,1,0,0:0:0:0:
320,192,146460,1,0,0:0:0:0:
192,192,146595,1,0,0:0:0:0:
320,192,146595,1,0,0:0:0:0:
448,192,146595,1,0,0:0:0:0:
64,192,146730,1,0,0:0:0:0:
192,192,146730,1,0,0:0:0:0:
320,192,146730,1,0,0:0:0:0:
64,192,146865,1,0,0:0:0:0:
320,192,146865,1,0,0:0:0:0:
448,192,146865,128,0,149025:0:0:0:0:
64,192,147135,1,0,0:0:0:0:
320,192,147135,1,0,0:0:0:0:
192,192,147405,1,0,0:0:0:0:
320,192,147675,1,0,0:0:0:0:
64,192,147675,1,0,0:0:0:0:
192,192,147945,1,0,0:0:0:0:
64,192,148215,1,0,0:0:0:0:
320,192,148215,1,0,0:0:0:0:
192,192,148485,1,0,0:0:0:0:
64,192,148755,1,0,0:0:0:0:
320,192,148755,1,0,0:0:0:0:
192,192,148890,1,0,0:0:0:0:
320,192,149025,1,0,0:0:0:0:
64,192,149025,1,0,0:0:0:0:
320,192,149160,1,0,0:0:0:0:
448,192,149295,1,0,0:0:0:0:
64,192,149295,1,0,0:0:0:0:
320,192,149430,1,0,0:0:0:0:
192,192,149565,1,0,0:0:0:0:
192,192,149700,1,0,0:0:0:0:
64,192,149835,1,0,0:0:0:0:
448,192,149835,1,0,0:0:0:0:
192,192,149970,1,0,0:0:0:0:
320,192,150105,1,0,0:0:0:0:
192,192,150240,1,0,0:0:0:0:
64,192,150375,1,0,0:0:0:0:
448,192,150375,1,0,0:0:0:0:
448,192,150645,1,0,0:0:0:0:
64,192,150645,1,0,0:0:0:0:
64,192,150848,1,0,0:0:0:0:
448,192,150848,1,0,0:0:0:0:
448,192,151050,1,0,0:0:0:0:
64,192,151050,1,0,0:0:0:0:
448,192,151185,1,0,0:0:0:0:
64,192,151185,1,0,0:0:0:0:
320,192,151320,1,0,0:0:0:0:
64,192,151455,1,0,0:0:0:0:
192,192,151455,1,0,0:0:0:0:
320,192,151590,1,0,0:0:0:0:
448,192,151725,1,0,0:0:0:0:
320,192,151860,1,0,0:0:0:0:
192,192,151995,1,0,0:0:0:0:
64,192,151995,1,0,0:0:0:0:
448,192,152130,1,0,0:0:0:0:
448,192,152265,1,0,0:0:0:0:
192,192,152400,1,0,0:0:0:0:
64,192,152535,1,0,0:0:0:0:
320,192,152535,1,0,0:0:0:0:
320,192,152670,1,0,0:0:0:0:
192,192,152805,1,0,0:0:0:0:
448,192,152805,1,0,0:0:0:0:
192,192,152940,1,0,0:0:0:0:
64,192,153075,1,0,0:0:0:0:
320,192,153075,1,0,0:0:0:0:
448,192,153210,1,0,0:0:0:0:
64,192,153345,1,0,0:0:0:0:
192,192,153413,1,0,0:0:0:0:
320,192,153480,1,0,0:0:0:0:
448,192,153548,1,0,0:0:0:0:
64,192,153615,1,0,0:0:0:0:
192,192,153615,1,0,0:0:0:0:
320,192,153750,1,0,0:0:0:0:
448,192,153885,1,0,0:0:0:0:
320,192,153953,1,0,0:0:0:0:
192,192,154020,1,0,0:0:0:0:
64,192,154088,1,0,0:0:0:0:
320,192,154155,1,0,0:0:0:0:
448,192,154155,1,0,0:0:0:0:
192,192,154290,5,0,0:0:0:0:
64,192,154425,1,0,0:0:0:0:
192,192,154493,1,0,0:0:0:0:
320,192,154560,1,0,0:0:0:0:
64,192,154695,1,0,0:0:0:0:
192,192,154763,1,0,0:0:0:0:
320,192,154830,1,0,0:0:0:0:
64,192,154965,1,0,0:0:0:0:
448,192,155033,1,0,0:0:0:0:
64,192,155100,1,0,0:0:0:0:
448,192,155168,1,0,0:0:0:0:
192,192,155235,1,0,0:0:0:0:
320,192,155303,1,0,0:0:0:0:
192,192,155370,1,0,0:0:0:0:
320,192,155438,1,0,0:0:0:0:
64,192,155505,1,0,0:0:0:0:
448,192,155505,1,0,0:0:0:0:
64,192,155640,1,0,0:0:0:0:
192,192,155775,1,0,0:0:0:0:
448,192,155775,1,0,0:0:0:0:
320,192,155910,1,0,0:0:0:0:
192,192,156045,1,0,0:0:0:0:
64,192,156180,1,0,0:0:0:0:
192,192,156315,1,0,0:0:0:0:
448,192,156315,1,0,0:0:0:0:
320,192,156450,1,0,0:0:0:0:
64,192,156585,1,0,0:0:0:0:
448,192,156585,1,0,0:0:0:0:
448,192,156720,1,0,0:0:0:0:
320,192,156855,1,0,0:0:0:0:
64,192,156855,1,0,0:0:0:0:
192,192,156990,1,0,0:0:0:0:
320,192,157125,1,0,0:0:0:0:
448,192,157260,1,0,0:0:0:0:
320,192,157395,1,0,0:0:0:0:
64,192,157395,1,0,0:0:0:0:
192,192,157530,1,0,0:0:0:0:
64,192,157665,1,0,0:0:0:0:
448,192,157665,1,0,0:0:0:0:
64,192,157800,1,0,0:0:0:0:
320,192,157935,1,0,0:0:0:0:
448,192,157935,1,0,0:0:0:0:
320,192,158070,1,0,0:0:0:0:
64,192,158205,1,0,0:0:0:0:
64,192,158340,1,0,0:0:0:0:
448,192,158475,1,0,0:0:0:0:
320,192,158475,1,0,0:0:0:0:
320,192,158610,1,0,0:0:0:0:
192,192,158745,1,0,0:0:0:0:
192,192,158880,1,0,0:0:0:0:
64,192,159015,1,0,0:0:0:0:
448,192,159015,1,0,0:0:0:0:
320,192,159150,1,0,0:0:0:0:
64,192,159285,1,0,0:0:0:0:
448,192,159285,1,0,0:0:0:0:
192,192,159420,1,0,0:0:0:0:
64,192,159488,1,0,0:0:0:0:
448,192,159488,1,0,0:0:0:0:
320,192,159623,1,0,0:0:0:0:
64,192,159690,1,0,0:0:0:0:
448,192,159690,1,0,0:0:0:0:
64,192,159825,1,0,0:0:0:0:
448,192,159825,1,0,0:0:0:0:
192,192,159960,1,0,0:0:0:0:
320,192,160095,1,0,0:0:0:0:
448,192,160095,1,0,0:0:0:0:
64,192,160365,1,0,0:0:0:0:
192,192,160500,1,0,0:0:0:0:
320,192,160635,1,0,0:0:0:0:
448,192,160635,1,0,0:0:0:0:
320,192,160770,1,0,0:0:0:0:
192,192,160905,1,0,0:0:0:0:
64,192,160905,1,0,0:0:0:0:
448,192,161040,1,0,0:0:0:0:
192,192,161175,1,0,0:0:0:0:
64,192,161175,1,0,0:0:0:0:
448,192,161310,1,0,0:0:0:0:
320,192,161445,1,0,0:0:0:0:
192,192,161445,1,0,0:0:0:0:
64,192,161580,1,0,0:0:0:0:
192,192,161715,1,0,0:0:0:0:
320,192,161715,1,0,0:0:0:0:
64,192,161850,1,0,0:0:0:0:
448,192,161985,128,0,163065:0:0:0:0:
192,192,161985,1,0,0:0:0:0:
64,192,162120,1,0,0:0:0:0:
192,192,162255,1,0,0:0:0:0:
64,192,162390,1,0,0:0:0:0:
192,192,162525,128,0,163065:0:0:0:0:
320,192,162525,1,0,0:0:0:0:
64,192,162660,1,0,0:0:0:0:
320,192,162795,1,0,0:0:0:0:
64,192,162930,1,0,0:0:0:0:
64,192,163065,128,0,163605:0:0:0:0:
320,192,163065,1,0,0:0:0:0:
448,192,163200,1,0,0:0:0:0:
320,192,163335,128,0,163605:0:0:0:0:
192,192,163335,1,0,0:0:0:0:
448,192,163470,1,0,0:0:0:0:
448,192,163605,128,0,164145:0:0:0:0:
192,192,163605,1,0,0:0:0:0:
64,192,163740,1,0,0:0:0:0:
192,192,163875,1,0,0:0:0:0:
320,192,163875,128,0,164145:0:0:0:0:
64,192,163943,1,0,0:0:0:0:
192,192,164010,1,0,0:0:0:0:
64,192,164078,1,0,0:0:0:0:
192,192,164145,1,0,0:0:0:0:
64,192,164415,1,0,0:0:0:0:
192,192,164483,1,0,0:0:0:0:
320,192,164550,1,0,0:0:0:0:
448,192,164618,1,0,0:0:0:0:
64,192,164685,1,0,0:0:0:0:
192,192,164753,1,0,0:0:0:0:
320,192,164820,1,0,0:0:0:0:
448,192,164888,1,0,0:0:0:0:
192,192,164955,1,0,0:0:0:0:
64,192,165023,1,0,0:0:0:0:
448,192,165090,1,0,0:0:0:0:
320,192,165158,1,0,0:0:0:0:
64,192,165293,128,0,165428:0:0:0:0:
192,192,165495,128,0,165630:0:0:0:0:
320,192,165698,128,0,165833:0:0:0:0:
448,192,165900,128,0,166035:0:0:0:0:
320,192,166103,128,0,166238:0:0:0:0:
64,192,166305,1,0,0:0:0:0:
448,192,166305,1,0,0:0:0:0:
192,192,166373,1,0,0:0:0:0:
64,192,166575,1,0,0:0:0:0:
448,192,166575,1,0,0:0:0:0:
320,192,166643,1,0,0:0:0:0:
64,192,166845,1,0,0:0:0:0:
448,192,166845,1,0,0:0:0:0:
192,192,166913,1,0,0:0:0:0:
448,192,166980,1,0,0:0:0:0:
192,192,167048,1,0,0:0:0:0:
448,192,167115,1,0,0:0:0:0:
192,192,167183,1,0,0:0:0:0:
320,192,167250,1,0,0:0:0:0:
448,192,167318,1,0,0:0:0:0:
192,192,167520,1,0,0:0:0:0:
320,192,167520,1,0,0:0:0:0:
64,192,167655,1,0,0:0:0:0:
192,192,167655,1,0,0:0:0:0:
64,192,167925,1,0,0:0:0:0:
320,192,167925,1,0,0:0:0:0:
192,192,168128,1,0,0:0:0:0:
320,192,168128,1,0,0:0:0:0:
64,192,168330,1,0,0:0:0:0:
320,192,168330,1,0,0:0:0:0:
64,192,168465,1,0,0:0:0:0:
320,192,168465,1,0,0:0:0:0:
192,192,168600,1,0,0:0:0:0:
64,192,168668,1,0,0:0:0:0:
320,192,168735,1,0,0:0:0:0:
64,192,168803,1,0,0:0:0:0:
320,192,168870,1,0,0:0:0:0:
64,192,168938,1,0,0:0:0:0:
192,192,169005,1,0,0:0:0:0:
64,192,169073,1,0,0:0:0:0:
192,192,169140,1,0,0:0:0:0:
320,192,169208,1,0,0:0:0:0:
448,192,169275,1,0,0:0:0:0:
64,192,169343,1,0,0:0:0:0:
192,192,169410,1,0,0:0:0:0:
320,192,169478,1,0,0:0:0:0:
448,192,169545,1,0,0:0:0:0:
192,192,169613,1,0,0:0:0:0:
64,192,169680,1,0,0:0:0:0:
320,192,169748,1,0,0:0:0:0:
64,192,169815,1,0,0:0:0:0:
320,192,169883,1,0,0:0:0:0:
192,192,169950,1,0,0:0:0:0:
448,192,170018,1,0,0:0:0:0:
192,192,170085,1,0,0:0:0:0:
448,192,170153,1,0,0:0:0:0:
64,192,170220,1,0,0:0:0:0:
320,192,170288,1,0,0:0:0:0:
448,192,170355,1,0,0:0:0:0:
64,192,170423,1,0,0:0:0:0:
192,192,170490,1,0,0:0:0:0:
320,192,170558,1,0,0:0:0:0:
448,192,170625,1,0,0:0:0:0:
320,192,170693,1,0,0:0:0:0:
192,192,170760,1,0,0:0:0:0:
64,192,170828,1,0,0:0:0:0:
320,192,170895,1,0,0:0:0:0:
448,192,170895,1,0,0:0:0:0:
320,192,171030,1,0,0:0:0:0:
192,192,171098,1,0,0:0:0:0:
64,192,171165,1,0,0:0:0:0:
448,192,171165,1,0,0:0:0:0:
192,192,171368,1,0,0:0:0:0:
448,192,171368,1,0,0:0:0:0:
64,192,171570,1,0,0:0:0:0:
320,192,171570,1,0,0:0:0:0:
192,192,171705,1,0,0:0:0:0:
64,192,171773,1,0,0:0:0:0:
448,192,171773,128,0,171908:0:0:0:0:
64,192,171975,1,0,0:0:0:0:
320,192,171975,128,0,172110:0:0:0:0:
64,192,172178,1,0,0:0:0:0:
192,192,172178,128,0,172313:0:0:0:0:
448,192,172380,1,0,0:0:0:0:
64,192,172380,128,0,172515:0:0:0:0:
448,192,172583,1,0,0:0:0:0:
192,192,172583,128,0,172718:0:0:0:0:
320,192,172785,1,0,0:0:0:0:
448,192,172785,1,0,0:0:0:0:
64,192,172853,1,0,0:0:0:0:
320,192,172920,1,0,0:0:0:0:
64,192,172988,1,0,0:0:0:0:
320,192,173055,1,0,0:0:0:0:
448,192,173123,1,0,0:0:0:0:
192,192,173190,1,0,0:0:0:0:
448,192,173258,1,0,0:0:0:0:
320,192,173325,1,0,0:0:0:0:
192,192,173393,1,0,0:0:0:0:
320,192,173460,1,0,0:0:0:0:
192,192,173528,1,0,0:0:0:0:
64,192,173595,1,0,0:0:0:0:
448,192,173595,1,0,0:0:0:0:
64,192,173730,1,0,0:0:0:0:
320,192,173730,1,0,0:0:0:0:
64,192,174000,128,0,174135:0:0:0:0:
448,192,174000,1,0,0:0:0:0:
192,192,174135,128,0,174270:0:0:0:0:
320,192,174135,1,0,0:0:0:0:
64,192,174270,1,0,0:0:0:0:
448,192,174270,128,0,174405:0:0:0:0:
192,192,174405,1,0,0:0:0:0:
320,192,174405,128,0,174540:0:0:0:0:
448,192,174540,1,0,0:0:0:0:
64,192,174608,1,0,0:0:0:0:
448,192,174675,1,0,0:0:0:0:
320,192,174743,1,0,0:0:0:0:
192,192,174810,1,0,0:0:0:0:
64,192,174878,1,0,0:0:0:0:
64,192,174945,1,0,0:0:0:0:
192,192,175013,1,0,0:0:0:0:
320,192,175080,1,0,0:0:0:0:
448,192,175148,1,0,0:0:0:0:
192,192,175215,1,0,0:0:0:0:
320,192,175283,1,0,0:0:0:0:
64,192,175350,1,0,0:0:0:0:
192,192,175418,1,0,0:0:0:0:
64,192,175485,1,0,0:0:0:0:
320,192,175553,1,0,0:0:0:0:
192,192,175620,1,0,0:0:0:0:
448,192,175688,1,0,0:0:0:0:
64,192,175755,1,0,0:0:0:0:
320,192,175755,1,0,0:0:0:0:
64,192,175890,1,0,0:0:0:0:
320,192,175890,1,0,0:0:0:0:
192,192,176160,128,0,176295:0:0:0:0:
448,192,176160,1,0,0:0:0:0:
64,192,176295,128,0,176430:0:0:0:0:
320,192,176295,1,0,0:0:0:0:
192,192,176430,1,0,0:0:0:0:
320,192,176430,128,0,176565:0:0:0:0:
64,192,176565,1,0,0:0:0:0:
448,192,176565,128,0,176700:0:0:0:0:
320,192,176700,1,0,0:0:0:0:
64,192,176768,1,0,0:0:0:0:
448,192,176835,1,0,0:0:0:0:
320,192,176903,1,0,0:0:0:0:
192,192,176970,1,0,0:0:0:0:
64,192,177038,1,0,0:0:0:0:
320,192,177105,1,0,0:0:0:0:
192,192,177173,1,0,0:0:0:0:
64,192,177240,1,0,0:0:0:0:
192,192,177308,1,0,0:0:0:0:
64,192,177375,1,0,0:0:0:0:
448,192,177510,1,0,0:0:0:0:
320,192,177578,1,0,0:0:0:0:
192,192,177645,1,0,0:0:0:0:
320,192,177713,1,0,0:0:0:0:
192,192,177780,1,0,0:0:0:0:
448,192,177915,1,0,0:0:0:0:
320,192,177983,1,0,0:0:0:0:
192,192,178050,1,0,0:0:0:0:
320,192,178118,1,0,0:0:0:0:
64,192,178185,1,0,0:0:0:0:
320,192,178320,1,0,0:0:0:0:
448,192,178320,1,0,0:0:0:0:
192,192,178388,1,0,0:0:0:0:
64,192,178455,1,0,0:0:0:0:
448,192,178455,1,0,0:0:0:0:
320,192,178523,1,0,0:0:0:0:
192,192,178590,1,0,0:0:0:0:
64,192,178658,1,0,0:0:0:0:
448,192,178725,1,0,0:0:0:0:
320,192,178793,1,0,0:0:0:0:
192,192,178860,1,0,0:0:0:0:
64,192,178928,1,0,0:0:0:0:
320,192,178995,1,0,0:0:0:0:
448,192,178995,1,0,0:0:0:0:
64,192,179130,1,0,0:0:0:0:
448,192,179130,1,0,0:0:0:0:
64,192,179265,1,0,0:0:0:0:
192,192,179265,1,0,0:0:0:0:
448,192,179400,128,0,179603:0:0:0:0:
64,192,179468,128,0,179603:0:0:0:0:
192,192,179535,128,0,179738:0:0:0:0:
320,192,179603,128,0,179738:0:0:0:0:
448,192,179670,128,0,179738:0:0:0:0:
64,192,179738,128,0,179940:0:0:0:0:
448,192,179805,128,0,179940:0:0:0:0:
192,192,179873,128,0,180075:0:0:0:0:
320,192,179940,128,0,180075:0:0:0:0:
448,192,180008,128,0,180075:0:0:0:0:
64,192,180075,128,0,180210:0:0:0:0:
448,192,180143,128,0,180345:0:0:0:0:
192,192,180210,128,0,180345:0:0:0:0:
64,192,180278,128,0,180345:0:0:0:0:
320,192,180345,128,0,180480:0:0:0:0:
64,192,180413,128,0,180480:0:0:0:0:
448,192,180480,128,0,180615:0:0:0:0:
192,192,180548,128,0,180615:0:0:0:0:
64,192,180615,128,0,180750:0:0:0:0:
192,192,180683,128,0,180818:0:0:0:0:
320,192,180750,128,0,180885:0:0:0:0:
64,192,180818,1,0,0:0:0:0:
448,192,180818,128,0,180953:0:0:0:0:
192,192,180885,1,0,0:0:0:0:
320,192,180953,1,0,0:0:0:0:
448,192,181020,1,0,0:0:0:0:
64,192,181088,1,0,0:0:0:0:
192,192,181155,1,0,0:0:0:0:
320,192,181223,1,0,0:0:0:0:
448,192,181290,1,0,0:0:0:0:
320,192,181358,1,0,0:0:0:0:
64,192,181425,128,0,181628:0:0:0:0:
448,192,181425,1,0,0:0:0:0:
192,192,181493,128,0,181628:0:0:0:0:
448,192,181560,128,0,181763:0:0:0:0:
320,192,181628,128,0,181763:0:0:0:0:
64,192,181695,128,0,181763:0:0:0:0:
64,192,181830,128,0,182033:0:0:0:0:
192,192,181898,128,0,182033:0:0:0:0:
448,192,181965,128,0,182033:0:0:0:0:
320,192,182033,128,0,182235:0:0:0:0:
192,192,182100,128,0,182235:0:0:0:0:
448,192,182235,128,0,182438:0:0:0:0:
320,192,182303,128,0,182438:0:0:0:0:
64,192,182370,128,0,182438:0:0:0:0:
64,192,182505,1,0,0:0:0:0:
320,192,182505,1,0,0:0:0:0:
448,192,182505,1,0,0:0:0:0:
192,192,182573,1,0,0:0:0:0:
320,192,182640,1,0,0:0:0:0:
448,192,182708,1,0,0:0:0:0:
192,192,182775,1,0,0:0:0:0:
320,192,182843,1,0,0:0:0:0:
448,192,182910,1,0,0:0:0:0:
320,192,182978,1,0,0:0:0:0:
64,192,183045,1,0,0:0:0:0:
192,192,183113,1,0,0:0:0:0:
64,192,183180,1,0,0:0:0:0:
192,192,183248,1,0,0:0:0:0:
320,192,183315,1,0,0:0:0:0:
448,192,183383,1,0,0:0:0:0:
320,192,183450,1,0,0:0:0:0:
192,192,183518,1,0,0:0:0:0:
64,192,183585,1,0,0:0:0:0:
448,192,183585,128,0,183788:0:0:0:0:
192,192,183653,128,0,183788:0:0:0:0:
64,192,183720,128,0,183788:0:0:0:0:
320,192,183788,128,0,183990:0:0:0:0:
448,192,183855,128,0,183990:0:0:0:0:
64,192,183990,128,0,184193:0:0:0:0:
320,192,184058,128,0,184193:0:0:0:0:
448,192,184125,128,0,184193:0:0:0:0:
192,192,184193,128,0,184395:0:0:0:0:
64,192,184260,128,0,184395:0:0:0:0:
448,192,184395,128,0,184598:0:0:0:0:
320,192,184463,128,0,184598:0:0:0:0:
64,192,184530,128,0,184598:0:0:0:0:
64,192,184665,1,0,0:0:0:0:
192,192,184665,1,0,0:0:0:0:
448,192,184665,1,0,0:0:0:0:
320,192,184733,1,0,0:0:0:0:
192,192,184800,1,0,0:0:0:0:
64,192,184868,1,0,0:0:0:0:
320,192,184935,1,0,0:0:0:0:
192,192,185003,1,0,0:0:0:0:
64,192,185070,1,0,0:0:0:0:
192,192,185138,1,0,0:0:0:0:
448,192,185205,1,0,0:0:0:0:
320,192,185273,1,0,0:0:0:0:
448,192,185340,1,0,0:0:0:0:
320,192,185408,1,0,0:0:0:0:
192,192,185475,1,0,0:0:0:0:
448,192,185543,1,0,0:0:0:0:
320,192,185610,1,0,0:0:0:0:
192,192,185678,1,0,0:0:0:0:
64,192,185745,128,0,185948:0:0:0:0:
448,192,185745,1,0,0:0:0:0:
192,192,185813,128,0,185948:0:0:0:0:
448,192,185880,128,0,186083:0:0:0:0:
320,192,185948,128,0,186083:0:0:0:0:
192,192,186015,128,0,186083:0:0:0:0:
64,192,186218,1,0,0:0:0:0:
448,192,186218,1,0,0:0:0:0:
320,192,186285,1,0,0:0:0:0:
64,192,186420,1,0,0:0:0:0:
448,192,186420,1,0,0:0:0:0:
192,192,186488,1,0,0:0:0:0:
192,192,186623,1,0,0:0:0:0:
448,192,186623,1,0,0:0:0:0:
320,192,186690,1,0,0:0:0:0:
64,192,186825,1,0,0:0:0:0:
320,192,186825,1,0,0:0:0:0:
192,192,186893,1,0,0:0:0:0:
320,192,187028,1,0,0:0:0:0:
448,192,187028,1,0,0:0:0:0:
64,192,187095,1,0,0:0:0:0:
64,192,187230,1,0,0:0:0:0:
192,192,187230,1,0,0:0:0:0:
448,192,187298,1,0,0:0:0:0:
64,192,187433,1,0,0:0:0:0:
320,192,187433,1,0,0:0:0:0:
448,192,187500,1,0,0:0:0:0:
320,192,187635,1,0,0:0:0:0:
64,192,187703,1,0,0:0:0:0:
192,192,187770,1,0,0:0:0:0:
320,192,187838,1,0,0:0:0:0:
64,192,187905,128,0,188108:0:0:0:0:
192,192,187973,128,0,188175:0:0:0:0:
320,192,188040,128,0,188243:0:0:0:0:
448,192,188108,128,0,188310:0:0:0:0:
64,192,188175,1,0,0:0:0:0:
192,192,188243,1,0,0:0:0:0:
320,192,188310,1,0,0:0:0:0:
448,192,188378,1,0,0:0:0:0:
64,192,188445,128,0,188648:0:0:0:0:
192,192,188513,128,0,188715:0:0:0:0:
320,192,188580,128,0,188783:0:0:0:0:
448,192,188648,128,0,188850:0:0:0:0:
64,192,188715,1,0,0:0:0:0:
192,192,188783,1,0,0:0:0:0:
320,192,188850,1,0,0:0:0:0:
448,192,188918,1,0,0:0:0:0:
320,192,188985,1,0,0:0:0:0:
192,192,189053,1,0,0:0:0:0:
64,192,189120,1,0,0:0:0:0:
448,192,189120,1,0,0:0:0:0:
320,192,189255,1,0,0:0:0:0:
448,192,189255,1,0,0:0:0:0:
192,192,189458,1,0,0:0:0:0:
320,192,189458,1,0,0:0:0:0:
64,192,189660,1,0,0:0:0:0:
320,192,189660,1,0,0:0:0:0:
192,192,189863,1,0,0:0:0:0:
448,192,189863,1,0,0:0:0:0:
64,192,190065,1,0,0:0:0:0:
448,192,190065,1,0,0:0:0:0:
320,192,190133,1,0,0:0:0:0:
448,192,190200,1,0,0:0:0:0:
192,192,190268,1,0,0:0:0:0:
320,192,190335,1,0,0:0:0:0:
64,192,190403,1,0,0:0:0:0:
192,192,190470,1,0,0:0:0:0:
320,192,190538,1,0,0:0:0:0:
448,192,190605,1,0,0:0:0:0:
64,192,190673,1,0,0:0:0:0:
192,192,190740,1,0,0:0:0:0:
320,192,190808,1,0,0:0:0:0:
448,192,190875,1,0,0:0:0:0:
320,192,191010,1,0,0:0:0:0:
192,192,191078,1,0,0:0:0:0:
64,192,191145,1,0,0:0:0:0:
448,192,191213,1,0,0:0:0:0:
320,192,191280,1,0,0:0:0:0:
192,192,191348,1,0,0:0:0:0:
64,192,191415,1,0,0:0:0:0:
448,192,191483,1,0,0:0:0:0:
192,192,191550,1,0,0:0:0:0:
448,192,191618,1,0,0:0:0:0:
192,192,191685,1,0,0:0:0:0:
64,192,191753,1,0,0:0:0:0:
192,192,191820,1,0,0:0:0:0:
320,192,191888,1,0,0:0:0:0:
448,192,191955,1,0,0:0:0:0:
320,192,192023,1,0,0:0:0:0:
192,192,192090,1,0,0:0:0:0:
64,192,192158,1,0,0:0:0:0:
320,192,192225,1,0,0:0:0:0:
448,192,192225,1,0,0:0:0:0:
320,192,192360,1,0,0:0:0:0:
64,192,192495,1,0,0:0:0:0:
448,192,192495,1,0,0:0:0:0:
320,192,192765,1,0,0:0:0:0:
192,192,192765,1,0,0:0:0:0:
320,192,192968,1,0,0:0:0:0:
64,192,192968,1,0,0:0:0:0:
448,192,192968,1,0,0:0:0:0:
192,192,193170,1,0,0:0:0:0:
320,192,193305,1,0,0:0:0:0:
64,192,193373,1,0,0:0:0:0:
320,192,193440,1,0,0:0:0:0:
64,192,193508,1,0,0:0:0:0:
192,192,193575,1,0,0:0:0:0:
448,192,193643,1,0,0:0:0:0:
192,192,193710,1,0,0:0:0:0:
448,192,193778,1,0,0:0:0:0:
64,192,193845,1,0,0:0:0:0:
448,192,193913,1,0,0:0:0:0:
64,192,193980,1,0,0:0:0:0:
448,192,194048,1,0,0:0:0:0:
320,192,194115,1,0,0:0:0:0:
192,192,194183,1,0,0:0:0:0:
320,192,194250,1,0,0:0:0:0:
192,192,194318,1,0,0:0:0:0:
448,192,194385,1,0,0:0:0:0:
320,192,194520,1,0,0:0:0:0:
192,192,194588,1,0,0:0:0:0:
64,192,194655,1,0,0:0:0:0:
192,192,194723,1,0,0:0:0:0:
320,192,194790,1,0,0:0:0:0:
448,192,194790,1,0,0:0:0:0:
64,192,194858,1,0,0:0:0:0:
192,192,194925,1,0,0:0:0:0:
320,192,194993,1,0,0:0:0:0:
448,192,195060,1,0,0:0:0:0:
64,192,195128,1,0,0:0:0:0:
192,192,195195,1,0,0:0:0:0:
448,192,195195,1,0,0:0:0:0:
64,192,195263,1,0,0:0:0:0:
320,192,195330,1,0,0:0:0:0:
448,192,195398,1,0,0:0:0:0:
192,192,195398,1,0,0:0:0:0:
64,192,195465,1,0,0:0:0:0:
320,192,195533,1,0,0:0:0:0:
64,192,195600,1,0,0:0:0:0:
192,192,195668,1,0,0:0:0:0:
448,192,195735,1,0,0:0:0:0:
64,192,195803,1,0,0:0:0:0:
320,192,195870,1,0,0:0:0:0:
64,192,195938,1,0,0:0:0:0:
320,192,196005,1,0,0:0:0:0:
192,192,196073,1,0,0:0:0:0:
448,192,196140,1,0,0:0:0:0:
192,192,196208,1,0,0:0:0:0:
448,192,196275,1,0,0:0:0:0:
64,192,196343,1,0,0:0:0:0:
320,192,196410,1,0,0:0:0:0:
448,192,196545,1,0,0:0:0:0:
64,192,196545,1,0,0:0:0:0:
192,192,196613,1,0,0:0:0:0:
320,192,196680,1,0,0:0:0:0:
448,192,196748,1,0,0:0:0:0:
64,192,196815,1,0,0:0:0:0:
192,192,196883,1,0,0:0:0:0:
320,192,196950,1,0,0:0:0:0:
448,192,197018,1,0,0:0:0:0:
64,192,197085,1,0,0:0:0:0:
192,192,197085,1,0,0:0:0:0:
448,192,197153,1,0,0:0:0:0:
320,192,197220,1,0,0:0:0:0:
192,192,197288,1,0,0:0:0:0:
64,192,197355,1,0,0:0:0:0:
192,192,197423,1,0,0:0:0:0:
320,192,197490,1,0,0:0:0:0:
448,192,197558,1,0,0:0:0:0:
192,192,197625,1,0,0:0:0:0:
64,192,197625,1,0,0:0:0:0:
448,192,197693,1,0,0:0:0:0:
320,192,197760,1,0,0:0:0:0:
192,192,197828,1,0,0:0:0:0:
64,192,197895,1,0,0:0:0:0:
320,192,197895,1,0,0:0:0:0:
448,192,197963,1,0,0:0:0:0:
192,192,198030,1,0,0:0:0:0:
64,192,198098,1,0,0:0:0:0:
448,192,198165,1,0,0:0:0:0:
192,192,198165,1,0,0:0:0:0:
320,192,198233,1,0,0:0:0:0:
192,192,198300,1,0,0:0:0:0:
64,192,198368,1,0,0:0:0:0:
448,192,198435,1,0,0:0:0:0:
320,192,198435,1,0,0:0:0:0:
192,192,198503,1,0,0:0:0:0:
320,192,198570,1,0,0:0:0:0:
192,192,198638,1,0,0:0:0:0:
448,192,198705,1,0,0:0:0:0:
64,192,198705,1,0,0:0:0:0:
320,192,198773,1,0,0:0:0:0:
192,192,198840,1,0,0:0:0:0:
64,192,198908,1,0,0:0:0:0:
448,192,198975,1,0,0:0:0:0:
320,192,199043,1,0,0:0:0:0:
192,192,199110,1,0,0:0:0:0:
64,192,199178,1,0,0:0:0:0:
448,192,199245,1,0,0:0:0:0:
320,192,199245,1,0,0:0:0:0:
64,192,199313,1,0,0:0:0:0:
192,192,199380,1,0,0:0:0:0:
320,192,199448,1,0,0:0:0:0:
448,192,199515,1,0,0:0:0:0:
320,192,199583,1,0,0:0:0:0:
192,192,199650,1,0,0:0:0:0:
64,192,199718,1,0,0:0:0:0:
320,192,199785,1,0,0:0:0:0:
448,192,199785,1,0,0:0:0:0:
64,192,199853,1,0,0:0:0:0:
192,192,199920,1,0,0:0:0:0:
320,192,199988,1,0,0:0:0:0:
192,192,200056,1,0,0:0:0:0:
448,192,200056,1,0,0:0:0:0:
64,192,200123,1,0,0:0:0:0:
320,192,200191,1,0,0:0:0:0:
448,192,200258,1,0,0:0:0:0:
320,192,200326,1,0,0:0:0:0:
64,192,200326,1,0,0:0:0:0:
192,192,200393,1,0,0:0:0:0:
320,192,200461,1,0,0:0:0:0:
448,192,200528,1,0,0:0:0:0:
192,192,200596,1,0,0:0:0:0:
64,192,200596,1,0,0:0:0:0:
320,192,200663,1,0,0:0:0:0:
192,192,200731,1,0,0:0:0:0:
320,192,200798,1,0,0:0:0:0:
192,192,200866,1,0,0:0:0:0:
448,192,200866,1,0,0:0:0:0:
192,192,201068,1,0,0:0:0:0:
192,192,201271,1,0,0:0:0:0:
448,192,201406,1,0,0:0:0:0:
64,192,201406,1,0,0:0:0:0:
320,192,201473,1,0,0:0:0:0:
448,192,201608,1,0,0:0:0:0:
448,192,201811,1,0,0:0:0:0:
64,192,201946,1,0,0:0:0:0:
192,192,201946,1,0,0:0:0:0:
192,192,202148,1,0,0:0:0:0:
192,192,202351,1,0,0:0:0:0:
448,192,202486,1,0,0:0:0:0:
64,192,202486,1,0,0:0:0:0:
320,192,202553,1,0,0:0:0:0:
192,192,202756,5,0,0:0:0:0:
192,192,202891,1,0,0:0:0:0:
448,192,203026,1,0,0:0:0:0:
320,192,203026,1,0,0:0:0:0:
448,192,203228,1,0,0:0:0:0:
448,192,203431,1,0,0:0:0:0:
64,192,203566,1,0,0:0:0:0:
192,192,203566,1,0,0:0:0:0:
320,192,203633,1,0,0:0:0:0:
64,192,203768,1,0,0:0:0:0:
320,192,203836,1,0,0:0:0:0:
64,192,203971,1,0,0:0:0:0:
192,192,204106,1,0,0:0:0:0:
320,192,204106,1,0,0:0:0:0:
320,192,204308,1,0,0:0:0:0:
64,192,204376,1,0,0:0:0:0:
320,192,204511,1,0,0:0:0:0:
64,192,204646,1,0,0:0:0:0:
192,192,204781,1,0,0:0:0:0:
320,192,204916,1,0,0:0:0:0:
448,192,205051,1,0,0:0:0:0:
448,192,205186,1,0,0:0:0:0:
320,192,205253,1,0,0:0:0:0:
64,192,205388,1,0,0:0:0:0:
192,192,205456,1,0,0:0:0:0:
448,192,205591,1,0,0:0:0:0:
64,192,205726,1,0,0:0:0:0:
64,192,205861,1,0,0:0:0:0:
192,192,205996,1,0,0:0:0:0:
192,192,206131,1,0,0:0:0:0:
320,192,206266,1,0,0:0:0:0:
320,192,206401,1,0,0:0:0:0:
192,192,206536,1,0,0:0:0:0:
192,192,206671,1,0,0:0:0:0:
64,192,206806,1,0,0:0:0:0:
64,192,206941,1,0,0:0:0:0:
448,192,207076,1,0,0:0:0:0:
448,192,207211,1,0,0:0:0:0:
320,192,207346,1,0,0:0:0:0:
64,192,207346,1,0,0:0:0:0:
320,192,207481,1,0,0:0:0:0:
64,192,207616,5,0,0:0:0:0:
192,192,207616,1,0,0:0:0:0:
192,192,207751,1,0,0:0:0:0:
64,192,207886,1,0,0:0:0:0:
448,192,207886,1,0,0:0:0:0:
64,192,208021,1,0,0:0:0:0:
448,192,208156,1,0,0:0:0:0:
320,192,208156,1,0,0:0:0:0:
320,192,208291,1,0,0:0:0:0:
64,192,208426,1,0,0:0:0:0:
192,192,208493,1,0,0:0:0:0:
64,192,208628,1,0,0:0:0:0:
192,192,208696,1,0,0:0:0:0:
448,192,208831,1,0,0:0:0:0:
320,192,208898,1,0,0:0:0:0:
192,192,208966,1,0,0:0:0:0:
64,192,209033,1,0,0:0:0:0:
192,192,209101,1,0,0:0:0:0:
320,192,209168,1,0,0:0:0:0:
448,192,209236,1,0,0:0:0:0:
192,192,209303,1,0,0:0:0:0:
448,192,209371,5,0,0:0:0:0:
192,192,209438,1,0,0:0:0:0:
64,192,209506,1,0,0:0:0:0:
320,192,209506,1,0,0:0:0:0:
64,192,209641,1,0,0:0:0:0:
192,192,209776,1,0,0:0:0:0:
448,192,209776,1,0,0:0:0:0:
192,192,209911,1,0,0:0:0:0:
320,192,210046,1,0,0:0:0:0:
64,192,210046,1,0,0:0:0:0:
320,192,210181,1,0,0:0:0:0:
448,192,210316,1,0,0:0:0:0:
192,192,210316,1,0,0:0:0:0:
448,192,210451,1,0,0:0:0:0:
64,192,210586,1,0,0:0:0:0:
192,192,210586,1,0,0:0:0:0:
320,192,210653,1,0,0:0:0:0:
64,192,210766,1,0,0:0:0:0:
320,192,210856,1,0,0:0:0:0:
448,192,210856,1,0,0:0:0:0:
448,192,210991,1,0,0:0:0:0:
64,192,211126,1,0,0:0:0:0:
320,192,211126,1,0,0:0:0:0:
192,192,211193,1,0,0:0:0:0:
64,192,211328,1,0,0:0:0:0:
320,192,211396,1,0,0:0:0:0:
192,192,211396,1,0,0:0:0:0:
448,192,211396,1,0,0:0:0:0:
192,192,211531,1,0,0:0:0:0:
64,192,211666,1,0,0:0:0:0:
320,192,211666,1,0,0:0:0:0:
448,192,211666,1,0,0:0:0:0:
192,192,211733,1,0,0:0:0:0:
64,192,211801,1,0,0:0:0:0:
448,192,211936,1,0,0:0:0:0:
320,192,212003,1,0,0:0:0:0:
448,192,212071,1,0,0:0:0:0:
64,192,212206,1,0,0:0:0:0:
192,192,212273,1,0,0:0:0:0:
320,192,212341,1,0,0:0:0:0:
448,192,212476,1,0,0:0:0:0:
320,192,212543,1,0,0:0:0:0:
192,192,212611,1,0,0:0:0:0:
64,192,212746,1,0,0:0:0:0:
320,192,212813,1,0,0:0:0:0:
448,192,212881,1,0,0:0:0:0:
448,192,213016,1,0,0:0:0:0:
192,192,213083,1,0,0:0:0:0:
64,192,213151,1,0,0:0:0:0:
320,192,213286,1,0,0:0:0:0:
448,192,213353,1,0,0:0:0:0:
320,192,213421,1,0,0:0:0:0:
192,192,213556,1,0,0:0:0:0:
64,192,213623,1,0,0:0:0:0:
192,192,213691,1,0,0:0:0:0:
64,192,213826,1,0,0:0:0:0:
448,192,213826,1,0,0:0:0:0:
320,192,213893,1,0,0:0:0:0:
192,192,213961,1,0,0:0:0:0:
448,192,214028,1,0,0:0:0:0:
320,192,214096,1,0,0:0:0:0:
192,192,214163,1,0,0:0:0:0:
448,192,214231,1,0,0:0:0:0:
320,192,214298,1,0,0:0:0:0:
192,192,214366,1,0,0:0:0:0:
64,192,214433,1,0,0:0:0:0:
320,192,214568,1,0,0:0:0:0:
192,192,214636,1,0,0:0:0:0:
64,192,214771,1,0,0:0:0:0:
320,192,214771,1,0,0:0:0:0:
64,192,214906,1,0,0:0:0:0:
448,192,214906,1,0,0:0:0:0:
320,192,214973,1,0,0:0:0:0:
448,192,215041,1,0,0:0:0:0:
192,192,215176,1,0,0:0:0:0:
320,192,215243,1,0,0:0:0:0:
192,192,215311,1,0,0:0:0:0:
320,192,215378,1,0,0:0:0:0:
64,192,215446,1,0,0:0:0:0:
192,192,215581,1,0,0:0:0:0:
64,192,215648,1,0,0:0:0:0:
320,192,215716,1,0,0:0:0:0:
320,192,215851,1,0,0:0:0:0:
448,192,215851,1,0,0:0:0:0:
192,192,215986,1,0,0:0:0:0:
448,192,215986,1,0,0:0:0:0:
320,192,216053,1,0,0:0:0:0:
64,192,216121,1,0,0:0:0:0:
448,192,216188,1,0,0:0:0:0:
192,192,216256,1,0,0:0:0:0:
64,192,216323,1,0,0:0:0:0:
320,192,216391,1,0,0:0:0:0:
448,192,216458,1,0,0:0:0:0:
64,192,216526,1,0,0:0:0:0:
320,192,216526,128,0,216796:0:0:0:0:
64,192,216796,1,0,0:0:0:0:
192,192,216796,1,0,0:0:0:0:
320,192,216931,1,0,0:0:0:0:
192,192,217066,1,0,0:0:0:0:
448,192,217066,1,0,0:0:0:0:
64,192,217133,1,0,0:0:0:0:
192,192,217201,1,0,0:0:0:0:
448,192,217201,1,0,0:0:0:0:
64,192,217336,1,0,0:0:0:0:
320,192,217336,1,0,0:0:0:0:
448,192,217403,1,0,0:0:0:0:
64,192,217471,1,0,0:0:0:0:
320,192,217471,1,0,0:0:0:0:
192,192,217606,1,0,0:0:0:0:
448,192,217606,1,0,0:0:0:0:
320,192,217673,1,0,0:0:0:0:
64,192,217741,1,0,0:0:0:0:
192,192,217741,1,0,0:0:0:0:
64,192,217876,1,0,0:0:0:0:
320,192,217876,1,0,0:0:0:0:
192,192,217943,1,0,0:0:0:0:
320,192,218011,1,0,0:0:0:0:
448,192,218011,1,0,0:0:0:0:
192,192,218078,1,0,0:0:0:0:
64,192,218146,1,0,0:0:0:0:
320,192,218146,1,0,0:0:0:0:
448,192,218146,128,0,218416:0:0:0:0:
192,192,218213,1,0,0:0:0:0:
192,192,218348,1,0,0:0:0:0:
64,192,218416,1,0,0:0:0:0:
320,192,218416,1,0,0:0:0:0:
192,192,218551,1,0,0:0:0:0:
64,192,218686,128,0,218956:0:0:0:0:
192,192,218686,1,0,0:0:0:0:
448,192,218686,1,0,0:0:0:0:
320,192,218753,1,0,0:0:0:0:
192,192,218956,1,0,0:0:0:0:
448,192,218956,1,0,0:0:0:0:
320,192,219091,1,0,0:0:0:0:
64,192,219226,1,0,0:0:0:0:
192,192,219226,128,0,219496:0:0:0:0:
448,192,219226,1,0,0:0:0:0:
320,192,219293,1,0,0:0:0:0:
448,192,219361,1,0,0:0:0:0:
64,192,219428,1,0,0:0:0:0:
320,192,219496,1,0,0:0:0:0:
448,192,219496,1,0,0:0:0:0:
64,192,219563,1,0,0:0:0:0:
320,192,219631,1,0,0:0:0:0:
192,192,219766,1,0,0:0:0:0:
448,192,219766,1,0,0:0:0:0:
64,192,219833,1,0,0:0:0:0:
64,192,219968,1,0,0:0:0:0:
448,192,219968,1,0,0:0:0:0:
320,192,220036,1,0,0:0:0:0:
448,192,220171,1,0,0:0:0:0:
64,192,220171,1,0,0:0:0:0:
192,192,220171,1,0,0:0:0:0:
64,192,220306,128,0,220576:0:0:0:0:
192,192,220306,1,0,0:0:0:0:
320,192,220306,1,0,0:0:0:0:
448,192,220373,1,0,0:0:0:0:
320,192,220508,1,0,0:0:0:0:
192,192,220576,1,0,0:0:0:0:
448,192,220576,1,0,0:0:0:0:
320,192,220711,1,0,0:0:0:0:
64,192,220846,1,0,0:0:0:0:
192,192,220846,128,0,221116:0:0:0:0:
448,192,220846,1,0,0:0:0:0:
320,192,220913,1,0,0:0:0:0:
320,192,221048,1,0,0:0:0:0:
64,192,221116,1,0,0:0:0:0:
448,192,221116,1,0,0:0:0:0:
192,192,221251,1,0,0:0:0:0:
64,192,221386,128,0,221656:0:0:0:0:
320,192,221386,1,0,0:0:0:0:
448,192,221386,1,0,0:0:0:0:
192,192,221453,1,0,0:0:0:0:
448,192,221521,1,0,0:0:0:0:
320,192,221588,1,0,0:0:0:0:
192,192,221656,1,0,0:0:0:0:
448,192,221656,1,0,0:0:0:0:
320,192,221723,1,0,0:0:0:0:
64,192,221791,1,0,0:0:0:0:
448,192,221791,1,0,0:0:0:0:
192,192,221926,1,0,0:0:0:0:
448,192,221926,1,0,0:0:0:0:
320,192,222061,1,0,0:0:0:0:
448,192,222061,1,0,0:0:0:0:
64,192,222196,1,0,0:0:0:0:
320,192,222196,1,0,0:0:0:0:
64,192,222331,1,0,0:0:0:0:
192,192,222331,1,0,0:0:0:0:
64,192,222466,1,0,0:0:0:0:
448,192,222466,1,0,0:0:0:0:
192,192,222533,1,0,0:0:0:0:
448,192,222601,1,0,0:0:0:0:
64,192,222668,1,0,0:0:0:0:
192,192,222668,1,0,0:0:0:0:
320,192,222736,1,0,0:0:0:0:
448,192,222803,1,0,0:0:0:0:
64,192,222871,1,0,0:0:0:0:
192,192,222871,1,0,0:0:0:0:
320,192,222938,1,0,0:0:0:0:
64,192,223006,1,0,0:0:0:0:
448,192,223006,1,0,0:0:0:0:
64,192,223141,1,0,0:0:0:0:
448,192,223141,1,0,0:0:0:0:
192,192,223276,1,0,0:0:0:0:
320,192,223276,1,0,0:0:0:0:
192,192,223411,1,0,0:0:0:0:
320,192,223411,1,0,0:0:0:0:
320,192,223546,1,0,0:0:0:0:
448,192,223546,1,0,0:0:0:0:
320,192,223681,1,0,0:0:0:0:
448,192,223681,1,0,0:0:0:0:
64,192,223816,1,0,0:0:0:0:
320,192,223816,1,0,0:0:0:0:
64,192,223951,1,0,0:0:0:0:
320,192,223951,1,0,0:0:0:0:
192,192,224086,1,0,0:0:0:0:
320,192,224086,1,0,0:0:0:0:
192,192,224221,1,0,0:0:0:0:
320,192,224221,1,0,0:0:0:0:
64,192,224356,1,0,0:0:0:0:
448,192,224356,1,0,0:0:0:0:
64,192,224491,1,0,0:0:0:0:
448,192,224491,1,0,0:0:0:0:
192,192,224626,1,0,0:0:0:0:
448,192,224626,1,0,0:0:0:0:
64,192,224693,1,0,0:0:0:0:
192,192,224761,1,0,0:0:0:0:
448,192,224761,1,0,0:0:0:0:
64,192,224896,1,0,0:0:0:0:
320,192,224896,1,0,0:0:0:0:
448,192,224963,1,0,0:0:0:0:
64,192,225031,1,0,0:0:0:0:
320,192,225031,1,0,0:0:0:0:
64,192,225166,1,0,0:0:0:0:
448,192,225166,1,0,0:0:0:0:
192,192,225233,1,0,0:0:0:0:
64,192,225301,1,0,0:0:0:0:
448,192,225301,1,0,0:0:0:0:
192,192,225436,1,0,0:0:0:0:
320,192,225436,1,0,0:0:0:0:
64,192,225503,1,0,0:0:0:0:
320,192,225571,1,0,0:0:0:0:
448,192,225571,1,0,0:0:0:0:
64,192,225706,1,0,0:0:0:0:
192,192,225706,1,0,0:0:0:0:
448,192,225773,1,0,0:0:0:0:
192,192,225841,1,0,0:0:0:0:
448,192,225908,1,0,0:0:0:0:
64,192,225976,1,0,0:0:0:0:
192,192,225976,1,0,0:0:0:0:
320,192,226043,1,0,0:0:0:0:
64,192,226111,1,0,0:0:0:0:
320,192,226178,1,0,0:0:0:0:
64,192,226246,1,0,0:0:0:0:
192,192,226246,1,0,0:0:0:0:
448,192,226313,1,0,0:0:0:0:
320,192,226381,1,0,0:0:0:0:
448,192,226448,1,0,0:0:0:0:
192,192,226516,1,0,0:0:0:0:
320,192,226516,1,0,0:0:0:0:
64,192,226651,1,0,0:0:0:0:
64,192,226786,1,0,0:0:0:0:
320,192,226786,1,0,0:0:0:0:
448,192,226786,128,0,226921:0:0:0:0:
192,192,226853,1,0,0:0:0:0:
64,192,226921,1,0,0:0:0:0:
64,192,227056,128,0,227191:0:0:0:0:
192,192,227056,1,0,0:0:0:0:
448,192,227056,1,0,0:0:0:0:
320,192,227123,1,0,0:0:0:0:
448,192,227191,1,0,0:0:0:0:
64,192,227326,1,0,0:0:0:0:
192,192,227326,1,0,0:0:0:0:
448,192,227326,128,0,227461:0:0:0:0:
320,192,227393,1,0,0:0:0:0:
64,192,227461,1,0,0:0:0:0:
64,192,227596,128,0,227731:0:0:0:0:
320,192,227596,1,0,0:0:0:0:
448,192,227596,1,0,0:0:0:0:
192,192,227663,1,0,0:0:0:0:
448,192,227731,1,0,0:0:0:0:
320,192,227866,1,0,0:0:0:0:
448,192,227866,1,0,0:0:0:0:
64,192,227933,1,0,0:0:0:0:
448,192,228001,1,0,0:0:0:0:
64,192,228136,1,0,0:0:0:0:
320,192,228136,1,0,0:0:0:0:
320,192,228271,1,0,0:0:0:0:
448,192,228271,1,0,0:0:0:0:
64,192,228406,1,0,0:0:0:0:
192,192,228406,1,0,0:0:0:0:
192,192,228541,1,0,0:0:0:0:
448,192,228541,1,0,0:0:0:0:
64,192,228676,1,0,0:0:0:0:
320,192,228676,1,0,0:0:0:0:
64,192,228811,1,0,0:0:0:0:
448,192,228811,1,0,0:0:0:0:
192,192,228946,1,0,0:0:0:0:
320,192,228946,128,0,229081:0:0:0:0:
448,192,228946,1,0,0:0:0:0:
64,192,229013,1,0,0:0:0:0:
448,192,229081,1,0,0:0:0:0:
64,192,229216,128,0,229351:0:0:0:0:
192,192,229216,1,0,0:0:0:0:
320,192,229216,1,0,0:0:0:0:
448,192,229283,1,0,0:0:0:0:
192,192,229351,1,0,0:0:0:0:
64,192,229486,1,0,0:0:0:0:
320,192,229486,1,0,0:0:0:0:
448,192,229486,128,0,229621:0:0:0:0:
192,192,229553,1,0,0:0:0:0:
320,192,229621,1,0,0:0:0:0:
64,192,229756,1,0,0:0:0:0:
192,192,229756,128,0,229891:0:0:0:0:
320,192,229756,1,0,0:0:0:0:
448,192,229823,1,0,0:0:0:0:
64,192,229891,1,0,0:0:0:0:
64,192,230026,1,0,0:0:0:0:
192,192,230026,1,0,0:0:0:0:
448,192,230026,128,0,230161:0:0:0:0:
320,192,230093,1,0,0:0:0:0:
64,192,230161,1,0,0:0:0:0:
64,192,230296,128,0,230431:0:0:0:0:
320,192,230296,1,0,0:0:0:0:
448,192,230296,1,0,0:0:0:0:
192,192,230363,1,0,0:0:0:0:
448,192,230431,1,0,0:0:0:0:
64,192,230566,1,0,0:0:0:0:
320,192,230566,1,0,0:0:0:0:
448,192,230566,128,0,230701:0:0:0:0:
192,192,230633,1,0,0:0:0:0:
64,192,230701,1,0,0:0:0:0:
64,192,230836,128,0,230971:0:0:0:0:
192,192,230836,1,0,0:0:0:0:
448,192,230836,1,0,0:0:0:0:
320,192,230903,1,0,0:0:0:0:
448,192,230971,1,0,0:0:0:0:
64,192,231106,1,0,0:0:0:0:
448,192,231106,1,0,0:0:0:0:
320,192,231173,1,0,0:0:0:0:
448,192,231241,1,0,0:0:0:0:
64,192,231308,1,0,0:0:0:0:
320,192,231308,1,0,0:0:0:0:
192,192,231376,1,0,0:0:0:0:
448,192,231443,1,0,0:0:0:0:
64,192,231511,1,0,0:0:0:0:
320,192,231511,1,0,0:0:0:0:
448,192,231578,1,0,0:0:0:0:
192,192,231646,1,0,0:0:0:0:
320,192,231646,1,0,0:0:0:0:
64,192,231713,1,0,0:0:0:0:
192,192,231781,1,0,0:0:0:0:
64,192,231848,1,0,0:0:0:0:
192,192,231916,1,0,0:0:0:0:
320,192,231916,1,0,0:0:0:0:
192,192,232051,1,0,0:0:0:0:
64,192,232186,1,0,0:0:0:0:
448,192,232186,1,0,0:0:0:0:
192,192,232253,1,0,0:0:0:0:
64,192,232321,1,0,0:0:0:0:
64,192,232456,1,0,0:0:0:0:
448,192,232456,1,0,0:0:0:0:
320,192,232523,1,0,0:0:0:0:
448,192,232591,1,0,0:0:0:0:
64,192,232726,1,0,0:0:0:0:
320,192,232726,1,0,0:0:0:0:
192,192,232861,1,0,0:0:0:0:
64,192,232928,1,0,0:0:0:0:
448,192,232928,1,0,0:0:0:0:
320,192,232996,1,0,0:0:0:0:
64,192,233131,1,0,0:0:0:0:
64,192,233266,1,0,0:0:0:0:
192,192,233266,1,0,0:0:0:0:
320,192,233333,1,0,0:0:0:0:
448,192,233401,1,0,0:0:0:0:
64,192,233468,1,0,0:0:0:0:
192,192,233468,1,0,0:0:0:0:
448,192,233536,1,0,0:0:0:0:
192,192,233603,1,0,0:0:0:0:
64,192,233671,1,0,0:0:0:0:
192,192,233738,1,0,0:0:0:0:
320,192,233806,1,0,0:0:0:0:
448,192,233806,1,0,0:0:0:0:
64,192,233873,1,0,0:0:0:0:
192,192,233941,1,0,0:0:0:0:
448,192,234008,1,0,0:0:0:0:
64,192,234076,1,0,0:0:0:0:
320,192,234076,1,0,0:0:0:0:
320,192,234211,1,0,0:0:0:0:
64,192,234346,1,0,0:0:0:0:
448,192,234346,1,0,0:0:0:0:
320,192,234413,1,0,0:0:0:0:
192,192,234481,1,0,0:0:0:0:
320,192,234548,1,0,0:0:0:0:
64,192,234616,1,0,0:0:0:0:
448,192,234616,1,0,0:0:0:0:
192,192,234683,1,0,0:0:0:0:
320,192,234751,1,0,0:0:0:0:
192,192,234818,1,0,0:0:0:0:
64,192,234886,1,0,0:0:0:0:
448,192,234886,1,0,0:0:0:0:
320,192,234953,1,0,0:0:0:0:
192,192,235021,1,0,0:0:0:0:
320,192,235088,1,0,0:0:0:0:
64,192,235156,1,0,0:0:0:0:
448,192,235156,1,0,0:0:0:0:
192,192,235223,1,0,0:0:0:0:
320,192,235291,1,0,0:0:0:0:
192,192,235358,1,0,0:0:0:0:
64,192,235426,1,0,0:0:0:0:
320,192,235426,1,0,0:0:0:0:
448,192,235493,128,0,235831:0:0:0:0:
192,192,235493,1,0,0:0:0:0:
64,192,235628,1,0,0:0:0:0:
320,192,235696,128,0,235831:0:0:0:0:
192,192,235696,1,0,0:0:0:0:
64,192,235831,1,0,0:0:0:0:
192,192,235898,1,0,0:0:0:0:
448,192,235966,1,0,0:0:0:0:
320,192,235966,1,0,0:0:0:0:
64,192,236033,128,0,236371:0:0:0:0:
448,192,236236,128,0,236371:0:0:0:0:
192,192,236236,1,0,0:0:0:0:
320,192,236236,1,0,0:0:0:0:
192,192,236371,1,0,0:0:0:0:
320,192,236438,1,0,0:0:0:0:
64,192,236506,128,0,236708:0:0:0:0:
192,192,236506,1,0,0:0:0:0:
448,192,236506,1,0,0:0:0:0:
192,192,236708,1,0,0:0:0:0:
448,192,236708,128,0,236911:0:0:0:0:
320,192,236776,1,0,0:0:0:0:
64,192,236911,128,0,237113:0:0:0:0:
320,192,236911,1,0,0:0:0:0:
192,192,236978,1,0,0:0:0:0:
448,192,237046,1,0,0:0:0:0:
192,192,237113,1,0,0:0:0:0:
320,192,237113,1,0,0:0:0:0:
64,192,237248,1,0,0:0:0:0:
192,192,237316,1,0,0:0:0:0:
320,192,237316,1,0,0:0:0:0:
192,192,237451,1,0,0:0:0:0:
320,192,237451,1,0,0:0:0:0:
64,192,237518,1,0,0:0:0:0:
320,192,237586,1,0,0:0:0:0:
448,192,237586,128,0,237991:0:0:0:0:
192,192,237788,128,0,237991:0:0:0:0:
320,192,237788,1,0,0:0:0:0:
64,192,237856,1,0,0:0:0:0:
64,192,237991,1,0,0:0:0:0:
64,192,238126,1,0,0:0:0:0:
320,192,238126,1,0,0:0:0:0:
64,192,238193,128,0,238396:0:0:0:0:
448,192,238193,1,0,0:0:0:0:
320,192,238328,1,0,0:0:0:0:
192,192,238396,1,0,0:0:0:0:
448,192,238396,128,0,238666:0:0:0:0:
64,192,238531,1,0,0:0:0:0:
320,192,238531,128,0,238666:0:0:0:0:
64,192,238666,128,0,238801:0:0:0:0:
192,192,238666,1,0,0:0:0:0:
320,192,238733,1,0,0:0:0:0:
64,192,238868,128,0,239003:0:0:0:0:
320,192,238868,1,0,0:0:0:0:
448,192,238936,1,0,0:0:0:0:
64,192,239071,1,0,0:0:0:0:
192,192,239071,1,0,0:0:0:0:
64,192,239206,1,0,0:0:0:0:
320,192,239206,1,0,0:0:0:0:
192,192,239341,1,0,0:0:0:0:
320,192,239341,1,0,0:0:0:0:
192,192,239476,1,0,0:0:0:0:
448,192,239476,1,0,0:0:0:0:
320,192,239611,1,0,0:0:0:0:
448,192,239611,1,0,0:0:0:0:
64,192,239746,1,0,0:0:0:0:
448,192,239746,1,0,0:0:0:0:
192,192,239813,1,0,0:0:0:0:
320,192,239881,1,0,0:0:0:0:
64,192,239948,1,0,0:0:0:0:
448,192,239948,1,0,0:0:0:0:
192,192,240016,1,0,0:0:0:0:
320,192,240083,1,0,0:0:0:0:
64,192,240151,1,0,0:0:0:0:
448,192,240151,1,0,0:0:0:0:
320,192,240218,1,0,0:0:0:0:
64,192,240286,1,0,0:0:0:0:
192,192,240286,1,0,0:0:0:0:
320,192,240353,1,0,0:0:0:0:
448,192,240421,1,0,0:0:0:0:
192,192,240556,1,0,0:0:0:0:
448,192,240556,1,0,0:0:0:0:
64,192,240623,1,0,0:0:0:0:
320,192,240691,1,0,0:0:0:0:
64,192,240826,1,0,0:0:0:0:
192,192,240826,1,0,0:0:0:0:
448,192,240893,1,0,0:0:0:0:
320,192,240961,1,0,0:0:0:0:
64,192,241096,1,0,0:0:0:0:
448,192,241096,1,0,0:0:0:0:
192,192,241163,1,0,0:0:0:0:
320,192,241231,1,0,0:0:0:0:
64,192,241366,1,0,0:0:0:0:
448,192,241366,1,0,0:0:0:0:
320,192,241433,1,0,0:0:0:0:
192,192,241501,1,0,0:0:0:0:
64,192,241636,1,0,0:0:0:0:
320,192,241636,1,0,0:0:0:0:
448,192,241703,1,0,0:0:0:0:
192,192,241771,1,0,0:0:0:0:
64,192,241906,1,0,0:0:0:0:
448,192,241906,128,0,242176:0:0:0:0:
192,192,241973,1,0,0:0:0:0:
320,192,242041,1,0,0:0:0:0:
64,192,242176,1,0,0:0:0:0:
320,192,242176,128,0,242446:0:0:0:0:
448,192,242243,1,0,0:0:0:0:
64,192,242311,1,0,0:0:0:0:
192,192,242446,128,0,242716:0:0:0:0:
448,192,242446,1,0,0:0:0:0:
64,192,242513,1,0,0:0:0:0:
448,192,242581,1,0,0:0:0:0:
64,192,242716,128,0,242986:0:0:0:0:
448,192,242716,1,0,0:0:0:0:
320,192,242783,1,0,0:0:0:0:
192,192,242851,1,0,0:0:0:0:
448,192,242986,1,0,0:0:0:0:
320,192,243053,1,0,0:0:0:0:
192,192,243121,1,0,0:0:0:0:
448,192,243188,1,0,0:0:0:0:
192,192,243256,1,0,0:0:0:0:
64,192,243323,1,0,0:0:0:0:
320,192,243391,1,0,0:0:0:0:
448,192,243458,1,0,0:0:0:0:
192,192,243526,1,0,0:0:0:0:
64,192,243593,1,0,0:0:0:0:
448,192,243593,1,0,0:0:0:0:
320,192,243661,1,0,0:0:0:0:
448,192,243728,1,0,0:0:0:0:
64,192,243796,1,0,0:0:0:0:
192,192,243796,1,0,0:0:0:0:
448,192,243863,1,0,0:0:0:0:
64,192,243931,1,0,0:0:0:0:
192,192,243931,1,0,0:0:0:0:
448,192,243998,1,0,0:0:0:0:
64,192,244066,1,0,0:0:0:0:
320,192,244066,1,0,0:0:0:0:
192,192,244133,1,0,0:0:0:0:
448,192,244201,1,0,0:0:0:0:
192,192,244268,1,0,0:0:0:0:
64,192,244336,128,0,244606:0:0:0:0:
320,192,244336,1,0,0:0:0:0:
448,192,244336,1,0,0:0:0:0:
192,192,244471,1,0,0:0:0:0:
192,192,244606,1,0,0:0:0:0:
448,192,244606,1,0,0:0:0:0:
320,192,244673,1,0,0:0:0:0:
64,192,244741,1,0,0:0:0:0:
320,192,244808,1,0,0:0:0:0:
64,192,244876,1,0,0:0:0:0:
192,192,244876,1,0,0:0:0:0:
448,192,244876,128,0,245146:0:0:0:0:
320,192,245011,1,0,0:0:0:0:
320,192,245146,1,0,0:0:0:0:
64,192,245146,1,0,0:0:0:0:
192,192,245213,1,0,0:0:0:0:
192,192,245326,1,0,0:0:0:0:
320,192,245416,128,0,245686:0:0:0:0:
448,192,245416,1,0,0:0:0:0:
64,192,245416,1,0,0:0:0:0:
192,192,245483,1,0,0:0:0:0:
64,192,245551,1,0,0:0:0:0:
64,192,245686,1,0,0:0:0:0:
448,192,245686,128,0,245956:0:0:0:0:
192,192,245753,1,0,0:0:0:0:
320,192,245821,1,0,0:0:0:0:
64,192,245956,1,0,0:0:0:0:
192,192,246023,1,0,0:0:0:0:
320,192,246091,1,0,0:0:0:0:
64,192,246226,128,0,246361:0:0:0:0:
448,192,246226,1,0,0:0:0:0:
320,192,246293,1,0,0:0:0:0:
192,192,246361,1,0,0:0:0:0:
64,192,246428,1,0,0:0:0:0:
192,192,246496,128,0,246631:0:0:0:0:
448,192,246496,1,0,0:0:0:0:
320,192,246563,1,0,0:0:0:0:
64,192,246631,1,0,0:0:0:0:
192,192,246698,1,0,0:0:0:0:
64,192,246766,1,0,0:0:0:0:
320,192,246766,128,0,246901:0:0:0:0:
192,192,246833,1,0,0:0:0:0:
448,192,246901,1,0,0:0:0:0:
320,192,246968,1,0,0:0:0:0:
64,192,247036,1,0,0:0:0:0:
448,192,247036,128,0,247171:0:0:0:0:
192,192,247103,1,0,0:0:0:0:
320,192,247171,1,0,0:0:0:0:
448,192,247238,1,0,0:0:0:0:
64,192,247306,128,0,247508:0:0:0:0:
320,192,247306,1,0,0:0:0:0:
192,192,247373,128,0,247576:0:0:0:0:
448,192,247441,128,0,247643:0:0:0:0:
64,192,247576,1,0,0:0:0:0:
320,192,247576,1,0,0:0:0:0:
192,192,247643,1,0,0:0:0:0:
448,192,247711,1,0,0:0:0:0:
192,192,247846,1,0,0:0:0:0:
448,192,247846,128,0,248048:0:0:0:0:
320,192,247913,128,0,248116:0:0:0:0:
64,192,247981,128,0,248183:0:0:0:0:
192,192,248116,1,0,0:0:0:0:
448,192,248116,1,0,0:0:0:0:
320,192,248183,1,0,0:0:0:0:
64,192,248251,1,0,0:0:0:0:
64,192,248386,1,0,0:0:0:0:
448,192,248386,128,0,248588:0:0:0:0:
192,192,248453,128,0,248656:0:0:0:0:
320,192,248588,1,0,0:0:0:0:
64,192,248656,1,0,0:0:0:0:
448,192,248656,1,0,0:0:0:0:
64,192,248791,1,0,0:0:0:0:
320,192,248791,1,0,0:0:0:0:
448,192,248858,1,0,0:0:0:0:
64,192,248926,1,0,0:0:0:0:
320,192,248926,1,0,0:0:0:0:
192,192,248993,1,0,0:0:0:0:
448,192,248993,1,0,0:0:0:0:
64,192,249128,1,0,0:0:0:0:
320,192,249196,1,0,0:0:0:0:
448,192,249196,1,0,0:0:0:0:
320,192,249331,1,0,0:0:0:0:
64,192,249466,1,0,0:0:0:0:
448,192,249466,1,0,0:0:0:0:
192,192,249533,1,0,0:0:0:0:
320,192,249601,1,0,0:0:0:0:
64,192,249736,1,0,0:0:0:0:
448,192,249736,1,0,0:0:0:0:
320,192,249803,1,0,0:0:0:0:
192,192,249871,1,0,0:0:0:0:
64,192,250006,1,0,0:0:0:0:
448,192,250006,1,0,0:0:0:0:
320,192,250141,1,0,0:0:0:0:
448,192,250209,1,0,0:0:0:0:
64,192,250276,1,0,0:0:0:0:
320,192,250276,1,0,0:0:0:0:
192,192,250411,1,0,0:0:0:0:
64,192,250546,1,0,0:0:0:0:
448,192,250546,1,0,0:0:0:0:
320,192,250614,1,0,0:0:0:0:
64,192,250681,1,0,0:0:0:0:
448,192,250749,1,0,0:0:0:0:
192,192,250816,1,0,0:0:0:0:
320,192,250816,1,0,0:0:0:0:
64,192,250884,1,0,0:0:0:0:
320,192,250951,1,0,0:0:0:0:
192,192,251019,1,0,0:0:0:0:
64,192,251086,1,0,0:0:0:0:
448,192,251086,1,0,0:0:0:0:
320,192,251154,1,0,0:0:0:0:
64,192,251221,1,0,0:0:0:0:
192,192,251289,1,0,0:0:0:0:
320,192,251356,1,0,0:0:0:0:
448,192,251356,1,0,0:0:0:0:
64,192,251424,1,0,0:0:0:0:
320,192,251491,1,0,0:0:0:0:
448,192,251491,1,0,0:0:0:0:
64,192,251626,1,0,0:0:0:0:
192,192,251626,1,0,0:0:0:0:
320,192,251694,1,0,0:0:0:0:
448,192,251761,1,0,0:0:0:0:
320,192,251829,1,0,0:0:0:0:
192,192,251896,1,0,0:0:0:0:
448,192,251896,1,0,0:0:0:0:
64,192,251964,1,0,0:0:0:0:
448,192,252031,1,0,0:0:0:0:
320,192,252099,1,0,0:0:0:0:
64,192,252166,1,0,0:0:0:0:
448,192,252166,1,0,0:0:0:0:
192,192,252234,1,0,0:0:0:0:
64,192,252301,1,0,0:0:0:0:
320,192,252369,1,0,0:0:0:0:
64,192,252436,1,0,0:0:0:0:
448,192,252436,1,0,0:0:0:0:
192,192,252504,1,0,0:0:0:0:
320,192,252571,1,0,0:0:0:0:
448,192,252639,1,0,0:0:0:0:
64,192,252706,1,0,0:0:0:0:
320,192,252706,1,0,0:0:0:0:
64,192,252841,1,0,0:0:0:0:
320,192,252841,1,0,0:0:0:0:
192,192,252976,1,0,0:0:0:0:
448,192,252976,1,0,0:0:0:0:
192,192,253111,1,0,0:0:0:0:
448,192,253111,1,0,0:0:0:0:
64,192,253246,1,0,0:0:0:0:
320,192,253246,1,0,0:0:0:0:
64,192,253381,1,0,0:0:0:0:
320,192,253381,1,0,0:0:0:0:
192,192,253516,1,0,0:0:0:0:
448,192,253516,1,0,0:0:0:0:
192,192,253651,1,0,0:0:0:0:
448,192,253651,1,0,0:0:0:0:
64,192,253786,1,0,0:0:0:0:
192,192,253786,1,0,0:0:0:0:
320,192,253921,1,0,0:0:0:0:
64,192,253921,1,0,0:0:0:0:
320,192,254056,1,0,0:0:0:0:
448,192,254056,1,0,0:0:0:0:
448,192,254191,1,0,0:0:0:0:
192,192,254191,1,0,0:0:0:0:
64,192,254326,1,0,0:0:0:0:
448,192,254326,1,0,0:0:0:0:
192,192,254461,1,0,0:0:0:0:
448,192,254461,1,0,0:0:0:0:
448,192,254596,1,0,0:0:0:0:
64,192,254596,1,0,0:0:0:0:
320,192,254731,1,0,0:0:0:0:
64,192,254731,1,0,0:0:0:0:
64,192,254866,1,0,0:0:0:0:
192,192,254866,1,0,0:0:0:0:
320,192,254934,1,0,0:0:0:0:
448,192,255001,1,0,0:0:0:0:
64,192,255001,1,0,0:0:0:0:
64,192,255136,1,0,0:0:0:0:
320,192,255136,1,0,0:0:0:0:
64,192,255271,1,0,0:0:0:0:
192,192,255271,1,0,0:0:0:0:
64,192,255406,1,0,0:0:0:0:
448,192,255406,1,0,0:0:0:0:
192,192,255474,1,0,0:0:0:0:
448,192,255541,1,0,0:0:0:0:
320,192,255541,1,0,0:0:0:0:
192,192,255676,1,0,0:0:0:0:
448,192,255676,1,0,0:0:0:0:
320,192,255811,1,0,0:0:0:0:
448,192,255811,1,0,0:0:0:0:
64,192,255946,1,0,0:0:0:0:
448,192,255946,1,0,0:0:0:0:
320,192,256014,1,0,0:0:0:0:
192,192,256081,1,0,0:0:0:0:
320,192,256149,1,0,0:0:0:0:
64,192,256216,1,0,0:0:0:0:
448,192,256216,1,0,0:0:0:0:
320,192,256284,1,0,0:0:0:0:
192,192,256351,1,0,0:0:0:0:
320,192,256419,1,0,0:0:0:0:
448,192,256486,1,0,0:0:0:0:
64,192,256486,1,0,0:0:0:0:
192,192,256554,1,0,0:0:0:0:
320,192,256621,1,0,0:0:0:0:
192,192,256689,1,0,0:0:0:0:
448,192,256756,1,0,0:0:0:0:
64,192,256756,1,0,0:0:0:0:
192,192,256824,1,0,0:0:0:0:
320,192,256891,1,0,0:0:0:0:
192,192,256959,1,0,0:0:0:0:
64,192,257026,1,0,0:0:0:0:
448,192,257026,128,0,261346:0:0:0:0:
320,192,257026,128,0,261346:0:0:0:0:
