osu file format v14

[General]
AudioFilename: 04. xi Double Helix.mp3
AudioLeadIn: 0
PreviewTime: 117068
Countdown: 0
SampleSet: Soft
StackLeniency: 0.7
Mode: 3
LetterboxInBreaks: 0
SpecialStyle: 0
WidescreenStoryboard: 0

[Editor]
Bookmarks: 123414
DistanceSpacing: 0.5
BeatDivisor: 4
GridSize: 8
TimelineZoom: 1.6

[Metadata]
Title:Double Helix
TitleUnicode:Double Helix
Artist:xi
ArtistUnicode:xi
Creator:Level 51
Version:Nucleic
Source:
Tags:world fragments diverse system AD:PIANO 2 marathon
BeatmapID:865899
BeatmapSetID:398197

[Difficulty]
HPDrainRate:8.5
CircleSize:7
OverallDifficulty:8.3
ApproachRate:5
SliderMultiplier:1.4
SliderTickRate:1

[Events]
//Background and Video events
0,0,"41340942.jpg",0,0
//Break Periods
//Storyboard Layer 0 (Background)
//Storyboard Layer 1 (Fail)
//Storyboard Layer 2 (Pass)
//Storyboard Layer 3 (Foreground)
//Storyboard Sound Samples

[TimingPoints]
917,384.615384615385,4,2,0,20,1,0
18224,-100,4,2,0,20,0,1
33224,-100,4,2,0,20,0,0
117068,384.615384615385,4,2,0,20,1,0
117452,-100,4,2,0,20,0,1
129375,-100,4,2,0,20,0,0
129760,-100,4,2,0,20,0,1
142068,-100,4,2,0,20,0,0
207837,394.736842105263,4,2,0,20,1,0
207837,-97.4358974358975,4,2,0,20,0,0
210599,405.405405405405,4,2,0,20,1,0
210599,-94.871794871795,4,2,0,20,0,0
211004,400,4,2,0,20,1,0
211004,-96.1538461538461,4,2,0,20,0,0
212004,408.163265306122,4,2,0,20,1,0
212004,-94.871794871795,4,2,0,20,0,0
212614,402.684563758389,4,2,0,20,1,0
212614,-95.5128205128206,4,2,0,20,0,0
213421,428.571428571429,4,2,0,20,1,0
213421,-89.7435897435897,4,2,0,20,0,0
213706,400,4,2,0,20,1,0
213706,-96.1538461538461,4,2,0,20,0,0
213972,370.37037037037,4,2,0,20,1,0
213972,-103.846153846154,4,2,0,20,0,0
214218,419.58041958042,4,2,0,20,1,0
214218,-91.6666666666666,4,2,0,20,0,0
215055,434.782608695652,4,2,0,20,1,0
215055,-88.4615384615385,4,2,0,20,0,0
215924,422.535211267606,4,2,0,20,1,0
215924,-91.025641025641,4,2,0,20,0,0
216346,402.684563758389,4,2,0,20,1,0
216346,-95.5128205128206,4,2,0,20,0,0
217554,359.281437125748,4,2,0,20,1,0
217554,-107.051282051282,4,2,0,20,0,0
217914,431.654676258993,4,2,0,20,1,0
217914,-89.1025641025641,4,2,0,20,0,0
218345,397.350993377483,4,2,0,20,1,0
218345,-96.7948717948719,4,2,0,20,0,0
218941,441.176470588235,4,2,0,20,1,0
218941,-87.1794871794872,4,2,0,20,0,0
219161,389.61038961039,4,2,0,20,1,0
219161,-98.7179487179486,4,2,0,20,0,0
220718,384.615384615385,4,2,0,20,1,0
256102,-100,4,2,0,20,0,1
262064,-100,4,2,0,20,0,0
262256,-100,4,2,0,20,0,1
270333,-100,4,2,0,20,0,0
276006,-100,4,2,0,20,0,1
283794,-100,4,2,0,20,0,0
284179,-100,4,2,0,20,0,1
296102,-100,4,2,0,20,0,0
299179,-100,4,2,0,20,0,1
308410,-100,4,2,0,20,0,0
308602,-100,4,2,0,20,0,1
311487,-100,4,2,0,20,0,0

[HitObjects]
256,192,917,5,0,0:0:0:30:crash.wav
256,192,1301,1,0,0:0:0:30:crash.wav
36,192,1686,1,0,0:0:0:30:soft-hitnormal.wav
402,192,1686,1,0,0:0:0:30:soft-hitnormal.wav
109,192,1782,1,0,0:0:0:30:soft-hitnormal.wav
475,192,1782,1,0,0:0:0:30:soft-hitnormal.wav
329,192,1878,1,0,0:0:0:30:soft-hitnormal.wav
256,192,1942,1,0,0:0:0:30:soft-hitnormal.wav
182,192,2006,1,0,0:0:0:30:soft-hitnormal.wav
475,192,2070,1,0,0:0:0:30:soft-hitnormal.wav
402,192,2134,1,0,0:0:0:30:soft-hitnormal.wav
329,192,2199,1,0,0:0:0:30:soft-hitnormal.wav
36,192,2263,1,0,0:0:0:30:soft-hitnormal.wav
109,192,2327,1,0,0:0:0:30:soft-hitnormal.wav
182,192,2391,1,0,0:0:0:30:soft-hitnormal.wav
256,192,2455,1,0,0:0:0:15:crash.wav
329,192,2455,1,0,0:0:0:15:crash.wav
402,192,2455,1,0,0:0:0:15:crash.wav
475,192,2455,1,0,0:0:0:15:crash.wav
36,192,2647,1,0,0:0:0:20:cymbol.wav
109,192,2647,1,0,0:0:0:20:cymbol.wav
182,192,2647,1,0,0:0:0:20:bass.wav
329,192,2840,1,0,0:0:0:20:bass.wav
402,192,2840,1,0,0:0:0:20:cymbol.wav
475,192,2840,1,0,0:0:0:20:cymbol.wav
182,192,3032,1,0,0:0:0:30:soft-hitnormal.wav
329,192,3032,1,0,0:0:0:30:soft-hitnormal.wav
109,192,3128,1,0,0:0:0:30:soft-hitnormal.wav
402,192,3128,1,0,0:0:0:30:soft-hitnormal.wav
36,192,3224,1,0,0:0:0:30:soft-hitnormal.wav
475,192,3224,1,0,0:0:0:30:soft-hitnormal.wav
256,192,3224,1,0,0:0:0:30:soft-hitnormal.wav
182,192,3320,1,0,0:0:0:30:soft-hitnormal.wav
329,192,3320,1,0,0:0:0:30:soft-hitnormal.wav
36,192,3417,1,0,0:0:0:30:soft-hitnormal.wav
475,192,3417,1,0,0:0:0:30:soft-hitnormal.wav
109,192,3513,1,0,0:0:0:30:soft-hitnormal.wav
402,192,3513,1,0,0:0:0:30:soft-hitnormal.wav
256,192,3609,1,0,0:0:0:25:crash.wav
182,192,3609,1,0,0:0:0:25:crash.wav
329,192,3609,1,0,0:0:0:25:crash.wav
109,192,3801,1,0,0:0:0:30:soft-hitnormal.wav
402,192,3801,1,0,0:0:0:30:soft-hitnormal.wav
182,192,3897,1,0,0:0:0:30:soft-hitnormal.wav
329,192,3897,1,0,0:0:0:30:soft-hitnormal.wav
36,192,3993,1,0,0:0:0:25:crash.wav
256,192,3993,1,0,0:0:0:25:crash.wav
475,192,3993,1,0,0:0:0:25:crash.wav
109,192,4090,1,0,0:0:0:30:soft-hitnormal.wav
182,192,4186,1,0,0:0:0:30:soft-hitnormal.wav
329,192,4186,1,0,0:0:0:30:soft-hitnormal.wav
402,192,4282,1,0,0:0:0:30:soft-hitnormal.wav
475,192,4282,1,0,0:0:0:30:soft-hitnormal.wav
329,192,4378,1,0,0:0:0:30:soft-hitnormal.wav
182,192,4378,1,0,0:0:0:30:soft-hitnormal.wav
109,192,4474,1,0,0:0:0:30:soft-hitnormal.wav
475,192,4570,1,0,0:0:0:30:soft-hitnormal.wav
36,192,4570,1,0,0:0:0:30:soft-hitnormal.wav
402,192,4667,1,0,0:0:0:30:soft-hitnormal.wav
109,192,4667,1,0,0:0:0:30:soft-hitnormal.wav
182,192,4763,1,0,0:0:0:30:soft-hitnormal.wav
329,192,4763,1,0,0:0:0:30:soft-hitnormal.wav
109,192,4859,1,0,0:0:0:30:soft-hitnormal.wav
475,192,4859,1,0,0:0:0:30:soft-hitnormal.wav
36,192,4955,1,0,0:0:0:30:soft-hitnormal.wav
329,192,4955,1,0,0:0:0:30:soft-hitnormal.wav
109,192,5051,1,0,0:0:0:30:soft-hitnormal.wav
402,192,5051,1,0,0:0:0:30:soft-hitnormal.wav
182,192,5147,1,0,0:0:0:25:cymbol.wav
475,192,5147,1,0,0:0:0:25:cymbol.wav
256,192,5147,1,0,0:0:0:25:cymbol.wav
182,192,5340,1,0,0:0:0:30:soft-hitnormal.wav
475,192,5340,1,0,0:0:0:30:soft-hitnormal.wav
109,192,5436,1,0,0:0:0:30:soft-hitnormal.wav
402,192,5436,1,0,0:0:0:30:soft-hitnormal.wav
36,192,5532,1,0,0:0:0:30:cymbol.wav
329,192,5532,1,0,0:0:0:30:cymbol.wav
256,192,5532,1,0,0:0:0:30:cymbol.wav
182,192,5724,1,0,0:0:0:30:soft-hitnormal.wav
402,192,5724,1,0,0:0:0:30:soft-hitnormal.wav
36,192,5820,1,0,0:0:0:30:cymbol.wav
475,192,5820,1,0,0:0:0:30:cymbol.wav
256,192,5820,1,0,0:0:0:30:cymbol.wav
402,192,5917,1,0,0:0:0:30:soft-hitnormal.wav
329,192,6013,1,0,0:0:0:30:soft-hitnormal.wav
182,192,6013,1,0,0:0:0:30:soft-hitnormal.wav
36,192,6109,1,0,0:0:0:30:crash.wav
109,192,6109,1,0,0:0:0:30:crash.wav
256,192,6109,1,0,0:0:0:30:crash.wav
109,192,6493,1,0,0:0:0:30:soft-hitnormal.wav
329,192,6493,1,0,0:0:0:30:soft-hitnormal.wav
182,192,6590,1,0,0:0:0:30:soft-hitnormal.wav
402,192,6590,1,0,0:0:0:30:soft-hitnormal.wav
475,192,6686,1,0,0:0:0:30:soft-hitnormal.wav
256,192,6686,1,0,0:0:0:30:soft-hitnormal.wav
402,192,6782,1,0,0:0:0:30:soft-hitnormal.wav
182,192,6782,1,0,0:0:0:30:soft-hitnormal.wav
329,192,6878,1,0,0:0:0:30:soft-hitnormal.wav
109,192,6878,1,0,0:0:0:30:soft-hitnormal.wav
256,192,6974,1,0,0:0:0:30:soft-hitnormal.wav
36,192,6974,1,0,0:0:0:30:soft-hitnormal.wav
182,192,7070,1,0,0:0:0:30:cymbol.wav
475,192,7070,1,0,0:0:0:30:cymbol.wav
109,192,7070,1,0,0:0:0:30:cymbol.wav
36,192,7263,5,0,0:0:0:30:soft-hitnormal.wav
329,192,7263,1,0,0:0:0:30:soft-hitnormal.wav
109,192,7359,1,0,0:0:0:30:soft-hitnormal.wav
402,192,7359,1,0,0:0:0:30:soft-hitnormal.wav
182,192,7455,1,0,0:0:0:30:cymbol.wav
475,192,7455,1,0,0:0:0:30:cymbol.wav
256,192,7455,1,0,0:0:0:30:cymbol.wav
36,192,7647,1,0,0:0:0:30:soft-hitnormal.wav
329,192,7647,1,0,0:0:0:30:soft-hitnormal.wav
109,192,7743,1,0,0:0:0:30:soft-hitnormal.wav
402,192,7743,1,0,0:0:0:30:soft-hitnormal.wav
475,192,7840,1,0,0:0:0:30:cymbol.wav
182,192,7840,1,0,0:0:0:30:drum.wav
256,192,7840,1,0,0:0:0:30:drum.wav
329,192,7936,1,0,0:0:0:25:drum.wav
402,192,7936,1,0,0:0:0:25:drum.wav
36,192,8032,1,0,0:0:0:25:drum.wav
109,192,8032,1,0,0:0:0:25:drum.wav
329,192,8128,1,0,0:0:0:25:drum.wav
402,192,8128,1,0,0:0:0:25:drum.wav
182,192,8224,1,0,0:0:0:25:soft-hitnormal.wav
109,192,8224,1,0,0:0:0:25:soft-hitnormal.wav
475,192,8224,1,0,0:0:0:30:soft-hitnormal.wav
402,192,8320,1,0,0:0:0:30:soft-hitnormal.wav
329,192,8417,1,0,0:0:0:30:soft-hitnormal.wav
36,192,8417,1,0,0:0:0:30:soft-hitnormal.wav
109,192,8481,1,0,0:0:0:30:soft-hitnormal.wav
182,192,8545,1,0,0:0:0:30:soft-hitnormal.wav
256,192,8609,1,0,0:0:0:20:crash.wav
329,192,8609,1,0,0:0:0:20:crash.wav
402,192,8609,1,0,0:0:0:20:crash.wav
475,192,8609,1,0,0:0:0:20:crash.wav
36,192,8705,1,0,0:0:0:30:soft-hitnormal.wav
109,192,8801,1,0,0:0:0:30:soft-hitnormal.wav
329,192,8801,1,0,0:0:0:30:soft-hitnormal.wav
182,192,8897,1,0,0:0:0:30:soft-hitnormal.wav
475,192,8993,1,0,0:0:0:30:hihat.wav
402,192,8993,1,0,0:0:0:30:hihat.wav
36,192,8993,1,0,0:0:0:30:hihat.wav
329,192,9090,1,0,0:0:0:30:soft-hitnormal.wav
256,192,9186,1,0,0:0:0:30:soft-hitnormal.wav
36,192,9282,1,0,0:0:0:30:soft-hitnormal.wav
182,192,9282,1,0,0:0:0:30:soft-hitnormal.wav
329,192,9378,1,0,0:0:0:30:hihat.wav
402,192,9378,1,0,0:0:0:30:hihat.wav
475,192,9378,1,0,0:0:0:30:hihat.wav
36,192,9474,1,0,0:0:0:30:soft-hitnormal.wav
182,192,9474,1,0,0:0:0:30:soft-hitnormal.wav
109,192,9570,1,0,0:0:0:30:soft-hitnormal.wav
256,192,9570,1,0,0:0:0:30:soft-hitnormal.wav
182,192,9667,1,0,0:0:0:30:hihat.wav
402,192,9667,1,0,0:0:0:30:hihat.wav
475,192,9667,1,0,0:0:0:30:hihat.wav
36,192,9763,1,0,0:0:0:30:soft-hitnormal.wav
256,192,9763,1,0,0:0:0:30:soft-hitnormal.wav
109,192,9859,1,0,0:0:0:30:soft-hitnormal.wav
329,192,9859,1,0,0:0:0:30:soft-hitnormal.wav
402,192,9955,1,0,0:0:0:30:hihat.wav
475,192,9955,1,0,0:0:0:30:hihat.wav
182,192,9955,1,0,0:0:0:30:hihat.wav
36,192,10051,1,0,0:0:0:30:soft-hitnormal.wav
256,192,10051,1,0,0:0:0:30:soft-hitnormal.wav
109,192,10147,1,0,0:0:0:25:crash.wav
402,192,10147,1,0,0:0:0:25:hihat.wav
475,192,10147,1,0,0:0:0:25:hihat.wav
256,192,10243,1,0,0:0:0:30:soft-hitnormal.wav
36,192,10340,1,0,0:0:0:30:soft-hitnormal.wav
329,192,10340,1,0,0:0:0:30:soft-hitnormal.wav
109,192,10436,1,0,0:0:0:30:soft-hitnormal.wav
402,192,10436,1,0,0:0:0:30:soft-hitnormal.wav
182,192,10532,1,0,0:0:0:30:hihat.wav
475,192,10532,1,0,0:0:0:30:hihat.wav
256,192,10532,1,0,0:0:0:30:hihat.wav
36,192,10628,1,0,0:0:0:30:soft-hitnormal.wav
329,192,10628,1,0,0:0:0:30:soft-hitnormal.wav
109,192,10724,1,0,0:0:0:30:soft-hitnormal.wav
402,192,10724,1,0,0:0:0:30:soft-hitnormal.wav
182,192,10820,1,0,0:0:0:30:soft-hitnormal.wav
475,192,10820,1,0,0:0:0:30:soft-hitnormal.wav
329,192,10917,1,0,0:0:0:30:hihat.wav
402,192,10917,1,0,0:0:0:30:hihat.wav
256,192,10917,1,0,0:0:0:30:hihat.wav
36,192,11013,1,0,0:0:0:30:soft-hitnormal.wav
109,192,11109,1,0,0:0:0:30:soft-hitnormal.wav
475,192,11109,1,0,0:0:0:30:soft-hitnormal.wav
182,192,11205,1,0,0:0:0:30:soft-hitnormal.wav
402,192,11205,1,0,0:0:0:30:soft-hitnormal.wav
36,192,11301,1,0,0:0:0:30:hihat.wav
256,192,11301,1,0,0:0:0:30:hihat.wav
329,192,11301,1,0,0:0:0:30:hihat.wav
36,192,11493,1,0,0:0:0:30:hihat.wav
182,192,11493,1,0,0:0:0:30:hihat.wav
256,192,11493,1,0,0:0:0:30:hihat.wav
109,192,11686,5,0,0:0:0:25:crash.wav
402,192,11686,1,0,0:0:0:25:crash.wav
36,192,11686,1,0,0:0:0:25:crash.wav
475,192,11686,1,0,0:0:0:25:crash.wav
329,192,11878,1,0,0:0:0:30:drum.wav
402,192,11878,1,0,0:0:0:30:drum.wav
329,192,11974,1,0,0:0:0:30:hihat.wav
402,192,11974,1,0,0:0:0:30:hihat.wav
256,192,12070,1,0,0:0:0:30:hihat.wav
109,192,12167,1,0,0:0:0:30:hihat.wav
182,192,12167,1,0,0:0:0:30:hihat.wav
109,192,12263,1,0,0:0:0:30:drum.wav
182,192,12263,1,0,0:0:0:30:drum.wav
256,192,12359,1,0,0:0:0:30:hihat.wav
329,192,12455,1,0,0:0:0:30:drum.wav
402,192,12455,1,0,0:0:0:30:drum.wav
329,192,12551,1,0,0:0:0:30:hihat.wav
402,192,12551,1,0,0:0:0:30:hihat.wav
256,192,12647,1,0,0:0:0:30:hihat.wav
109,192,12743,1,0,0:0:0:30:hihat.wav
182,192,12743,1,0,0:0:0:30:hihat.wav
109,192,12840,1,0,0:0:0:30:drum.wav
182,192,12840,1,0,0:0:0:30:drum.wav
256,192,12936,1,0,0:0:0:30:hihat.wav
109,192,13032,1,0,0:0:0:30:drum.wav
402,192,13032,1,0,0:0:0:30:drum.wav
256,192,13128,1,0,0:0:0:30:hihat.wav
36,192,13224,1,0,0:0:0:30:hihat.wav
109,192,13224,1,0,0:0:0:30:hihat.wav
402,192,13224,1,0,0:0:0:30:hihat.wav
475,192,13224,1,0,0:0:0:30:hihat.wav
36,192,13352,1,0,0:0:0:30:hihat.wav
109,192,13352,1,0,0:0:0:30:hihat.wav
402,192,13352,1,0,0:0:0:30:hihat.wav
475,192,13352,1,0,0:0:0:30:hihat.wav
36,192,13481,1,0,0:0:0:30:hihat.wav
109,192,13481,1,0,0:0:0:30:hihat.wav
402,192,13481,1,0,0:0:0:30:hihat.wav
475,192,13481,1,0,0:0:0:30:hihat.wav
182,192,13609,1,0,0:0:0:30:hihat.wav
109,192,13609,1,0,0:0:0:30:hihat.wav
402,192,13609,1,0,0:0:0:30:hihat.wav
329,192,13609,1,0,0:0:0:30:hihat.wav
109,192,13737,1,0,0:0:0:30:hihat.wav
182,192,13737,1,0,0:0:0:30:hihat.wav
329,192,13737,1,0,0:0:0:30:hihat.wav
402,192,13737,1,0,0:0:0:30:hihat.wav
109,192,13865,1,0,0:0:0:30:hihat.wav
182,192,13865,1,0,0:0:0:30:hihat.wav
329,192,13865,1,0,0:0:0:30:hihat.wav
402,192,13865,1,0,0:0:0:30:hihat.wav
256,192,13993,1,0,0:0:0:25:crash.wav
475,192,13993,1,0,0:0:0:25:crash.wav
36,192,13993,1,0,0:0:0:25:crash.wav
402,192,14090,1,0,0:0:0:30:soft-hitnormal.wav
329,192,14186,1,0,0:0:0:30:soft-hitnormal.wav
256,192,14282,1,0,0:0:0:30:soft-hitnormal.wav
475,192,14378,1,0,0:0:0:30:soft-hitnormal.wav
182,192,14378,1,0,0:0:0:30:soft-hitnormal.wav
402,192,14474,1,0,0:0:0:30:soft-hitnormal.wav
36,192,14474,1,0,0:0:0:30:soft-hitnormal.wav
329,192,14570,1,0,0:0:0:30:soft-hitnormal.wav
109,192,14570,1,0,0:0:0:30:soft-hitnormal.wav
402,192,14667,1,0,0:0:0:30:soft-hitnormal.wav
182,192,14667,1,0,0:0:0:30:soft-hitnormal.wav
256,192,14763,1,0,0:0:0:30:hihat.wav
36,192,14763,1,0,0:0:0:30:hihat.wav
475,192,14763,1,0,0:0:0:30:hihat.wav
182,192,14955,1,0,0:0:0:30:
329,192,14955,1,0,0:0:0:30:
256,192,15147,1,0,0:0:0:30:
109,192,15147,1,0,0:0:0:30:
402,192,15147,1,0,0:0:0:30:
402,192,15340,1,0,0:0:0:30:hihat.wav
329,192,15340,1,0,0:0:0:30:hihat.wav
182,192,15404,1,0,0:0:0:30:hihat.wav
109,192,15404,1,0,0:0:0:30:hihat.wav
329,192,15468,1,0,0:0:0:30:hihat.wav
402,192,15468,1,0,0:0:0:30:hihat.wav
109,192,15532,1,0,0:0:0:30:hihat.wav
182,192,15532,1,0,0:0:0:30:hihat.wav
475,192,15628,1,0,0:0:0:30:hihat.wav
402,192,15628,1,0,0:0:0:30:hihat.wav
109,192,15724,1,0,0:0:0:30:hihat.wav
182,192,15724,1,0,0:0:0:30:hihat.wav
402,192,15788,1,0,0:0:0:30:hihat.wav
329,192,15788,1,0,0:0:0:30:hihat.wav
182,192,15852,1,0,0:0:0:30:hihat.wav
109,192,15852,1,0,0:0:0:30:hihat.wav
329,192,15917,1,0,0:0:0:30:hihat.wav
402,192,15917,1,0,0:0:0:30:hihat.wav
109,192,16013,1,0,0:0:0:30:hihat.wav
36,192,16013,1,0,0:0:0:30:hihat.wav
329,192,16109,1,0,0:0:0:30:
402,192,16205,1,0,0:0:0:30:
475,192,16301,1,0,0:0:0:30:crash.wav
256,192,16301,1,0,0:0:0:30:crash.wav
36,192,16301,1,0,0:0:0:30:crash.wav
329,192,16493,1,0,0:0:0:30:drum.wav
475,192,16493,1,0,0:0:0:30:drum.wav
182,192,16558,1,0,0:0:0:30:drum.wav
109,192,16622,1,0,0:0:0:30:drum.wav
36,192,16686,1,0,0:0:0:30:drum.wav
402,192,16686,1,0,0:0:0:30:drum.wav
256,192,16686,1,0,0:0:0:30:hihat.wav
182,192,16782,1,0,0:0:0:30:hihat.wav
109,192,16878,1,0,0:0:0:30:hihat.wav
36,192,16974,1,0,0:0:0:30:hihat.wav
402,192,16974,1,0,0:0:0:30:hihat.wav
329,192,16974,1,0,0:0:0:30:hihat.wav
256,192,16974,1,0,0:0:0:30:hihat.wav
475,192,17167,1,0,0:0:0:25:drum.wav
402,192,17167,1,0,0:0:0:25:drum.wav
36,192,17263,1,0,0:0:0:25:drum.wav
109,192,17263,1,0,0:0:0:25:drum.wav
402,192,17359,1,0,0:0:0:25:drum.wav
329,192,17359,1,0,0:0:0:25:drum.wav
109,192,17455,1,0,0:0:0:25:drum.wav
182,192,17455,1,0,0:0:0:25:drum.wav
475,192,17583,1,0,0:0:0:25:drum.wav
402,192,17583,1,0,0:0:0:25:drum.wav
182,192,17647,1,0,0:0:0:25:drum.wav
109,192,17647,1,0,0:0:0:25:drum.wav
402,192,17711,1,0,0:0:0:25:drum.wav
475,192,17711,1,0,0:0:0:25:drum.wav
109,192,17775,1,0,0:0:0:25:drum.wav
182,192,17775,1,0,0:0:0:25:drum.wav
475,192,17840,1,0,0:0:0:20:crash.wav
402,192,17840,1,0,0:0:0:20:crash.wav
256,192,17840,1,0,0:0:0:20:crash.wav
329,192,17840,1,0,0:0:0:20:crash.wav
402,192,18032,1,0,0:0:0:30:soft-hitnormal.wav
329,192,18032,1,0,0:0:0:30:soft-hitnormal.wav
182,192,18032,1,0,0:0:0:30:soft-hitnormal.wav
109,192,18032,1,0,0:0:0:30:soft-hitnormal.wav
402,192,18224,1,0,0:0:0:30:soft-hitnormal.wav
36,192,18224,1,0,0:0:0:30:soft-hitnormal.wav
256,192,18224,1,0,0:0:0:30:soft-hitnormal.wav
475,192,18320,1,0,0:0:0:30:soft-hitnormal.wav
109,192,18320,1,0,0:0:0:30:soft-hitnormal.wav
182,192,18417,1,0,0:0:0:30:soft-hitnormal.wav
402,192,18513,1,0,0:0:0:30:hihat.wav
256,192,18513,1,0,0:0:0:30:hihat.wav
329,192,18513,1,0,0:0:0:30:hihat.wav
475,192,18801,1,0,0:0:0:30:hihat.wav
36,192,18801,1,0,0:0:0:30:hihat.wav
402,192,18865,1,0,0:0:0:30:hihat.wav
109,192,18865,1,0,0:0:0:30:hihat.wav
329,192,18929,1,0,0:0:0:30:hihat.wav
182,192,18929,1,0,0:0:0:30:hihat.wav
36,192,18993,1,0,0:0:0:30:soft-hitnormal.wav
256,192,18993,1,0,0:0:0:30:soft-hitnormal.wav
475,192,18993,1,0,0:0:0:30:soft-hitnormal.wav
109,192,19090,1,0,0:0:0:30:soft-hitnormal.wav
402,192,19090,1,0,0:0:0:30:soft-hitnormal.wav
329,192,19186,1,0,0:0:0:30:soft-hitnormal.wav
182,192,19186,1,0,0:0:0:30:soft-hitnormal.wav
256,192,19282,1,0,0:0:0:30:soft-hitnormal.wav
36,192,19378,1,0,0:0:0:30:crash.wav
109,192,19378,1,0,0:0:0:30:hihat.wav
402,192,19378,1,0,0:0:0:30:hihat.wav
475,192,19378,1,0,0:0:0:30:crash.wav
182,192,19474,1,0,0:0:0:30:soft-hitnormal.wav
109,192,19570,1,0,0:0:0:30:soft-hitnormal.wav
475,192,19570,1,0,0:0:0:30:soft-hitnormal.wav
36,192,19667,1,0,0:0:0:30:soft-hitnormal.wav
329,192,19667,1,0,0:0:0:30:soft-hitnormal.wav
402,192,19763,1,0,0:0:0:30:soft-hitnormal.wav
182,192,19763,1,0,0:0:0:30:soft-hitnormal.wav
109,192,19763,1,0,0:0:0:30:soft-hitnormal.wav
475,192,19859,1,0,0:0:0:30:soft-hitnormal.wav
256,192,19859,1,0,0:0:0:30:soft-hitnormal.wav
182,192,19955,1,0,0:0:0:30:soft-hitnormal.wav
402,192,19955,1,0,0:0:0:30:soft-hitnormal.wav
109,192,20051,1,0,0:0:0:30:hihat.wav
329,192,20051,1,0,0:0:0:30:hihat.wav
36,192,20051,1,0,0:0:0:30:crash.wav
256,192,20243,1,0,0:0:0:30:soft-hitnormal.wav
475,192,20243,1,0,0:0:0:30:soft-hitnormal.wav
182,192,20340,1,0,0:0:0:30:soft-hitnormal.wav
109,192,20436,1,0,0:0:0:30:soft-hitnormal.wav
329,192,20532,1,0,0:0:0:30:soft-hitnormal.wav
402,192,20532,1,0,0:0:0:30:soft-hitnormal.wav
256,192,20628,1,0,0:0:0:30:soft-hitnormal.wav
36,192,20628,1,0,0:0:0:30:soft-hitnormal.wav
329,192,20724,1,0,0:0:0:30:soft-hitnormal.wav
109,192,20724,1,0,0:0:0:30:soft-hitnormal.wav
402,192,20820,1,0,0:0:0:30:hihat.wav
182,192,20820,1,0,0:0:0:30:hihat.wav
475,192,20820,1,0,0:0:0:30:crash.wav
329,192,21109,1,0,0:0:0:30:soft-hitnormal.wav
402,192,21109,1,0,0:0:0:30:soft-hitnormal.wav
109,192,21205,1,0,0:0:0:30:soft-hitnormal.wav
36,192,21205,1,0,0:0:0:30:soft-hitnormal.wav
329,192,21301,1,0,0:0:0:30:soft-hitnormal.wav
475,192,21301,1,0,0:0:0:30:soft-hitnormal.wav
182,192,21301,1,0,0:0:0:30:soft-hitnormal.wav
256,192,21397,1,0,0:0:0:30:soft-hitnormal.wav
109,192,21397,1,0,0:0:0:30:soft-hitnormal.wav
182,192,21493,1,0,0:0:0:30:soft-hitnormal.wav
329,192,21493,1,0,0:0:0:30:soft-hitnormal.wav
109,192,21590,1,0,0:0:0:30:hihat.wav
402,192,21590,1,0,0:0:0:30:hihat.wav
475,192,21590,1,0,0:0:0:30:crash.wav
36,192,21590,1,0,0:0:0:30:crash.wav
182,192,21686,1,0,0:0:0:30:soft-hitnormal.wav
256,192,21782,1,0,0:0:0:30:soft-hitnormal.wav
329,192,21878,1,0,0:0:0:30:hihat.wav
182,192,21878,1,0,0:0:0:30:hihat.wav
402,192,21942,1,0,0:0:0:30:hihat.wav
109,192,21942,1,0,0:0:0:30:hihat.wav
475,192,22006,1,0,0:0:0:30:hihat.wav
36,192,22006,1,0,0:0:0:30:hihat.wav
182,192,22070,1,0,0:0:0:30:hihat.wav
329,192,22070,1,0,0:0:0:30:hihat.wav
256,192,22070,1,0,0:0:0:30:hihat.wav
109,192,22167,1,0,0:0:0:30:soft-hitnormal.wav
182,192,22263,1,0,0:0:0:30:soft-hitnormal.wav
475,192,22359,1,0,0:0:0:30:crash.wav
329,192,22359,1,0,0:0:0:30:hihat.wav
36,192,22359,1,0,0:0:0:30:crash.wav
256,192,22359,1,0,0:0:0:30:hihat.wav
109,192,22647,1,0,0:0:0:30:soft-hitnormal.wav
402,192,22647,1,0,0:0:0:30:soft-hitnormal.wav
182,192,22743,1,0,0:0:0:30:soft-hitnormal.wav
329,192,22743,1,0,0:0:0:30:soft-hitnormal.wav
36,192,22840,1,0,0:0:0:30:soft-hitnormal.wav
256,192,22840,1,0,0:0:0:30:soft-hitnormal.wav
475,192,22840,1,0,0:0:0:30:soft-hitnormal.wav
402,192,22936,1,0,0:0:0:30:soft-hitnormal.wav
329,192,23032,1,0,0:0:0:30:soft-hitnormal.wav
109,192,23032,1,0,0:0:0:30:soft-hitnormal.wav
36,192,23128,1,0,0:0:0:30:crash.wav
256,192,23128,1,0,0:0:0:30:hihat.wav
475,192,23128,1,0,0:0:0:30:crash.wav
182,192,23128,1,0,0:0:0:30:hihat.wav
475,192,23417,1,0,0:0:0:25:drum.wav
109,192,23417,1,0,0:0:0:25:drum.wav
182,192,23417,1,0,0:0:0:25:drum.wav
402,192,23481,1,0,0:0:0:25:drum.wav
329,192,23545,1,0,0:0:0:25:drum.wav
182,192,23609,1,0,0:0:0:25:drum.wav
109,192,23609,1,0,0:0:0:25:drum.wav
475,192,23705,1,0,0:0:0:25:drum.wav
329,192,23705,1,0,0:0:0:25:drum.wav
109,192,23801,1,0,0:0:0:25:drum.wav
182,192,23801,1,0,0:0:0:25:drum.wav
475,192,23897,1,0,0:0:0:25:drum.wav
329,192,23897,1,0,0:0:0:25:drum.wav
36,192,23993,1,0,0:0:0:20:crash.wav
109,192,23993,1,0,0:0:0:20:crash.wav
256,192,23993,1,0,0:0:0:20:crash.wav
182,192,23993,1,0,0:0:0:20:crash.wav
475,192,24186,1,0,0:0:0:30:soft-hitnormal.wav
182,192,24186,1,0,0:0:0:30:soft-hitnormal.wav
402,192,24186,1,0,0:0:0:30:soft-hitnormal.wav
109,192,24282,1,0,0:0:0:30:soft-hitnormal.wav
329,192,24282,1,0,0:0:0:30:soft-hitnormal.wav
36,192,24378,1,0,0:0:0:30:soft-hitnormal.wav
402,192,24378,1,0,0:0:0:30:soft-hitnormal.wav
182,192,24378,1,0,0:0:0:30:soft-hitnormal.wav
475,192,24474,1,0,0:0:0:30:soft-hitnormal.wav
256,192,24474,1,0,0:0:0:30:soft-hitnormal.wav
109,192,24570,1,0,0:0:0:30:soft-hitnormal.wav
402,192,24570,1,0,0:0:0:30:soft-hitnormal.wav
256,192,24667,1,0,0:0:0:30:hihat.wav
36,192,24667,1,0,0:0:0:30:hihat.wav
329,192,24667,1,0,0:0:0:30:hihat.wav
36,192,24955,1,0,0:0:0:30:hihat.wav
329,192,24955,1,0,0:0:0:30:hihat.wav
109,192,25019,1,0,0:0:0:30:hihat.wav
402,192,25019,1,0,0:0:0:30:hihat.wav
182,192,25083,1,0,0:0:0:30:hihat.wav
475,192,25083,1,0,0:0:0:30:hihat.wav
256,192,25147,1,0,0:0:0:30:soft-hitnormal.wav
36,192,25147,1,0,0:0:0:30:soft-hitnormal.wav
329,192,25147,1,0,0:0:0:30:soft-hitnormal.wav
109,192,25243,1,0,0:0:0:30:soft-hitnormal.wav
475,192,25243,1,0,0:0:0:30:soft-hitnormal.wav
182,192,25340,1,0,0:0:0:30:soft-hitnormal.wav
402,192,25340,1,0,0:0:0:30:soft-hitnormal.wav
109,192,25436,1,0,0:0:0:30:soft-hitnormal.wav
329,192,25436,1,0,0:0:0:30:soft-hitnormal.wav
36,192,25532,1,0,0:0:0:30:crash.wav
256,192,25532,1,0,0:0:0:30:hihat.wav
475,192,25532,1,0,0:0:0:30:crash.wav
402,192,25724,1,0,0:0:0:30:soft-hitnormal.wav
329,192,25724,1,0,0:0:0:30:soft-hitnormal.wav
182,192,25820,1,0,0:0:0:30:soft-hitnormal.wav
36,192,25820,1,0,0:0:0:30:soft-hitnormal.wav
256,192,25917,1,0,0:0:0:30:soft-hitnormal.wav
402,192,25917,1,0,0:0:0:30:soft-hitnormal.wav
109,192,25917,1,0,0:0:0:30:soft-hitnormal.wav
475,192,26013,1,0,0:0:0:30:soft-hitnormal.wav
182,192,26013,1,0,0:0:0:30:soft-hitnormal.wav
256,192,26109,1,0,0:0:0:30:soft-hitnormal.wav
36,192,26205,1,0,0:0:0:30:crash.wav
109,192,26205,1,0,0:0:0:30:crash.wav
402,192,26205,1,0,0:0:0:30:hihat.wav
329,192,26205,1,0,0:0:0:30:hihat.wav
402,192,26397,1,0,0:0:0:30:soft-hitnormal.wav
182,192,26397,1,0,0:0:0:30:soft-hitnormal.wav
475,192,26397,1,0,0:0:0:30:soft-hitnormal.wav
329,192,26493,1,0,0:0:0:30:soft-hitnormal.wav
109,192,26493,1,0,0:0:0:30:soft-hitnormal.wav
36,192,26590,1,0,0:0:0:30:soft-hitnormal.wav
256,192,26590,1,0,0:0:0:30:soft-hitnormal.wav
109,192,26686,1,0,0:0:0:30:soft-hitnormal.wav
475,192,26686,1,0,0:0:0:30:soft-hitnormal.wav
402,192,26686,1,0,0:0:0:30:soft-hitnormal.wav
256,192,26750,1,0,0:0:0:30:soft-hitnormal.wav
329,192,26750,1,0,0:0:0:30:soft-hitnormal.wav
182,192,26878,1,0,0:0:0:30:soft-hitnormal.wav
329,192,26974,1,0,0:0:0:30:crash.wav
109,192,26974,1,0,0:0:0:30:hihat.wav
402,192,26974,1,0,0:0:0:30:crash.wav
36,192,26974,1,0,0:0:0:30:hihat.wav
182,192,27263,1,0,0:0:0:30:soft-hitnormal.wav
475,192,27263,1,0,0:0:0:30:soft-hitnormal.wav
109,192,27263,1,0,0:0:0:30:soft-hitnormal.wav
256,192,27359,1,0,0:0:0:30:soft-hitnormal.wav
329,192,27359,1,0,0:0:0:30:soft-hitnormal.wav
402,192,27359,1,0,0:0:0:30:soft-hitnormal.wav
36,192,27455,1,0,0:0:0:30:soft-hitnormal.wav
475,192,27455,1,0,0:0:0:30:soft-hitnormal.wav
109,192,27551,1,0,0:0:0:30:soft-hitnormal.wav
329,192,27551,1,0,0:0:0:30:soft-hitnormal.wav
182,192,27647,1,0,0:0:0:30:soft-hitnormal.wav
402,192,27647,1,0,0:0:0:30:soft-hitnormal.wav
256,192,27743,1,0,0:0:0:30:soft-hitnormal.wav
36,192,27743,1,0,0:0:0:30:soft-hitnormal.wav
475,192,27840,1,0,0:0:0:30:crash.wav
109,192,27840,1,0,0:0:0:30:hihat.wav
329,192,27840,1,0,0:0:0:30:hihat.wav
182,192,27936,1,0,0:0:0:30:
36,192,28032,1,0,0:0:0:30:hihat.wav
475,192,28032,1,0,0:0:0:30:hihat.wav
109,192,28096,1,0,0:0:0:30:hihat.wav
402,192,28096,1,0,0:0:0:30:hihat.wav
182,192,28160,1,0,0:0:0:30:hihat.wav
329,192,28160,1,0,0:0:0:30:hihat.wav
256,192,28224,1,0,0:0:0:30:crash.wav
475,192,28224,1,0,0:0:0:30:
36,192,28224,1,0,0:0:0:30:
109,192,28320,1,0,0:0:0:30:soft-hitnormal.wav
182,192,28417,1,0,0:0:0:30:soft-hitnormal.wav
329,192,28417,1,0,0:0:0:30:soft-hitnormal.wav
36,192,28513,1,0,0:0:0:30:soft-hitnormal.wav
402,192,28513,1,0,0:0:0:30:soft-hitnormal.wav
475,192,28513,1,0,0:0:0:30:soft-hitnormal.wav
256,192,28609,1,0,0:0:0:30:soft-hitnormal.wav
329,192,28609,1,0,0:0:0:30:soft-hitnormal.wav
182,192,28673,1,0,0:0:0:30:soft-hitnormal.wav
109,192,28737,1,0,0:0:0:30:soft-hitnormal.wav
256,192,28801,1,0,0:0:0:30:soft-hitnormal.wav
475,192,28801,1,0,0:0:0:30:soft-hitnormal.wav
182,192,28865,1,0,0:0:0:30:soft-hitnormal.wav
329,192,28865,1,0,0:0:0:30:soft-hitnormal.wav
109,192,28929,1,0,0:0:0:30:soft-hitnormal.wav
402,192,28929,1,0,0:0:0:30:soft-hitnormal.wav
36,192,28993,1,0,0:0:0:30:soft-hitnormal.wav
475,192,28993,1,0,0:0:0:30:soft-hitnormal.wav
256,192,28993,1,0,0:0:0:30:soft-hitnormal.wav
182,192,29090,1,0,0:0:0:30:soft-hitnormal.wav
329,192,29090,1,0,0:0:0:30:soft-hitnormal.wav
36,192,29186,1,0,0:0:0:30:soft-hitnormal.wav
402,192,29186,1,0,0:0:0:30:soft-hitnormal.wav
109,192,29282,1,0,0:0:0:30:hihat.wav
475,192,29282,1,0,0:0:0:30:crash.wav
256,192,29282,1,0,0:0:0:30:hihat.wav
475,192,29570,1,0,0:0:0:30:soft-hitnormal.wav
182,192,29570,1,0,0:0:0:30:soft-hitnormal.wav
109,192,29570,1,0,0:0:0:30:soft-hitnormal.wav
36,192,29570,1,0,0:0:0:30:soft-hitnormal.wav
402,192,29634,1,0,0:0:0:30:soft-hitnormal.wav
256,192,29667,1,0,0:0:0:30:soft-hitnormal.wav
329,192,29699,1,0,0:0:0:30:soft-hitnormal.wav
475,192,29763,1,0,0:0:0:30:soft-hitnormal.wav
182,192,29763,1,0,0:0:0:30:soft-hitnormal.wav
109,192,29763,1,0,0:0:0:30:soft-hitnormal.wav
402,192,29827,1,0,0:0:0:30:soft-hitnormal.wav
256,192,29859,1,0,0:0:0:30:soft-hitnormal.wav
329,192,29891,1,0,0:0:0:30:soft-hitnormal.wav
475,192,29955,1,0,0:0:0:30:soft-hitnormal.wav
182,192,29955,1,0,0:0:0:30:soft-hitnormal.wav
109,192,29955,1,0,0:0:0:30:soft-hitnormal.wav
402,192,30019,1,0,0:0:0:30:soft-hitnormal.wav
256,192,30051,1,0,0:0:0:30:soft-hitnormal.wav
329,192,30083,1,0,0:0:0:30:soft-hitnormal.wav
36,192,30147,1,0,0:0:0:30:hihat.wav
475,192,30147,1,0,0:0:0:30:crash.wav
182,192,30147,1,0,0:0:0:30:hihat.wav
109,192,30147,1,0,0:0:0:30:hihat.wav
256,192,30243,1,0,0:0:0:30:soft-hitnormal.wav
329,192,30340,1,0,0:0:0:30:soft-hitnormal.wav
402,192,30436,1,0,0:0:0:30:soft-hitnormal.wav
475,192,30532,5,0,0:0:0:30:hihat.wav
109,192,30532,1,0,0:0:0:30:hihat.wav
36,192,30724,1,0,0:0:0:30:soft-hitnormal.wav
256,192,30724,1,0,0:0:0:30:soft-hitnormal.wav
475,192,30724,1,0,0:0:0:30:soft-hitnormal.wav
109,192,30820,1,0,0:0:0:30:soft-hitnormal.wav
182,192,30917,1,0,0:0:0:30:soft-hitnormal.wav
402,192,30917,1,0,0:0:0:30:soft-hitnormal.wav
256,192,31013,1,0,0:0:0:30:soft-hitnormal.wav
475,192,31013,1,0,0:0:0:30:soft-hitnormal.wav
402,192,31109,1,0,0:0:0:30:soft-hitnormal.wav
182,192,31109,1,0,0:0:0:30:soft-hitnormal.wav
109,192,31205,1,0,0:0:0:30:soft-hitnormal.wav
329,192,31205,1,0,0:0:0:30:soft-hitnormal.wav
36,192,31301,1,0,0:0:0:30:soft-hitnormal.wav
256,192,31301,1,0,0:0:0:30:soft-hitnormal.wav
475,192,31301,1,0,0:0:0:30:soft-hitnormal.wav
402,192,31397,1,0,0:0:0:30:soft-hitnormal.wav
109,192,31397,1,0,0:0:0:30:soft-hitnormal.wav
329,192,31493,1,0,0:0:0:30:soft-hitnormal.wav
182,192,31493,1,0,0:0:0:30:soft-hitnormal.wav
256,192,31590,1,0,0:0:0:30:soft-hitnormal.wav
109,192,31686,5,0,0:0:0:20:drum.wav
36,192,31686,1,0,0:0:0:20:drum.wav
182,192,31686,1,0,0:0:0:20:drum.wav
402,192,31782,1,0,0:0:0:20:drum.wav
329,192,31782,1,0,0:0:0:20:drum.wav
329,192,31878,1,0,0:0:0:20:drum.wav
402,192,31878,1,0,0:0:0:20:drum.wav
36,192,31974,1,0,0:0:0:20:drum.wav
182,192,31974,1,0,0:0:0:20:drum.wav
109,192,31974,1,0,0:0:0:20:drum.wav
402,192,32070,1,0,0:0:0:20:drum.wav
329,192,32070,1,0,0:0:0:20:drum.wav
329,192,32167,1,0,0:0:0:20:drum.wav
402,192,32167,1,0,0:0:0:20:drum.wav
36,192,32263,1,0,0:0:0:20:drum.wav
109,192,32263,1,0,0:0:0:20:drum.wav
182,192,32263,1,0,0:0:0:20:drum.wav
329,192,32359,1,0,0:0:0:20:drum.wav
402,192,32359,1,0,0:0:0:20:drum.wav
402,192,32455,1,0,0:0:0:20:drum.wav
329,192,32455,1,0,0:0:0:20:drum.wav
109,192,32551,1,0,0:0:0:20:drum.wav
182,192,32551,1,0,0:0:0:20:drum.wav
36,192,32551,1,0,0:0:0:20:drum.wav
402,192,32647,1,0,0:0:0:20:drum.wav
329,192,32647,1,0,0:0:0:20:drum.wav
402,192,32743,1,0,0:0:0:20:drum.wav
329,192,32743,1,0,0:0:0:20:drum.wav
36,192,32840,1,0,0:0:0:20:drum.wav
109,192,32840,1,0,0:0:0:20:drum.wav
182,192,32840,1,0,0:0:0:20:drum.wav
329,192,32904,1,0,0:0:0:20:drum.wav
402,192,32904,1,0,0:0:0:20:drum.wav
109,192,32968,1,0,0:0:0:20:drum.wav
182,192,32968,1,0,0:0:0:20:drum.wav
402,192,33032,1,0,0:0:0:20:drum.wav
475,192,33032,1,0,0:0:0:20:drum.wav
36,192,33128,1,0,0:0:0:20:drum.wav
109,192,33128,1,0,0:0:0:20:drum.wav
182,192,33128,1,0,0:0:0:20:drum.wav
329,192,33224,1,0,0:0:0:20:drum.wav
256,192,33224,1,0,0:0:0:20:crash.wav
402,192,33224,1,0,0:0:0:20:drum.wav
475,192,33224,1,0,0:0:0:20:drum.wav
182,192,33417,1,0,0:0:0:40:soft-hitnormal.wav
329,192,33513,1,0,0:0:0:40:soft-hitnormal.wav
182,192,33609,1,0,0:0:0:40:soft-hitnormal.wav
329,192,33705,1,0,0:0:0:40:soft-hitnormal.wav
182,192,33801,1,0,0:0:0:40:soft-hitnormal.wav
329,192,33897,1,0,0:0:0:40:soft-hitnormal.wav
402,192,33993,1,0,0:0:0:30:drum.wav
475,192,33993,1,0,0:0:0:30:drum.wav
256,192,34186,1,0,0:0:0:40:soft-hitnormal.wav
402,192,34282,1,0,0:0:0:30:drum.wav
475,192,34282,1,0,0:0:0:30:drum.wav
256,192,34474,1,0,0:0:0:40:soft-hitnormal.wav
402,192,34570,1,0,0:0:0:30:drum.wav
475,192,34570,1,0,0:0:0:30:drum.wav
36,192,34763,1,0,0:0:0:30:drum.wav
109,192,34763,1,0,0:0:0:30:drum.wav
402,192,34763,1,0,0:0:0:30:drum.wav
475,192,34763,1,0,0:0:0:30:drum.wav
329,192,34955,1,0,0:0:0:40:soft-hitnormal.wav
329,192,35051,1,0,0:0:0:40:soft-hitnormal.wav
182,192,35147,1,0,0:0:0:40:soft-hitnormal.wav
329,192,35243,1,0,0:0:0:40:soft-hitnormal.wav
329,192,35340,1,0,0:0:0:40:soft-hitnormal.wav
182,192,35436,1,0,0:0:0:40:soft-hitnormal.wav
36,192,35532,1,0,0:0:0:30:drum.wav
109,192,35532,1,0,0:0:0:30:drum.wav
256,192,35724,1,0,0:0:0:40:soft-hitnormal.wav
109,192,35820,1,0,0:0:0:30:drum.wav
36,192,35820,1,0,0:0:0:30:drum.wav
256,192,36013,1,0,0:0:0:40:soft-hitnormal.wav
109,192,36109,1,0,0:0:0:30:drum.wav
36,192,36109,1,0,0:0:0:30:drum.wav
36,192,36301,1,0,0:0:0:30:drum.wav
109,192,36301,1,0,0:0:0:30:drum.wav
402,192,36301,1,0,0:0:0:30:drum.wav
475,192,36301,1,0,0:0:0:30:drum.wav
182,192,36493,1,0,0:0:0:40:soft-hitnormal.wav
329,192,36493,1,0,0:0:0:40:soft-hitnormal.wav
256,192,36686,1,0,0:0:0:30:drum.wav
36,192,36686,1,0,0:0:0:30:drum.wav
475,192,36686,1,0,0:0:0:30:drum.wav
182,192,36878,1,0,0:0:0:40:soft-hitnormal.wav
182,192,36974,1,0,0:0:0:40:soft-hitnormal.wav
36,192,37070,1,0,0:0:0:30:drum.wav
109,192,37070,1,0,0:0:0:30:drum.wav
402,192,37070,1,0,0:0:0:30:drum.wav
329,192,37070,1,0,0:0:0:30:
329,192,37263,1,0,0:0:0:40:soft-hitnormal.wav
329,192,37359,1,0,0:0:0:40:soft-hitnormal.wav
109,192,37455,1,0,0:0:0:30:drum.wav
475,192,37455,1,0,0:0:0:30:drum.wav
402,192,37455,1,0,0:0:0:30:drum.wav
182,192,37455,1,0,0:0:0:30:
182,192,37647,1,0,0:0:0:40:soft-hitnormal.wav
182,192,37743,1,0,0:0:0:40:soft-hitnormal.wav
36,192,37840,1,0,0:0:0:30:drum.wav
402,192,37840,1,0,0:0:0:30:drum.wav
475,192,37840,1,0,0:0:0:30:drum.wav
329,192,37840,1,0,0:0:0:30:
182,192,37936,1,0,0:0:0:40:soft-hitnormal.wav
109,192,38032,1,0,0:0:0:40:soft-hitnormal.wav
36,192,38128,1,0,0:0:0:40:soft-hitnormal.wav
329,192,38224,1,0,0:0:0:25:drum.wav
402,192,38224,1,0,0:0:0:25:drum.wav
475,192,38224,1,0,0:0:0:25:drum.wav
329,192,38417,1,0,0:0:0:25:drum.wav
402,192,38417,1,0,0:0:0:25:drum.wav
256,192,38417,1,0,0:0:0:25:drum.wav
475,192,38609,1,0,0:0:0:25:drum.wav
36,192,38609,1,0,0:0:0:25:drum.wav
109,192,38609,1,0,0:0:0:25:drum.wav
402,192,38673,1,0,0:0:0:25:drum.wav
329,192,38737,1,0,0:0:0:25:drum.wav
256,192,38801,1,0,0:0:0:25:drum.wav
182,192,38801,1,0,0:0:0:25:drum.wav
36,192,38897,1,0,0:0:0:25:drum.wav
109,192,38897,1,0,0:0:0:25:drum.wav
402,192,38993,1,0,0:0:0:40:soft-hitnormal.wav
475,192,38993,1,0,0:0:0:40:soft-hitnormal.wav
182,192,39090,1,0,0:0:0:40:soft-hitnormal.wav
109,192,39090,1,0,0:0:0:40:soft-hitnormal.wav
329,192,39186,1,0,0:0:0:40:soft-hitnormal.wav
402,192,39186,1,0,0:0:0:40:soft-hitnormal.wav
36,192,39282,1,0,0:0:0:40:soft-hitnormal.wav
109,192,39282,1,0,0:0:0:40:soft-hitnormal.wav
475,192,39378,1,0,0:0:0:30:drum.wav
256,192,39378,1,0,0:0:0:30:drum.wav
182,192,39378,1,0,0:0:0:30:drum.wav
402,192,39378,1,0,0:0:0:30:drum.wav
182,192,39570,1,0,0:0:0:30:soft-hitnormal.wav
36,192,39570,1,0,0:0:0:30:soft-hitnormal.wav
329,192,39667,1,0,0:0:0:30:soft-hitnormal.wav
475,192,39667,1,0,0:0:0:30:soft-hitnormal.wav
182,192,39763,1,0,0:0:0:30:soft-hitnormal.wav
36,192,39763,1,0,0:0:0:30:soft-hitnormal.wav
329,192,39859,1,0,0:0:0:30:soft-hitnormal.wav
475,192,39859,1,0,0:0:0:30:soft-hitnormal.wav
36,192,39955,1,0,0:0:0:30:soft-hitnormal.wav
182,192,39955,1,0,0:0:0:30:soft-hitnormal.wav
329,192,40051,1,0,0:0:0:30:soft-hitnormal.wav
475,192,40051,1,0,0:0:0:30:soft-hitnormal.wav
402,192,40147,1,0,0:0:0:30:hihat.wav
36,192,40147,1,0,0:0:0:30:hihat.wav
475,192,40243,1,0,0:0:0:30:soft-hitnormal.wav
402,192,40340,1,0,0:0:0:30:soft-hitnormal.wav
109,192,40340,1,0,0:0:0:30:soft-hitnormal.wav
182,192,40436,1,0,0:0:0:30:soft-hitnormal.wav
329,192,40436,1,0,0:0:0:30:soft-hitnormal.wav
475,192,40532,1,0,0:0:0:30:hihat.wav
36,192,40532,1,0,0:0:0:30:hihat.wav
256,192,40532,1,0,0:0:0:30:hihat.wav
182,192,40628,1,0,0:0:0:30:soft-hitnormal.wav
109,192,40724,1,0,0:0:0:30:soft-hitnormal.wav
402,192,40724,1,0,0:0:0:30:soft-hitnormal.wav
182,192,40820,1,0,0:0:0:30:soft-hitnormal.wav
256,192,40917,1,0,0:0:0:30:drum.wav
36,192,40917,1,0,0:0:0:30:drum.wav
329,192,40917,1,0,0:0:0:30:drum.wav
475,192,40917,1,0,0:0:0:30:drum.wav
329,192,41109,1,0,0:0:0:30:soft-hitnormal.wav
402,192,41109,1,0,0:0:0:30:soft-hitnormal.wav
329,192,41205,1,0,0:0:0:30:soft-hitnormal.wav
402,192,41205,1,0,0:0:0:30:soft-hitnormal.wav
109,192,41301,1,0,0:0:0:30:soft-hitnormal.wav
182,192,41301,1,0,0:0:0:30:soft-hitnormal.wav
402,192,41397,1,0,0:0:0:30:soft-hitnormal.wav
329,192,41397,1,0,0:0:0:30:soft-hitnormal.wav
329,192,41493,1,0,0:0:0:30:soft-hitnormal.wav
402,192,41493,1,0,0:0:0:30:soft-hitnormal.wav
109,192,41590,1,0,0:0:0:30:soft-hitnormal.wav
182,192,41590,1,0,0:0:0:30:soft-hitnormal.wav
475,192,41686,1,0,0:0:0:30:hihat.wav
256,192,41686,1,0,0:0:0:30:hihat.wav
36,192,41686,1,0,0:0:0:30:hihat.wav
329,192,41782,1,0,0:0:0:30:soft-hitnormal.wav
402,192,41878,1,0,0:0:0:30:soft-hitnormal.wav
109,192,41878,1,0,0:0:0:30:soft-hitnormal.wav
475,192,41974,1,0,0:0:0:30:soft-hitnormal.wav
182,192,41974,1,0,0:0:0:30:soft-hitnormal.wav
329,192,42070,1,0,0:0:0:30:hihat.wav
256,192,42070,1,0,0:0:0:30:hihat.wav
36,192,42070,1,0,0:0:0:30:hihat.wav
475,192,42134,1,0,0:0:0:30:soft-hitnormal.wav
109,192,42167,1,0,0:0:0:30:soft-hitnormal.wav
402,192,42199,1,0,0:0:0:30:soft-hitnormal.wav
182,192,42263,1,0,0:0:0:30:soft-hitnormal.wav
329,192,42263,1,0,0:0:0:30:soft-hitnormal.wav
402,192,42359,1,0,0:0:0:30:soft-hitnormal.wav
36,192,42455,1,0,0:0:0:30:drum.wav
256,192,42455,1,0,0:0:0:30:drum.wav
475,192,42455,1,0,0:0:0:30:drum.wav
109,192,42455,1,0,0:0:0:30:drum.wav
402,192,42647,1,0,0:0:0:30:soft-hitnormal.wav
475,192,42647,1,0,0:0:0:30:soft-hitnormal.wav
36,192,42743,1,0,0:0:0:30:soft-hitnormal.wav
109,192,42743,1,0,0:0:0:30:soft-hitnormal.wav
402,192,42840,1,0,0:0:0:30:drum.wav
475,192,42840,1,0,0:0:0:30:drum.wav
329,192,42840,1,0,0:0:0:30:drum.wav
256,192,42840,1,0,0:0:0:30:drum.wav
109,192,42936,1,0,0:0:0:30:soft-hitnormal.wav
36,192,42936,1,0,0:0:0:30:soft-hitnormal.wav
402,192,43032,1,0,0:0:0:30:soft-hitnormal.wav
475,192,43032,1,0,0:0:0:30:soft-hitnormal.wav
329,192,43128,1,0,0:0:0:30:soft-hitnormal.wav
182,192,43224,1,0,0:0:0:30:drum.wav
109,192,43224,1,0,0:0:0:30:drum.wav
36,192,43224,1,0,0:0:0:30:drum.wav
256,192,43224,1,0,0:0:0:30:drum.wav
402,192,43320,1,0,0:0:0:30:soft-hitnormal.wav
182,192,43417,1,0,0:0:0:30:soft-hitnormal.wav
329,192,43417,1,0,0:0:0:30:soft-hitnormal.wav
109,192,43513,1,0,0:0:0:30:soft-hitnormal.wav
36,192,43609,1,0,0:0:0:30:drum.wav
475,192,43609,1,0,0:0:0:30:drum.wav
256,192,43609,1,0,0:0:0:30:drum.wav
329,192,43609,1,0,0:0:0:30:drum.wav
402,192,43705,1,0,0:0:0:30:soft-hitnormal.wav
109,192,43801,1,0,0:0:0:30:soft-hitnormal.wav
329,192,43801,1,0,0:0:0:30:soft-hitnormal.wav
182,192,43897,1,0,0:0:0:30:soft-hitnormal.wav
109,192,43993,1,0,0:0:0:30:drum.wav
402,192,43993,1,0,0:0:0:30:drum.wav
475,192,43993,1,0,0:0:0:30:drum.wav
36,192,43993,1,0,0:0:0:30:drum.wav
329,192,44090,1,0,0:0:0:30:soft-hitnormal.wav
256,192,44090,1,0,0:0:0:30:soft-hitnormal.wav
182,192,44186,1,0,0:0:0:30:soft-hitnormal.wav
109,192,44186,1,0,0:0:0:30:soft-hitnormal.wav
402,192,44282,1,0,0:0:0:30:soft-hitnormal.wav
475,192,44282,1,0,0:0:0:30:soft-hitnormal.wav
36,192,44378,1,0,0:0:0:30:drum.wav
256,192,44378,1,0,0:0:0:30:drum.wav
329,192,44378,1,0,0:0:0:30:drum.wav
109,192,44378,1,0,0:0:0:30:drum.wav
475,192,44506,1,0,0:0:0:30:soft-hitnormal.wav
182,192,44506,1,0,0:0:0:30:soft-hitnormal.wav
329,192,44634,1,0,0:0:0:30:soft-hitnormal.wav
402,192,44634,1,0,0:0:0:30:soft-hitnormal.wav
109,192,44763,1,0,0:0:0:25:drum.wav
36,192,44763,1,0,0:0:0:25:drum.wav
182,192,44763,1,0,0:0:0:25:drum.wav
109,192,44859,1,0,0:0:0:25:drum.wav
36,192,44859,1,0,0:0:0:25:drum.wav
182,192,44859,1,0,0:0:0:25:drum.wav
256,192,44955,1,0,0:0:0:25:soft-hitnormal.wav
109,192,45051,1,0,0:0:0:25:drum.wav
402,192,45051,1,0,0:0:0:25:drum.wav
182,192,45051,1,0,0:0:0:25:drum.wav
329,192,45051,1,0,0:0:0:25:drum.wav
256,192,45147,1,0,0:0:0:25:soft-hitnormal.wav
475,192,45243,1,0,0:0:0:25:drum.wav
329,192,45243,1,0,0:0:0:25:drum.wav
402,192,45243,1,0,0:0:0:25:drum.wav
475,192,45340,1,0,0:0:0:25:drum.wav
329,192,45340,1,0,0:0:0:25:drum.wav
402,192,45340,1,0,0:0:0:25:drum.wav
182,192,45436,1,0,0:0:0:30:soft-hitnormal.wav
109,192,45532,1,0,0:0:0:30:drum.wav
36,192,45532,1,0,0:0:0:30:drum.wav
475,192,45532,1,0,0:0:0:30:drum.wav
402,192,45532,1,0,0:0:0:30:crash.wav
329,192,45724,1,0,0:0:0:40:soft-hitnormal.wav
329,192,45820,1,0,0:0:0:40:soft-hitnormal.wav
402,192,45917,1,0,0:0:0:40:soft-hitnormal.wav
109,192,45917,1,0,0:0:0:30:soft-hitnormal.wav
36,192,45917,1,0,0:0:0:30:soft-hitnormal.wav
182,192,46013,1,0,0:0:0:40:soft-hitnormal.wav
182,192,46109,1,0,0:0:0:40:soft-hitnormal.wav
329,192,46205,1,0,0:0:0:40:soft-hitnormal.wav
109,192,46301,1,0,0:0:0:40:drum.wav
402,192,46301,1,0,0:0:0:30:drum.wav
475,192,46301,1,0,0:0:0:30:drum.wav
256,192,46493,1,0,0:0:0:40:soft-hitnormal.wav
109,192,46493,1,0,0:0:0:40:soft-hitnormal.wav
402,192,46590,1,0,0:0:0:30:drum.wav
475,192,46590,1,0,0:0:0:30:drum.wav
256,192,46782,1,0,0:0:0:40:soft-hitnormal.wav
109,192,46782,1,0,0:0:0:40:soft-hitnormal.wav
402,192,46878,1,0,0:0:0:30:drum.wav
475,192,46878,1,0,0:0:0:30:drum.wav
36,192,47070,1,0,0:0:0:30:drum.wav
109,192,47070,1,0,0:0:0:30:drum.wav
402,192,47070,1,0,0:0:0:30:drum.wav
475,192,47070,1,0,0:0:0:30:drum.wav
182,192,47263,1,0,0:0:0:40:soft-hitnormal.wav
182,192,47359,1,0,0:0:0:40:soft-hitnormal.wav
109,192,47455,1,0,0:0:0:40:soft-hitnormal.wav
402,192,47455,1,0,0:0:0:30:soft-hitnormal.wav
475,192,47455,1,0,0:0:0:30:soft-hitnormal.wav
329,192,47551,1,0,0:0:0:40:soft-hitnormal.wav
329,192,47647,1,0,0:0:0:40:soft-hitnormal.wav
182,192,47743,1,0,0:0:0:40:soft-hitnormal.wav
402,192,47840,1,0,0:0:0:40:drum.wav
36,192,47840,1,0,0:0:0:30:drum.wav
109,192,47840,1,0,0:0:0:30:drum.wav
256,192,48032,1,0,0:0:0:40:soft-hitnormal.wav
402,192,48032,1,0,0:0:0:40:soft-hitnormal.wav
109,192,48128,1,0,0:0:0:30:drum.wav
36,192,48128,1,0,0:0:0:30:drum.wav
256,192,48320,1,0,0:0:0:40:soft-hitnormal.wav
402,192,48320,1,0,0:0:0:40:soft-hitnormal.wav
109,192,48417,1,0,0:0:0:30:drum.wav
36,192,48417,1,0,0:0:0:30:drum.wav
36,192,48609,1,0,0:0:0:30:drum.wav
109,192,48609,1,0,0:0:0:30:drum.wav
402,192,48609,1,0,0:0:0:30:drum.wav
475,192,48609,1,0,0:0:0:30:drum.wav
329,192,48801,1,0,0:0:0:40:soft-hitnormal.wav
329,192,48897,1,0,0:0:0:40:soft-hitnormal.wav
36,192,48993,1,0,0:0:0:30:drum.wav
109,192,48993,1,0,0:0:0:30:drum.wav
475,192,48993,1,0,0:0:0:30:drum.wav
256,192,48993,1,0,0:0:0:30:drum.wav
182,192,49186,1,0,0:0:0:40:soft-hitnormal.wav
182,192,49282,1,0,0:0:0:40:soft-hitnormal.wav
36,192,49378,1,0,0:0:0:30:drum.wav
402,192,49378,1,0,0:0:0:30:drum.wav
256,192,49378,1,0,0:0:0:30:drum.wav
475,192,49378,1,0,0:0:0:30:drum.wav
329,192,49570,1,0,0:0:0:40:soft-hitnormal.wav
329,192,49667,1,0,0:0:0:40:soft-hitnormal.wav
36,192,49763,1,0,0:0:0:30:drum.wav
475,192,49763,1,0,0:0:0:30:drum.wav
256,192,49763,1,0,0:0:0:30:drum.wav
109,192,49763,1,0,0:0:0:30:drum.wav
402,192,49859,1,0,0:0:0:40:soft-hitnormal.wav
182,192,49955,1,0,0:0:0:40:soft-hitnormal.wav
329,192,49955,1,0,0:0:0:40:soft-hitnormal.wav
402,192,50051,1,0,0:0:0:40:soft-hitnormal.wav
36,192,50147,1,0,0:0:0:30:drum.wav
475,192,50147,1,0,0:0:0:30:drum.wav
182,192,50147,1,0,0:0:0:30:drum.wav
256,192,50147,1,0,0:0:0:30:drum.wav
402,192,50243,1,0,0:0:0:40:soft-hitnormal.wav
329,192,50340,1,0,0:0:0:40:soft-hitnormal.wav
182,192,50340,1,0,0:0:0:40:soft-hitnormal.wav
109,192,50436,1,0,0:0:0:40:soft-hitnormal.wav
256,192,50436,1,0,0:0:0:40:soft-hitnormal.wav
475,192,50532,1,0,0:0:0:30:drum.wav
36,192,50532,1,0,0:0:0:30:drum.wav
329,192,50532,1,0,0:0:0:30:drum.wav
402,192,50532,1,0,0:0:0:30:drum.wav
182,192,50628,1,0,0:0:0:40:soft-hitnormal.wav
329,192,50724,1,0,0:0:0:40:soft-hitnormal.wav
475,192,50820,1,0,0:0:0:40:soft-hitnormal.wav
109,192,50820,1,0,0:0:0:40:soft-hitnormal.wav
256,192,50917,1,0,0:0:0:25:drum.wav
329,192,50917,1,0,0:0:0:25:drum.wav
402,192,50917,1,0,0:0:0:25:drum.wav
36,192,50981,1,0,0:0:0:25:drum.wav
109,192,50981,1,0,0:0:0:25:drum.wav
329,192,51045,1,0,0:0:0:25:drum.wav
402,192,51045,1,0,0:0:0:25:drum.wav
109,192,51109,1,0,0:0:0:25:drum.wav
36,192,51109,1,0,0:0:0:25:drum.wav
329,192,51205,1,0,0:0:0:25:drum.wav
256,192,51205,1,0,0:0:0:25:drum.wav
109,192,51301,1,0,0:0:0:30:drum.wav
182,192,51301,1,0,0:0:0:30:drum.wav
402,192,51301,1,0,0:0:0:30:drum.wav
36,192,51301,1,0,0:0:0:30:drum.wav
329,192,51397,1,0,0:0:0:30:soft-hitnormal.wav
475,192,51397,1,0,0:0:0:30:soft-hitnormal.wav
256,192,51493,1,0,0:0:0:30:soft-hitnormal.wav
402,192,51493,1,0,0:0:0:30:soft-hitnormal.wav
182,192,51590,1,0,0:0:0:30:soft-hitnormal.wav
329,192,51590,1,0,0:0:0:30:soft-hitnormal.wav
36,192,51686,1,0,0:0:0:30:drum.wav
109,192,51686,1,0,0:0:0:30:drum.wav
402,192,51686,1,0,0:0:0:30:drum.wav
475,192,51686,1,0,0:0:0:30:drum.wav
182,192,51878,1,0,0:0:0:30:soft-hitnormal.wav
109,192,51878,1,0,0:0:0:30:soft-hitnormal.wav
329,192,51974,1,0,0:0:0:30:soft-hitnormal.wav
402,192,51974,1,0,0:0:0:30:soft-hitnormal.wav
182,192,52070,1,0,0:0:0:30:soft-hitnormal.wav
109,192,52070,1,0,0:0:0:30:soft-hitnormal.wav
329,192,52167,1,0,0:0:0:30:soft-hitnormal.wav
402,192,52167,1,0,0:0:0:30:soft-hitnormal.wav
182,192,52263,1,0,0:0:0:30:soft-hitnormal.wav
109,192,52263,1,0,0:0:0:30:soft-hitnormal.wav
329,192,52359,1,0,0:0:0:30:soft-hitnormal.wav
402,192,52359,1,0,0:0:0:30:soft-hitnormal.wav
36,192,52455,1,0,0:0:0:30:soft-hitnormal.wav
475,192,52455,1,0,0:0:0:30:soft-hitnormal.wav
256,192,52455,1,0,0:0:0:30:soft-hitnormal.wav
402,192,52551,1,0,0:0:0:30:soft-hitnormal.wav
329,192,52647,1,0,0:0:0:30:soft-hitnormal.wav
36,192,52647,1,0,0:0:0:30:soft-hitnormal.wav
256,192,52743,1,0,0:0:0:30:soft-hitnormal.wav
182,192,52743,1,0,0:0:0:30:soft-hitnormal.wav
475,192,52840,1,0,0:0:0:30:soft-hitnormal.wav
109,192,52840,1,0,0:0:0:30:soft-hitnormal.wav
402,192,52936,1,0,0:0:0:30:soft-hitnormal.wav
329,192,53032,1,0,0:0:0:30:soft-hitnormal.wav
36,192,53032,1,0,0:0:0:30:soft-hitnormal.wav
256,192,53128,1,0,0:0:0:30:soft-hitnormal.wav
182,192,53128,1,0,0:0:0:30:soft-hitnormal.wav
475,192,53224,1,0,0:0:0:30:drum.wav
402,192,53224,1,0,0:0:0:30:drum.wav
36,192,53224,1,0,0:0:0:30:drum.wav
109,192,53224,1,0,0:0:0:30:drum.wav
329,192,53417,1,0,0:0:0:30:soft-hitnormal.wav
475,192,53417,1,0,0:0:0:30:soft-hitnormal.wav
329,192,53513,1,0,0:0:0:30:soft-hitnormal.wav
475,192,53513,1,0,0:0:0:30:soft-hitnormal.wav
182,192,53609,1,0,0:0:0:30:soft-hitnormal.wav
36,192,53609,1,0,0:0:0:30:soft-hitnormal.wav
329,192,53705,1,0,0:0:0:30:soft-hitnormal.wav
475,192,53705,1,0,0:0:0:30:soft-hitnormal.wav
329,192,53801,1,0,0:0:0:30:soft-hitnormal.wav
475,192,53801,1,0,0:0:0:30:soft-hitnormal.wav
182,192,53897,1,0,0:0:0:30:soft-hitnormal.wav
36,192,53897,1,0,0:0:0:30:soft-hitnormal.wav
402,192,53993,1,0,0:0:0:30:soft-hitnormal.wav
109,192,53993,1,0,0:0:0:30:soft-hitnormal.wav
475,192,53993,1,0,0:0:0:30:soft-hitnormal.wav
256,192,54090,1,0,0:0:0:30:soft-hitnormal.wav
182,192,54186,1,0,0:0:0:30:soft-hitnormal.wav
109,192,54282,1,0,0:0:0:30:soft-hitnormal.wav
329,192,54282,1,0,0:0:0:30:soft-hitnormal.wav
36,192,54378,1,0,0:0:0:30:soft-hitnormal.wav
475,192,54378,1,0,0:0:0:30:soft-hitnormal.wav
402,192,54442,1,0,0:0:0:30:soft-hitnormal.wav
109,192,54474,1,0,0:0:0:30:soft-hitnormal.wav
329,192,54506,1,0,0:0:0:30:soft-hitnormal.wav
256,192,54570,1,0,0:0:0:30:soft-hitnormal.wav
182,192,54570,1,0,0:0:0:30:soft-hitnormal.wav
329,192,54667,1,0,0:0:0:30:soft-hitnormal.wav
36,192,54763,1,0,0:0:0:30:drum.wav
109,192,54763,1,0,0:0:0:30:drum.wav
402,192,54763,1,0,0:0:0:30:drum.wav
475,192,54763,1,0,0:0:0:30:drum.wav
36,192,54955,1,0,0:0:0:30:soft-hitnormal.wav
109,192,54955,1,0,0:0:0:30:soft-hitnormal.wav
402,192,55051,1,0,0:0:0:30:soft-hitnormal.wav
475,192,55051,1,0,0:0:0:30:soft-hitnormal.wav
109,192,55147,1,0,0:0:0:30:drum.wav
36,192,55147,1,0,0:0:0:30:drum.wav
182,192,55147,1,0,0:0:0:30:drum.wav
256,192,55147,1,0,0:0:0:30:drum.wav
475,192,55243,1,0,0:0:0:30:soft-hitnormal.wav
402,192,55243,1,0,0:0:0:30:soft-hitnormal.wav
109,192,55340,1,0,0:0:0:30:soft-hitnormal.wav
36,192,55340,1,0,0:0:0:30:soft-hitnormal.wav
182,192,55436,1,0,0:0:0:30:soft-hitnormal.wav
402,192,55532,1,0,0:0:0:30:drum.wav
475,192,55532,1,0,0:0:0:30:drum.wav
256,192,55532,1,0,0:0:0:30:drum.wav
329,192,55532,1,0,0:0:0:30:drum.wav
109,192,55628,1,0,0:0:0:30:soft-hitnormal.wav
329,192,55724,1,0,0:0:0:30:soft-hitnormal.wav
182,192,55724,1,0,0:0:0:30:soft-hitnormal.wav
402,192,55820,1,0,0:0:0:30:soft-hitnormal.wav
36,192,55917,1,0,0:0:0:30:drum.wav
256,192,55917,1,0,0:0:0:30:drum.wav
475,192,55917,1,0,0:0:0:30:drum.wav
182,192,55917,1,0,0:0:0:30:drum.wav
329,192,56013,1,0,0:0:0:30:soft-hitnormal.wav
475,192,56109,1,0,0:0:0:30:soft-hitnormal.wav
402,192,56109,1,0,0:0:0:30:soft-hitnormal.wav
36,192,56205,1,0,0:0:0:30:soft-hitnormal.wav
109,192,56205,1,0,0:0:0:30:soft-hitnormal.wav
182,192,56301,1,0,0:0:0:30:drum.wav
256,192,56301,1,0,0:0:0:30:drum.wav
402,192,56301,1,0,0:0:0:30:drum.wav
475,192,56301,1,0,0:0:0:30:drum.wav
109,192,56397,1,0,0:0:0:30:soft-hitnormal.wav
329,192,56397,1,0,0:0:0:30:soft-hitnormal.wav
402,192,56493,1,0,0:0:0:30:soft-hitnormal.wav
36,192,56493,1,0,0:0:0:30:soft-hitnormal.wav
475,192,56590,1,0,0:0:0:30:soft-hitnormal.wav
109,192,56590,1,0,0:0:0:30:soft-hitnormal.wav
256,192,56686,1,0,0:0:0:30:drum.wav
402,192,56686,1,0,0:0:0:30:drum.wav
182,192,56686,1,0,0:0:0:30:drum.wav
329,192,56782,1,0,0:0:0:30:soft-hitnormal.wav
36,192,56782,1,0,0:0:0:30:soft-hitnormal.wav
475,192,56878,1,0,0:0:0:30:soft-hitnormal.wav
182,192,56878,1,0,0:0:0:30:soft-hitnormal.wav
402,192,56974,1,0,0:0:0:30:soft-hitnormal.wav
109,192,56974,1,0,0:0:0:30:soft-hitnormal.wav
36,192,57070,5,0,0:0:0:20:kick.wav
256,192,57070,1,0,0:0:0:20:kick.wav
329,192,57070,1,0,0:0:0:20:kick.wav
109,192,57199,1,0,0:0:0:20:kick.wav
256,192,57199,1,0,0:0:0:20:kick.wav
402,192,57199,1,0,0:0:0:20:kick.wav
182,192,57327,1,0,0:0:0:20:kick.wav
256,192,57327,1,0,0:0:0:20:kick.wav
475,192,57327,1,0,0:0:0:20:kick.wav
256,192,57455,1,0,0:0:0:20:kick.wav
36,192,57455,1,0,0:0:0:20:kick.wav
329,192,57455,1,0,0:0:0:20:kick.wav
256,192,57583,1,0,0:0:0:20:kick.wav
109,192,57583,1,0,0:0:0:20:kick.wav
402,192,57583,1,0,0:0:0:20:kick.wav
256,192,57711,1,0,0:0:0:20:kick.wav
182,192,57711,1,0,0:0:0:20:kick.wav
475,192,57711,1,0,0:0:0:20:kick.wav
475,192,57840,1,0,0:0:0:30:kick.wav
36,192,57840,1,0,0:0:0:30:kick.wav
109,192,57840,1,0,0:0:0:30:kick.wav
256,192,57840,1,0,0:0:0:30:crash.wav
329,192,57936,1,0,0:0:0:30:soft-hitnormal.wav
109,192,58032,1,0,0:0:0:30:soft-hitnormal.wav
36,192,58032,1,0,0:0:0:30:soft-hitnormal.wav
402,192,58032,1,0,0:0:0:30:soft-hitnormal.wav
182,192,58128,1,0,0:0:0:30:soft-hitnormal.wav
256,192,58128,1,0,0:0:0:30:soft-hitnormal.wav
36,192,58224,1,0,0:0:0:20:soft-hitnormal.wav
475,192,58224,1,0,0:0:0:20:soft-hitnormal.wav
329,192,58224,1,0,0:0:0:20:soft-hitnormal.wav
109,192,58320,1,0,0:0:0:30:soft-hitnormal.wav
182,192,58320,1,0,0:0:0:30:soft-hitnormal.wav
256,192,58417,1,0,0:0:0:30:soft-hitnormal.wav
36,192,58513,1,0,0:0:0:30:soft-hitnormal.wav
329,192,58513,1,0,0:0:0:30:soft-hitnormal.wav
402,192,58513,1,0,0:0:0:30:soft-hitnormal.wav
475,192,58513,1,0,0:0:0:30:soft-hitnormal.wav
256,192,58609,1,0,0:0:0:30:soft-hitnormal.wav
182,192,58609,1,0,0:0:0:30:soft-hitnormal.wav
36,192,58705,1,0,0:0:0:30:soft-hitnormal.wav
109,192,58705,1,0,0:0:0:30:soft-hitnormal.wav
329,192,58801,1,0,0:0:0:30:soft-hitnormal.wav
475,192,58801,1,0,0:0:0:30:soft-hitnormal.wav
402,192,58801,1,0,0:0:0:30:soft-hitnormal.wav
109,192,58897,1,0,0:0:0:30:soft-hitnormal.wav
36,192,58993,1,0,0:0:0:30:hihat.wav
475,192,58993,1,0,0:0:0:30:hihat.wav
402,192,58993,1,0,0:0:0:30:hihat.wav
329,192,59058,1,0,0:0:0:30:hihat.wav
256,192,59058,1,0,0:0:0:30:hihat.wav
182,192,59122,1,0,0:0:0:30:hihat.wav
109,192,59122,1,0,0:0:0:30:hihat.wav
475,192,59186,1,0,0:0:0:30:hihat.wav
402,192,59186,1,0,0:0:0:30:hihat.wav
36,192,59186,1,0,0:0:0:30:hihat.wav
329,192,59250,1,0,0:0:0:30:hihat.wav
256,192,59250,1,0,0:0:0:30:hihat.wav
182,192,59314,1,0,0:0:0:30:hihat.wav
109,192,59314,1,0,0:0:0:30:hihat.wav
36,192,59378,1,0,0:0:0:30:hihat.wav
475,192,59378,1,0,0:0:0:30:hihat.wav
402,192,59378,1,0,0:0:0:30:hihat.wav
182,192,59570,1,0,0:0:0:30:soft-hitnormal.wav
402,192,59570,1,0,0:0:0:30:soft-hitnormal.wav
329,192,59667,1,0,0:0:0:30:soft-hitnormal.wav
36,192,59667,1,0,0:0:0:30:soft-hitnormal.wav
256,192,59667,1,0,0:0:0:30:soft-hitnormal.wav
109,192,59763,1,0,0:0:0:30:soft-hitnormal.wav
475,192,59763,1,0,0:0:0:30:soft-hitnormal.wav
256,192,59955,1,0,0:0:0:30:soft-hitnormal.wav
36,192,59955,1,0,0:0:0:30:soft-hitnormal.wav
475,192,59955,1,0,0:0:0:30:soft-hitnormal.wav
109,192,60051,1,0,0:0:0:30:soft-hitnormal.wav
402,192,60051,1,0,0:0:0:30:soft-hitnormal.wav
182,192,60147,1,0,0:0:0:30:soft-hitnormal.wav
329,192,60147,1,0,0:0:0:30:soft-hitnormal.wav
109,192,60243,1,0,0:0:0:30:soft-hitnormal.wav
402,192,60243,1,0,0:0:0:30:soft-hitnormal.wav
475,192,60340,1,0,0:0:0:30:soft-hitnormal.wav
36,192,60340,1,0,0:0:0:30:soft-hitnormal.wav
329,192,60340,1,0,0:0:0:30:soft-hitnormal.wav
256,192,60436,1,0,0:0:0:30:soft-hitnormal.wav
109,192,60532,1,0,0:0:0:30:soft-hitnormal.wav
475,192,60532,1,0,0:0:0:30:soft-hitnormal.wav
402,192,60596,1,0,0:0:0:30:soft-hitnormal.wav
182,192,60628,1,0,0:0:0:30:soft-hitnormal.wav
329,192,60660,1,0,0:0:0:30:soft-hitnormal.wav
109,192,60724,1,0,0:0:0:30:hihat.wav
36,192,60724,1,0,0:0:0:30:crash.wav
256,192,60724,1,0,0:0:0:30:hihat.wav
475,192,60820,1,0,0:0:0:30:soft-hitnormal.wav
329,192,60917,1,0,0:0:0:30:soft-hitnormal.wav
182,192,60917,1,0,0:0:0:30:soft-hitnormal.wav
109,192,61109,1,0,0:0:0:30:soft-hitnormal.wav
256,192,61109,1,0,0:0:0:30:soft-hitnormal.wav
329,192,61205,1,0,0:0:0:30:soft-hitnormal.wav
182,192,61205,1,0,0:0:0:30:soft-hitnormal.wav
36,192,61301,1,0,0:0:0:30:hihat.wav
256,192,61301,1,0,0:0:0:30:hihat.wav
475,192,61301,1,0,0:0:0:30:crash.wav
402,192,61301,1,0,0:0:0:30:hihat.wav
109,192,61397,1,0,0:0:0:30:soft-hitnormal.wav
182,192,61493,1,0,0:0:0:30:soft-hitnormal.wav
402,192,61493,1,0,0:0:0:30:hihat.wav
475,192,61493,1,0,0:0:0:30:hihat.wav
329,192,61558,1,0,0:0:0:30:soft-hitnormal.wav
109,192,61590,1,0,0:0:0:30:hihat.wav
36,192,61590,1,0,0:0:0:30:hihat.wav
256,192,61622,1,0,0:0:0:30:soft-hitnormal.wav
182,192,61686,1,0,0:0:0:30:soft-hitnormal.wav
402,192,61686,1,0,0:0:0:30:hihat.wav
475,192,61686,1,0,0:0:0:30:hihat.wav
329,192,61750,1,0,0:0:0:30:soft-hitnormal.wav
109,192,61782,1,0,0:0:0:30:hihat.wav
36,192,61782,1,0,0:0:0:30:hihat.wav
256,192,61814,1,0,0:0:0:30:soft-hitnormal.wav
182,192,61878,1,0,0:0:0:30:soft-hitnormal.wav
402,192,61878,1,0,0:0:0:30:hihat.wav
475,192,61878,1,0,0:0:0:30:hihat.wav
329,192,61942,1,0,0:0:0:30:soft-hitnormal.wav
109,192,61974,1,0,0:0:0:30:hihat.wav
36,192,61974,1,0,0:0:0:30:hihat.wav
256,192,62006,1,0,0:0:0:30:soft-hitnormal.wav
182,192,62070,1,0,0:0:0:30:soft-hitnormal.wav
402,192,62070,1,0,0:0:0:30:hihat.wav
475,192,62070,1,0,0:0:0:30:hihat.wav
329,192,62167,1,0,0:0:0:30:soft-hitnormal.wav
109,192,62167,1,0,0:0:0:30:soft-hitnormal.wav
402,192,62263,1,0,0:0:0:30:soft-hitnormal.wav
36,192,62263,1,0,0:0:0:30:soft-hitnormal.wav
256,192,62263,1,0,0:0:0:30:soft-hitnormal.wav
475,192,62359,1,0,0:0:0:30:soft-hitnormal.wav
182,192,62359,1,0,0:0:0:30:soft-hitnormal.wav
329,192,62455,1,0,0:0:0:30:hihat.wav
402,192,62455,1,0,0:0:0:30:hihat.wav
109,192,62455,1,0,0:0:0:30:hihat.wav
475,192,62647,1,0,0:0:0:30:soft-hitnormal.wav
256,192,62647,1,0,0:0:0:30:soft-hitnormal.wav
182,192,62647,1,0,0:0:0:30:soft-hitnormal.wav
402,192,62743,1,0,0:0:0:30:soft-hitnormal.wav
109,192,62743,1,0,0:0:0:30:soft-hitnormal.wav
36,192,62840,1,0,0:0:0:30:soft-hitnormal.wav
329,192,62840,1,0,0:0:0:30:soft-hitnormal.wav
182,192,62840,1,0,0:0:0:30:soft-hitnormal.wav
475,192,62936,1,0,0:0:0:30:soft-hitnormal.wav
402,192,62936,1,0,0:0:0:30:soft-hitnormal.wav
109,192,63032,1,0,0:0:0:30:soft-hitnormal.wav
36,192,63032,1,0,0:0:0:30:soft-hitnormal.wav
256,192,63032,1,0,0:0:0:30:soft-hitnormal.wav
475,192,63128,1,0,0:0:0:30:soft-hitnormal.wav
329,192,63128,1,0,0:0:0:30:soft-hitnormal.wav
256,192,63224,1,0,0:0:0:25:crash.wav
182,192,63224,1,0,0:0:0:25:soft-hitnormal.wav
402,192,63224,1,0,0:0:0:25:drum.wav
109,192,63320,1,0,0:0:0:25:soft-hitnormal.wav
329,192,63320,1,0,0:0:0:25:drum.wav
36,192,63320,1,0,0:0:0:25:soft-hitnormal.wav
402,192,63417,1,0,0:0:0:25:drum.wav
182,192,63417,1,0,0:0:0:25:soft-hitnormal.wav
475,192,63417,1,0,0:0:0:25:drum.wav
256,192,63513,1,0,0:0:0:25:crash.wav
329,192,63513,1,0,0:0:0:25:drum.wav
36,192,63513,1,0,0:0:0:25:soft-hitnormal.wav
475,192,63609,1,0,0:0:0:25:drum.wav
402,192,63609,1,0,0:0:0:25:drum.wav
109,192,63609,1,0,0:0:0:25:soft-hitnormal.wav
182,192,63705,1,0,0:0:0:25:soft-hitnormal.wav
256,192,63705,1,0,0:0:0:25:drum.wav
329,192,63705,1,0,0:0:0:25:drum.wav
36,192,63801,1,0,0:0:0:25:kick.wav
109,192,63801,1,0,0:0:0:25:crash.wav
402,192,63801,1,0,0:0:0:25:kick.wav
475,192,63801,1,0,0:0:0:25:kick.wav
36,192,64186,1,0,0:0:0:30:soft-hitnormal.wav
329,192,64186,1,0,0:0:0:30:soft-hitnormal.wav
109,192,64282,1,0,0:0:0:30:soft-hitnormal.wav
402,192,64282,1,0,0:0:0:30:soft-hitnormal.wav
182,192,64378,1,0,0:0:0:30:soft-hitnormal.wav
475,192,64378,1,0,0:0:0:30:soft-hitnormal.wav
256,192,64474,1,0,0:0:0:30:soft-hitnormal.wav
402,192,64474,1,0,0:0:0:30:soft-hitnormal.wav
36,192,64570,1,0,0:0:0:30:hihat.wav
109,192,64570,1,0,0:0:0:30:hihat.wav
329,192,64570,1,0,0:0:0:30:hihat.wav
182,192,64667,1,0,0:0:0:30:soft-hitnormal.wav
475,192,64667,1,0,0:0:0:30:soft-hitnormal.wav
256,192,64763,1,0,0:0:0:30:soft-hitnormal.wav
36,192,64859,1,0,0:0:0:30:soft-hitnormal.wav
329,192,64859,1,0,0:0:0:30:soft-hitnormal.wav
182,192,64955,1,0,0:0:0:30:hihat.wav
109,192,64955,1,0,0:0:0:30:hihat.wav
402,192,64955,1,0,0:0:0:30:hihat.wav
256,192,65051,1,0,0:0:0:30:soft-hitnormal.wav
475,192,65051,1,0,0:0:0:30:soft-hitnormal.wav
182,192,65147,1,0,0:0:0:30:soft-hitnormal.wav
402,192,65147,1,0,0:0:0:30:soft-hitnormal.wav
109,192,65243,1,0,0:0:0:30:soft-hitnormal.wav
36,192,65340,1,0,0:0:0:30:hihat.wav
256,192,65340,1,0,0:0:0:30:hihat.wav
475,192,65340,1,0,0:0:0:30:hihat.wav
402,192,65340,1,0,0:0:0:30:crash.wav
109,192,65436,1,0,0:0:0:30:soft-hitnormal.wav
182,192,65532,1,0,0:0:0:30:soft-hitnormal.wav
329,192,65532,1,0,0:0:0:30:soft-hitnormal.wav
109,192,65628,1,0,0:0:0:30:soft-hitnormal.wav
402,192,65724,1,0,0:0:0:30:soft-hitnormal.wav
36,192,65724,1,0,0:0:0:30:soft-hitnormal.wav
329,192,65724,1,0,0:0:0:30:soft-hitnormal.wav
109,192,65820,1,0,0:0:0:30:soft-hitnormal.wav
256,192,65820,1,0,0:0:0:30:soft-hitnormal.wav
182,192,65917,1,0,0:0:0:30:hihat.wav
402,192,65917,1,0,0:0:0:30:hihat.wav
475,192,65917,1,0,0:0:0:30:hihat.wav
329,192,66013,1,0,0:0:0:30:soft-hitnormal.wav
256,192,66013,1,0,0:0:0:30:soft-hitnormal.wav
182,192,66109,1,0,0:0:0:30:soft-hitnormal.wav
475,192,66109,1,0,0:0:0:30:soft-hitnormal.wav
109,192,66205,1,0,0:0:0:30:soft-hitnormal.wav
402,192,66205,1,0,0:0:0:30:soft-hitnormal.wav
36,192,66301,1,0,0:0:0:30:hihat.wav
256,192,66301,1,0,0:0:0:30:hihat.wav
475,192,66301,1,0,0:0:0:30:hihat.wav
329,192,66397,1,0,0:0:0:30:soft-hitnormal.wav
109,192,66397,1,0,0:0:0:30:soft-hitnormal.wav
182,192,66493,1,0,0:0:0:30:soft-hitnormal.wav
402,192,66493,1,0,0:0:0:30:soft-hitnormal.wav
256,192,66590,1,0,0:0:0:30:soft-hitnormal.wav
475,192,66590,1,0,0:0:0:30:soft-hitnormal.wav
36,192,66686,1,0,0:0:0:30:hihat.wav
182,192,66686,1,0,0:0:0:30:hihat.wav
329,192,66686,1,0,0:0:0:30:hihat.wav
402,192,66750,1,0,0:0:0:30:hihat.wav
109,192,66814,1,0,0:0:0:30:hihat.wav
256,192,66814,1,0,0:0:0:30:hihat.wav
475,192,66814,1,0,0:0:0:30:hihat.wav
36,192,66878,1,0,0:0:0:30:hihat.wav
182,192,66942,1,0,0:0:0:30:hihat.wav
329,192,66942,1,0,0:0:0:30:hihat.wav
402,192,67006,1,0,0:0:0:30:hihat.wav
36,192,67070,1,0,0:0:0:30:hihat.wav
256,192,67070,1,0,0:0:0:30:hihat.wav
475,192,67070,1,0,0:0:0:30:hihat.wav
256,192,67263,1,0,0:0:0:15:cymbol.wav
109,192,67263,1,0,0:0:0:15:cymbol.wav
402,192,67263,1,0,0:0:0:15:cymbol.wav
36,192,67263,1,0,0:0:0:15:cymbol.wav
475,192,67263,1,0,0:0:0:15:cymbol.wav
329,192,67359,1,0,0:0:0:30:soft-hitnormal.wav
182,192,67455,1,0,0:0:0:30:soft-hitnormal.wav
256,192,67551,1,0,0:0:0:30:soft-hitnormal.wav
329,192,67647,1,0,0:0:0:30:soft-hitnormal.wav
182,192,67743,1,0,0:0:0:30:soft-hitnormal.wav
475,192,67840,1,0,0:0:0:15:cymbol.wav
36,192,67840,1,0,0:0:0:15:cymbol.wav
256,192,67840,1,0,0:0:0:15:cymbol.wav
109,192,67840,1,0,0:0:0:15:cymbol.wav
402,192,67840,1,0,0:0:0:15:cymbol.wav
182,192,67936,1,0,0:0:0:30:soft-hitnormal.wav
329,192,68032,1,0,0:0:0:30:soft-hitnormal.wav
256,192,68128,1,0,0:0:0:30:soft-hitnormal.wav
182,192,68224,1,0,0:0:0:30:soft-hitnormal.wav
329,192,68320,1,0,0:0:0:30:soft-hitnormal.wav
256,192,68417,1,0,0:0:0:30:cymbol.wav
36,192,68417,1,0,0:0:0:30:cymbol.wav
475,192,68417,1,0,0:0:0:30:cymbol.wav
109,192,68417,1,0,0:0:0:30:cymbol.wav
402,192,68417,1,0,0:0:0:30:cymbol.wav
182,192,68513,1,0,0:0:0:30:soft-hitnormal.wav
256,192,68609,1,0,0:0:0:30:soft-hitnormal.wav
109,192,68609,1,0,0:0:0:30:soft-hitnormal.wav
402,192,68609,1,0,0:0:0:30:soft-hitnormal.wav
36,192,68705,1,0,0:0:0:30:soft-hitnormal.wav
329,192,68705,1,0,0:0:0:30:soft-hitnormal.wav
109,192,68801,1,0,0:0:0:30:soft-hitnormal.wav
402,192,68801,1,0,0:0:0:30:soft-hitnormal.wav
475,192,68897,1,0,0:0:0:30:soft-hitnormal.wav
182,192,68897,1,0,0:0:0:30:soft-hitnormal.wav
256,192,68993,1,0,0:0:0:30:drum.wav
402,192,68993,1,0,0:0:0:30:drum.wav
329,192,68993,1,0,0:0:0:30:drum.wav
182,192,69090,1,0,0:0:0:30:soft-hitnormal.wav
475,192,69090,1,0,0:0:0:30:soft-hitnormal.wav
109,192,69186,1,0,0:0:0:30:soft-hitnormal.wav
402,192,69186,1,0,0:0:0:30:soft-hitnormal.wav
36,192,69282,1,0,0:0:0:30:soft-hitnormal.wav
329,192,69282,1,0,0:0:0:30:soft-hitnormal.wav
475,192,69378,1,0,0:0:0:30:drum.wav
402,192,69378,1,0,0:0:0:30:drum.wav
182,192,69378,1,0,0:0:0:30:drum.wav
36,192,69442,1,0,0:0:0:30:drum.wav
109,192,69442,1,0,0:0:0:30:drum.wav
402,192,69506,1,0,0:0:0:30:drum.wav
329,192,69506,1,0,0:0:0:30:drum.wav
182,192,69570,1,0,0:0:0:30:drum.wav
109,192,69570,1,0,0:0:0:30:drum.wav
475,192,69667,1,0,0:0:0:30:hihat.wav
256,192,69667,1,0,0:0:0:30:hihat.wav
36,192,69667,1,0,0:0:0:30:hihat.wav
402,192,69763,1,0,0:0:0:30:soft-hitnormal.wav
109,192,69827,1,0,0:0:0:30:soft-hitnormal.wav
329,192,69891,1,0,0:0:0:30:soft-hitnormal.wav
182,192,69955,1,0,0:0:0:30:soft-hitnormal.wav
36,192,70051,1,0,0:0:0:30:soft-hitnormal.wav
109,192,70147,1,0,0:0:0:30:soft-hitnormal.wav
256,192,70147,1,0,0:0:0:30:kick.wav
475,192,70147,1,0,0:0:0:30:kick.wav
402,192,70147,1,0,0:0:0:30:crash.wav
182,192,70243,1,0,0:0:0:30:soft-hitnormal.wav
36,192,70340,1,0,0:0:0:30:soft-hitnormal.wav
109,192,70340,1,0,0:0:0:30:soft-hitnormal.wav
329,192,70340,1,0,0:0:0:30:soft-hitnormal.wav
402,192,70436,1,0,0:0:0:30:soft-hitnormal.wav
182,192,70436,1,0,0:0:0:30:soft-hitnormal.wav
256,192,70532,1,0,0:0:0:30:soft-hitnormal.wav
475,192,70532,1,0,0:0:0:30:soft-hitnormal.wav
36,192,70532,1,0,0:0:0:30:soft-hitnormal.wav
109,192,70628,1,0,0:0:0:30:soft-hitnormal.wav
329,192,70628,1,0,0:0:0:30:soft-hitnormal.wav
402,192,70724,1,0,0:0:0:30:soft-hitnormal.wav
475,192,70820,1,0,0:0:0:30:soft-hitnormal.wav
36,192,70820,1,0,0:0:0:30:soft-hitnormal.wav
109,192,70820,1,0,0:0:0:30:soft-hitnormal.wav
182,192,70820,1,0,0:0:0:30:soft-hitnormal.wav
256,192,70917,1,0,0:0:0:30:soft-hitnormal.wav
329,192,70917,1,0,0:0:0:30:soft-hitnormal.wav
402,192,71013,1,0,0:0:0:30:soft-hitnormal.wav
475,192,71013,1,0,0:0:0:30:soft-hitnormal.wav
182,192,71109,1,0,0:0:0:30:soft-hitnormal.wav
36,192,71109,1,0,0:0:0:30:soft-hitnormal.wav
109,192,71109,1,0,0:0:0:30:soft-hitnormal.wav
402,192,71205,1,0,0:0:0:30:soft-hitnormal.wav
36,192,71301,1,0,0:0:0:30:hihat.wav
109,192,71301,1,0,0:0:0:30:hihat.wav
475,192,71301,1,0,0:0:0:30:hihat.wav
182,192,71365,1,0,0:0:0:30:hihat.wav
256,192,71365,1,0,0:0:0:30:hihat.wav
329,192,71429,1,0,0:0:0:30:hihat.wav
402,192,71429,1,0,0:0:0:30:hihat.wav
475,192,71493,1,0,0:0:0:30:hihat.wav
36,192,71493,1,0,0:0:0:30:hihat.wav
109,192,71493,1,0,0:0:0:30:hihat.wav
182,192,71558,1,0,0:0:0:30:hihat.wav
256,192,71558,1,0,0:0:0:30:hihat.wav
329,192,71622,1,0,0:0:0:30:hihat.wav
402,192,71622,1,0,0:0:0:30:hihat.wav
475,192,71686,1,0,0:0:0:30:hihat.wav
182,192,71686,1,0,0:0:0:30:hihat.wav
109,192,71686,1,0,0:0:0:30:hihat.wav
36,192,71878,1,0,0:0:0:30:hihat.wav
402,192,71878,1,0,0:0:0:30:hihat.wav
182,192,71974,1,0,0:0:0:30:hihat.wav
109,192,71974,1,0,0:0:0:30:hihat.wav
329,192,71974,1,0,0:0:0:30:hihat.wav
475,192,72070,1,0,0:0:0:30:hihat.wav
36,192,72070,1,0,0:0:0:30:hihat.wav
329,192,72263,1,0,0:0:0:30:hihat.wav
256,192,72263,1,0,0:0:0:30:hihat.wav
36,192,72263,1,0,0:0:0:30:hihat.wav
182,192,72359,1,0,0:0:0:30:hihat.wav
475,192,72359,1,0,0:0:0:30:hihat.wav
109,192,72455,1,0,0:0:0:30:hihat.wav
402,192,72455,1,0,0:0:0:30:hihat.wav
182,192,72551,1,0,0:0:0:30:soft-hitnormal.wav
256,192,72647,1,0,0:0:0:30:hihat.wav
329,192,72647,1,0,0:0:0:30:hihat.wav
36,192,72647,1,0,0:0:0:30:hihat.wav
182,192,72743,1,0,0:0:0:30:hihat.wav
402,192,72743,1,0,0:0:0:30:hihat.wav
475,192,72840,1,0,0:0:0:30:hihat.wav
109,192,72840,1,0,0:0:0:30:hihat.wav
329,192,72840,1,0,0:0:0:30:hihat.wav
182,192,72904,1,0,0:0:0:30:soft-hitnormal.wav
256,192,72968,1,0,0:0:0:30:soft-hitnormal.wav
402,192,72968,1,0,0:0:0:30:soft-hitnormal.wav
36,192,73032,1,0,0:0:0:30:soft-hitnormal.wav
109,192,73032,1,0,0:0:0:30:crash.wav
475,192,73032,1,0,0:0:0:30:soft-hitnormal.wav
329,192,73096,1,0,0:0:0:30:soft-hitnormal.wav
256,192,73160,1,0,0:0:0:30:soft-hitnormal.wav
182,192,73224,1,0,0:0:0:30:soft-hitnormal.wav
36,192,73417,1,0,0:0:0:30:soft-hitnormal.wav
182,192,73481,1,0,0:0:0:30:soft-hitnormal.wav
329,192,73545,1,0,0:0:0:30:soft-hitnormal.wav
475,192,73609,1,0,0:0:0:30:crash.wav
402,192,73609,1,0,0:0:0:30:hihat.wav
109,192,73609,1,0,0:0:0:30:hihat.wav
36,192,73705,1,0,0:0:0:30:soft-hitnormal.wav
256,192,73705,1,0,0:0:0:30:hihat.wav
329,192,73705,1,0,0:0:0:30:hihat.wav
182,192,73801,1,0,0:0:0:30:soft-hitnormal.wav
475,192,73801,1,0,0:0:0:30:hihat.wav
402,192,73801,1,0,0:0:0:30:hihat.wav
36,192,73865,1,0,0:0:0:30:soft-hitnormal.wav
329,192,73897,1,0,0:0:0:30:hihat.wav
256,192,73897,1,0,0:0:0:30:hihat.wav
109,192,73929,1,0,0:0:0:30:soft-hitnormal.wav
182,192,73993,1,0,0:0:0:30:soft-hitnormal.wav
402,192,73993,1,0,0:0:0:30:hihat.wav
475,192,73993,1,0,0:0:0:30:hihat.wav
36,192,74058,1,0,0:0:0:30:soft-hitnormal.wav
329,192,74090,1,0,0:0:0:30:hihat.wav
256,192,74090,1,0,0:0:0:30:hihat.wav
109,192,74122,1,0,0:0:0:30:soft-hitnormal.wav
182,192,74186,1,0,0:0:0:30:soft-hitnormal.wav
402,192,74186,1,0,0:0:0:30:hihat.wav
475,192,74186,1,0,0:0:0:30:hihat.wav
36,192,74250,1,0,0:0:0:30:soft-hitnormal.wav
329,192,74282,1,0,0:0:0:30:hihat.wav
256,192,74282,1,0,0:0:0:30:hihat.wav
109,192,74314,1,0,0:0:0:30:soft-hitnormal.wav
182,192,74378,1,0,0:0:0:30:soft-hitnormal.wav
475,192,74378,1,0,0:0:0:30:hihat.wav
402,192,74378,1,0,0:0:0:30:hihat.wav
109,192,74474,1,0,0:0:0:30:soft-hitnormal.wav
329,192,74474,1,0,0:0:0:30:hihat.wav
475,192,74570,1,0,0:0:0:30:hihat.wav
36,192,74570,1,0,0:0:0:30:hihat.wav
182,192,74570,1,0,0:0:0:30:hihat.wav
402,192,74667,1,0,0:0:0:30:hihat.wav
256,192,74667,1,0,0:0:0:30:hihat.wav
36,192,74763,1,0,0:0:0:30:hihat.wav
109,192,74763,1,0,0:0:0:30:hihat.wav
182,192,74763,1,0,0:0:0:30:hihat.wav
475,192,74763,1,0,0:0:0:30:hihat.wav
329,192,74859,1,0,0:0:0:30:soft-hitnormal.wav
402,192,74955,1,0,0:0:0:30:hihat.wav
475,192,74955,1,0,0:0:0:30:hihat.wav
182,192,74955,1,0,0:0:0:30:hihat.wav
329,192,75051,1,0,0:0:0:30:hihat.wav
36,192,75051,1,0,0:0:0:30:hihat.wav
402,192,75147,1,0,0:0:0:30:hihat.wav
109,192,75147,1,0,0:0:0:30:hihat.wav
182,192,75147,1,0,0:0:0:30:hihat.wav
256,192,75243,1,0,0:0:0:30:soft-hitnormal.wav
475,192,75243,1,0,0:0:0:30:soft-hitnormal.wav
402,192,75340,1,0,0:0:0:30:soft-hitnormal.wav
36,192,75340,1,0,0:0:0:30:soft-hitnormal.wav
329,192,75340,1,0,0:0:0:30:soft-hitnormal.wav
109,192,75436,1,0,0:0:0:30:soft-hitnormal.wav
182,192,75436,1,0,0:0:0:30:soft-hitnormal.wav
402,192,75532,1,0,0:0:0:25:drum.wav
475,192,75532,1,0,0:0:0:25:drum.wav
256,192,75532,1,0,0:0:0:25:crash.wav
109,192,75628,1,0,0:0:0:25:drum.wav
182,192,75628,1,0,0:0:0:25:soft-hitnormal.wav
36,192,75628,1,0,0:0:0:25:drum.wav
475,192,75724,1,0,0:0:0:25:drum.wav
329,192,75724,1,0,0:0:0:25:soft-hitnormal.wav
402,192,75724,1,0,0:0:0:25:drum.wav
109,192,75820,1,0,0:0:0:25:drum.wav
36,192,75820,1,0,0:0:0:25:drum.wav
256,192,75820,1,0,0:0:0:25:crash.wav
402,192,75917,1,0,0:0:0:25:drum.wav
475,192,75917,1,0,0:0:0:25:drum.wav
182,192,75917,1,0,0:0:0:25:soft-hitnormal.wav
256,192,76013,1,0,0:0:0:25:drum.wav
36,192,76013,1,0,0:0:0:25:drum.wav
329,192,76013,1,0,0:0:0:25:soft-hitnormal.wav
402,192,76109,1,0,0:0:0:25:kick.wav
475,192,76109,1,0,0:0:0:25:kick.wav
109,192,76109,1,0,0:0:0:25:kick.wav
182,192,76109,1,0,0:0:0:25:crash.wav
36,192,76493,1,0,0:0:0:30:hihat.wav
256,192,76493,1,0,0:0:0:30:hihat.wav
475,192,76493,1,0,0:0:0:30:hihat.wav
402,192,76590,1,0,0:0:0:30:soft-hitnormal.wav
182,192,76686,1,0,0:0:0:30:hihat.wav
329,192,76686,1,0,0:0:0:30:hihat.wav
109,192,76782,1,0,0:0:0:30:soft-hitnormal.wav
36,192,76878,1,0,0:0:0:30:hihat.wav
256,192,76878,1,0,0:0:0:30:hihat.wav
475,192,76878,1,0,0:0:0:30:hihat.wav
109,192,76974,1,0,0:0:0:30:soft-hitnormal.wav
329,192,76974,1,0,0:0:0:30:soft-hitnormal.wav
182,192,77070,1,0,0:0:0:30:soft-hitnormal.wav
402,192,77070,1,0,0:0:0:30:soft-hitnormal.wav
256,192,77167,1,0,0:0:0:30:soft-hitnormal.wav
475,192,77167,1,0,0:0:0:30:soft-hitnormal.wav
36,192,77263,1,0,0:0:0:30:hihat.wav
109,192,77263,1,0,0:0:0:30:hihat.wav
329,192,77263,1,0,0:0:0:30:hihat.wav
182,192,77359,1,0,0:0:0:30:soft-hitnormal.wav
402,192,77359,1,0,0:0:0:30:soft-hitnormal.wav
256,192,77455,1,0,0:0:0:30:soft-hitnormal.wav
475,192,77455,1,0,0:0:0:30:soft-hitnormal.wav
182,192,77551,1,0,0:0:0:30:soft-hitnormal.wav
329,192,77551,1,0,0:0:0:30:soft-hitnormal.wav
109,192,77647,1,0,0:0:0:30:hihat.wav
475,192,77647,1,0,0:0:0:30:crash.wav
402,192,77647,1,0,0:0:0:30:hihat.wav
36,192,77743,1,0,0:0:0:30:soft-hitnormal.wav
329,192,77743,1,0,0:0:0:30:soft-hitnormal.wav
109,192,77840,1,0,0:0:0:30:hihat.wav
182,192,77840,1,0,0:0:0:30:hihat.wav
256,192,77840,1,0,0:0:0:30:hihat.wav
36,192,77936,1,0,0:0:0:30:soft-hitnormal.wav
329,192,77936,1,0,0:0:0:30:soft-hitnormal.wav
109,192,78032,1,0,0:0:0:30:soft-hitnormal.wav
402,192,78032,1,0,0:0:0:30:soft-hitnormal.wav
475,192,78128,1,0,0:0:0:30:soft-hitnormal.wav
182,192,78128,1,0,0:0:0:30:soft-hitnormal.wav
256,192,78224,1,0,0:0:0:30:hihat.wav
329,192,78224,1,0,0:0:0:30:hihat.wav
402,192,78224,1,0,0:0:0:30:hihat.wav
182,192,78320,1,0,0:0:0:30:soft-hitnormal.wav
109,192,78320,1,0,0:0:0:30:soft-hitnormal.wav
475,192,78417,1,0,0:0:0:30:hihat.wav
36,192,78417,1,0,0:0:0:30:hihat.wav
109,192,78481,1,0,0:0:0:30:hihat.wav
182,192,78481,1,0,0:0:0:30:hihat.wav
329,192,78545,1,0,0:0:0:30:hihat.wav
256,192,78545,1,0,0:0:0:30:hihat.wav
475,192,78609,1,0,0:0:0:30:hihat.wav
36,192,78609,1,0,0:0:0:30:hihat.wav
402,192,78609,1,0,0:0:0:30:hihat.wav
109,192,78673,1,0,0:0:0:30:hihat.wav
182,192,78673,1,0,0:0:0:30:hihat.wav
256,192,78737,1,0,0:0:0:30:hihat.wav
329,192,78737,1,0,0:0:0:30:hihat.wav
402,192,78801,1,0,0:0:0:30:hihat.wav
475,192,78801,1,0,0:0:0:30:hihat.wav
36,192,78865,1,0,0:0:0:30:hihat.wav
109,192,78865,1,0,0:0:0:30:hihat.wav
402,192,78929,1,0,0:0:0:30:hihat.wav
475,192,78929,1,0,0:0:0:30:hihat.wav
256,192,78993,1,0,0:0:0:30:hihat.wav
36,192,78993,1,0,0:0:0:30:drum.wav
329,192,78993,1,0,0:0:0:30:hihat.wav
109,192,79058,1,0,0:0:0:30:drum.wav
182,192,79122,1,0,0:0:0:30:drum.wav
402,192,79122,1,0,0:0:0:30:drum.wav
475,192,79122,1,0,0:0:0:30:drum.wav
329,192,79186,1,0,0:0:0:30:drum.wav
36,192,79250,1,0,0:0:0:30:drum.wav
256,192,79250,1,0,0:0:0:30:drum.wav
109,192,79314,1,0,0:0:0:30:drum.wav
475,192,79378,1,0,0:0:0:30:drum.wav
329,192,79378,1,0,0:0:0:30:drum.wav
182,192,79378,1,0,0:0:0:30:drum.wav
109,192,79570,1,0,0:0:0:30:drum.wav
36,192,79570,1,0,0:0:0:30:drum.wav
402,192,79570,1,0,0:0:0:30:drum.wav
475,192,79570,1,0,0:0:0:30:drum.wav
182,192,79667,1,0,0:0:0:30:soft-hitnormal.wav
329,192,79667,1,0,0:0:0:30:soft-hitnormal.wav
109,192,79763,1,0,0:0:0:30:soft-hitnormal.wav
256,192,79763,1,0,0:0:0:30:soft-hitnormal.wav
182,192,79859,1,0,0:0:0:30:soft-hitnormal.wav
329,192,79859,1,0,0:0:0:30:soft-hitnormal.wav
402,192,79955,1,0,0:0:0:30:soft-hitnormal.wav
256,192,79955,1,0,0:0:0:30:soft-hitnormal.wav
182,192,80051,1,0,0:0:0:30:soft-hitnormal.wav
329,192,80051,1,0,0:0:0:30:soft-hitnormal.wav
36,192,80147,1,0,0:0:0:30:drum.wav
109,192,80147,1,0,0:0:0:30:drum.wav
402,192,80147,1,0,0:0:0:30:drum.wav
475,192,80147,1,0,0:0:0:30:drum.wav
329,192,80243,1,0,0:0:0:30:soft-hitnormal.wav
182,192,80243,1,0,0:0:0:30:soft-hitnormal.wav
256,192,80340,1,0,0:0:0:30:soft-hitnormal.wav
402,192,80340,1,0,0:0:0:30:soft-hitnormal.wav
182,192,80436,1,0,0:0:0:30:soft-hitnormal.wav
329,192,80436,1,0,0:0:0:30:soft-hitnormal.wav
109,192,80532,1,0,0:0:0:30:soft-hitnormal.wav
256,192,80532,1,0,0:0:0:30:soft-hitnormal.wav
329,192,80628,1,0,0:0:0:30:soft-hitnormal.wav
182,192,80628,1,0,0:0:0:30:soft-hitnormal.wav
475,192,80724,1,0,0:0:0:30:drum.wav
109,192,80724,1,0,0:0:0:30:drum.wav
36,192,80724,1,0,0:0:0:30:drum.wav
402,192,80724,1,0,0:0:0:30:drum.wav
329,192,80820,1,0,0:0:0:30:soft-hitnormal.wav
182,192,80820,1,0,0:0:0:30:soft-hitnormal.wav
109,192,80917,1,0,0:0:0:30:soft-hitnormal.wav
256,192,80917,1,0,0:0:0:30:soft-hitnormal.wav
182,192,81013,1,0,0:0:0:30:soft-hitnormal.wav
329,192,81013,1,0,0:0:0:30:soft-hitnormal.wav
256,192,81109,1,0,0:0:0:30:soft-hitnormal.wav
402,192,81109,1,0,0:0:0:30:soft-hitnormal.wav
329,192,81205,1,0,0:0:0:30:soft-hitnormal.wav
182,192,81205,1,0,0:0:0:30:soft-hitnormal.wav
36,192,81301,1,0,0:0:0:30:drum.wav
402,192,81301,1,0,0:0:0:30:drum.wav
475,192,81301,1,0,0:0:0:30:drum.wav
109,192,81301,1,0,0:0:0:30:drum.wav
182,192,81397,1,0,0:0:0:30:hihat.wav
329,192,81397,1,0,0:0:0:30:hihat.wav
36,192,81493,5,0,0:0:0:30:hihat.wav
475,192,81493,1,0,0:0:0:30:hihat.wav
109,192,81558,1,0,0:0:0:30:hihat.wav
402,192,81558,1,0,0:0:0:30:hihat.wav
182,192,81622,1,0,0:0:0:30:hihat.wav
329,192,81622,1,0,0:0:0:30:hihat.wav
256,192,81686,1,0,0:0:0:30:hihat.wav
36,192,81686,1,0,0:0:0:30:hihat.wav
475,192,81686,1,0,0:0:0:30:hihat.wav
402,192,81750,1,0,0:0:0:30:hihat.wav
109,192,81750,1,0,0:0:0:30:hihat.wav
329,192,81814,1,0,0:0:0:30:hihat.wav
182,192,81878,1,0,0:0:0:30:drum.wav
36,192,81878,1,0,0:0:0:30:drum.wav
329,192,81942,1,0,0:0:0:30:drum.wav
475,192,81942,1,0,0:0:0:30:drum.wav
182,192,82006,1,0,0:0:0:30:drum.wav
36,192,82006,1,0,0:0:0:30:drum.wav
329,192,82070,1,0,0:0:0:30:drum.wav
475,192,82070,1,0,0:0:0:30:drum.wav
109,192,82167,1,0,0:0:0:30:drum.wav
182,192,82167,1,0,0:0:0:30:drum.wav
329,192,82263,1,0,0:0:0:30:drum.wav
402,192,82263,1,0,0:0:0:30:drum.wav
109,192,82359,1,0,0:0:0:30:drum.wav
182,192,82359,1,0,0:0:0:30:drum.wav
256,192,82359,1,0,0:0:0:30:drum.wav
36,192,82455,1,0,0:0:0:30:hihat.wav
402,192,82647,1,0,0:0:0:30:drum.wav
475,192,82647,1,0,0:0:0:30:drum.wav
329,192,82647,1,0,0:0:0:30:drum.wav
256,192,82647,1,0,0:0:0:30:drum.wav
182,192,82743,1,0,0:0:0:30:soft-hitnormal.wav
36,192,82840,1,0,0:0:0:30:soft-hitnormal.wav
109,192,82840,1,0,0:0:0:30:soft-hitnormal.wav
329,192,82936,1,0,0:0:0:30:soft-hitnormal.wav
402,192,82936,1,0,0:0:0:30:soft-hitnormal.wav
109,192,83032,1,0,0:0:0:30:soft-hitnormal.wav
182,192,83032,1,0,0:0:0:30:soft-hitnormal.wav
402,192,83128,1,0,0:0:0:30:soft-hitnormal.wav
475,192,83128,1,0,0:0:0:30:soft-hitnormal.wav
36,192,83224,1,0,0:0:0:30:drum.wav
109,192,83224,1,0,0:0:0:30:drum.wav
182,192,83224,1,0,0:0:0:30:drum.wav
256,192,83224,1,0,0:0:0:30:drum.wav
329,192,83320,1,0,0:0:0:30:soft-hitnormal.wav
402,192,83417,1,0,0:0:0:30:soft-hitnormal.wav
475,192,83417,1,0,0:0:0:30:soft-hitnormal.wav
109,192,83513,1,0,0:0:0:30:soft-hitnormal.wav
182,192,83513,1,0,0:0:0:30:soft-hitnormal.wav
329,192,83609,1,0,0:0:0:30:soft-hitnormal.wav
402,192,83609,1,0,0:0:0:30:soft-hitnormal.wav
109,192,83705,1,0,0:0:0:30:soft-hitnormal.wav
36,192,83705,1,0,0:0:0:30:soft-hitnormal.wav
329,192,83801,1,0,0:0:0:30:drum.wav
402,192,83801,1,0,0:0:0:30:drum.wav
475,192,83801,1,0,0:0:0:30:drum.wav
256,192,83801,1,0,0:0:0:30:drum.wav
182,192,83897,1,0,0:0:0:30:soft-hitnormal.wav
109,192,83993,1,0,0:0:0:30:soft-hitnormal.wav
36,192,84090,1,0,0:0:0:30:soft-hitnormal.wav
256,192,84090,1,0,0:0:0:30:soft-hitnormal.wav
109,192,84186,1,0,0:0:0:30:soft-hitnormal.wav
475,192,84186,1,0,0:0:0:30:soft-hitnormal.wav
402,192,84250,1,0,0:0:0:30:soft-hitnormal.wav
182,192,84282,1,0,0:0:0:30:soft-hitnormal.wav
329,192,84314,1,0,0:0:0:30:soft-hitnormal.wav
36,192,84378,1,0,0:0:0:30:drum.wav
256,192,84378,1,0,0:0:0:30:drum.wav
475,192,84378,1,0,0:0:0:30:drum.wav
109,192,84378,1,0,0:0:0:30:drum.wav
329,192,84474,1,0,0:0:0:30:hihat.wav
182,192,84474,1,0,0:0:0:30:hihat.wav
109,192,84570,1,0,0:0:0:30:hihat.wav
36,192,84570,1,0,0:0:0:30:hihat.wav
329,192,84667,1,0,0:0:0:30:hihat.wav
402,192,84667,1,0,0:0:0:30:hihat.wav
109,192,84763,1,0,0:0:0:30:drum.wav
182,192,84763,1,0,0:0:0:30:drum.wav
36,192,84827,1,0,0:0:0:30:hihat.wav
402,192,84859,1,0,0:0:0:30:drum.wav
475,192,84859,1,0,0:0:0:30:drum.wav
256,192,84859,1,0,0:0:0:30:drum.wav
182,192,84955,1,0,0:0:0:30:drum.wav
109,192,84955,1,0,0:0:0:30:drum.wav
329,192,85019,1,0,0:0:0:30:drum.wav
402,192,85019,1,0,0:0:0:30:drum.wav
109,192,85083,1,0,0:0:0:30:drum.wav
36,192,85083,1,0,0:0:0:30:drum.wav
256,192,85147,1,0,0:0:0:30:drum.wav
475,192,85147,1,0,0:0:0:30:drum.wav
402,192,85147,1,0,0:0:0:30:drum.wav
402,192,85243,1,0,0:0:0:30:drum.wav
475,192,85243,1,0,0:0:0:30:drum.wav
36,192,85340,1,0,0:0:0:30:drum.wav
109,192,85340,1,0,0:0:0:30:drum.wav
402,192,85436,1,0,0:0:0:30:drum.wav
182,192,85436,1,0,0:0:0:30:drum.wav
329,192,85436,1,0,0:0:0:30:drum.wav
36,192,85724,1,0,0:0:0:30:drum.wav
329,192,85724,1,0,0:0:0:30:drum.wav
475,192,85724,1,0,0:0:0:30:drum.wav
182,192,85724,1,0,0:0:0:30:drum.wav
402,192,85820,1,0,0:0:0:30:soft-hitnormal.wav
109,192,85917,1,0,0:0:0:30:soft-hitnormal.wav
256,192,85917,1,0,0:0:0:30:soft-hitnormal.wav
329,192,86013,1,0,0:0:0:30:soft-hitnormal.wav
475,192,86013,1,0,0:0:0:30:soft-hitnormal.wav
182,192,86109,1,0,0:0:0:30:soft-hitnormal.wav
36,192,86109,1,0,0:0:0:30:soft-hitnormal.wav
256,192,86205,1,0,0:0:0:30:soft-hitnormal.wav
402,192,86205,1,0,0:0:0:30:soft-hitnormal.wav
36,192,86301,1,0,0:0:0:30:drum.wav
182,192,86301,1,0,0:0:0:30:drum.wav
329,192,86301,1,0,0:0:0:30:drum.wav
475,192,86301,1,0,0:0:0:30:drum.wav
109,192,86397,1,0,0:0:0:30:soft-hitnormal.wav
256,192,86493,1,0,0:0:0:30:soft-hitnormal.wav
402,192,86493,1,0,0:0:0:30:soft-hitnormal.wav
36,192,86590,1,0,0:0:0:30:soft-hitnormal.wav
182,192,86590,1,0,0:0:0:30:soft-hitnormal.wav
109,192,86686,1,0,0:0:0:30:soft-hitnormal.wav
402,192,86686,1,0,0:0:0:30:soft-hitnormal.wav
182,192,86750,1,0,0:0:0:30:soft-hitnormal.wav
329,192,86750,1,0,0:0:0:30:soft-hitnormal.wav
256,192,86814,1,0,0:0:0:30:soft-hitnormal.wav
36,192,86878,1,0,0:0:0:30:drum.wav
475,192,86878,1,0,0:0:0:30:drum.wav
329,192,86878,1,0,0:0:0:30:drum.wav
182,192,86878,1,0,0:0:0:30:drum.wav
402,192,86974,1,0,0:0:0:30:soft-hitnormal.wav
109,192,87070,1,0,0:0:0:30:soft-hitnormal.wav
256,192,87070,1,0,0:0:0:30:soft-hitnormal.wav
329,192,87167,1,0,0:0:0:30:soft-hitnormal.wav
475,192,87167,1,0,0:0:0:30:soft-hitnormal.wav
36,192,87263,1,0,0:0:0:30:soft-hitnormal.wav
182,192,87263,1,0,0:0:0:30:soft-hitnormal.wav
256,192,87359,1,0,0:0:0:30:soft-hitnormal.wav
402,192,87359,1,0,0:0:0:30:soft-hitnormal.wav
475,192,87455,1,0,0:0:0:30:drum.wav
109,192,87455,1,0,0:0:0:30:drum.wav
36,192,87455,1,0,0:0:0:30:drum.wav
402,192,87519,1,0,0:0:0:30:hihat.wav
182,192,87551,1,0,0:0:0:30:hihat.wav
329,192,87583,1,0,0:0:0:30:hihat.wav
36,192,87647,1,0,0:0:0:30:hihat.wav
256,192,87647,1,0,0:0:0:30:hihat.wav
109,192,87711,1,0,0:0:0:30:hihat.wav
329,192,87743,1,0,0:0:0:30:hihat.wav
182,192,87775,1,0,0:0:0:30:hihat.wav
256,192,87840,1,0,0:0:0:30:hihat.wav
475,192,87840,1,0,0:0:0:30:hihat.wav
182,192,87936,1,0,0:0:0:30:hihat.wav
402,192,87936,1,0,0:0:0:30:hihat.wav
109,192,88032,1,0,0:0:0:30:hihat.wav
329,192,88032,1,0,0:0:0:30:hihat.wav
36,192,88128,1,0,0:0:0:30:hihat.wav
256,192,88128,1,0,0:0:0:30:hihat.wav
402,192,88224,1,0,0:0:0:30:drum.wav
475,192,88224,1,0,0:0:0:30:drum.wav
182,192,88224,1,0,0:0:0:30:
36,192,88320,1,0,0:0:0:30:drum.wav
109,192,88320,1,0,0:0:0:30:drum.wav
329,192,88417,1,0,0:0:0:30:drum.wav
402,192,88417,1,0,0:0:0:30:drum.wav
475,192,88417,1,0,0:0:0:30:drum.wav
182,192,88513,1,0,0:0:0:30:drum.wav
109,192,88513,1,0,0:0:0:30:drum.wav
36,192,88513,1,0,0:0:0:30:drum.wav
329,192,88609,1,0,0:0:0:30:hihat.wav
182,192,88801,1,0,0:0:0:30:drum.wav
109,192,88801,1,0,0:0:0:30:drum.wav
36,192,88801,1,0,0:0:0:30:drum.wav
256,192,88801,1,0,0:0:0:30:drum.wav
329,192,88897,1,0,0:0:0:30:soft-hitnormal.wav
402,192,88993,1,0,0:0:0:30:soft-hitnormal.wav
475,192,88993,1,0,0:0:0:30:soft-hitnormal.wav
109,192,89090,1,0,0:0:0:30:soft-hitnormal.wav
182,192,89090,1,0,0:0:0:30:soft-hitnormal.wav
402,192,89186,1,0,0:0:0:30:soft-hitnormal.wav
329,192,89186,1,0,0:0:0:30:soft-hitnormal.wav
109,192,89282,1,0,0:0:0:30:soft-hitnormal.wav
36,192,89282,1,0,0:0:0:30:soft-hitnormal.wav
475,192,89378,1,0,0:0:0:30:drum.wav
402,192,89378,1,0,0:0:0:30:drum.wav
329,192,89378,1,0,0:0:0:30:drum.wav
256,192,89378,1,0,0:0:0:30:drum.wav
182,192,89474,1,0,0:0:0:30:soft-hitnormal.wav
36,192,89570,1,0,0:0:0:30:soft-hitnormal.wav
109,192,89570,1,0,0:0:0:30:soft-hitnormal.wav
329,192,89667,1,0,0:0:0:30:soft-hitnormal.wav
402,192,89667,1,0,0:0:0:30:soft-hitnormal.wav
109,192,89763,1,0,0:0:0:30:soft-hitnormal.wav
182,192,89763,1,0,0:0:0:30:soft-hitnormal.wav
402,192,89859,1,0,0:0:0:30:soft-hitnormal.wav
475,192,89859,1,0,0:0:0:30:soft-hitnormal.wav
36,192,89955,1,0,0:0:0:30:drum.wav
109,192,89955,1,0,0:0:0:30:drum.wav
182,192,89955,1,0,0:0:0:30:drum.wav
256,192,89955,1,0,0:0:0:30:drum.wav
329,192,90051,1,0,0:0:0:30:soft-hitnormal.wav
475,192,90051,1,0,0:0:0:30:soft-hitnormal.wav
256,192,90147,1,0,0:0:0:30:soft-hitnormal.wav
402,192,90147,1,0,0:0:0:30:soft-hitnormal.wav
182,192,90243,1,0,0:0:0:30:soft-hitnormal.wav
329,192,90243,1,0,0:0:0:30:soft-hitnormal.wav
109,192,90340,1,0,0:0:0:30:soft-hitnormal.wav
402,192,90340,1,0,0:0:0:30:soft-hitnormal.wav
475,192,90436,1,0,0:0:0:30:soft-hitnormal.wav
36,192,90436,1,0,0:0:0:30:soft-hitnormal.wav
329,192,90532,1,0,0:0:0:30:soft-hitnormal.wav
109,192,90532,1,0,0:0:0:30:soft-hitnormal.wav
256,192,90596,1,0,0:0:0:30:soft-hitnormal.wav
182,192,90660,1,0,0:0:0:30:soft-hitnormal.wav
329,192,90724,1,0,0:0:0:30:soft-hitnormal.wav
36,192,90724,1,0,0:0:0:30:soft-hitnormal.wav
109,192,90788,1,0,0:0:0:30:soft-hitnormal.wav
475,192,90788,1,0,0:0:0:30:soft-hitnormal.wav
182,192,90852,1,0,0:0:0:30:soft-hitnormal.wav
402,192,90852,1,0,0:0:0:30:soft-hitnormal.wav
36,192,90917,1,0,0:0:0:30:soft-hitnormal.wav
329,192,90917,1,0,0:0:0:30:soft-hitnormal.wav
109,192,90981,1,0,0:0:0:30:soft-hitnormal.wav
475,192,90981,1,0,0:0:0:30:soft-hitnormal.wav
182,192,91045,1,0,0:0:0:30:soft-hitnormal.wav
402,192,91045,1,0,0:0:0:30:soft-hitnormal.wav
329,192,91109,1,0,0:0:0:30:soft-hitnormal.wav
256,192,91173,1,0,0:0:0:30:soft-hitnormal.wav
182,192,91237,1,0,0:0:0:30:soft-hitnormal.wav
475,192,91301,1,0,0:0:0:30:hihat.wav
402,192,91301,1,0,0:0:0:30:hihat.wav
109,192,91301,1,0,0:0:0:30:drum.wav
36,192,91301,1,0,0:0:0:30:drum.wav
329,192,91365,1,0,0:0:0:30:hihat.wav
182,192,91429,1,0,0:0:0:30:hihat.wav
475,192,91429,1,0,0:0:0:30:hihat.wav
402,192,91429,1,0,0:0:0:30:hihat.wav
256,192,91493,1,0,0:0:0:30:hihat.wav
36,192,91493,1,0,0:0:0:30:drum.wav
109,192,91493,1,0,0:0:0:30:drum.wav
329,192,91558,1,0,0:0:0:30:hihat.wav
475,192,91558,1,0,0:0:0:30:hihat.wav
402,192,91558,1,0,0:0:0:30:hihat.wav
182,192,91622,1,0,0:0:0:30:hihat.wav
475,192,91686,1,0,0:0:0:30:hihat.wav
402,192,91686,1,0,0:0:0:30:hihat.wav
109,192,91686,1,0,0:0:0:30:drum.wav
36,192,91686,1,0,0:0:0:30:drum.wav
36,192,92070,1,0,0:0:0:30:crash.wav
109,192,92070,1,0,0:0:0:30:crash.wav
256,192,92070,1,0,0:0:0:30:crash.wav
402,192,92070,1,0,0:0:0:30:crash.wav
475,192,92070,1,0,0:0:0:30:crash.wav
475,192,92455,1,0,0:0:0:30:hihat.wav
329,192,92551,1,0,0:0:0:30:hihat.wav
182,192,92647,1,0,0:0:0:30:hihat.wav
109,192,92743,1,0,0:0:0:30:hihat.wav
36,192,92840,1,0,0:0:0:30:hihat.wav
329,192,92840,1,0,0:0:0:30:hihat.wav
256,192,92840,1,0,0:0:0:30:hihat.wav
402,192,92904,1,0,0:0:0:30:hihat.wav
475,192,92968,1,0,0:0:0:30:hihat.wav
36,192,93032,1,0,0:0:0:30:hihat.wav
109,192,93096,1,0,0:0:0:30:hihat.wav
182,192,93160,1,0,0:0:0:30:hihat.wav
475,192,93224,1,0,0:0:0:30:hihat.wav
256,192,93224,1,0,0:0:0:30:hihat.wav
36,192,93288,1,0,0:0:0:30:hihat.wav
402,192,93288,1,0,0:0:0:30:hihat.wav
109,192,93352,1,0,0:0:0:30:hihat.wav
329,192,93352,1,0,0:0:0:30:hihat.wav
182,192,93417,1,0,0:0:0:30:hihat.wav
475,192,93417,1,0,0:0:0:30:hihat.wav
36,192,93481,1,0,0:0:0:30:hihat.wav
402,192,93481,1,0,0:0:0:30:hihat.wav
109,192,93545,1,0,0:0:0:30:hihat.wav
329,192,93545,1,0,0:0:0:30:hihat.wav
256,192,93609,1,0,0:0:0:30:hihat.wav
475,192,93609,1,0,0:0:0:30:hihat.wav
182,192,93673,1,0,0:0:0:30:hihat.wav
402,192,93673,1,0,0:0:0:30:hihat.wav
109,192,93737,1,0,0:0:0:30:hihat.wav
329,192,93737,1,0,0:0:0:30:hihat.wav
36,192,93801,1,0,0:0:0:30:hihat.wav
256,192,93801,1,0,0:0:0:30:hihat.wav
109,192,93865,1,0,0:0:0:30:hihat.wav
475,192,93865,1,0,0:0:0:30:hihat.wav
182,192,93929,1,0,0:0:0:30:hihat.wav
402,192,93929,1,0,0:0:0:30:hihat.wav
256,192,93993,1,0,0:0:0:30:hihat.wav
329,192,93993,1,0,0:0:0:30:hihat.wav
475,192,94058,1,0,0:0:0:30:hihat.wav
109,192,94058,1,0,0:0:0:30:hihat.wav
402,192,94122,1,0,0:0:0:30:hihat.wav
36,192,94122,1,0,0:0:0:30:hihat.wav
182,192,94186,1,0,0:0:0:30:hihat.wav
256,192,94186,1,0,0:0:0:30:hihat.wav
109,192,94250,1,0,0:0:0:30:hihat.wav
329,192,94250,1,0,0:0:0:30:hihat.wav
36,192,94314,1,0,0:0:0:30:hihat.wav
402,192,94314,1,0,0:0:0:30:hihat.wav
475,192,94378,1,0,0:0:0:30:hihat.wav
182,192,94378,1,0,0:0:0:30:hihat.wav
256,192,94442,1,0,0:0:0:30:hihat.wav
329,192,94506,1,0,0:0:0:30:hihat.wav
402,192,94570,1,0,0:0:0:30:hihat.wav
256,192,94763,1,0,0:0:0:25:crash.wav
36,192,94763,1,0,0:0:0:25:crash.wav
475,192,94763,1,0,0:0:0:25:crash.wav
475,192,95147,1,0,0:0:0:30:soft-hitnormal.wav
329,192,95147,1,0,0:0:0:30:soft-hitnormal.wav
329,192,95340,1,0,0:0:0:30:soft-hitnormal.wav
182,192,95340,1,0,0:0:0:30:soft-hitnormal.wav
36,192,95532,1,0,0:0:0:20:drum.wav
182,192,95532,1,0,0:0:0:20:drum.wav
329,192,95628,1,0,0:0:0:20:drum.wav
475,192,95628,1,0,0:0:0:20:drum.wav
36,192,95724,1,0,0:0:0:20:drum.wav
182,192,95724,1,0,0:0:0:20:drum.wav
329,192,95820,1,0,0:0:0:20:drum.wav
475,192,95820,1,0,0:0:0:20:drum.wav
182,192,95917,1,0,0:0:0:20:drum.wav
109,192,95917,1,0,0:0:0:20:drum.wav
475,192,96013,1,0,0:0:0:20:drum.wav
402,192,96013,1,0,0:0:0:20:drum.wav
182,192,96109,1,0,0:0:0:20:drum.wav
109,192,96109,1,0,0:0:0:20:drum.wav
475,192,96205,1,0,0:0:0:20:drum.wav
402,192,96205,1,0,0:0:0:20:drum.wav
109,192,96301,1,0,0:0:0:20:drum.wav
36,192,96301,1,0,0:0:0:20:drum.wav
402,192,96397,1,0,0:0:0:20:drum.wav
329,192,96397,1,0,0:0:0:20:drum.wav
109,192,96493,1,0,0:0:0:20:drum.wav
36,192,96493,1,0,0:0:0:20:drum.wav
402,192,96590,1,0,0:0:0:20:drum.wav
329,192,96590,1,0,0:0:0:20:drum.wav
182,192,96686,1,0,0:0:0:20:drum.wav
36,192,96686,1,0,0:0:0:20:drum.wav
475,192,96782,1,0,0:0:0:20:drum.wav
329,192,96782,1,0,0:0:0:20:drum.wav
182,192,96878,1,0,0:0:0:20:drum.wav
36,192,96878,1,0,0:0:0:20:drum.wav
475,192,96974,1,0,0:0:0:20:drum.wav
329,192,96974,1,0,0:0:0:20:drum.wav
109,192,97070,1,0,0:0:0:20:drum.wav
182,192,97070,1,0,0:0:0:20:drum.wav
329,192,97134,1,0,0:0:0:20:drum.wav
402,192,97134,1,0,0:0:0:20:drum.wav
109,192,97199,1,0,0:0:0:20:drum.wav
182,192,97199,1,0,0:0:0:20:drum.wav
475,192,97263,1,0,0:0:0:20:drum.wav
402,192,97263,1,0,0:0:0:20:drum.wav
109,192,97327,1,0,0:0:0:20:drum.wav
36,192,97327,1,0,0:0:0:20:drum.wav
475,192,97391,1,0,0:0:0:20:drum.wav
402,192,97391,1,0,0:0:0:20:drum.wav
182,192,97455,1,0,0:0:0:25:drum.wav
256,192,97455,1,0,0:0:0:25:drum.wav
329,192,97455,1,0,0:0:0:25:drum.wav
36,192,97840,1,0,0:0:0:30:hihat.wav
329,192,97840,1,0,0:0:0:30:hihat.wav
475,192,97840,1,0,0:0:0:30:hihat.wav
256,192,98032,1,0,0:0:0:30:soft-hitnormal.wav
402,192,98032,1,0,0:0:0:30:soft-hitnormal.wav
182,192,98128,1,0,0:0:0:30:soft-hitnormal.wav
36,192,98224,1,0,0:0:0:30:cymbol.wav
109,192,98224,1,0,0:0:0:30:cymbol.wav
402,192,98224,1,0,0:0:0:30:drum.wav
475,192,98224,1,0,0:0:0:30:drum.wav
329,192,98224,1,0,0:0:0:30:drum.wav
182,192,98320,1,0,0:0:0:30:soft-hitnormal.wav
256,192,98417,1,0,0:0:0:30:soft-hitnormal.wav
329,192,98513,1,0,0:0:0:30:soft-hitnormal.wav
402,192,98513,1,0,0:0:0:30:soft-hitnormal.wav
182,192,98609,1,0,0:0:0:30:soft-hitnormal.wav
109,192,98705,1,0,0:0:0:30:soft-hitnormal.wav
36,192,98705,1,0,0:0:0:30:soft-hitnormal.wav
256,192,98801,1,0,0:0:0:30:cymbol.wav
329,192,98801,1,0,0:0:0:30:cymbol.wav
402,192,98801,1,0,0:0:0:30:drum.wav
475,192,98801,1,0,0:0:0:30:drum.wav
182,192,98801,1,0,0:0:0:30:drum.wav
109,192,98897,1,0,0:0:0:30:soft-hitnormal.wav
36,192,98993,1,0,0:0:0:30:soft-hitnormal.wav
402,192,98993,1,0,0:0:0:30:soft-hitnormal.wav
329,192,99090,1,0,0:0:0:30:soft-hitnormal.wav
256,192,99186,1,0,0:0:0:30:soft-hitnormal.wav
182,192,99250,1,0,0:0:0:30:soft-hitnormal.wav
109,192,99314,1,0,0:0:0:30:soft-hitnormal.wav
329,192,99378,1,0,0:0:0:30:soft-hitnormal.wav
36,192,99378,1,0,0:0:0:30:soft-hitnormal.wav
256,192,99474,1,0,0:0:0:30:soft-hitnormal.wav
36,192,99570,1,0,0:0:0:30:drum.wav
109,192,99570,1,0,0:0:0:30:drum.wav
402,192,99570,1,0,0:0:0:30:cymbol.wav
475,192,99570,1,0,0:0:0:30:cymbol.wav
182,192,99570,1,0,0:0:0:30:drum.wav
329,192,99667,1,0,0:0:0:30:soft-hitnormal.wav
182,192,99763,1,0,0:0:0:30:soft-hitnormal.wav
256,192,99763,1,0,0:0:0:30:soft-hitnormal.wav
36,192,99859,1,0,0:0:0:30:cymbol.wav
109,192,99859,1,0,0:0:0:30:cymbol.wav
402,192,99859,1,0,0:0:0:30:drum.wav
475,192,99859,1,0,0:0:0:30:drum.wav
329,192,99859,1,0,0:0:0:30:drum.wav
182,192,99955,1,0,0:0:0:30:soft-hitnormal.wav
109,192,100051,1,0,0:0:0:30:soft-hitnormal.wav
402,192,100051,1,0,0:0:0:30:soft-hitnormal.wav
329,192,100147,1,0,0:0:0:30:soft-hitnormal.wav
36,192,100243,1,0,0:0:0:30:drum.wav
109,192,100243,1,0,0:0:0:30:drum.wav
402,192,100243,1,0,0:0:0:30:cymbol.wav
475,192,100243,1,0,0:0:0:30:cymbol.wav
182,192,100243,1,0,0:0:0:30:drum.wav
256,192,100340,1,0,0:0:0:30:soft-hitnormal.wav
36,192,100436,1,0,0:0:0:30:cymbol.wav
109,192,100436,1,0,0:0:0:30:cymbol.wav
402,192,100436,1,0,0:0:0:30:drum.wav
475,192,100436,1,0,0:0:0:30:drum.wav
329,192,100436,1,0,0:0:0:30:drum.wav
182,192,100532,1,0,0:0:0:30:soft-hitnormal.wav
256,192,100628,1,0,0:0:0:30:soft-hitnormal.wav
329,192,100628,1,0,0:0:0:30:soft-hitnormal.wav
36,192,100724,1,0,0:0:0:30:hihat.wav
109,192,100724,1,0,0:0:0:30:hihat.wav
475,192,100724,1,0,0:0:0:30:hihat.wav
402,192,100724,1,0,0:0:0:30:hihat.wav
182,192,100820,1,0,0:0:0:30:soft-hitnormal.wav
329,192,100820,1,0,0:0:0:30:soft-hitnormal.wav
256,192,100917,1,0,0:0:0:30:soft-hitnormal.wav
402,192,100917,1,0,0:0:0:30:soft-hitnormal.wav
182,192,101013,1,0,0:0:0:30:soft-hitnormal.wav
36,192,101109,1,0,0:0:0:30:hihat.wav
109,192,101109,1,0,0:0:0:30:hihat.wav
402,192,101109,1,0,0:0:0:30:hihat.wav
475,192,101109,1,0,0:0:0:30:hihat.wav
182,192,101205,1,0,0:0:0:30:soft-hitnormal.wav
256,192,101301,1,0,0:0:0:30:soft-hitnormal.wav
329,192,101301,1,0,0:0:0:30:soft-hitnormal.wav
182,192,101397,1,0,0:0:0:30:soft-hitnormal.wav
109,192,101493,1,0,0:0:0:30:soft-hitnormal.wav
402,192,101493,1,0,0:0:0:30:soft-hitnormal.wav
182,192,101590,1,0,0:0:0:30:soft-hitnormal.wav
329,192,101590,1,0,0:0:0:30:soft-hitnormal.wav
475,192,101686,1,0,0:0:0:30:drum.wav
402,192,101686,1,0,0:0:0:30:drum.wav
109,192,101686,1,0,0:0:0:30:cymbol.wav
36,192,101686,1,0,0:0:0:30:cymbol.wav
256,192,101686,1,0,0:0:0:30:drum.wav
329,192,101782,1,0,0:0:0:30:soft-hitnormal.wav
402,192,101878,1,0,0:0:0:30:soft-hitnormal.wav
36,192,101878,1,0,0:0:0:30:
109,192,101974,1,0,0:0:0:30:soft-hitnormal.wav
182,192,102022,1,0,0:0:0:30:soft-hitnormal.wav
256,192,102070,1,0,0:0:0:30:soft-hitnormal.wav
402,192,102167,1,0,0:0:0:30:drum.wav
475,192,102167,1,0,0:0:0:30:drum.wav
36,192,102167,1,0,0:0:0:30:cymbol.wav
109,192,102167,1,0,0:0:0:30:cymbol.wav
329,192,102167,1,0,0:0:0:30:drum.wav
256,192,102263,1,0,0:0:0:30:soft-hitnormal.wav
182,192,102263,1,0,0:0:0:30:soft-hitnormal.wav
402,192,102359,1,0,0:0:0:30:drum.wav
475,192,102359,1,0,0:0:0:30:drum.wav
36,192,102359,1,0,0:0:0:30:cymbol.wav
109,192,102359,1,0,0:0:0:30:cymbol.wav
329,192,102359,1,0,0:0:0:30:drum.wav
256,192,102455,1,0,0:0:0:30:soft-hitnormal.wav
402,192,102551,1,0,0:0:0:30:cymbol.wav
475,192,102551,1,0,0:0:0:30:cymbol.wav
36,192,102551,1,0,0:0:0:30:drum.wav
109,192,102551,1,0,0:0:0:30:drum.wav
182,192,102551,1,0,0:0:0:30:drum.wav
256,192,102647,1,0,0:0:0:30:soft-hitnormal.wav
329,192,102647,1,0,0:0:0:30:soft-hitnormal.wav
182,192,102743,1,0,0:0:0:30:soft-hitnormal.wav
36,192,102840,1,0,0:0:0:30:soft-hitnormal.wav
402,192,102840,1,0,0:0:0:30:soft-hitnormal.wav
329,192,102936,1,0,0:0:0:30:soft-hitnormal.wav
36,192,103032,1,0,0:0:0:30:drum.wav
109,192,103032,1,0,0:0:0:30:drum.wav
182,192,103032,1,0,0:0:0:30:drum.wav
402,192,103032,1,0,0:0:0:30:cymbol.wav
475,192,103032,1,0,0:0:0:30:cymbol.wav
329,192,103128,1,0,0:0:0:30:soft-hitnormal.wav
256,192,103224,1,0,0:0:0:30:soft-hitnormal.wav
36,192,103224,1,0,0:0:0:30:soft-hitnormal.wav
109,192,103320,1,0,0:0:0:30:soft-hitnormal.wav
182,192,103417,1,0,0:0:0:30:soft-hitnormal.wav
402,192,103417,1,0,0:0:0:30:soft-hitnormal.wav
109,192,103513,1,0,0:0:0:30:hihat.wav
256,192,103513,1,0,0:0:0:30:hihat.wav
329,192,103561,1,0,0:0:0:30:hihat.wav
402,192,103609,1,0,0:0:0:30:drum.wav
36,192,103609,1,0,0:0:0:30:drum.wav
182,192,103609,1,0,0:0:0:30:drum.wav
475,192,103609,1,0,0:0:0:30:drum.wav
109,192,103705,1,0,0:0:0:30:soft-hitnormal.wav
256,192,103705,1,0,0:0:0:30:soft-hitnormal.wav
329,192,103801,1,0,0:0:0:30:soft-hitnormal.wav
36,192,103801,1,0,0:0:0:30:soft-hitnormal.wav
402,192,103897,1,0,0:0:0:30:soft-hitnormal.wav
182,192,103897,1,0,0:0:0:30:soft-hitnormal.wav
475,192,103993,1,0,0:0:0:30:soft-hitnormal.wav
109,192,103993,1,0,0:0:0:30:soft-hitnormal.wav
256,192,104090,1,0,0:0:0:30:soft-hitnormal.wav
329,192,104186,1,0,0:0:0:30:soft-hitnormal.wav
402,192,104186,1,0,0:0:0:30:soft-hitnormal.wav
256,192,104282,1,0,0:0:0:30:soft-hitnormal.wav
182,192,104282,1,0,0:0:0:30:soft-hitnormal.wav
36,192,104378,1,0,0:0:0:30:cymbol.wav
109,192,104378,1,0,0:0:0:30:cymbol.wav
402,192,104378,1,0,0:0:0:30:drum.wav
475,192,104378,1,0,0:0:0:30:drum.wav
329,192,104378,1,0,0:0:0:30:drum.wav
182,192,104474,1,0,0:0:0:30:soft-hitnormal.wav
256,192,104570,1,0,0:0:0:30:soft-hitnormal.wav
109,192,104667,1,0,0:0:0:30:soft-hitnormal.wav
329,192,104667,1,0,0:0:0:30:soft-hitnormal.wav
182,192,104763,1,0,0:0:0:30:soft-hitnormal.wav
402,192,104859,1,0,0:0:0:30:soft-hitnormal.wav
256,192,104859,1,0,0:0:0:30:soft-hitnormal.wav
109,192,104955,1,0,0:0:0:30:drum.wav
36,192,104955,1,0,0:0:0:30:drum.wav
182,192,104955,1,0,0:0:0:30:drum.wav
329,192,104955,1,0,0:0:0:30:cymbol.wav
475,192,104955,1,0,0:0:0:30:cymbol.wav
402,192,105051,1,0,0:0:0:30:soft-hitnormal.wav
329,192,105147,1,0,0:0:0:30:soft-hitnormal.wav
36,192,105147,1,0,0:0:0:30:soft-hitnormal.wav
109,192,105243,1,0,0:0:0:30:soft-hitnormal.wav
182,192,105340,1,0,0:0:0:30:soft-hitnormal.wav
475,192,105340,1,0,0:0:0:30:soft-hitnormal.wav
256,192,105404,1,0,0:0:0:30:soft-hitnormal.wav
329,192,105468,1,0,0:0:0:30:soft-hitnormal.wav
402,192,105532,1,0,0:0:0:30:soft-hitnormal.wav
109,192,105532,1,0,0:0:0:30:soft-hitnormal.wav
182,192,105532,1,0,0:0:0:30:soft-hitnormal.wav
256,192,105628,1,0,0:0:0:30:soft-hitnormal.wav
36,192,105724,1,0,0:0:0:30:cymbol.wav
109,192,105724,1,0,0:0:0:30:cymbol.wav
402,192,105724,1,0,0:0:0:30:drum.wav
475,192,105724,1,0,0:0:0:30:drum.wav
329,192,105724,1,0,0:0:0:30:drum.wav
182,192,105820,1,0,0:0:0:30:soft-hitnormal.wav
329,192,105917,1,0,0:0:0:30:soft-hitnormal.wav
256,192,105917,1,0,0:0:0:30:soft-hitnormal.wav
36,192,106013,1,0,0:0:0:30:drum.wav
109,192,106013,1,0,0:0:0:30:drum.wav
182,192,106013,1,0,0:0:0:30:drum.wav
475,192,106013,1,0,0:0:0:30:cymbol.wav
402,192,106013,1,0,0:0:0:30:cymbol.wav
329,192,106109,1,0,0:0:0:30:soft-hitnormal.wav
256,192,106205,1,0,0:0:0:30:soft-hitnormal.wav
109,192,106205,1,0,0:0:0:30:soft-hitnormal.wav
182,192,106301,1,0,0:0:0:30:soft-hitnormal.wav
109,192,106397,1,0,0:0:0:30:cymbol.wav
36,192,106397,1,0,0:0:0:30:cymbol.wav
329,192,106397,1,0,0:0:0:30:drum.wav
402,192,106397,1,0,0:0:0:30:drum.wav
475,192,106397,1,0,0:0:0:30:drum.wav
256,192,106493,1,0,0:0:0:30:soft-hitnormal.wav
36,192,106590,1,0,0:0:0:30:drum.wav
109,192,106590,1,0,0:0:0:30:drum.wav
182,192,106590,1,0,0:0:0:30:drum.wav
402,192,106590,1,0,0:0:0:30:cymbol.wav
475,192,106590,1,0,0:0:0:30:cymbol.wav
329,192,106686,1,0,0:0:0:30:soft-hitnormal.wav
256,192,106782,1,0,0:0:0:30:soft-hitnormal.wav
36,192,106782,1,0,0:0:0:30:soft-hitnormal.wav
109,192,106878,1,0,0:0:0:30:soft-hitnormal.wav
329,192,106878,1,0,0:0:0:30:soft-hitnormal.wav
475,192,106878,1,0,0:0:0:30:soft-hitnormal.wav
182,192,106974,1,0,0:0:0:30:soft-hitnormal.wav
256,192,106974,1,0,0:0:0:30:soft-hitnormal.wav
475,192,107070,1,0,0:0:0:30:hihat.wav
36,192,107070,1,0,0:0:0:30:hihat.wav
109,192,107167,1,0,0:0:0:30:hihat.wav
329,192,107167,1,0,0:0:0:30:hihat.wav
402,192,107167,1,0,0:0:0:30:hihat.wav
182,192,107263,1,0,0:0:0:30:hihat.wav
256,192,107263,1,0,0:0:0:30:hihat.wav
475,192,107263,1,0,0:0:0:30:hihat.wav
329,192,107359,1,0,0:0:0:30:hihat.wav
36,192,107359,1,0,0:0:0:30:hihat.wav
402,192,107455,1,0,0:0:0:30:hihat.wav
109,192,107455,1,0,0:0:0:30:hihat.wav
256,192,107551,1,0,0:0:0:30:hihat.wav
182,192,107551,1,0,0:0:0:30:hihat.wav
402,192,107647,1,0,0:0:0:30:hihat.wav
36,192,107647,1,0,0:0:0:30:hihat.wav
475,192,107647,1,0,0:0:0:30:hihat.wav
329,192,107743,1,0,0:0:0:30:hihat.wav
256,192,107743,1,0,0:0:0:30:hihat.wav
109,192,107840,1,0,0:0:0:30:drum.wav
475,192,107840,1,0,0:0:0:30:cymbol.wav
402,192,107840,1,0,0:0:0:30:cymbol.wav
182,192,107840,1,0,0:0:0:30:drum.wav
36,192,107840,1,0,0:0:0:30:drum.wav
329,192,107936,1,0,0:0:0:30:soft-hitnormal.wav
475,192,108032,1,0,0:0:0:30:soft-hitnormal.wav
36,192,108032,1,0,0:0:0:30:soft-hitnormal.wav
109,192,108128,1,0,0:0:0:30:hihat.wav
402,192,108128,1,0,0:0:0:30:hihat.wav
182,192,108176,1,0,0:0:0:30:hihat.wav
256,192,108224,1,0,0:0:0:30:hihat.wav
329,192,108224,1,0,0:0:0:30:hihat.wav
36,192,108320,1,0,0:0:0:30:drum.wav
109,192,108320,1,0,0:0:0:30:drum.wav
182,192,108320,1,0,0:0:0:30:drum.wav
475,192,108320,1,0,0:0:0:30:cymbol.wav
402,192,108320,1,0,0:0:0:30:cymbol.wav
329,192,108417,1,0,0:0:0:30:soft-hitnormal.wav
256,192,108417,1,0,0:0:0:30:soft-hitnormal.wav
36,192,108513,1,0,0:0:0:30:cymbol.wav
109,192,108513,1,0,0:0:0:30:cymbol.wav
402,192,108513,1,0,0:0:0:30:drum.wav
475,192,108513,1,0,0:0:0:30:drum.wav
256,192,108609,1,0,0:0:0:30:soft-hitnormal.wav
182,192,108609,1,0,0:0:0:30:soft-hitnormal.wav
36,192,108705,1,0,0:0:0:30:cymbol.wav
109,192,108705,1,0,0:0:0:30:cymbol.wav
402,192,108705,1,0,0:0:0:30:drum.wav
475,192,108705,1,0,0:0:0:30:drum.wav
329,192,108705,1,0,0:0:0:30:drum.wav
182,192,108801,1,0,0:0:0:30:soft-hitnormal.wav
256,192,108897,1,0,0:0:0:30:soft-hitnormal.wav
109,192,108993,1,0,0:0:0:30:soft-hitnormal.wav
329,192,108993,1,0,0:0:0:30:soft-hitnormal.wav
402,192,109090,1,0,0:0:0:30:soft-hitnormal.wav
36,192,109186,1,0,0:0:0:30:drum.wav
109,192,109186,1,0,0:0:0:30:drum.wav
182,192,109186,1,0,0:0:0:30:drum.wav
475,192,109186,1,0,0:0:0:30:cymbol.wav
256,192,109186,1,0,0:0:0:30:cymbol.wav
329,192,109282,1,0,0:0:0:30:soft-hitnormal.wav
36,192,109378,1,0,0:0:0:30:drum.wav
109,192,109378,1,0,0:0:0:30:drum.wav
402,192,109378,1,0,0:0:0:30:cymbol.wav
475,192,109378,1,0,0:0:0:30:cymbol.wav
182,192,109474,1,0,0:0:0:30:soft-hitnormal.wav
256,192,109570,1,0,0:0:0:30:cymbol.wav
402,192,109570,1,0,0:0:0:30:drum.wav
475,192,109570,1,0,0:0:0:30:drum.wav
36,192,109570,1,0,0:0:0:30:cymbol.wav
329,192,109667,1,0,0:0:0:30:hihat.wav
109,192,109667,1,0,0:0:0:30:hihat.wav
256,192,109715,1,0,0:0:0:30:hihat.wav
182,192,109763,1,0,0:0:0:30:hihat.wav
402,192,109763,1,0,0:0:0:30:hihat.wav
475,192,109859,1,0,0:0:0:30:cymbol.wav
36,192,109859,1,0,0:0:0:30:drum.wav
109,192,109859,1,0,0:0:0:30:drum.wav
329,192,109859,1,0,0:0:0:30:cymbol.wav
256,192,109955,1,0,0:0:0:30:soft-hitnormal.wav
402,192,110051,1,0,0:0:0:30:soft-hitnormal.wav
182,192,110051,1,0,0:0:0:30:soft-hitnormal.wav
329,192,110147,1,0,0:0:0:30:soft-hitnormal.wav
109,192,110243,1,0,0:0:0:30:soft-hitnormal.wav
182,192,110340,1,0,0:0:0:30:soft-hitnormal.wav
256,192,110436,1,0,0:0:0:30:soft-hitnormal.wav
36,192,110532,1,0,0:0:0:30:cymbol.wav
109,192,110532,1,0,0:0:0:30:cymbol.wav
182,192,110532,1,0,0:0:0:30:cymbol.wav
329,192,110532,1,0,0:0:0:30:drum.wav
402,192,110532,1,0,0:0:0:30:drum.wav
475,192,110532,1,0,0:0:0:30:drum.wav
256,192,110628,1,0,0:0:0:30:soft-hitnormal.wav
329,192,110724,1,0,0:0:0:30:soft-hitnormal.wav
402,192,110820,1,0,0:0:0:30:soft-hitnormal.wav
36,192,110820,1,0,0:0:0:30:soft-hitnormal.wav
475,192,110917,1,0,0:0:0:30:soft-hitnormal.wav
109,192,110917,1,0,0:0:0:30:soft-hitnormal.wav
36,192,111013,1,0,0:0:0:30:soft-hitnormal.wav
256,192,111013,1,0,0:0:0:30:crash.wav
402,192,111013,1,0,0:0:0:30:soft-hitnormal.wav
182,192,111013,1,0,0:0:0:30:soft-hitnormal.wav
109,192,111109,1,0,0:0:0:30:soft-hitnormal.wav
329,192,111109,1,0,0:0:0:30:soft-hitnormal.wav
182,192,111205,1,0,0:0:0:30:soft-hitnormal.wav
402,192,111205,1,0,0:0:0:30:soft-hitnormal.wav
36,192,111301,1,0,0:0:0:30:soft-hitnormal.wav
256,192,111301,1,0,0:0:0:30:soft-hitnormal.wav
109,192,111397,1,0,0:0:0:30:soft-hitnormal.wav
329,192,111397,1,0,0:0:0:30:soft-hitnormal.wav
182,192,111493,1,0,0:0:0:30:soft-hitnormal.wav
402,192,111493,1,0,0:0:0:30:soft-hitnormal.wav
475,192,111590,1,0,0:0:0:30:soft-hitnormal.wav
256,192,111590,1,0,0:0:0:30:soft-hitnormal.wav
36,192,111686,1,0,0:0:0:30:cymbol.wav
182,192,111686,1,0,0:0:0:30:drum.wav
402,192,111686,1,0,0:0:0:30:drum.wav
109,192,111686,1,0,0:0:0:30:cymbol.wav
36,192,111878,1,0,0:0:0:30:hihat.wav
256,192,111878,1,0,0:0:0:30:hihat.wav
109,192,111974,1,0,0:0:0:30:hihat.wav
329,192,111974,1,0,0:0:0:30:hihat.wav
182,192,112070,1,0,0:0:0:30:hihat.wav
402,192,112070,1,0,0:0:0:30:hihat.wav
256,192,112167,1,0,0:0:0:30:hihat.wav
475,192,112167,1,0,0:0:0:30:hihat.wav
109,192,112263,1,0,0:0:0:30:hihat.wav
475,192,112359,1,0,0:0:0:30:hihat.wav
36,192,112359,1,0,0:0:0:30:hihat.wav
402,192,112359,1,0,0:0:0:30:hihat.wav
329,192,112455,1,0,0:0:0:30:soft-hitnormal.wav
256,192,112551,1,0,0:0:0:30:soft-hitnormal.wav
36,192,112551,1,0,0:0:0:30:soft-hitnormal.wav
402,192,112647,1,0,0:0:0:30:soft-hitnormal.wav
109,192,112647,1,0,0:0:0:30:soft-hitnormal.wav
329,192,112711,1,0,0:0:0:30:soft-hitnormal.wav
182,192,112711,1,0,0:0:0:30:soft-hitnormal.wav
402,192,112775,1,0,0:0:0:30:soft-hitnormal.wav
109,192,112775,1,0,0:0:0:30:soft-hitnormal.wav
256,192,112840,1,0,0:0:0:30:soft-hitnormal.wav
475,192,112840,1,0,0:0:0:30:soft-hitnormal.wav
36,192,112840,1,0,0:0:0:30:soft-hitnormal.wav
329,192,112936,1,0,0:0:0:30:soft-hitnormal.wav
402,192,113032,1,0,0:0:0:30:hihat.wav
182,192,113032,1,0,0:0:0:30:hihat.wav
109,192,113032,1,0,0:0:0:30:hihat.wav
475,192,113128,1,0,0:0:0:30:soft-hitnormal.wav
329,192,113128,1,0,0:0:0:30:soft-hitnormal.wav
109,192,113224,1,0,0:0:0:30:cymbol.wav
36,192,113224,1,0,0:0:0:30:cymbol.wav
256,192,113224,1,0,0:0:0:30:drum.wav
329,192,113417,1,0,0:0:0:30:soft-hitnormal.wav
475,192,113417,1,0,0:0:0:30:soft-hitnormal.wav
256,192,113513,1,0,0:0:0:30:soft-hitnormal.wav
402,192,113513,1,0,0:0:0:30:soft-hitnormal.wav
182,192,113609,1,0,0:0:0:30:soft-hitnormal.wav
329,192,113609,1,0,0:0:0:30:soft-hitnormal.wav
36,192,113705,1,0,0:0:0:30:soft-hitnormal.wav
256,192,113705,1,0,0:0:0:30:soft-hitnormal.wav
109,192,113801,1,0,0:0:0:30:soft-hitnormal.wav
329,192,113801,1,0,0:0:0:30:soft-hitnormal.wav
182,192,113897,1,0,0:0:0:30:soft-hitnormal.wav
402,192,113897,1,0,0:0:0:30:soft-hitnormal.wav
36,192,113993,1,0,0:0:0:30:hihat.wav
109,192,113993,1,0,0:0:0:30:hihat.wav
475,192,113993,1,0,0:0:0:30:hihat.wav
256,192,113993,1,0,0:0:0:30:hihat.wav
182,192,114090,1,0,0:0:0:30:soft-hitnormal.wav
329,192,114090,1,0,0:0:0:30:soft-hitnormal.wav
109,192,114186,1,0,0:0:0:30:soft-hitnormal.wav
475,192,114186,1,0,0:0:0:30:soft-hitnormal.wav
402,192,114186,1,0,0:0:0:30:soft-hitnormal.wav
36,192,114282,1,0,0:0:0:30:soft-hitnormal.wav
256,192,114282,1,0,0:0:0:30:soft-hitnormal.wav
109,192,114378,1,0,0:0:0:30:soft-hitnormal.wav
329,192,114378,1,0,0:0:0:30:soft-hitnormal.wav
402,192,114378,1,0,0:0:0:30:soft-hitnormal.wav
182,192,114474,1,0,0:0:0:30:soft-hitnormal.wav
475,192,114474,1,0,0:0:0:30:soft-hitnormal.wav
329,192,114570,1,0,0:0:0:30:soft-hitnormal.wav
36,192,114570,1,0,0:0:0:30:soft-hitnormal.wav
256,192,114570,1,0,0:0:0:30:soft-hitnormal.wav
329,192,114667,1,0,0:0:0:30:soft-hitnormal.wav
256,192,114667,1,0,0:0:0:30:soft-hitnormal.wav
109,192,114763,1,0,0:0:0:30:drum.wav
36,192,114763,1,0,0:0:0:30:drum.wav
475,192,114763,1,0,0:0:0:30:drum.wav
402,192,114955,1,0,0:0:0:30:hihat.wav
329,192,114955,1,0,0:0:0:30:hihat.wav
109,192,115147,1,0,0:0:0:30:hihat.wav
182,192,115147,1,0,0:0:0:30:hihat.wav
109,192,115340,1,0,0:0:0:30:soft-hitnormal.wav
182,192,115404,1,0,0:0:0:30:soft-hitnormal.wav
256,192,115468,1,0,0:0:0:30:soft-hitnormal.wav
36,192,115532,1,0,0:0:0:30:hihat.wav
109,192,115532,1,0,0:0:0:30:hihat.wav
329,192,115532,1,0,0:0:0:30:hihat.wav
402,192,115532,1,0,0:0:0:30:hihat.wav
475,192,115628,1,0,0:0:0:30:soft-hitnormal.wav
182,192,115628,1,0,0:0:0:30:soft-hitnormal.wav
402,192,115724,1,0,0:0:0:30:soft-hitnormal.wav
329,192,115788,1,0,0:0:0:30:soft-hitnormal.wav
256,192,115852,1,0,0:0:0:30:soft-hitnormal.wav
109,192,115917,5,0,0:0:0:30:hihat.wav
182,192,115917,1,0,0:0:0:30:hihat.wav
402,192,115917,1,0,0:0:0:30:hihat.wav
475,192,115917,1,0,0:0:0:30:hihat.wav
402,192,116301,1,0,0:0:0:30:hihat.wav
109,192,116301,1,0,0:0:0:30:hihat.wav
256,192,116301,1,0,0:0:0:30:hihat.wav
329,192,116429,1,0,0:0:0:30:hihat.wav
182,192,116429,1,0,0:0:0:30:hihat.wav
182,192,116558,1,0,0:0:0:30:hihat.wav
329,192,116558,1,0,0:0:0:30:hihat.wav
182,192,116686,1,0,0:0:0:30:hihat.wav
329,192,116686,1,0,0:0:0:30:crash.wav
36,192,116686,1,0,0:0:0:30:hihat.wav
475,192,116686,1,0,0:0:0:30:hihat.wav
256,192,117068,1,0,0:0:0:30:hihat.wav
36,192,117068,1,0,0:0:0:30:hihat.wav
329,192,117068,1,0,0:0:0:30:crash.wav
475,192,117260,1,0,0:0:0:30:hihat.wav
182,192,117260,1,0,0:0:0:30:hihat.wav
402,192,117260,1,0,0:0:0:30:hihat.wav
109,192,117260,1,0,0:0:0:30:hihat.wav
256,192,117452,1,0,0:0:0:30:soft-hitnormal.wav
36,192,117452,1,0,0:0:0:30:soft-hitnormal.wav
329,192,117452,1,0,0:0:0:30:soft-hitnormal.wav
402,192,117452,1,0,0:0:0:30:soft-hitnormal.wav
109,192,117548,1,0,0:0:0:30:soft-hitnormal.wav
475,192,117548,1,0,0:0:0:30:soft-hitnormal.wav
182,192,117644,1,0,0:0:0:30:soft-hitnormal.wav
36,192,117741,1,0,0:0:0:30:hihat.wav
256,192,117741,1,0,0:0:0:30:hihat.wav
475,192,117741,1,0,0:0:0:30:hihat.wav
36,192,118029,1,0,0:0:0:30:hihat.wav
256,192,118029,1,0,0:0:0:30:hihat.wav
109,192,118093,1,0,0:0:0:30:hihat.wav
329,192,118093,1,0,0:0:0:30:hihat.wav
182,192,118157,1,0,0:0:0:30:hihat.wav
402,192,118157,1,0,0:0:0:30:hihat.wav
475,192,118221,1,0,0:0:0:30:soft-hitnormal.wav
256,192,118221,1,0,0:0:0:30:soft-hitnormal.wav
36,192,118221,1,0,0:0:0:30:soft-hitnormal.wav
109,192,118318,1,0,0:0:0:30:soft-hitnormal.wav
402,192,118318,1,0,0:0:0:30:soft-hitnormal.wav
329,192,118414,1,0,0:0:0:30:soft-hitnormal.wav
182,192,118414,1,0,0:0:0:30:soft-hitnormal.wav
109,192,118510,1,0,0:0:0:30:soft-hitnormal.wav
256,192,118510,1,0,0:0:0:30:soft-hitnormal.wav
402,192,118606,1,0,0:0:0:30:hihat.wav
475,192,118606,1,0,0:0:0:30:hihat.wav
36,192,118606,1,0,0:0:0:30:crash.wav
109,192,118798,1,0,0:0:0:30:soft-hitnormal.wav
329,192,118798,1,0,0:0:0:30:soft-hitnormal.wav
182,192,118894,1,0,0:0:0:30:soft-hitnormal.wav
402,192,118894,1,0,0:0:0:30:soft-hitnormal.wav
36,192,118991,1,0,0:0:0:30:soft-hitnormal.wav
256,192,118991,1,0,0:0:0:30:soft-hitnormal.wav
475,192,118991,1,0,0:0:0:30:soft-hitnormal.wav
329,192,119087,1,0,0:0:0:30:soft-hitnormal.wav
109,192,119087,1,0,0:0:0:30:soft-hitnormal.wav
182,192,119183,1,0,0:0:0:30:soft-hitnormal.wav
402,192,119183,1,0,0:0:0:30:soft-hitnormal.wav
475,192,119279,1,0,0:0:0:30:hihat.wav
36,192,119279,1,0,0:0:0:30:crash.wav
109,192,119279,1,0,0:0:0:30:hihat.wav
109,192,119471,1,0,0:0:0:30:soft-hitnormal.wav
402,192,119471,1,0,0:0:0:30:soft-hitnormal.wav
182,192,119471,1,0,0:0:0:30:soft-hitnormal.wav
36,192,119568,1,0,0:0:0:30:soft-hitnormal.wav
329,192,119568,1,0,0:0:0:30:soft-hitnormal.wav
109,192,119664,1,0,0:0:0:30:soft-hitnormal.wav
402,192,119664,1,0,0:0:0:30:soft-hitnormal.wav
182,192,119760,1,0,0:0:0:30:soft-hitnormal.wav
475,192,119760,1,0,0:0:0:30:soft-hitnormal.wav
256,192,119856,1,0,0:0:0:30:soft-hitnormal.wav
329,192,119856,1,0,0:0:0:30:soft-hitnormal.wav
109,192,119952,1,0,0:0:0:30:soft-hitnormal.wav
36,192,120048,1,0,0:0:0:30:crash.wav
329,192,120048,1,0,0:0:0:30:hihat.wav
402,192,120048,1,0,0:0:0:30:hihat.wav
475,192,120048,1,0,0:0:0:30:hihat.wav
182,192,120337,1,0,0:0:0:30:soft-hitnormal.wav
402,192,120337,1,0,0:0:0:30:soft-hitnormal.wav
329,192,120337,1,0,0:0:0:30:soft-hitnormal.wav
109,192,120433,1,0,0:0:0:30:soft-hitnormal.wav
475,192,120433,1,0,0:0:0:30:soft-hitnormal.wav
36,192,120529,1,0,0:0:0:30:soft-hitnormal.wav
402,192,120529,1,0,0:0:0:30:soft-hitnormal.wav
329,192,120625,1,0,0:0:0:30:soft-hitnormal.wav
402,192,120721,1,0,0:0:0:30:soft-hitnormal.wav
475,192,120818,1,0,0:0:0:30:crash.wav
109,192,120818,1,0,0:0:0:30:hihat.wav
182,192,120818,1,0,0:0:0:30:hihat.wav
36,192,120818,1,0,0:0:0:30:hihat.wav
256,192,121106,1,0,0:0:0:30:hihat.wav
475,192,121106,1,0,0:0:0:30:hihat.wav
109,192,121106,1,0,0:0:0:30:hihat.wav
402,192,121170,1,0,0:0:0:30:hihat.wav
182,192,121202,1,0,0:0:0:30:hihat.wav
329,192,121234,1,0,0:0:0:30:hihat.wav
256,192,121298,1,0,0:0:0:30:hihat.wav
475,192,121298,1,0,0:0:0:30:hihat.wav
36,192,121298,1,0,0:0:0:30:hihat.wav
182,192,121394,1,0,0:0:0:30:soft-hitnormal.wav
109,192,121491,1,0,0:0:0:30:soft-hitnormal.wav
256,192,121587,1,0,0:0:0:30:hihat.wav
475,192,121587,1,0,0:0:0:30:hihat.wav
329,192,121587,1,0,0:0:0:30:hihat.wav
36,192,121587,1,0,0:0:0:30:crash.wav
329,192,121875,1,0,0:0:0:30:soft-hitnormal.wav
402,192,121875,1,0,0:0:0:30:soft-hitnormal.wav
182,192,121971,1,0,0:0:0:30:soft-hitnormal.wav
109,192,121971,1,0,0:0:0:30:soft-hitnormal.wav
329,192,122068,1,0,0:0:0:30:soft-hitnormal.wav
402,192,122068,1,0,0:0:0:30:soft-hitnormal.wav
475,192,122068,1,0,0:0:0:30:soft-hitnormal.wav
256,192,122164,1,0,0:0:0:30:soft-hitnormal.wav
109,192,122260,1,0,0:0:0:30:soft-hitnormal.wav
182,192,122260,1,0,0:0:0:30:soft-hitnormal.wav
329,192,122356,1,0,0:0:0:30:hihat.wav
402,192,122356,1,0,0:0:0:30:hihat.wav
475,192,122356,1,0,0:0:0:30:hihat.wav
36,192,122356,1,0,0:0:0:30:crash.wav
109,192,122644,1,0,0:0:0:25:drum.wav
182,192,122644,1,0,0:0:0:25:drum.wav
329,192,122709,1,0,0:0:0:25:drum.wav
402,192,122709,1,0,0:0:0:25:drum.wav
182,192,122773,1,0,0:0:0:25:drum.wav
109,192,122773,1,0,0:0:0:25:drum.wav
329,192,122837,1,0,0:0:0:25:drum.wav
402,192,122837,1,0,0:0:0:25:drum.wav
256,192,122933,1,0,0:0:0:25:drum.wav
475,192,122933,1,0,0:0:0:25:drum.wav
182,192,123029,1,0,0:0:0:25:drum.wav
402,192,123029,1,0,0:0:0:25:drum.wav
109,192,123125,1,0,0:0:0:25:drum.wav
329,192,123125,1,0,0:0:0:25:drum.wav
36,192,123221,1,0,0:0:0:30:crash.wav
256,192,123221,1,0,0:0:0:30:crash.wav
475,192,123221,1,0,0:0:0:30:crash.wav
109,192,123414,1,0,0:0:0:30:soft-hitnormal.wav
329,192,123414,1,0,0:0:0:30:soft-hitnormal.wav
402,192,123414,1,0,0:0:0:30:soft-hitnormal.wav
182,192,123510,1,0,0:0:0:30:soft-hitnormal.wav
256,192,123606,1,0,0:0:0:30:crash.wav
475,192,123606,1,0,0:0:0:30:soft-hitnormal.wav
36,192,123606,1,0,0:0:0:30:soft-hitnormal.wav
182,192,123702,1,0,0:0:0:30:soft-hitnormal.wav
402,192,123702,1,0,0:0:0:30:soft-hitnormal.wav
36,192,123798,1,0,0:0:0:30:soft-hitnormal.wav
256,192,123894,1,0,0:0:0:30:hihat.wav
329,192,123894,1,0,0:0:0:30:hihat.wav
109,192,123894,1,0,0:0:0:30:hihat.wav
36,192,124183,1,0,0:0:0:30:hihat.wav
475,192,124183,1,0,0:0:0:30:hihat.wav
256,192,124183,1,0,0:0:0:30:hihat.wav
109,192,124247,1,0,0:0:0:30:hihat.wav
402,192,124279,1,0,0:0:0:30:hihat.wav
182,192,124311,1,0,0:0:0:30:hihat.wav
256,192,124375,1,0,0:0:0:30:soft-hitnormal.wav
329,192,124375,1,0,0:0:0:30:soft-hitnormal.wav
475,192,124375,1,0,0:0:0:30:soft-hitnormal.wav
182,192,124471,1,0,0:0:0:30:soft-hitnormal.wav
402,192,124471,1,0,0:0:0:30:soft-hitnormal.wav
109,192,124568,1,0,0:0:0:30:soft-hitnormal.wav
329,192,124568,1,0,0:0:0:30:soft-hitnormal.wav
36,192,124664,1,0,0:0:0:30:soft-hitnormal.wav
256,192,124664,1,0,0:0:0:30:soft-hitnormal.wav
182,192,124760,1,0,0:0:0:30:crash.wav
402,192,124760,1,0,0:0:0:30:hihat.wav
475,192,124760,1,0,0:0:0:30:hihat.wav
402,192,124952,1,0,0:0:0:30:soft-hitnormal.wav
109,192,124952,1,0,0:0:0:30:soft-hitnormal.wav
256,192,125048,1,0,0:0:0:30:soft-hitnormal.wav
475,192,125048,1,0,0:0:0:30:soft-hitnormal.wav
36,192,125144,1,0,0:0:0:30:soft-hitnormal.wav
402,192,125144,1,0,0:0:0:30:soft-hitnormal.wav
109,192,125144,1,0,0:0:0:30:soft-hitnormal.wav
329,192,125241,1,0,0:0:0:30:soft-hitnormal.wav
182,192,125241,1,0,0:0:0:30:soft-hitnormal.wav
402,192,125337,1,0,0:0:0:30:soft-hitnormal.wav
256,192,125337,1,0,0:0:0:30:soft-hitnormal.wav
36,192,125433,1,0,0:0:0:30:hihat.wav
475,192,125433,1,0,0:0:0:30:hihat.wav
109,192,125433,1,0,0:0:0:30:crash.wav
329,192,125625,1,0,0:0:0:30:soft-hitnormal.wav
36,192,125625,1,0,0:0:0:30:soft-hitnormal.wav
109,192,125721,1,0,0:0:0:30:soft-hitnormal.wav
182,192,125818,1,0,0:0:0:30:soft-hitnormal.wav
256,192,125914,1,0,0:0:0:30:drum.wav
475,192,125914,1,0,0:0:0:30:soft-hitnormal.wav
182,192,125978,1,0,0:0:0:30:drum.wav
402,192,126010,1,0,0:0:0:30:soft-hitnormal.wav
109,192,126042,1,0,0:0:0:30:drum.wav
36,192,126106,1,0,0:0:0:30:drum.wav
329,192,126106,1,0,0:0:0:30:soft-hitnormal.wav
182,192,126202,1,0,0:0:0:30:hihat.wav
475,192,126202,1,0,0:0:0:30:crash.wav
256,192,126202,1,0,0:0:0:30:hihat.wav
182,192,126491,1,0,0:0:0:30:soft-hitnormal.wav
109,192,126491,1,0,0:0:0:30:soft-hitnormal.wav
329,192,126587,1,0,0:0:0:30:soft-hitnormal.wav
402,192,126587,1,0,0:0:0:30:soft-hitnormal.wav
36,192,126683,1,0,0:0:0:30:soft-hitnormal.wav
475,192,126683,1,0,0:0:0:30:soft-hitnormal.wav
256,192,126683,1,0,0:0:0:30:soft-hitnormal.wav
109,192,126779,1,0,0:0:0:30:soft-hitnormal.wav
402,192,126779,1,0,0:0:0:30:soft-hitnormal.wav
182,192,126875,1,0,0:0:0:30:soft-hitnormal.wav
329,192,126875,1,0,0:0:0:30:soft-hitnormal.wav
256,192,126971,1,0,0:0:0:30:soft-hitnormal.wav
402,192,126971,1,0,0:0:0:30:soft-hitnormal.wav
36,192,127068,1,0,0:0:0:25:crash.wav
109,192,127068,1,0,0:0:0:25:crash.wav
475,192,127068,1,0,0:0:0:25:hihat.wav
329,192,127068,1,0,0:0:0:25:hihat.wav
182,192,127164,1,0,0:0:0:30:soft-hitnormal.wav
256,192,127260,1,0,0:0:0:30:soft-hitnormal.wav
329,192,127324,1,0,0:0:0:30:soft-hitnormal.wav
402,192,127388,1,0,0:0:0:30:soft-hitnormal.wav
475,192,127452,1,0,0:0:0:25:hihat.wav
36,192,127452,1,0,0:0:0:25:crash.wav
109,192,127452,1,0,0:0:0:25:crash.wav
182,192,127452,1,0,0:0:0:25:hihat.wav
256,192,127548,1,0,0:0:0:30:soft-hitnormal.wav
329,192,127644,1,0,0:0:0:30:soft-hitnormal.wav
182,192,127741,1,0,0:0:0:30:soft-hitnormal.wav
402,192,127741,1,0,0:0:0:30:soft-hitnormal.wav
475,192,127837,1,0,0:0:0:30:hihat.wav
36,192,127837,1,0,0:0:0:30:hihat.wav
256,192,127837,1,0,0:0:0:30:hihat.wav
109,192,127901,1,0,0:0:0:30:hihat.wav
329,192,127901,1,0,0:0:0:30:hihat.wav
182,192,127965,1,0,0:0:0:30:hihat.wav
402,192,127965,1,0,0:0:0:30:hihat.wav
329,192,128029,1,0,0:0:0:30:soft-hitnormal.wav
256,192,128029,1,0,0:0:0:30:soft-hitnormal.wav
475,192,128029,1,0,0:0:0:30:soft-hitnormal.wav
36,192,128125,1,0,0:0:0:30:soft-hitnormal.wav
109,192,128125,1,0,0:0:0:30:soft-hitnormal.wav
182,192,128221,1,0,0:0:0:30:soft-hitnormal.wav
402,192,128221,1,0,0:0:0:30:
475,192,128221,1,0,0:0:0:30:
256,192,128318,1,0,0:0:0:30:soft-hitnormal.wav
329,192,128414,1,0,0:0:0:30:soft-hitnormal.wav
402,192,128510,1,0,0:0:0:20:crash.wav
475,192,128510,1,0,0:0:0:20:crash.wav
109,192,128510,1,0,0:0:0:20:crash.wav
36,192,128510,1,0,0:0:0:20:crash.wav
182,192,128606,1,0,0:0:0:30:soft-hitnormal.wav
256,192,128702,1,0,0:0:0:30:soft-hitnormal.wav
475,192,128798,1,0,0:0:0:30:hihat.wav
402,192,128798,1,0,0:0:0:30:hihat.wav
109,192,128798,1,0,0:0:0:30:hihat.wav
329,192,128862,1,0,0:0:0:30:hihat.wav
182,192,128894,1,0,0:0:0:30:hihat.wav
256,192,128926,1,0,0:0:0:30:hihat.wav
36,192,128991,1,0,0:0:0:30:hihat.wav
402,192,128991,1,0,0:0:0:30:hihat.wav
109,192,129055,1,0,0:0:0:30:hihat.wav
329,192,129087,1,0,0:0:0:30:hihat.wav
182,192,129119,1,0,0:0:0:30:hihat.wav
475,192,129183,1,0,0:0:0:30:hihat.wav
256,192,129183,1,0,0:0:0:30:hihat.wav
402,192,129247,1,0,0:0:0:30:hihat.wav
109,192,129279,1,0,0:0:0:30:hihat.wav
329,192,129311,1,0,0:0:0:30:hihat.wav
256,192,129375,1,0,0:0:0:20:crash.wav
36,192,129375,1,0,0:0:0:20:crash.wav
475,192,129375,1,0,0:0:0:20:crash.wav
182,192,129375,1,0,0:0:0:20:crash.wav
109,192,129568,1,0,0:0:0:30:soft-hitnormal.wav
402,192,129568,1,0,0:0:0:30:soft-hitnormal.wav
36,192,129760,1,0,0:0:0:30:soft-hitnormal.wav
256,192,129760,1,0,0:0:0:30:soft-hitnormal.wav
475,192,129760,1,0,0:0:0:30:soft-hitnormal.wav
329,192,129760,1,0,0:0:0:30:crash.wav
182,192,129856,1,0,0:0:0:30:soft-hitnormal.wav
109,192,129952,1,0,0:0:0:30:soft-hitnormal.wav
402,192,129952,1,0,0:0:0:30:soft-hitnormal.wav
475,192,130048,1,0,0:0:0:30:hihat.wav
36,192,130048,1,0,0:0:0:30:hihat.wav
256,192,130048,1,0,0:0:0:30:hihat.wav
475,192,130337,1,0,0:0:0:30:hihat.wav
182,192,130337,1,0,0:0:0:30:hihat.wav
36,192,130337,1,0,0:0:0:30:hihat.wav
329,192,130401,1,0,0:0:0:30:hihat.wav
109,192,130433,1,0,0:0:0:30:hihat.wav
402,192,130465,1,0,0:0:0:30:hihat.wav
256,192,130529,1,0,0:0:0:30:soft-hitnormal.wav
36,192,130529,1,0,0:0:0:30:soft-hitnormal.wav
475,192,130529,1,0,0:0:0:30:soft-hitnormal.wav
402,192,130625,1,0,0:0:0:30:soft-hitnormal.wav
109,192,130625,1,0,0:0:0:30:soft-hitnormal.wav
329,192,130721,1,0,0:0:0:30:soft-hitnormal.wav
182,192,130721,1,0,0:0:0:30:soft-hitnormal.wav
402,192,130818,1,0,0:0:0:30:soft-hitnormal.wav
109,192,130818,1,0,0:0:0:30:soft-hitnormal.wav
36,192,130914,1,0,0:0:0:30:crash.wav
256,192,130914,1,0,0:0:0:30:soft-hitnormal.wav
475,192,130914,1,0,0:0:0:30:crash.wav
182,192,131010,1,0,0:0:0:30:soft-hitnormal.wav
109,192,131106,1,0,0:0:0:30:soft-hitnormal.wav
329,192,131106,1,0,0:0:0:30:soft-hitnormal.wav
36,192,131106,1,0,0:0:0:30:soft-hitnormal.wav
402,192,131202,1,0,0:0:0:30:soft-hitnormal.wav
256,192,131298,1,0,0:0:0:30:soft-hitnormal.wav
475,192,131298,1,0,0:0:0:30:soft-hitnormal.wav
36,192,131298,1,0,0:0:0:30:soft-hitnormal.wav
329,192,131394,1,0,0:0:0:30:soft-hitnormal.wav
182,192,131394,1,0,0:0:0:30:soft-hitnormal.wav
256,192,131491,1,0,0:0:0:30:soft-hitnormal.wav
109,192,131491,1,0,0:0:0:30:soft-hitnormal.wav
329,192,131587,1,0,0:0:0:30:hihat.wav
402,192,131587,1,0,0:0:0:30:crash.wav
475,192,131587,1,0,0:0:0:30:crash.wav
36,192,131587,1,0,0:0:0:30:hihat.wav
402,192,131779,1,0,0:0:0:30:soft-hitnormal.wav
475,192,131779,1,0,0:0:0:30:soft-hitnormal.wav
109,192,131875,1,0,0:0:0:30:soft-hitnormal.wav
329,192,131875,1,0,0:0:0:30:soft-hitnormal.wav
402,192,132068,1,0,0:0:0:30:soft-hitnormal.wav
475,192,132068,1,0,0:0:0:30:soft-hitnormal.wav
182,192,132068,1,0,0:0:0:30:soft-hitnormal.wav
256,192,132164,1,0,0:0:0:30:soft-hitnormal.wav
109,192,132260,1,0,0:0:0:30:soft-hitnormal.wav
36,192,132260,1,0,0:0:0:30:soft-hitnormal.wav
329,192,132260,1,0,0:0:0:30:soft-hitnormal.wav
182,192,132356,1,0,0:0:0:30:hihat.wav
402,192,132356,1,0,0:0:0:30:crash.wav
475,192,132356,1,0,0:0:0:30:crash.wav
182,192,132644,1,0,0:0:0:30:soft-hitnormal.wav
109,192,132644,1,0,0:0:0:30:soft-hitnormal.wav
475,192,132644,1,0,0:0:0:30:soft-hitnormal.wav
402,192,132741,1,0,0:0:0:30:soft-hitnormal.wav
36,192,132837,1,0,0:0:0:30:soft-hitnormal.wav
329,192,132837,1,0,0:0:0:30:soft-hitnormal.wav
109,192,132933,1,0,0:0:0:30:soft-hitnormal.wav
402,192,132933,1,0,0:0:0:30:soft-hitnormal.wav
182,192,133029,1,0,0:0:0:30:soft-hitnormal.wav
475,192,133029,1,0,0:0:0:30:soft-hitnormal.wav
329,192,133125,1,0,0:0:0:30:hihat.wav
402,192,133125,1,0,0:0:0:30:hihat.wav
256,192,133125,1,0,0:0:0:30:hihat.wav
182,192,133221,1,0,0:0:0:30:soft-hitnormal.wav
109,192,133318,1,0,0:0:0:30:soft-hitnormal.wav
36,192,133414,1,0,0:0:0:30:soft-hitnormal.wav
329,192,133414,1,0,0:0:0:30:soft-hitnormal.wav
256,192,133414,1,0,0:0:0:30:soft-hitnormal.wav
182,192,133478,1,0,0:0:0:30:soft-hitnormal.wav
402,192,133510,1,0,0:0:0:30:soft-hitnormal.wav
109,192,133542,1,0,0:0:0:30:soft-hitnormal.wav
36,192,133606,1,0,0:0:0:30:soft-hitnormal.wav
475,192,133606,1,0,0:0:0:30:soft-hitnormal.wav
329,192,133606,1,0,0:0:0:30:soft-hitnormal.wav
109,192,133702,1,0,0:0:0:30:soft-hitnormal.wav
256,192,133702,1,0,0:0:0:30:soft-hitnormal.wav
182,192,133798,1,0,0:0:0:30:soft-hitnormal.wav
329,192,133894,1,0,0:0:0:30:hihat.wav
36,192,133894,1,0,0:0:0:30:crash.wav
109,192,133894,1,0,0:0:0:30:crash.wav
402,192,133894,1,0,0:0:0:30:hihat.wav
475,192,133894,1,0,0:0:0:30:hihat.wav
36,192,134183,1,0,0:0:0:30:soft-hitnormal.wav
256,192,134183,1,0,0:0:0:30:soft-hitnormal.wav
402,192,134183,1,0,0:0:0:30:soft-hitnormal.wav
109,192,134279,1,0,0:0:0:30:soft-hitnormal.wav
329,192,134279,1,0,0:0:0:30:soft-hitnormal.wav
36,192,134375,1,0,0:0:0:30:soft-hitnormal.wav
182,192,134375,1,0,0:0:0:30:soft-hitnormal.wav
475,192,134375,1,0,0:0:0:30:soft-hitnormal.wav
256,192,134471,1,0,0:0:0:30:soft-hitnormal.wav
402,192,134471,1,0,0:0:0:30:soft-hitnormal.wav
329,192,134568,1,0,0:0:0:30:soft-hitnormal.wav
36,192,134664,1,0,0:0:0:30:hihat.wav
109,192,134664,1,0,0:0:0:30:hihat.wav
182,192,134664,1,0,0:0:0:30:hihat.wav
402,192,134664,1,0,0:0:0:30:crash.wav
475,192,134664,1,0,0:0:0:30:crash.wav
256,192,134760,1,0,0:0:0:30:soft-hitnormal.wav
329,192,134856,1,0,0:0:0:30:soft-hitnormal.wav
402,192,134952,1,0,0:0:0:30:hihat.wav
475,192,134952,1,0,0:0:0:30:hihat.wav
109,192,134952,1,0,0:0:0:30:hihat.wav
182,192,135016,1,0,0:0:0:30:hihat.wav
36,192,135048,1,0,0:0:0:30:soft-hitnormal.wav
256,192,135080,1,0,0:0:0:30:hihat.wav
402,192,135144,1,0,0:0:0:30:hihat.wav
475,192,135144,1,0,0:0:0:30:hihat.wav
329,192,135144,1,0,0:0:0:30:hihat.wav
182,192,135241,1,0,0:0:0:30:hihat.wav
109,192,135241,1,0,0:0:0:30:hihat.wav
329,192,135337,1,0,0:0:0:30:hihat.wav
402,192,135337,1,0,0:0:0:30:hihat.wav
256,192,135433,1,0,0:0:0:30:hihat.wav
182,192,135433,1,0,0:0:0:30:hihat.wav
109,192,135529,1,0,0:0:0:30:soft-hitnormal.wav
36,192,135529,1,0,0:0:0:30:soft-hitnormal.wav
402,192,135529,1,0,0:0:0:30:crash.wav
475,192,135529,1,0,0:0:0:30:hihat.wav
256,192,135721,1,0,0:0:0:30:soft-hitnormal.wav
36,192,135721,1,0,0:0:0:30:soft-hitnormal.wav
475,192,135721,1,0,0:0:0:30:soft-hitnormal.wav
109,192,135818,1,0,0:0:0:30:soft-hitnormal.wav
402,192,135818,1,0,0:0:0:30:soft-hitnormal.wav
256,192,135914,1,0,0:0:0:30:soft-hitnormal.wav
182,192,135914,1,0,0:0:0:30:soft-hitnormal.wav
329,192,135914,1,0,0:0:0:30:soft-hitnormal.wav
109,192,136010,1,0,0:0:0:30:soft-hitnormal.wav
402,192,136010,1,0,0:0:0:30:soft-hitnormal.wav
36,192,136106,1,0,0:0:0:30:soft-hitnormal.wav
475,192,136106,1,0,0:0:0:30:soft-hitnormal.wav
182,192,136202,1,0,0:0:0:30:hihat.wav
329,192,136202,1,0,0:0:0:30:hihat.wav
256,192,136202,1,0,0:0:0:30:hihat.wav
109,192,136298,1,0,0:0:0:30:soft-hitnormal.wav
402,192,136298,1,0,0:0:0:30:soft-hitnormal.wav
182,192,136394,1,0,0:0:0:30:soft-hitnormal.wav
475,192,136394,1,0,0:0:0:30:soft-hitnormal.wav
36,192,136491,1,0,0:0:0:30:hihat.wav
329,192,136491,1,0,0:0:0:30:hihat.wav
109,192,136555,1,0,0:0:0:30:hihat.wav
402,192,136587,1,0,0:0:0:30:hihat.wav
182,192,136619,1,0,0:0:0:30:hihat.wav
256,192,136683,1,0,0:0:0:30:soft-hitnormal.wav
475,192,136683,1,0,0:0:0:30:soft-hitnormal.wav
36,192,136683,1,0,0:0:0:30:soft-hitnormal.wav
109,192,136779,1,0,0:0:0:30:soft-hitnormal.wav
402,192,136779,1,0,0:0:0:30:soft-hitnormal.wav
182,192,136875,1,0,0:0:0:30:soft-hitnormal.wav
329,192,136875,1,0,0:0:0:30:soft-hitnormal.wav
109,192,136971,1,0,0:0:0:30:soft-hitnormal.wav
402,192,136971,1,0,0:0:0:30:soft-hitnormal.wav
36,192,137068,1,0,0:0:0:30:crash.wav
256,192,137068,1,0,0:0:0:30:soft-hitnormal.wav
475,192,137068,1,0,0:0:0:30:crash.wav
182,192,137260,1,0,0:0:0:30:soft-hitnormal.wav
109,192,137260,1,0,0:0:0:30:soft-hitnormal.wav
475,192,137260,1,0,0:0:0:30:soft-hitnormal.wav
329,192,137356,1,0,0:0:0:30:soft-hitnormal.wav
402,192,137356,1,0,0:0:0:30:soft-hitnormal.wav
36,192,137356,1,0,0:0:0:30:soft-hitnormal.wav
109,192,137452,1,0,0:0:0:30:soft-hitnormal.wav
182,192,137452,1,0,0:0:0:30:soft-hitnormal.wav
256,192,137452,1,0,0:0:0:30:soft-hitnormal.wav
402,192,137548,1,0,0:0:0:30:soft-hitnormal.wav
475,192,137548,1,0,0:0:0:30:soft-hitnormal.wav
329,192,137644,1,0,0:0:0:30:soft-hitnormal.wav
36,192,137741,1,0,0:0:0:30:crash.wav
109,192,137741,1,0,0:0:0:30:crash.wav
256,192,137741,1,0,0:0:0:30:
109,192,137933,1,0,0:0:0:30:soft-hitnormal.wav
256,192,137933,1,0,0:0:0:30:soft-hitnormal.wav
182,192,138029,1,0,0:0:0:30:soft-hitnormal.wav
329,192,138029,1,0,0:0:0:30:soft-hitnormal.wav
402,192,138125,1,0,0:0:0:30:soft-hitnormal.wav
256,192,138125,1,0,0:0:0:30:soft-hitnormal.wav
475,192,138221,1,0,0:0:0:30:drum.wav
109,192,138221,1,0,0:0:0:30:soft-hitnormal.wav
36,192,138221,1,0,0:0:0:30:soft-hitnormal.wav
402,192,138285,1,0,0:0:0:30:drum.wav
182,192,138318,1,0,0:0:0:30:soft-hitnormal.wav
329,192,138350,1,0,0:0:0:30:drum.wav
256,192,138414,1,0,0:0:0:30:drum.wav
475,192,138414,1,0,0:0:0:30:soft-hitnormal.wav
109,192,138510,1,0,0:0:0:30:crash.wav
402,192,138510,1,0,0:0:0:30:soft-hitnormal.wav
182,192,138510,1,0,0:0:0:30:crash.wav
109,192,138798,1,0,0:0:0:30:soft-hitnormal.wav
329,192,138798,1,0,0:0:0:30:soft-hitnormal.wav
475,192,138798,1,0,0:0:0:30:soft-hitnormal.wav
256,192,138894,1,0,0:0:0:30:soft-hitnormal.wav
402,192,138894,1,0,0:0:0:30:soft-hitnormal.wav
36,192,138991,1,0,0:0:0:30:soft-hitnormal.wav
182,192,138991,1,0,0:0:0:30:soft-hitnormal.wav
329,192,138991,1,0,0:0:0:30:soft-hitnormal.wav
256,192,139087,1,0,0:0:0:30:soft-hitnormal.wav
109,192,139183,1,0,0:0:0:30:soft-hitnormal.wav
475,192,139183,1,0,0:0:0:30:soft-hitnormal.wav
182,192,139279,1,0,0:0:0:30:soft-hitnormal.wav
402,192,139279,1,0,0:0:0:30:soft-hitnormal.wav
256,192,139375,1,0,0:0:0:30:crash.wav
36,192,139375,1,0,0:0:0:30:hihat.wav
329,192,139375,1,0,0:0:0:30:crash.wav
109,192,139471,1,0,0:0:0:30:soft-hitnormal.wav
182,192,139568,1,0,0:0:0:30:soft-hitnormal.wav
256,192,139632,1,0,0:0:0:30:soft-hitnormal.wav
329,192,139696,1,0,0:0:0:30:soft-hitnormal.wav
402,192,139760,1,0,0:0:0:30:hihat.wav
475,192,139760,1,0,0:0:0:30:crash.wav
109,192,139760,1,0,0:0:0:30:hihat.wav
36,192,139760,1,0,0:0:0:30:hihat.wav
329,192,139856,1,0,0:0:0:30:soft-hitnormal.wav
256,192,139952,1,0,0:0:0:30:soft-hitnormal.wav
109,192,140048,1,0,0:0:0:30:hihat.wav
36,192,140048,1,0,0:0:0:30:hihat.wav
329,192,140144,1,0,0:0:0:30:hihat.wav
402,192,140144,1,0,0:0:0:30:hihat.wav
109,192,140209,1,0,0:0:0:30:hihat.wav
182,192,140209,1,0,0:0:0:30:hihat.wav
402,192,140273,1,0,0:0:0:30:hihat.wav
475,192,140273,1,0,0:0:0:30:hihat.wav
329,192,140337,1,0,0:0:0:30:soft-hitnormal.wav
36,192,140337,1,0,0:0:0:30:soft-hitnormal.wav
109,192,140433,1,0,0:0:0:30:soft-hitnormal.wav
402,192,140433,1,0,0:0:0:30:soft-hitnormal.wav
182,192,140529,1,0,0:0:0:30:soft-hitnormal.wav
475,192,140529,1,0,0:0:0:30:soft-hitnormal.wav
402,192,140625,1,0,0:0:0:30:soft-hitnormal.wav
329,192,140721,1,0,0:0:0:30:soft-hitnormal.wav
36,192,140818,1,0,0:0:0:30:crash.wav
109,192,140818,1,0,0:0:0:30:crash.wav
475,192,140818,1,0,0:0:0:30:soft-hitnormal.wav
256,192,140818,1,0,0:0:0:30:soft-hitnormal.wav
329,192,141106,1,0,0:0:0:30:drum.wav
256,192,141106,1,0,0:0:0:30:drum.wav
182,192,141170,1,0,0:0:0:30:hihat.wav
109,192,141202,1,0,0:0:0:30:hihat.wav
36,192,141234,1,0,0:0:0:30:hihat.wav
329,192,141298,1,0,0:0:0:30:drum.wav
402,192,141298,1,0,0:0:0:30:drum.wav
256,192,141362,1,0,0:0:0:30:hihat.wav
182,192,141394,1,0,0:0:0:30:hihat.wav
109,192,141426,1,0,0:0:0:30:hihat.wav
475,192,141491,1,0,0:0:0:30:drum.wav
402,192,141491,1,0,0:0:0:30:drum.wav
329,192,141555,1,0,0:0:0:30:hihat.wav
256,192,141587,1,0,0:0:0:30:hihat.wav
182,192,141619,1,0,0:0:0:30:hihat.wav
36,192,141683,1,0,0:0:0:30:drum.wav
109,192,141683,1,0,0:0:0:30:drum.wav
475,192,141683,1,0,0:0:0:30:drum.wav
402,192,141683,1,0,0:0:0:30:drum.wav
36,192,142068,1,0,0:0:0:20:crash.wav
109,192,142068,1,0,0:0:0:20:crash.wav
402,192,142068,1,0,0:0:0:20:crash.wav
475,192,142068,1,0,0:0:0:20:crash.wav
329,192,142164,1,0,0:0:0:30:soft-hitnormal.wav
256,192,142260,1,0,0:0:0:30:soft-hitnormal.wav
182,192,142356,1,0,0:0:0:30:soft-hitnormal.wav
36,192,142452,1,0,0:0:0:30:hihat.wav
109,192,142452,1,0,0:0:0:30:hihat.wav
402,192,142452,1,0,0:0:0:30:hihat.wav
475,192,142452,1,0,0:0:0:30:hihat.wav
182,192,142548,1,0,0:0:0:30:soft-hitnormal.wav
256,192,142644,1,0,0:0:0:30:soft-hitnormal.wav
329,192,142741,1,0,0:0:0:30:soft-hitnormal.wav
109,192,142741,1,0,0:0:0:30:soft-hitnormal.wav
36,192,142837,1,0,0:0:0:30:hihat.wav
402,192,142837,1,0,0:0:0:30:hihat.wav
475,192,142837,1,0,0:0:0:30:hihat.wav
182,192,142837,1,0,0:0:0:30:hihat.wav
256,192,142933,1,0,0:0:0:30:soft-hitnormal.wav
109,192,143029,1,0,0:0:0:30:hihat.wav
329,192,143029,1,0,0:0:0:30:hihat.wav
475,192,143029,1,0,0:0:0:30:hihat.wav
182,192,143125,1,0,0:0:0:30:soft-hitnormal.wav
36,192,143221,1,0,0:0:0:30:hihat.wav
256,192,143221,1,0,0:0:0:30:hihat.wav
402,192,143221,1,0,0:0:0:30:hihat.wav
475,192,143221,1,0,0:0:0:30:hihat.wav
109,192,143318,1,0,0:0:0:30:soft-hitnormal.wav
182,192,143414,1,0,0:0:0:30:soft-hitnormal.wav
329,192,143414,1,0,0:0:0:30:soft-hitnormal.wav
402,192,143510,1,0,0:0:0:30:soft-hitnormal.wav
475,192,143606,1,0,0:0:0:30:hihat.wav
256,192,143606,1,0,0:0:0:30:hihat.wav
36,192,143606,1,0,0:0:0:30:hihat.wav
109,192,143606,1,0,0:0:0:30:hihat.wav
402,192,143702,1,0,0:0:0:30:soft-hitnormal.wav
329,192,143798,1,0,0:0:0:30:soft-hitnormal.wav
256,192,143798,1,0,0:0:0:30:soft-hitnormal.wav
182,192,143862,1,0,0:0:0:30:soft-hitnormal.wav
109,192,143926,1,0,0:0:0:30:soft-hitnormal.wav
36,192,143991,1,0,0:0:0:30:hihat.wav
475,192,143991,1,0,0:0:0:30:hihat.wav
402,192,143991,1,0,0:0:0:30:hihat.wav
329,192,143991,1,0,0:0:0:30:hihat.wav
109,192,144087,1,0,0:0:0:30:soft-hitnormal.wav
256,192,144183,1,0,0:0:0:30:soft-hitnormal.wav
182,192,144183,1,0,0:0:0:30:soft-hitnormal.wav
329,192,144247,1,0,0:0:0:30:soft-hitnormal.wav
402,192,144311,1,0,0:0:0:30:soft-hitnormal.wav
182,192,144375,1,0,0:0:0:30:hihat.wav
109,192,144375,1,0,0:0:0:30:hihat.wav
36,192,144375,1,0,0:0:0:30:hihat.wav
475,192,144375,1,0,0:0:0:30:hihat.wav
402,192,144471,1,0,0:0:0:30:soft-hitnormal.wav
329,192,144568,1,0,0:0:0:30:soft-hitnormal.wav
256,192,144568,1,0,0:0:0:30:soft-hitnormal.wav
182,192,144632,1,0,0:0:0:30:soft-hitnormal.wav
109,192,144696,1,0,0:0:0:30:soft-hitnormal.wav
36,192,144760,1,0,0:0:0:30:hihat.wav
402,192,144760,1,0,0:0:0:30:hihat.wav
475,192,144760,1,0,0:0:0:30:hihat.wav
329,192,144760,1,0,0:0:0:30:hihat.wav
109,192,144856,1,0,0:0:0:30:soft-hitnormal.wav
182,192,144952,1,0,0:0:0:30:soft-hitnormal.wav
256,192,144952,1,0,0:0:0:30:soft-hitnormal.wav
329,192,145016,1,0,0:0:0:30:soft-hitnormal.wav
402,192,145080,1,0,0:0:0:30:soft-hitnormal.wav
475,192,145144,1,0,0:0:0:30:hihat.wav
36,192,145144,1,0,0:0:0:30:hihat.wav
109,192,145144,1,0,0:0:0:30:hihat.wav
182,192,145144,1,0,0:0:0:30:hihat.wav
402,192,145241,1,0,0:0:0:30:soft-hitnormal.wav
256,192,145337,1,0,0:0:0:30:soft-hitnormal.wav
329,192,145337,1,0,0:0:0:30:soft-hitnormal.wav
182,192,145401,1,0,0:0:0:30:soft-hitnormal.wav
109,192,145465,1,0,0:0:0:30:soft-hitnormal.wav
475,192,145529,1,0,0:0:0:30:hihat.wav
36,192,145529,1,0,0:0:0:30:hihat.wav
329,192,145529,1,0,0:0:0:30:hihat.wav
402,192,145529,1,0,0:0:0:30:hihat.wav
109,192,145625,1,0,0:0:0:30:hihat.wav
256,192,145625,1,0,0:0:0:30:hihat.wav
329,192,145721,1,0,0:0:0:30:hihat.wav
475,192,145721,1,0,0:0:0:30:hihat.wav
36,192,145818,1,0,0:0:0:30:hihat.wav
182,192,145818,1,0,0:0:0:30:hihat.wav
402,192,145914,1,0,0:0:0:30:hihat.wav
256,192,145914,1,0,0:0:0:30:hihat.wav
182,192,146010,1,0,0:0:0:30:hihat.wav
329,192,146010,1,0,0:0:0:30:hihat.wav
36,192,146106,1,0,0:0:0:40:hihat.wav
475,192,146106,1,0,0:0:0:20:drum.wav
402,192,146170,1,0,0:0:0:20:drum.wav
182,192,146202,1,0,0:0:0:40:hihat.wav
329,192,146234,1,0,0:0:0:20:drum.wav
109,192,146298,1,0,0:0:0:20:drum.wav
36,192,146298,1,0,0:0:0:20:drum.wav
256,192,146298,1,0,0:0:0:20:drum.wav
329,192,146394,1,0,0:0:0:20:drum.wav
402,192,146394,1,0,0:0:0:20:drum.wav
109,192,146491,1,0,0:0:0:20:drum.wav
36,192,146491,1,0,0:0:0:20:drum.wav
329,192,146587,1,0,0:0:0:20:drum.wav
402,192,146587,1,0,0:0:0:20:drum.wav
182,192,146683,1,0,0:0:0:20:drum.wav
109,192,146683,1,0,0:0:0:20:drum.wav
256,192,146683,1,0,0:0:0:20:drum.wav
402,192,146779,1,0,0:0:0:20:drum.wav
475,192,146779,1,0,0:0:0:20:drum.wav
182,192,146875,1,0,0:0:0:20:drum.wav
109,192,146875,1,0,0:0:0:20:drum.wav
402,192,146971,1,0,0:0:0:20:drum.wav
475,192,146971,1,0,0:0:0:20:drum.wav
182,192,147068,1,0,0:0:0:20:drum.wav
36,192,147068,1,0,0:0:0:20:drum.wav
256,192,147068,1,0,0:0:0:20:drum.wav
329,192,147164,1,0,0:0:0:20:drum.wav
475,192,147164,1,0,0:0:0:20:drum.wav
182,192,147260,1,0,0:0:0:20:drum.wav
36,192,147260,1,0,0:0:0:20:drum.wav
329,192,147356,1,0,0:0:0:20:drum.wav
475,192,147356,1,0,0:0:0:20:drum.wav
182,192,147452,1,0,0:0:0:20:drum.wav
109,192,147452,1,0,0:0:0:20:drum.wav
256,192,147452,1,0,0:0:0:20:drum.wav
402,192,147548,1,0,0:0:0:20:drum.wav
329,192,147548,1,0,0:0:0:20:drum.wav
182,192,147644,1,0,0:0:0:20:drum.wav
109,192,147644,1,0,0:0:0:20:drum.wav
256,192,147709,1,0,0:0:0:30:hihat.wav
329,192,147773,1,0,0:0:0:30:hihat.wav
402,192,147837,1,0,0:0:0:30:hihat.wav
36,192,147837,1,0,0:0:0:30:hihat.wav
109,192,147837,1,0,0:0:0:30:hihat.wav
475,192,147869,1,0,0:0:0:30:hihat.wav
475,192,148221,1,0,0:0:0:30:hihat.wav
402,192,148221,1,0,0:0:0:30:hihat.wav
329,192,148285,1,0,0:0:0:30:soft-hitnormal.wav
256,192,148350,1,0,0:0:0:30:soft-hitnormal.wav
36,192,148414,1,0,0:0:0:30:soft-hitnormal.wav
109,192,148478,1,0,0:0:0:30:soft-hitnormal.wav
182,192,148542,1,0,0:0:0:30:soft-hitnormal.wav
329,192,148606,1,0,0:0:0:30:hihat.wav
256,192,148606,1,0,0:0:0:30:hihat.wav
402,192,148670,1,0,0:0:0:30:soft-hitnormal.wav
475,192,148734,1,0,0:0:0:30:soft-hitnormal.wav
256,192,148798,1,0,0:0:0:30:soft-hitnormal.wav
182,192,148862,1,0,0:0:0:30:hihat.wav
109,192,148862,1,0,0:0:0:30:hihat.wav
36,192,148926,1,0,0:0:0:30:soft-hitnormal.wav
402,192,148991,1,0,0:0:0:30:hihat.wav
475,192,148991,1,0,0:0:0:30:hihat.wav
329,192,149055,1,0,0:0:0:30:soft-hitnormal.wav
256,192,149119,1,0,0:0:0:30:soft-hitnormal.wav
36,192,149183,1,0,0:0:0:30:hihat.wav
109,192,149183,1,0,0:0:0:30:hihat.wav
182,192,149247,1,0,0:0:0:30:soft-hitnormal.wav
256,192,149311,1,0,0:0:0:30:soft-hitnormal.wav
402,192,149375,1,0,0:0:0:30:hihat.wav
329,192,149375,1,0,0:0:0:30:hihat.wav
36,192,149439,1,0,0:0:0:30:soft-hitnormal.wav
109,192,149503,1,0,0:0:0:30:soft-hitnormal.wav
182,192,149568,1,0,0:0:0:30:hihat.wav
256,192,149568,1,0,0:0:0:30:hihat.wav
475,192,149632,1,0,0:0:0:30:soft-hitnormal.wav
402,192,149696,1,0,0:0:0:30:soft-hitnormal.wav
329,192,149760,1,0,0:0:0:30:hihat.wav
256,192,149760,1,0,0:0:0:30:hihat.wav
182,192,149824,1,0,0:0:0:30:soft-hitnormal.wav
109,192,149888,1,0,0:0:0:30:soft-hitnormal.wav
402,192,149952,1,0,0:0:0:30:hihat.wav
475,192,149952,1,0,0:0:0:30:hihat.wav
329,192,150016,1,0,0:0:0:30:soft-hitnormal.wav
256,192,150080,1,0,0:0:0:30:soft-hitnormal.wav
109,192,150144,1,0,0:0:0:30:hihat.wav
182,192,150144,1,0,0:0:0:30:hihat.wav
36,192,150209,1,0,0:0:0:30:soft-hitnormal.wav
256,192,150273,1,0,0:0:0:30:soft-hitnormal.wav
402,192,150337,1,0,0:0:0:30:hihat.wav
329,192,150337,1,0,0:0:0:30:hihat.wav
475,192,150401,1,0,0:0:0:30:soft-hitnormal.wav
36,192,150465,1,0,0:0:0:30:soft-hitnormal.wav
109,192,150529,1,0,0:0:0:30:hihat.wav
182,192,150529,1,0,0:0:0:30:hihat.wav
256,192,150593,1,0,0:0:0:30:soft-hitnormal.wav
329,192,150657,1,0,0:0:0:30:hihat.wav
402,192,150657,1,0,0:0:0:30:hihat.wav
36,192,150721,1,0,0:0:0:30:hihat.wav
109,192,150721,1,0,0:0:0:30:hihat.wav
182,192,150785,1,0,0:0:0:30:hihat.wav
256,192,150785,1,0,0:0:0:30:hihat.wav
329,192,150850,1,0,0:0:0:30:hihat.wav
402,192,150850,1,0,0:0:0:30:hihat.wav
182,192,150914,1,0,0:0:0:20:drum.wav
109,192,150914,1,0,0:0:0:20:drum.wav
475,192,151010,1,0,0:0:0:20:drum.wav
402,192,151010,1,0,0:0:0:20:drum.wav
182,192,151106,1,0,0:0:0:20:drum.wav
109,192,151106,1,0,0:0:0:20:drum.wav
475,192,151202,1,0,0:0:0:20:drum.wav
402,192,151202,1,0,0:0:0:20:drum.wav
109,192,151298,1,0,0:0:0:20:drum.wav
36,192,151298,1,0,0:0:0:20:drum.wav
402,192,151394,1,0,0:0:0:20:drum.wav
329,192,151394,1,0,0:0:0:20:drum.wav
109,192,151491,1,0,0:0:0:20:drum.wav
36,192,151491,1,0,0:0:0:20:drum.wav
402,192,151587,1,0,0:0:0:20:drum.wav
329,192,151587,1,0,0:0:0:20:drum.wav
182,192,151683,1,0,0:0:0:20:drum.wav
36,192,151683,1,0,0:0:0:20:drum.wav
475,192,151779,1,0,0:0:0:20:drum.wav
329,192,151779,1,0,0:0:0:20:drum.wav
182,192,151875,1,0,0:0:0:20:drum.wav
36,192,151875,1,0,0:0:0:20:drum.wav
475,192,151971,1,0,0:0:0:20:drum.wav
329,192,151971,1,0,0:0:0:20:drum.wav
402,192,152068,1,0,0:0:0:25:soft-hitnormal.wav
36,192,152068,1,0,0:0:0:25:hihat.wav
109,192,152132,1,0,0:0:0:30:hihat.wav
329,192,152164,1,0,0:0:0:30:soft-hitnormal.wav
182,192,152196,1,0,0:0:0:30:hihat.wav
256,192,152260,1,0,0:0:0:30:hihat.wav
36,192,152260,1,0,0:0:0:30:soft-hitnormal.wav
475,192,152260,1,0,0:0:0:30:soft-hitnormal.wav
329,192,152324,1,0,0:0:0:30:hihat.wav
182,192,152356,1,0,0:0:0:30:soft-hitnormal.wav
402,192,152388,1,0,0:0:0:30:hihat.wav
109,192,152452,1,0,0:0:0:30:soft-hitnormal.wav
475,192,152452,1,0,0:0:0:30:hihat.wav
182,192,152548,1,0,0:0:0:20:drum.wav
329,192,152548,1,0,0:0:0:20:drum.wav
182,192,152644,1,0,0:0:0:20:drum.wav
329,192,152644,1,0,0:0:0:20:drum.wav
109,192,152644,1,0,0:0:0:20:drum.wav
402,192,152644,1,0,0:0:0:20:drum.wav
256,192,152741,1,0,0:0:0:30:hihat.wav
182,192,152837,1,0,0:0:0:20:drum.wav
109,192,152837,1,0,0:0:0:20:drum.wav
402,192,152837,1,0,0:0:0:20:drum.wav
329,192,152837,1,0,0:0:0:20:drum.wav
329,192,152933,1,0,0:0:0:20:drum.wav
109,192,152933,1,0,0:0:0:20:drum.wav
402,192,152933,1,0,0:0:0:20:drum.wav
182,192,152933,1,0,0:0:0:20:drum.wav
256,192,153029,1,0,0:0:0:30:hihat.wav
36,192,153125,1,0,0:0:0:30:hihat.wav
475,192,153125,1,0,0:0:0:30:hihat.wav
109,192,153221,1,0,0:0:0:20:drum.wav
402,192,153221,1,0,0:0:0:20:drum.wav
182,192,153221,1,0,0:0:0:20:drum.wav
329,192,153221,1,0,0:0:0:20:drum.wav
109,192,153350,1,0,0:0:0:20:drum.wav
182,192,153350,1,0,0:0:0:20:drum.wav
329,192,153350,1,0,0:0:0:20:drum.wav
402,192,153350,1,0,0:0:0:20:drum.wav
182,192,153478,1,0,0:0:0:20:drum.wav
329,192,153478,1,0,0:0:0:20:drum.wav
109,192,153478,1,0,0:0:0:20:drum.wav
402,192,153478,1,0,0:0:0:20:drum.wav
36,192,153606,1,0,0:0:0:20:drum.wav
109,192,153606,1,0,0:0:0:20:drum.wav
475,192,153606,1,0,0:0:0:20:drum.wav
402,192,153606,1,0,0:0:0:20:drum.wav
182,192,153606,1,0,0:0:0:20:drum.wav
329,192,153606,1,0,0:0:0:20:drum.wav
182,192,153734,1,0,0:0:0:20:drum.wav
329,192,153734,1,0,0:0:0:20:drum.wav
36,192,153734,1,0,0:0:0:20:drum.wav
475,192,153734,1,0,0:0:0:20:drum.wav
256,192,153734,1,0,0:0:0:20:drum.wav
36,192,153991,1,0,0:0:0:30:soft-hitnormal.wav
329,192,153991,1,0,0:0:0:30:soft-hitnormal.wav
109,192,154055,1,0,0:0:0:30:soft-hitnormal.wav
402,192,154055,1,0,0:0:0:30:soft-hitnormal.wav
182,192,154119,1,0,0:0:0:30:soft-hitnormal.wav
475,192,154119,1,0,0:0:0:30:soft-hitnormal.wav
256,192,154183,1,0,0:0:0:30:soft-hitnormal.wav
402,192,154311,1,0,0:0:0:30:soft-hitnormal.wav
475,192,154311,1,0,0:0:0:30:soft-hitnormal.wav
36,192,154375,1,0,0:0:0:30:soft-hitnormal.wav
109,192,154375,1,0,0:0:0:30:soft-hitnormal.wav
182,192,154375,1,0,0:0:0:30:soft-hitnormal.wav
256,192,154568,1,0,0:0:0:30:hihat.wav
329,192,154568,1,0,0:0:0:30:hihat.wav
402,192,154760,1,0,0:0:0:30:hihat.wav
329,192,154760,1,0,0:0:0:30:hihat.wav
109,192,154856,1,0,0:0:0:30:hihat.wav
182,192,154856,1,0,0:0:0:30:hihat.wav
109,192,154952,1,0,0:0:0:30:hihat.wav
182,192,154952,1,0,0:0:0:30:hihat.wav
256,192,155048,1,0,0:0:0:30:hihat.wav
402,192,155048,1,0,0:0:0:30:hihat.wav
475,192,155048,1,0,0:0:0:30:hihat.wav
36,192,155144,1,0,0:0:0:30:hihat.wav
109,192,155144,1,0,0:0:0:30:hihat.wav
36,192,155241,1,0,0:0:0:30:hihat.wav
109,192,155241,1,0,0:0:0:30:hihat.wav
329,192,155337,1,0,0:0:0:30:hihat.wav
402,192,155337,1,0,0:0:0:30:hihat.wav
182,192,155337,1,0,0:0:0:30:hihat.wav
329,192,155433,1,0,0:0:0:30:hihat.wav
402,192,155433,1,0,0:0:0:30:hihat.wav
402,192,155529,1,0,0:0:0:30:drum.wav
36,192,155529,1,0,0:0:0:30:drum.wav
256,192,155529,1,0,0:0:0:30:drum.wav
109,192,155529,1,0,0:0:0:30:drum.wav
182,192,155721,1,0,0:0:0:30:soft-hitnormal.wav
109,192,155914,1,0,0:0:0:30:soft-hitnormal.wav
402,192,155914,1,0,0:0:0:30:soft-hitnormal.wav
329,192,155914,1,0,0:0:0:30:
36,192,156106,1,0,0:0:0:30:soft-hitnormal.wav
109,192,156298,1,0,0:0:0:30:hihat.wav
182,192,156298,1,0,0:0:0:30:hihat.wav
329,192,156394,1,0,0:0:0:30:hihat.wav
402,192,156394,1,0,0:0:0:30:hihat.wav
36,192,156491,1,0,0:0:0:30:hihat.wav
182,192,156491,1,0,0:0:0:30:hihat.wav
329,192,156587,1,0,0:0:0:30:hihat.wav
475,192,156587,1,0,0:0:0:30:hihat.wav
109,192,156683,1,0,0:0:0:30:hihat.wav
182,192,156683,1,0,0:0:0:30:hihat.wav
329,192,156779,1,0,0:0:0:30:hihat.wav
402,192,156779,1,0,0:0:0:30:hihat.wav
36,192,156875,1,0,0:0:0:30:hihat.wav
109,192,156875,1,0,0:0:0:30:hihat.wav
402,192,156971,1,0,0:0:0:30:hihat.wav
475,192,156971,1,0,0:0:0:30:hihat.wav
329,192,157068,1,0,0:0:0:30:hihat.wav
109,192,157068,1,0,0:0:0:30:crash.wav
182,192,157068,1,0,0:0:0:30:hihat.wav
36,192,157644,1,0,0:0:0:40:soft-hitnormal.wav
182,192,157693,1,0,0:0:0:40:soft-hitnormal.wav
329,192,157741,1,0,0:0:0:40:soft-hitnormal.wav
402,192,157789,1,0,0:0:0:40:soft-hitnormal.wav
475,192,157837,1,0,0:0:0:40:soft-hitnormal.wav
182,192,158606,1,0,0:0:0:40:soft-hitnormal.wav
109,192,158670,1,0,0:0:0:40:soft-hitnormal.wav
36,192,158734,1,0,0:0:0:40:soft-hitnormal.wav
329,192,158798,1,0,0:0:0:40:soft-hitnormal.wav
402,192,158798,1,0,0:0:0:40:soft-hitnormal.wav
256,192,158862,1,0,0:0:0:40:soft-hitnormal.wav
182,192,158926,1,0,0:0:0:40:soft-hitnormal.wav
475,192,158991,1,0,0:0:0:40:hihat.wav
109,192,158991,1,0,0:0:0:40:hihat.wav
402,192,159055,1,0,0:0:0:40:soft-hitnormal.wav
329,192,159119,1,0,0:0:0:40:soft-hitnormal.wav
109,192,159183,1,0,0:0:0:40:soft-hitnormal.wav
182,192,159247,1,0,0:0:0:40:soft-hitnormal.wav
402,192,159247,1,0,0:0:0:40:soft-hitnormal.wav
329,192,159311,1,0,0:0:0:40:soft-hitnormal.wav
36,192,159311,1,0,0:0:0:40:soft-hitnormal.wav
109,192,159375,1,0,0:0:0:40:soft-hitnormal.wav
182,192,159439,1,0,0:0:0:40:soft-hitnormal.wav
402,192,159439,1,0,0:0:0:40:soft-hitnormal.wav
329,192,159503,1,0,0:0:0:40:soft-hitnormal.wav
36,192,159503,1,0,0:0:0:40:soft-hitnormal.wav
109,192,159568,1,0,0:0:0:40:soft-hitnormal.wav
182,192,159632,1,0,0:0:0:40:soft-hitnormal.wav
475,192,159632,1,0,0:0:0:40:soft-hitnormal.wav
402,192,159696,1,0,0:0:0:40:soft-hitnormal.wav
329,192,159760,1,0,0:0:0:40:soft-hitnormal.wav
109,192,159760,1,0,0:0:0:40:soft-hitnormal.wav
182,192,159824,1,0,0:0:0:40:soft-hitnormal.wav
475,192,159824,1,0,0:0:0:40:soft-hitnormal.wav
402,192,159888,1,0,0:0:0:40:soft-hitnormal.wav
329,192,159952,1,0,0:0:0:40:soft-hitnormal.wav
109,192,159952,1,0,0:0:0:40:soft-hitnormal.wav
182,192,160016,1,0,0:0:0:40:soft-hitnormal.wav
256,192,160080,1,0,0:0:0:40:soft-hitnormal.wav
475,192,160144,1,0,0:0:0:40:soft-hitnormal.wav
402,192,160144,1,0,0:0:0:40:soft-hitnormal.wav
329,192,160193,1,0,0:0:0:40:soft-hitnormal.wav
182,192,160241,1,0,0:0:0:40:soft-hitnormal.wav
109,192,160337,1,0,0:0:0:40:soft-hitnormal.wav
109,192,160673,1,0,0:0:0:40:hihat.wav
329,192,160721,1,0,0:0:0:40:hihat.wav
475,192,160721,1,0,0:0:0:40:hihat.wav
36,192,160721,1,0,0:0:0:40:hihat.wav
36,192,161298,1,0,0:0:0:40:hihat.wav
109,192,161298,1,0,0:0:0:40:hihat.wav
182,192,161491,1,0,0:0:0:40:hihat.wav
256,192,161491,1,0,0:0:0:40:hihat.wav
402,192,161875,1,0,0:0:0:40:hihat.wav
329,192,161875,1,0,0:0:0:40:hihat.wav
256,192,162260,1,0,0:0:0:40:hihat.wav
402,192,162260,1,0,0:0:0:40:hihat.wav
182,192,162452,1,0,0:0:0:40:hihat.wav
36,192,162452,1,0,0:0:0:40:hihat.wav
475,192,162741,1,0,0:0:0:40:hihat.wav
329,192,162741,1,0,0:0:0:40:hihat.wav
256,192,163029,1,0,0:0:0:40:hihat.wav
109,192,163029,1,0,0:0:0:40:hihat.wav
402,192,163221,1,0,0:0:0:40:hihat.wav
36,192,163221,1,0,0:0:0:40:hihat.wav
182,192,163221,1,0,0:0:0:40:hihat.wav
475,192,163221,1,0,0:0:0:40:hihat.wav
256,192,163798,1,0,0:0:0:40:soft-hitnormal.wav
475,192,163991,1,0,0:0:0:40:soft-hitnormal.wav
329,192,164183,1,0,0:0:0:40:soft-hitnormal.wav
182,192,164279,1,0,0:0:0:40:soft-hitnormal.wav
36,192,164375,1,0,0:0:0:40:soft-hitnormal.wav
402,192,164471,1,0,0:0:0:40:soft-hitnormal.wav
256,192,164519,1,0,0:0:0:40:soft-hitnormal.wav
109,192,164616,1,0,0:0:0:40:soft-hitnormal.wav
475,192,164728,1,0,0:0:0:40:soft-hitnormal.wav
329,192,164824,1,0,0:0:0:40:soft-hitnormal.wav
182,192,164880,1,0,0:0:0:40:soft-hitnormal.wav
36,192,164952,1,0,0:0:0:40:soft-hitnormal.wav
402,192,165048,1,0,0:0:0:40:soft-hitnormal.wav
256,192,165144,1,0,0:0:0:40:soft-hitnormal.wav
109,192,165217,1,0,0:0:0:40:soft-hitnormal.wav
329,192,165305,1,0,0:0:0:40:soft-hitnormal.wav
182,192,165401,1,0,0:0:0:40:soft-hitnormal.wav
256,192,165529,1,0,0:0:0:40:hihat.wav
475,192,165529,1,0,0:0:0:40:hihat.wav
182,192,165818,1,0,0:0:0:40:hihat.wav
402,192,165818,1,0,0:0:0:40:hihat.wav
109,192,166106,1,0,0:0:0:40:hihat.wav
329,192,166106,1,0,0:0:0:40:hihat.wav
36,192,166298,1,0,0:0:0:40:hihat.wav
256,192,166298,1,0,0:0:0:40:hihat.wav
475,192,166298,1,0,0:0:0:40:hihat.wav
182,192,166587,1,0,0:0:0:40:hihat.wav
329,192,166587,1,0,0:0:0:40:hihat.wav
36,192,166875,1,0,0:0:0:40:hihat.wav
402,192,166875,1,0,0:0:0:40:hihat.wav
475,192,166875,1,0,0:0:0:40:hihat.wav
256,192,167452,1,0,0:0:0:40:hihat.wav
329,192,167452,1,0,0:0:0:40:hihat.wav
36,192,168029,1,0,0:0:0:40:hihat.wav
109,192,168029,1,0,0:0:0:40:hihat.wav
182,192,168414,1,0,0:0:0:40:hihat.wav
256,192,168414,1,0,0:0:0:40:hihat.wav
256,192,168798,1,0,0:0:0:40:hihat.wav
329,192,168798,1,0,0:0:0:40:hihat.wav
402,192,169183,1,0,0:0:0:40:hihat.wav
475,192,169183,1,0,0:0:0:40:hihat.wav
329,192,169375,5,0,0:0:0:40:hihat.wav
182,192,169375,1,0,0:0:0:40:hihat.wav
109,192,169375,1,0,0:0:0:40:hihat.wav
36,192,169375,1,0,0:0:0:40:hihat.wav
402,192,169952,1,0,0:0:0:40:hihat.wav
182,192,169952,1,0,0:0:0:40:hihat.wav
329,192,170481,1,0,0:0:0:40:soft-hitnormal.wav
475,192,170625,1,0,0:0:0:40:soft-hitnormal.wav
402,192,170866,1,0,0:0:0:40:soft-hitnormal.wav
329,192,171202,1,0,0:0:0:40:soft-hitnormal.wav
182,192,171443,1,0,0:0:0:40:soft-hitnormal.wav
256,192,171523,1,0,0:0:0:40:soft-hitnormal.wav
109,192,171683,1,0,0:0:0:40:soft-hitnormal.wav
329,192,171731,1,0,0:0:0:40:soft-hitnormal.wav
36,192,171875,1,0,0:0:0:40:soft-hitnormal.wav
402,192,171939,1,0,0:0:0:40:soft-hitnormal.wav
109,192,172068,1,0,0:0:0:40:soft-hitnormal.wav
475,192,172132,1,0,0:0:0:40:soft-hitnormal.wav
182,192,172260,1,0,0:0:0:40:soft-hitnormal.wav
402,192,172324,1,0,0:0:0:40:soft-hitnormal.wav
256,192,172452,1,0,0:0:0:40:soft-hitnormal.wav
329,192,172516,1,0,0:0:0:40:soft-hitnormal.wav
182,192,172644,1,0,0:0:0:40:soft-hitnormal.wav
402,192,172709,1,0,0:0:0:40:soft-hitnormal.wav
109,192,172813,1,0,0:0:0:40:soft-hitnormal.wav
475,192,172901,1,0,0:0:0:40:soft-hitnormal.wav
36,192,173029,1,0,0:0:0:40:soft-hitnormal.wav
402,192,173061,1,0,0:0:0:40:soft-hitnormal.wav
109,192,173221,1,0,0:0:0:40:soft-hitnormal.wav
329,192,173285,1,0,0:0:0:40:soft-hitnormal.wav
182,192,173382,1,0,0:0:0:40:soft-hitnormal.wav
256,192,173462,1,0,0:0:0:40:soft-hitnormal.wav
109,192,173542,1,0,0:0:0:40:soft-hitnormal.wav
329,192,173606,1,0,0:0:0:40:soft-hitnormal.wav
36,192,173726,1,0,0:0:0:40:soft-hitnormal.wav
402,192,173798,1,0,0:0:0:40:soft-hitnormal.wav
109,192,173894,1,0,0:0:0:40:soft-hitnormal.wav
475,192,173991,1,0,0:0:0:40:soft-hitnormal.wav
182,192,174087,1,0,0:0:0:40:soft-hitnormal.wav
402,192,174159,1,0,0:0:0:40:soft-hitnormal.wav
256,192,174279,1,0,0:0:0:40:soft-hitnormal.wav
329,192,174327,1,0,0:0:0:40:soft-hitnormal.wav
182,192,174471,1,0,0:0:0:40:soft-hitnormal.wav
402,192,174535,1,0,0:0:0:40:soft-hitnormal.wav
109,192,174600,1,0,0:0:0:40:soft-hitnormal.wav
475,192,174696,1,0,0:0:0:40:soft-hitnormal.wav
36,192,174792,1,0,0:0:0:40:soft-hitnormal.wav
402,192,174888,1,0,0:0:0:40:soft-hitnormal.wav
109,192,174984,1,0,0:0:0:40:soft-hitnormal.wav
329,192,175080,1,0,0:0:0:40:soft-hitnormal.wav
182,192,175176,1,0,0:0:0:40:soft-hitnormal.wav
109,192,175337,1,0,0:0:0:40:hihat.wav
402,192,175337,1,0,0:0:0:40:hihat.wav
182,192,175433,1,0,0:0:0:40:soft-hitnormal.wav
256,192,175529,1,0,0:0:0:40:soft-hitnormal.wav
329,192,175625,1,0,0:0:0:40:soft-hitnormal.wav
109,192,175721,1,0,0:0:0:40:hihat.wav
475,192,175721,1,0,0:0:0:40:hihat.wav
402,192,175721,1,0,0:0:0:40:hihat.wav
36,192,175721,1,0,0:0:0:40:hihat.wav
329,192,175818,1,0,0:0:0:40:soft-hitnormal.wav
256,192,175914,1,0,0:0:0:40:soft-hitnormal.wav
182,192,176010,1,0,0:0:0:40:soft-hitnormal.wav
109,192,176106,1,0,0:0:0:40:soft-hitnormal.wav
36,192,176202,1,0,0:0:0:40:soft-hitnormal.wav
182,192,176298,1,0,0:0:0:40:soft-hitnormal.wav
329,192,176394,1,0,0:0:0:40:soft-hitnormal.wav
182,192,176491,1,0,0:0:0:40:soft-hitnormal.wav
329,192,176587,1,0,0:0:0:40:soft-hitnormal.wav
329,192,176683,1,0,0:0:0:40:soft-hitnormal.wav
182,192,176779,1,0,0:0:0:40:soft-hitnormal.wav
182,192,176875,1,0,0:0:0:40:soft-hitnormal.wav
329,192,176971,1,0,0:0:0:40:soft-hitnormal.wav
475,192,177068,1,0,0:0:0:30:hihat.wav
36,192,177068,1,0,0:0:0:30:hihat.wav
329,192,177164,1,0,0:0:0:30:soft-hitnormal.wav
182,192,177260,1,0,0:0:0:30:soft-hitnormal.wav
182,192,177356,1,0,0:0:0:30:soft-hitnormal.wav
475,192,177452,1,0,0:0:0:30:hihat.wav
36,192,177452,1,0,0:0:0:30:hihat.wav
182,192,177548,1,0,0:0:0:30:soft-hitnormal.wav
329,192,177644,1,0,0:0:0:30:soft-hitnormal.wav
329,192,177741,1,0,0:0:0:30:soft-hitnormal.wav
475,192,177837,1,0,0:0:0:30:hihat.wav
36,192,177837,1,0,0:0:0:30:hihat.wav
329,192,177933,1,0,0:0:0:30:soft-hitnormal.wav
182,192,178029,1,0,0:0:0:30:soft-hitnormal.wav
182,192,178125,1,0,0:0:0:30:soft-hitnormal.wav
475,192,178221,1,0,0:0:0:30:hihat.wav
36,192,178221,1,0,0:0:0:30:hihat.wav
109,192,178318,1,0,0:0:0:30:soft-hitnormal.wav
256,192,178414,1,0,0:0:0:30:soft-hitnormal.wav
402,192,178510,1,0,0:0:0:30:soft-hitnormal.wav
36,192,178606,1,0,0:0:0:30:hihat.wav
329,192,178606,1,0,0:0:0:30:hihat.wav
182,192,178606,1,0,0:0:0:30:hihat.wav
109,192,178702,1,0,0:0:0:30:soft-hitnormal.wav
182,192,178798,1,0,0:0:0:30:soft-hitnormal.wav
475,192,178798,1,0,0:0:0:30:soft-hitnormal.wav
36,192,178894,1,0,0:0:0:30:hihat.wav
256,192,178894,1,0,0:0:0:30:hihat.wav
329,192,178894,1,0,0:0:0:30:hihat.wav
109,192,178991,1,0,0:0:0:30:soft-hitnormal.wav
182,192,179087,1,0,0:0:0:30:soft-hitnormal.wav
256,192,179183,1,0,0:0:0:30:hihat.wav
329,192,179183,1,0,0:0:0:30:hihat.wav
402,192,179183,1,0,0:0:0:30:hihat.wav
182,192,179279,1,0,0:0:0:30:soft-hitnormal.wav
109,192,179375,1,0,0:0:0:30:soft-hitnormal.wav
329,192,179471,1,0,0:0:0:30:soft-hitnormal.wav
475,192,179568,1,0,0:0:0:30:hihat.wav
36,192,179568,1,0,0:0:0:30:hihat.wav
256,192,179568,1,0,0:0:0:30:hihat.wav
402,192,179664,1,0,0:0:0:30:soft-hitnormal.wav
182,192,179664,1,0,0:0:0:30:soft-hitnormal.wav
256,192,179760,1,0,0:0:0:30:hihat.wav
475,192,179760,1,0,0:0:0:30:hihat.wav
36,192,179760,1,0,0:0:0:30:hihat.wav
109,192,179856,1,0,0:0:0:30:soft-hitnormal.wav
329,192,179856,1,0,0:0:0:30:soft-hitnormal.wav
475,192,179952,1,0,0:0:0:30:hihat.wav
402,192,179952,1,0,0:0:0:30:hihat.wav
182,192,179952,1,0,0:0:0:30:hihat.wav
329,192,180048,1,0,0:0:0:30:soft-hitnormal.wav
109,192,180048,1,0,0:0:0:30:soft-hitnormal.wav
256,192,180144,1,0,0:0:0:30:hihat.wav
36,192,180144,1,0,0:0:0:30:hihat.wav
475,192,180144,1,0,0:0:0:30:hihat.wav
402,192,180241,1,0,0:0:0:30:soft-hitnormal.wav
182,192,180241,1,0,0:0:0:30:hihat.wav
329,192,180337,1,0,0:0:0:30:hihat.wav
109,192,180337,1,0,0:0:0:30:hihat.wav
36,192,180337,1,0,0:0:0:30:hihat.wav
256,192,180433,1,0,0:0:0:30:hihat.wav
475,192,180433,1,0,0:0:0:30:hihat.wav
182,192,180529,1,0,0:0:0:30:hihat.wav
402,192,180529,1,0,0:0:0:30:hihat.wav
329,192,180529,1,0,0:0:0:30:hihat.wav
36,192,180625,1,0,0:0:0:30:hihat.wav
109,192,180625,1,0,0:0:0:30:hihat.wav
475,192,180721,1,0,0:0:0:30:hihat.wav
329,192,180721,1,0,0:0:0:30:hihat.wav
256,192,180721,1,0,0:0:0:30:hihat.wav
36,192,180818,1,0,0:0:0:30:hihat.wav
182,192,180818,1,0,0:0:0:30:hihat.wav
402,192,180914,1,0,0:0:0:30:hihat.wav
475,192,180914,1,0,0:0:0:30:hihat.wav
329,192,180914,1,0,0:0:0:30:hihat.wav
182,192,181010,1,0,0:0:0:30:hihat.wav
109,192,181010,1,0,0:0:0:30:hihat.wav
256,192,181106,1,0,0:0:0:30:hihat.wav
475,192,181106,1,0,0:0:0:30:hihat.wav
329,192,181106,1,0,0:0:0:30:hihat.wav
182,192,181202,1,0,0:0:0:30:hihat.wav
36,192,181202,1,0,0:0:0:30:hihat.wav
256,192,181298,1,0,0:0:0:30:soft-hitnormal.wav
475,192,181298,1,0,0:0:0:30:soft-hitnormal.wav
109,192,181298,1,0,0:0:0:30:soft-hitnormal.wav
402,192,181362,1,0,0:0:0:30:soft-hitnormal.wav
182,192,181394,1,0,0:0:0:30:soft-hitnormal.wav
329,192,181426,1,0,0:0:0:30:soft-hitnormal.wav
256,192,181491,1,0,0:0:0:30:soft-hitnormal.wav
475,192,181491,1,0,0:0:0:30:soft-hitnormal.wav
182,192,181587,1,0,0:0:0:30:soft-hitnormal.wav
36,192,181683,1,0,0:0:0:30:drum.wav
109,192,181683,1,0,0:0:0:30:crash.wav
402,192,181683,1,0,0:0:0:30:crash.wav
475,192,181683,1,0,0:0:0:30:drum.wav
329,192,181683,1,0,0:0:0:30:drum.wav
109,192,181971,1,0,0:0:0:30:crash.wav
182,192,181971,1,0,0:0:0:30:drum.wav
329,192,181971,1,0,0:0:0:30:drum.wav
402,192,181971,1,0,0:0:0:30:crash.wav
256,192,181971,1,0,0:0:0:30:drum.wav
36,192,182260,1,0,0:0:0:30:drum.wav
475,192,182260,1,0,0:0:0:30:drum.wav
182,192,182260,1,0,0:0:0:30:drum.wav
109,192,182260,1,0,0:0:0:30:crash.wav
402,192,182260,1,0,0:0:0:30:crash.wav
109,192,182837,1,0,0:0:0:30:soft-hitnormal.wav
402,192,182837,1,0,0:0:0:30:soft-hitnormal.wav
36,192,183029,1,0,0:0:0:30:soft-hitnormal.wav
182,192,183125,1,0,0:0:0:30:soft-hitnormal.wav
329,192,183221,1,0,0:0:0:30:soft-hitnormal.wav
475,192,183221,1,0,0:0:0:30:soft-hitnormal.wav
182,192,183318,1,0,0:0:0:30:soft-hitnormal.wav
36,192,183414,1,0,0:0:0:30:soft-hitnormal.wav
256,192,183510,1,0,0:0:0:30:soft-hitnormal.wav
182,192,183606,1,0,0:0:0:30:soft-hitnormal.wav
109,192,183702,1,0,0:0:0:30:soft-hitnormal.wav
256,192,183798,1,0,0:0:0:30:hihat.wav
36,192,183798,1,0,0:0:0:30:hihat.wav
402,192,183798,1,0,0:0:0:30:hihat.wav
182,192,183991,1,0,0:0:0:30:soft-hitnormal.wav
475,192,183991,1,0,0:0:0:30:soft-hitnormal.wav
256,192,184087,1,0,0:0:0:30:soft-hitnormal.wav
109,192,184087,1,0,0:0:0:30:soft-hitnormal.wav
36,192,184183,1,0,0:0:0:30:soft-hitnormal.wav
329,192,184183,1,0,0:0:0:30:soft-hitnormal.wav
402,192,184279,1,0,0:0:0:30:soft-hitnormal.wav
182,192,184279,1,0,0:0:0:30:soft-hitnormal.wav
109,192,184375,1,0,0:0:0:30:drum.wav
475,192,184375,1,0,0:0:0:30:drum.wav
256,192,184375,1,0,0:0:0:30:drum.wav
36,192,184471,1,0,0:0:0:30:drum.wav
329,192,184471,1,0,0:0:0:30:drum.wav
402,192,184568,1,0,0:0:0:30:drum.wav
182,192,184568,1,0,0:0:0:30:drum.wav
475,192,184664,1,0,0:0:0:30:drum.wav
36,192,184664,1,0,0:0:0:30:drum.wav
256,192,184760,1,0,0:0:0:30:crash.wav
329,192,184760,1,0,0:0:0:30:drum.wav
402,192,184760,1,0,0:0:0:30:drum.wav
182,192,184760,1,0,0:0:0:30:crash.wav
182,192,185048,1,0,0:0:0:30:crash.wav
256,192,185048,1,0,0:0:0:30:crash.wav
329,192,185048,1,0,0:0:0:30:drum.wav
109,192,185048,1,0,0:0:0:30:drum.wav
36,192,185337,1,0,0:0:0:30:drum.wav
109,192,185337,1,0,0:0:0:30:drum.wav
182,192,185337,1,0,0:0:0:30:crash.wav
256,192,185337,1,0,0:0:0:30:crash.wav
36,192,185721,1,0,0:0:0:30:hihat.wav
329,192,185721,1,0,0:0:0:30:hihat.wav
109,192,185914,1,0,0:0:0:30:hihat.wav
402,192,185914,1,0,0:0:0:30:hihat.wav
36,192,186106,1,0,0:0:0:20:drum.wav
109,192,186106,1,0,0:0:0:20:drum.wav
402,192,186170,1,0,0:0:0:20:drum.wav
475,192,186170,1,0,0:0:0:20:drum.wav
36,192,186234,1,0,0:0:0:20:drum.wav
109,192,186234,1,0,0:0:0:20:drum.wav
402,192,186298,1,0,0:0:0:20:drum.wav
475,192,186298,1,0,0:0:0:20:drum.wav
109,192,186394,1,0,0:0:0:20:drum.wav
182,192,186394,1,0,0:0:0:20:drum.wav
402,192,186491,1,0,0:0:0:20:drum.wav
475,192,186491,1,0,0:0:0:20:drum.wav
182,192,186587,1,0,0:0:0:20:drum.wav
109,192,186587,1,0,0:0:0:20:drum.wav
36,192,186587,1,0,0:0:0:20:drum.wav
329,192,186683,1,0,0:0:0:20:drum.wav
402,192,186683,1,0,0:0:0:20:drum.wav
36,192,186779,1,0,0:0:0:20:drum.wav
109,192,186779,1,0,0:0:0:20:drum.wav
402,192,186875,1,0,0:0:0:20:drum.wav
329,192,186875,1,0,0:0:0:20:drum.wav
475,192,186875,1,0,0:0:0:20:drum.wav
36,192,186971,1,0,0:0:0:20:drum.wav
182,192,186971,1,0,0:0:0:20:drum.wav
329,192,187068,1,0,0:0:0:20:drum.wav
475,192,187068,1,0,0:0:0:20:drum.wav
36,192,187164,1,0,0:0:0:20:drum.wav
109,192,187164,1,0,0:0:0:20:drum.wav
182,192,187164,1,0,0:0:0:20:drum.wav
402,192,187260,1,0,0:0:0:20:drum.wav
475,192,187260,1,0,0:0:0:20:drum.wav
109,192,187356,1,0,0:0:0:20:drum.wav
182,192,187356,1,0,0:0:0:20:drum.wav
36,192,187452,1,0,0:0:0:30:hihat.wav
475,192,187452,1,0,0:0:0:30:hihat.wav
109,192,187548,1,0,0:0:0:30:hihat.wav
402,192,187548,1,0,0:0:0:30:hihat.wav
182,192,187644,1,0,0:0:0:30:hihat.wav
256,192,187644,1,0,0:0:0:30:hihat.wav
329,192,187644,1,0,0:0:0:30:hihat.wav
36,192,187741,1,0,0:0:0:30:hihat.wav
475,192,187741,1,0,0:0:0:30:hihat.wav
109,192,187837,1,0,0:0:0:30:crash.wav
402,192,187837,1,0,0:0:0:30:crash.wav
329,192,187837,1,0,0:0:0:30:drum.wav
182,192,187837,1,0,0:0:0:30:drum.wav
36,192,188125,1,0,0:0:0:30:drum.wav
109,192,188125,1,0,0:0:0:30:crash.wav
402,192,188125,1,0,0:0:0:30:crash.wav
475,192,188125,1,0,0:0:0:30:drum.wav
109,192,188414,1,0,0:0:0:30:crash.wav
182,192,188414,1,0,0:0:0:30:drum.wav
329,192,188414,1,0,0:0:0:30:drum.wav
402,192,188414,1,0,0:0:0:30:crash.wav
36,192,188798,1,0,0:0:0:30:hihat.wav
256,192,188798,1,0,0:0:0:30:hihat.wav
329,192,188798,1,0,0:0:0:30:hihat.wav
182,192,188894,1,0,0:0:0:30:soft-hitnormal.wav
109,192,188991,1,0,0:0:0:30:hihat.wav
329,192,188991,1,0,0:0:0:30:hihat.wav
402,192,188991,1,0,0:0:0:30:hihat.wav
256,192,189087,1,0,0:0:0:30:soft-hitnormal.wav
402,192,189183,1,0,0:0:0:30:hihat.wav
475,192,189183,1,0,0:0:0:30:hihat.wav
182,192,189183,1,0,0:0:0:30:hihat.wav
329,192,189279,1,0,0:0:0:30:soft-hitnormal.wav
182,192,189375,1,0,0:0:0:30:soft-hitnormal.wav
109,192,189471,1,0,0:0:0:30:soft-hitnormal.wav
402,192,189568,1,0,0:0:0:30:soft-hitnormal.wav
256,192,189568,1,0,0:0:0:30:soft-hitnormal.wav
36,192,189568,1,0,0:0:0:30:soft-hitnormal.wav
109,192,189664,1,0,0:0:0:30:soft-hitnormal.wav
329,192,189760,1,0,0:0:0:30:hihat.wav
402,192,189760,1,0,0:0:0:30:hihat.wav
475,192,189760,1,0,0:0:0:30:hihat.wav
182,192,189856,1,0,0:0:0:30:hihat.wav
36,192,189952,1,0,0:0:0:30:hihat.wav
329,192,190048,1,0,0:0:0:30:hihat.wav
402,192,190048,1,0,0:0:0:30:hihat.wav
475,192,190048,1,0,0:0:0:30:hihat.wav
182,192,190144,1,0,0:0:0:30:hihat.wav
109,192,190241,1,0,0:0:0:30:hihat.wav
36,192,190337,1,0,0:0:0:30:hihat.wav
256,192,190337,1,0,0:0:0:30:hihat.wav
475,192,190337,1,0,0:0:0:30:hihat.wav
182,192,190433,1,0,0:0:0:30:hihat.wav
109,192,190529,1,0,0:0:0:30:hihat.wav
329,192,190529,1,0,0:0:0:30:hihat.wav
182,192,190593,1,0,0:0:0:30:hihat.wav
402,192,190593,1,0,0:0:0:30:hihat.wav
256,192,190657,1,0,0:0:0:30:hihat.wav
475,192,190657,1,0,0:0:0:30:hihat.wav
36,192,190721,1,0,0:0:0:30:hihat.wav
329,192,190721,1,0,0:0:0:30:hihat.wav
109,192,190818,1,0,0:0:0:30:drum.wav
256,192,190818,1,0,0:0:0:30:drum.wav
329,192,190914,1,0,0:0:0:20:drum.wav
402,192,190914,1,0,0:0:0:20:drum.wav
475,192,190914,1,0,0:0:0:20:crash.wav
182,192,190914,1,0,0:0:0:20:crash.wav
475,192,191106,1,0,0:0:0:30:drum.wav
109,192,191202,1,0,0:0:0:20:crash.wav
256,192,191202,1,0,0:0:0:20:drum.wav
329,192,191202,1,0,0:0:0:20:drum.wav
402,192,191202,1,0,0:0:0:20:crash.wav
402,192,191394,1,0,0:0:0:30:drum.wav
36,192,191491,1,0,0:0:0:20:crash.wav
182,192,191491,1,0,0:0:0:20:drum.wav
256,192,191491,1,0,0:0:0:20:drum.wav
329,192,191491,1,0,0:0:0:20:crash.wav
109,192,191875,1,0,0:0:0:30:hihat.wav
182,192,191875,1,0,0:0:0:30:hihat.wav
402,192,191875,1,0,0:0:0:30:hihat.wav
36,192,192068,1,0,0:0:0:30:soft-hitnormal.wav
256,192,192068,1,0,0:0:0:30:soft-hitnormal.wav
475,192,192068,1,0,0:0:0:30:soft-hitnormal.wav
402,192,192164,1,0,0:0:0:30:soft-hitnormal.wav
182,192,192164,1,0,0:0:0:30:soft-hitnormal.wav
36,192,192356,1,0,0:0:0:30:soft-hitnormal.wav
475,192,192356,1,0,0:0:0:30:soft-hitnormal.wav
256,192,192356,1,0,0:0:0:30:soft-hitnormal.wav
402,192,192356,1,0,0:0:0:30:soft-hitnormal.wav
109,192,192452,1,0,0:0:0:30:hihat.wav
256,192,192548,1,0,0:0:0:30:soft-hitnormal.wav
475,192,192548,1,0,0:0:0:30:soft-hitnormal.wav
182,192,192644,1,0,0:0:0:30:soft-hitnormal.wav
402,192,192644,1,0,0:0:0:30:soft-hitnormal.wav
109,192,192741,1,0,0:0:0:30:soft-hitnormal.wav
329,192,192741,1,0,0:0:0:30:soft-hitnormal.wav
36,192,192837,1,0,0:0:0:30:hihat.wav
256,192,192837,1,0,0:0:0:30:hihat.wav
109,192,192933,1,0,0:0:0:30:soft-hitnormal.wav
475,192,192933,1,0,0:0:0:30:soft-hitnormal.wav
182,192,193029,1,0,0:0:0:30:soft-hitnormal.wav
402,192,193029,1,0,0:0:0:30:soft-hitnormal.wav
36,192,193125,1,0,0:0:0:30:soft-hitnormal.wav
256,192,193125,1,0,0:0:0:30:soft-hitnormal.wav
402,192,193221,1,0,0:0:0:30:hihat.wav
109,192,193221,1,0,0:0:0:30:
329,192,193285,1,0,0:0:0:30:soft-hitnormal.wav
256,192,193350,1,0,0:0:0:30:soft-hitnormal.wav
182,192,193414,1,0,0:0:0:30:hihat.wav
475,192,193414,1,0,0:0:0:30:soft-hitnormal.wav
402,192,193478,1,0,0:0:0:30:soft-hitnormal.wav
36,192,193478,1,0,0:0:0:30:soft-hitnormal.wav
329,192,193542,1,0,0:0:0:30:soft-hitnormal.wav
109,192,193542,1,0,0:0:0:30:soft-hitnormal.wav
475,192,193606,1,0,0:0:0:30:soft-hitnormal.wav
182,192,193606,1,0,0:0:0:30:soft-hitnormal.wav
402,192,193670,1,0,0:0:0:30:soft-hitnormal.wav
36,192,193670,1,0,0:0:0:30:soft-hitnormal.wav
329,192,193734,1,0,0:0:0:30:soft-hitnormal.wav
109,192,193734,1,0,0:0:0:30:soft-hitnormal.wav
182,192,193798,1,0,0:0:0:30:soft-hitnormal.wav
475,192,193798,1,0,0:0:0:30:soft-hitnormal.wav
36,192,193862,1,0,0:0:0:30:soft-hitnormal.wav
402,192,193862,1,0,0:0:0:30:soft-hitnormal.wav
109,192,193926,1,0,0:0:0:30:soft-hitnormal.wav
329,192,193926,1,0,0:0:0:30:soft-hitnormal.wav
182,192,193991,1,0,0:0:0:30:hihat.wav
475,192,193991,1,0,0:0:0:30:crash.wav
256,192,193991,1,0,0:0:0:30:hihat.wav
329,192,194183,1,0,0:0:0:30:soft-hitnormal.wav
36,192,194279,1,0,0:0:0:30:hihat.wav
109,192,194279,1,0,0:0:0:30:hihat.wav
182,192,194279,1,0,0:0:0:30:hihat.wav
475,192,194279,1,0,0:0:0:30:crash.wav
182,192,194471,1,0,0:0:0:30:soft-hitnormal.wav
329,192,194568,1,0,0:0:0:30:hihat.wav
402,192,194568,1,0,0:0:0:30:hihat.wav
475,192,194568,1,0,0:0:0:30:hihat.wav
36,192,194568,1,0,0:0:0:30:crash.wav
36,192,194952,1,0,0:0:0:30:soft-hitnormal.wav
402,192,194952,1,0,0:0:0:30:soft-hitnormal.wav
182,192,195016,1,0,0:0:0:30:soft-hitnormal.wav
329,192,195080,1,0,0:0:0:30:soft-hitnormal.wav
475,192,195144,1,0,0:0:0:30:soft-hitnormal.wav
109,192,195144,1,0,0:0:0:30:soft-hitnormal.wav
36,192,195337,1,0,0:0:0:30:hihat.wav
182,192,195337,1,0,0:0:0:30:hihat.wav
402,192,195337,1,0,0:0:0:30:hihat.wav
109,192,195721,1,0,0:0:0:30:soft-hitnormal.wav
256,192,195721,1,0,0:0:0:30:soft-hitnormal.wav
329,192,195818,1,0,0:0:0:30:soft-hitnormal.wav
475,192,195818,1,0,0:0:0:30:soft-hitnormal.wav
36,192,195914,1,0,0:0:0:30:soft-hitnormal.wav
182,192,195914,1,0,0:0:0:30:soft-hitnormal.wav
109,192,196106,1,0,0:0:0:30:hihat.wav
402,192,196106,1,0,0:0:0:30:hihat.wav
256,192,196106,1,0,0:0:0:30:hihat.wav
182,192,196202,1,0,0:0:0:30:soft-hitnormal.wav
36,192,196298,1,0,0:0:0:30:hihat.wav
329,192,196298,1,0,0:0:0:30:hihat.wav
475,192,196298,1,0,0:0:0:30:hihat.wav
109,192,196362,1,0,0:0:0:30:soft-hitnormal.wav
182,192,196426,1,0,0:0:0:30:soft-hitnormal.wav
256,192,196491,1,0,0:0:0:30:soft-hitnormal.wav
402,192,196491,1,0,0:0:0:30:soft-hitnormal.wav
329,192,196587,1,0,0:0:0:30:hihat.wav
475,192,196587,1,0,0:0:0:30:hihat.wav
36,192,196587,1,0,0:0:0:30:hihat.wav
109,192,196875,1,0,0:0:0:30:drum.wav
182,192,196875,1,0,0:0:0:30:drum.wav
402,192,196875,1,0,0:0:0:30:drum.wav
329,192,196875,1,0,0:0:0:30:drum.wav
36,192,197260,1,0,0:0:0:30:soft-hitnormal.wav
475,192,197260,1,0,0:0:0:30:soft-hitnormal.wav
329,192,197260,1,0,0:0:0:30:soft-hitnormal.wav
109,192,197356,1,0,0:0:0:30:soft-hitnormal.wav
256,192,197356,1,0,0:0:0:30:soft-hitnormal.wav
329,192,197452,1,0,0:0:0:30:soft-hitnormal.wav
475,192,197452,1,0,0:0:0:30:soft-hitnormal.wav
182,192,197548,1,0,0:0:0:30:soft-hitnormal.wav
36,192,197548,1,0,0:0:0:30:soft-hitnormal.wav
256,192,197644,1,0,0:0:0:30:soft-hitnormal.wav
402,192,197644,1,0,0:0:0:30:soft-hitnormal.wav
36,192,197741,1,0,0:0:0:30:hihat.wav
475,192,197741,1,0,0:0:0:30:hihat.wav
109,192,197741,1,0,0:0:0:30:hihat.wav
329,192,197741,1,0,0:0:0:30:hihat.wav
36,192,198029,1,0,0:0:0:30:soft-hitnormal.wav
256,192,198029,1,0,0:0:0:30:soft-hitnormal.wav
109,192,198029,1,0,0:0:0:30:soft-hitnormal.wav
402,192,198029,1,0,0:0:0:30:soft-hitnormal.wav
329,192,198125,1,0,0:0:0:30:soft-hitnormal.wav
475,192,198125,1,0,0:0:0:30:soft-hitnormal.wav
36,192,198221,1,0,0:0:0:30:soft-hitnormal.wav
182,192,198221,1,0,0:0:0:30:soft-hitnormal.wav
256,192,198318,1,0,0:0:0:30:soft-hitnormal.wav
402,192,198318,1,0,0:0:0:30:soft-hitnormal.wav
109,192,198414,1,0,0:0:0:30:hihat.wav
182,192,198414,1,0,0:0:0:30:hihat.wav
475,192,198414,1,0,0:0:0:30:hihat.wav
36,192,198414,1,0,0:0:0:30:hihat.wav
475,192,198798,1,0,0:0:0:30:soft-hitnormal.wav
182,192,198798,1,0,0:0:0:30:soft-hitnormal.wav
109,192,198894,1,0,0:0:0:30:soft-hitnormal.wav
402,192,198894,1,0,0:0:0:30:soft-hitnormal.wav
36,192,198991,1,0,0:0:0:30:soft-hitnormal.wav
329,192,198991,1,0,0:0:0:30:soft-hitnormal.wav
109,192,199087,1,0,0:0:0:30:soft-hitnormal.wav
402,192,199087,1,0,0:0:0:30:soft-hitnormal.wav
182,192,199183,1,0,0:0:0:30:soft-hitnormal.wav
475,192,199183,1,0,0:0:0:30:soft-hitnormal.wav
36,192,199279,1,0,0:0:0:30:soft-hitnormal.wav
256,192,199279,1,0,0:0:0:30:soft-hitnormal.wav
109,192,199375,1,0,0:0:0:30:soft-hitnormal.wav
475,192,199375,1,0,0:0:0:30:soft-hitnormal.wav
402,192,199471,1,0,0:0:0:30:soft-hitnormal.wav
182,192,199471,1,0,0:0:0:30:soft-hitnormal.wav
329,192,199568,1,0,0:0:0:30:soft-hitnormal.wav
109,192,199568,1,0,0:0:0:30:soft-hitnormal.wav
256,192,199664,1,0,0:0:0:30:soft-hitnormal.wav
36,192,199664,1,0,0:0:0:30:soft-hitnormal.wav
402,192,199760,1,0,0:0:0:30:hihat.wav
475,192,199760,1,0,0:0:0:30:hihat.wav
182,192,199760,1,0,0:0:0:30:hihat.wav
329,192,199856,1,0,0:0:0:30:soft-hitnormal.wav
109,192,199856,1,0,0:0:0:30:soft-hitnormal.wav
402,192,199952,1,0,0:0:0:30:soft-hitnormal.wav
182,192,199952,1,0,0:0:0:30:soft-hitnormal.wav
475,192,200048,1,0,0:0:0:30:soft-hitnormal.wav
256,192,200048,1,0,0:0:0:30:soft-hitnormal.wav
36,192,200144,5,0,0:0:0:30:hihat.wav
109,192,200144,1,0,0:0:0:30:hihat.wav
182,192,200144,1,0,0:0:0:30:hihat.wav
475,192,200337,1,0,0:0:0:30:soft-hitnormal.wav
109,192,200433,1,0,0:0:0:30:soft-hitnormal.wav
402,192,200529,1,0,0:0:0:30:soft-hitnormal.wav
36,192,200625,1,0,0:0:0:30:soft-hitnormal.wav
329,192,200721,1,0,0:0:0:30:soft-hitnormal.wav
182,192,200818,1,0,0:0:0:30:soft-hitnormal.wav
475,192,200914,1,0,0:0:0:30:soft-hitnormal.wav
109,192,201010,1,0,0:0:0:30:soft-hitnormal.wav
402,192,201106,1,0,0:0:0:30:soft-hitnormal.wav
36,192,201202,1,0,0:0:0:30:soft-hitnormal.wav
329,192,201298,1,0,0:0:0:30:soft-hitnormal.wav
182,192,201394,1,0,0:0:0:30:soft-hitnormal.wav
475,192,201491,1,0,0:0:0:30:soft-hitnormal.wav
256,192,201555,1,0,0:0:0:30:soft-hitnormal.wav
109,192,201587,1,0,0:0:0:30:soft-hitnormal.wav
329,192,201619,1,0,0:0:0:30:soft-hitnormal.wav
402,192,201683,1,0,0:0:0:30:soft-hitnormal.wav
36,192,201779,1,0,0:0:0:30:soft-hitnormal.wav
329,192,201875,1,0,0:0:0:30:soft-hitnormal.wav
182,192,201971,1,0,0:0:0:30:soft-hitnormal.wav
475,192,202068,1,0,0:0:0:30:soft-hitnormal.wav
109,192,202164,1,0,0:0:0:30:soft-hitnormal.wav
402,192,202164,1,0,0:0:0:30:soft-hitnormal.wav
329,192,202260,1,0,0:0:0:30:soft-hitnormal.wav
36,192,202356,1,0,0:0:0:30:soft-hitnormal.wav
475,192,202356,1,0,0:0:0:30:soft-hitnormal.wav
402,192,202452,1,0,0:0:0:30:soft-hitnormal.wav
182,192,202548,1,0,0:0:0:30:soft-hitnormal.wav
329,192,202548,1,0,0:0:0:30:soft-hitnormal.wav
475,192,202644,1,0,0:0:0:30:soft-hitnormal.wav
36,192,202644,1,0,0:0:0:30:soft-hitnormal.wav
109,192,202741,1,0,0:0:0:30:soft-hitnormal.wav
402,192,202741,1,0,0:0:0:30:soft-hitnormal.wav
329,192,202837,1,0,0:0:0:30:soft-hitnormal.wav
182,192,202837,1,0,0:0:0:30:soft-hitnormal.wav
36,192,202933,1,0,0:0:0:30:soft-hitnormal.wav
475,192,202933,1,0,0:0:0:30:soft-hitnormal.wav
402,192,203029,1,0,0:0:0:30:soft-hitnormal.wav
109,192,203029,1,0,0:0:0:30:soft-hitnormal.wav
182,192,203125,1,0,0:0:0:30:soft-hitnormal.wav
329,192,203125,1,0,0:0:0:30:soft-hitnormal.wav
256,192,203221,1,0,0:0:0:30:hihat.wav
36,192,203221,1,0,0:0:0:30:crash.wav
475,192,203221,1,0,0:0:0:30:hihat.wav
109,192,203414,1,0,0:0:0:30:crash.wav
329,192,203414,1,0,0:0:0:30:hihat.wav
402,192,203414,1,0,0:0:0:30:hihat.wav
36,192,203606,1,0,0:0:0:30:crash.wav
182,192,203606,1,0,0:0:0:30:hihat.wav
256,192,203606,1,0,0:0:0:30:hihat.wav
109,192,203798,1,0,0:0:0:30:soft-hitnormal.wav
402,192,203798,1,0,0:0:0:30:soft-hitnormal.wav
182,192,203894,1,0,0:0:0:30:soft-hitnormal.wav
475,192,203894,1,0,0:0:0:30:soft-hitnormal.wav
36,192,203991,1,0,0:0:0:30:hihat.wav
402,192,203991,1,0,0:0:0:30:hihat.wav
329,192,203991,1,0,0:0:0:30:hihat.wav
475,192,204183,1,0,0:0:0:30:soft-hitnormal.wav
256,192,204183,1,0,0:0:0:30:soft-hitnormal.wav
109,192,204279,1,0,0:0:0:30:hihat.wav
182,192,204279,1,0,0:0:0:30:hihat.wav
402,192,204279,1,0,0:0:0:30:hihat.wav
182,192,204471,1,0,0:0:0:30:soft-hitnormal.wav
475,192,204471,1,0,0:0:0:30:soft-hitnormal.wav
36,192,204568,1,0,0:0:0:30:hihat.wav
329,192,204568,1,0,0:0:0:30:hihat.wav
256,192,204568,1,0,0:0:0:30:hihat.wav
475,192,204760,1,0,0:0:0:30:soft-hitnormal.wav
256,192,204760,1,0,0:0:0:30:soft-hitnormal.wav
36,192,204856,1,0,0:0:0:30:hihat.wav
402,192,204856,1,0,0:0:0:30:hihat.wav
182,192,204856,1,0,0:0:0:30:hihat.wav
182,192,205048,1,0,0:0:0:30:soft-hitnormal.wav
329,192,205048,1,0,0:0:0:30:soft-hitnormal.wav
109,192,205144,1,0,0:0:0:30:hihat.wav
36,192,205144,1,0,0:0:0:30:hihat.wav
402,192,205144,1,0,0:0:0:30:hihat.wav
256,192,205337,1,0,0:0:0:30:soft-hitnormal.wav
329,192,205337,1,0,0:0:0:30:soft-hitnormal.wav
182,192,205401,1,0,0:0:0:30:soft-hitnormal.wav
109,192,205465,1,0,0:0:0:30:soft-hitnormal.wav
475,192,205529,1,0,0:0:0:30:soft-hitnormal.wav
36,192,205529,1,0,0:0:0:30:soft-hitnormal.wav
402,192,205593,1,0,0:0:0:30:soft-hitnormal.wav
329,192,205657,1,0,0:0:0:30:soft-hitnormal.wav
182,192,205721,1,0,0:0:0:30:soft-hitnormal.wav
256,192,205721,1,0,0:0:0:30:soft-hitnormal.wav
109,192,205785,1,0,0:0:0:30:soft-hitnormal.wav
36,192,205850,1,0,0:0:0:30:soft-hitnormal.wav
329,192,205914,1,0,0:0:0:30:soft-hitnormal.wav
402,192,205914,1,0,0:0:0:30:soft-hitnormal.wav
256,192,205978,1,0,0:0:0:30:soft-hitnormal.wav
182,192,206042,1,0,0:0:0:30:soft-hitnormal.wav
475,192,206106,1,0,0:0:0:30:soft-hitnormal.wav
109,192,206106,1,0,0:0:0:30:soft-hitnormal.wav
402,192,206170,1,0,0:0:0:30:soft-hitnormal.wav
329,192,206234,1,0,0:0:0:30:soft-hitnormal.wav
36,192,206298,1,0,0:0:0:25:crash.wav
109,192,206298,1,0,0:0:0:25:crash.wav
182,192,206298,1,0,0:0:0:25:hihat.wav
256,192,206298,1,0,0:0:0:25:hihat.wav
402,192,206683,1,0,0:0:0:30:soft-hitnormal.wav
329,192,206779,1,0,0:0:0:30:soft-hitnormal.wav
256,192,206875,1,0,0:0:0:30:soft-hitnormal.wav
182,192,206971,1,0,0:0:0:30:soft-hitnormal.wav
109,192,207068,1,0,0:0:0:30:soft-hitnormal.wav
475,192,207068,1,0,0:0:0:30:soft-hitnormal.wav
402,192,207164,1,0,0:0:0:30:soft-hitnormal.wav
329,192,207260,1,0,0:0:0:30:soft-hitnormal.wav
256,192,207356,1,0,0:0:0:30:soft-hitnormal.wav
182,192,207452,1,0,0:0:0:30:soft-hitnormal.wav
109,192,207548,1,0,0:0:0:30:soft-hitnormal.wav
329,192,207644,1,0,0:0:0:30:soft-hitnormal.wav
256,192,207741,1,0,0:0:0:30:soft-hitnormal.wav
182,192,207837,5,0,0:0:0:30:hihat.wav
36,192,207837,1,0,0:0:0:30:hihat.wav
109,192,207837,1,0,0:0:0:30:hihat.wav
475,192,208231,1,0,0:0:0:30:soft-hitnormal.wav
402,192,208330,1,0,0:0:0:30:soft-hitnormal.wav
329,192,208429,1,0,0:0:0:30:soft-hitnormal.wav
256,192,208527,1,0,0:0:0:30:soft-hitnormal.wav
109,192,208626,1,0,0:0:0:30:soft-hitnormal.wav
182,192,208626,1,0,0:0:0:30:soft-hitnormal.wav
475,192,208725,1,0,0:0:0:30:soft-hitnormal.wav
402,192,208823,1,0,0:0:0:30:soft-hitnormal.wav
329,192,208922,1,0,0:0:0:30:soft-hitnormal.wav
256,192,209021,1,0,0:0:0:30:soft-hitnormal.wav
182,192,209119,1,0,0:0:0:30:soft-hitnormal.wav
36,192,209218,1,0,0:0:0:30:soft-hitnormal.wav
109,192,209267,1,0,0:0:0:30:soft-hitnormal.wav
182,192,209317,1,0,0:0:0:30:soft-hitnormal.wav
402,192,209415,1,0,0:0:0:30:hihat.wav
329,192,209415,1,0,0:0:0:30:hihat.wav
256,192,209415,1,0,0:0:0:30:hihat.wav
329,192,209712,1,0,0:0:0:30:soft-hitnormal.wav
402,192,209983,1,0,0:0:0:30:soft-hitnormal.wav
36,192,209983,1,0,0:0:0:30:soft-hitnormal.wav
109,192,210008,1,0,0:0:0:30:soft-hitnormal.wav
182,192,210032,1,0,0:0:0:30:soft-hitnormal.wav
256,192,210057,1,0,0:0:0:30:soft-hitnormal.wav
329,192,210402,1,0,0:0:0:30:soft-hitnormal.wav
402,192,210599,1,0,0:0:0:30:soft-hitnormal.wav
182,192,211004,1,0,0:0:0:30:hihat.wav
402,192,211004,1,0,0:0:0:30:hihat.wav
36,192,211204,1,0,0:0:0:30:hihat.wav
182,192,211270,1,0,0:0:0:30:soft-hitnormal.wav
329,192,211337,1,0,0:0:0:30:soft-hitnormal.wav
475,192,211404,1,0,0:0:0:30:soft-hitnormal.wav
329,192,211470,1,0,0:0:0:30:soft-hitnormal.wav
182,192,211537,1,0,0:0:0:30:soft-hitnormal.wav
36,192,211604,1,0,0:0:0:30:hihat.wav
109,192,212004,1,0,0:0:0:30:soft-hitnormal.wav
182,192,212208,1,0,0:0:0:30:soft-hitnormal.wav
256,192,212412,1,0,0:0:0:30:soft-hitnormal.wav
109,192,212614,1,0,0:0:0:30:soft-hitnormal.wav
182,192,212614,1,0,0:0:0:30:soft-hitnormal.wav
36,192,212639,1,0,0:0:0:30:soft-hitnormal.wav
256,192,212991,1,0,0:0:0:30:soft-hitnormal.wav
329,192,213016,1,0,0:0:0:30:soft-hitnormal.wav
256,192,213421,1,0,0:0:0:30:soft-hitnormal.wav
182,192,213706,1,0,0:0:0:30:soft-hitnormal.wav
109,192,213972,1,0,0:0:0:30:soft-hitnormal.wav
182,192,214218,1,0,0:0:0:30:soft-hitnormal.wav
256,192,214497,1,0,0:0:0:30:soft-hitnormal.wav
329,192,214777,1,0,0:0:0:30:soft-hitnormal.wav
402,192,215055,1,0,0:0:0:30:soft-hitnormal.wav
329,192,215272,1,0,0:0:0:30:soft-hitnormal.wav
402,192,215344,1,0,0:0:0:30:soft-hitnormal.wav
256,192,215417,1,0,0:0:0:30:soft-hitnormal.wav
182,192,215634,1,0,0:0:0:30:soft-hitnormal.wav
109,192,215924,1,0,0:0:0:30:soft-hitnormal.wav
182,192,215959,1,0,0:0:0:30:soft-hitnormal.wav
256,192,215994,1,0,0:0:0:30:soft-hitnormal.wav
256,192,216346,1,0,0:0:0:30:soft-hitnormal.wav
329,192,216748,1,0,0:0:0:30:soft-hitnormal.wav
402,192,217000,1,0,0:0:0:30:soft-hitnormal.wav
475,192,217050,1,0,0:0:0:30:soft-hitnormal.wav
109,192,217554,1,0,0:0:0:30:hihat.wav
182,192,217554,1,0,0:0:0:30:hihat.wav
36,192,217673,1,0,0:0:0:30:soft-hitnormal.wav
182,192,217733,1,0,0:0:0:30:soft-hitnormal.wav
329,192,217823,1,0,0:0:0:30:soft-hitnormal.wav
475,192,217913,1,0,0:0:0:30:soft-hitnormal.wav
402,192,217985,1,0,0:0:0:30:soft-hitnormal.wav
256,192,218057,1,0,0:0:0:30:soft-hitnormal.wav
182,192,218129,1,0,0:0:0:30:soft-hitnormal.wav
109,192,218345,1,0,0:0:0:30:soft-hitnormal.wav
36,192,218643,1,0,0:0:0:30:soft-hitnormal.wav
475,192,218941,1,0,0:0:0:30:hihat.wav
182,192,218941,1,0,0:0:0:30:hihat.wav
402,192,218996,1,0,0:0:0:30:hihat.wav
329,192,219051,1,0,0:0:0:30:hihat.wav
36,192,219106,1,0,0:0:0:30:drum.wav
109,192,219106,1,0,0:0:0:30:drum.wav
182,192,219106,1,0,0:0:0:30:drum.wav
475,192,219161,1,0,0:0:0:30:drum.wav
402,192,219161,1,0,0:0:0:30:drum.wav
256,192,219161,1,0,0:0:0:30:drum.wav
329,192,219161,1,0,0:0:0:30:drum.wav
36,192,219550,1,0,0:0:0:25:drum.wav
182,192,219550,1,0,0:0:0:25:drum.wav
402,192,219550,1,0,0:0:0:25:drum.wav
329,192,219745,5,0,0:0:0:25:drum.wav
36,192,219842,1,0,0:0:0:25:drum.wav
182,192,219842,1,0,0:0:0:25:drum.wav
402,192,219842,1,0,0:0:0:25:drum.wav
182,192,220037,1,0,0:0:0:25:drum.wav
109,192,220135,1,0,0:0:0:25:drum.wav
329,192,220135,1,0,0:0:0:25:drum.wav
475,192,220135,1,0,0:0:0:25:drum.wav
182,192,220329,1,0,0:0:0:25:drum.wav
36,192,220427,1,0,0:0:0:25:drum.wav
256,192,220427,1,0,0:0:0:25:drum.wav
475,192,220427,1,0,0:0:0:25:drum.wav
329,192,220622,1,0,0:0:0:25:drum.wav
36,192,220718,1,0,0:0:0:25:drum.wav
256,192,220718,1,0,0:0:0:25:drum.wav
475,192,220718,1,0,0:0:0:25:drum.wav
182,192,220910,5,0,0:0:0:25:drum.wav
36,192,221006,1,0,0:0:0:25:drum.wav
109,192,221006,1,0,0:0:0:25:drum.wav
402,192,221006,1,0,0:0:0:25:drum.wav
475,192,221006,1,0,0:0:0:25:drum.wav
329,192,221198,1,0,0:0:0:25:drum.wav
36,192,221294,1,0,0:0:0:25:drum.wav
109,192,221294,1,0,0:0:0:25:drum.wav
402,192,221294,1,0,0:0:0:25:drum.wav
475,192,221294,1,0,0:0:0:25:drum.wav
256,192,221487,1,0,0:0:0:25:drum.wav
36,192,221583,1,0,0:0:0:25:drum.wav
109,192,221583,1,0,0:0:0:25:drum.wav
329,192,221583,1,0,0:0:0:25:drum.wav
402,192,221583,1,0,0:0:0:25:drum.wav
182,192,221775,1,0,0:0:0:25:drum.wav
36,192,221871,1,0,0:0:0:25:drum.wav
109,192,221871,1,0,0:0:0:25:drum.wav
402,192,221871,1,0,0:0:0:25:drum.wav
475,192,221871,1,0,0:0:0:25:drum.wav
329,192,221871,1,0,0:0:0:25:drum.wav
182,192,221968,1,0,0:0:0:25:soft-hitnormal.wav
36,192,222064,1,0,0:0:0:25:drum.wav
109,192,222064,1,0,0:0:0:25:drum.wav
402,192,222064,1,0,0:0:0:25:drum.wav
475,192,222064,1,0,0:0:0:25:drum.wav
256,192,222064,1,0,0:0:0:25:soft-hitnormal.wav
329,192,222160,1,0,0:0:0:25:soft-hitnormal.wav
36,192,222256,1,0,0:0:0:25:drum.wav
182,192,222256,1,0,0:0:0:25:drum.wav
109,192,222256,1,0,0:0:0:25:drum.wav
402,192,222256,1,0,0:0:0:25:crash.wav
475,192,222256,1,0,0:0:0:25:crash.wav
329,192,222448,1,0,0:0:0:30:hihat.wav
402,192,222448,1,0,0:0:0:30:hihat.wav
36,192,222448,1,0,0:0:0:30:hihat.wav
256,192,222544,1,0,0:0:0:30:soft-hitnormal.wav
182,192,222641,1,0,0:0:0:30:hihat.wav
402,192,222641,1,0,0:0:0:30:hihat.wav
109,192,222641,1,0,0:0:0:30:hihat.wav
329,192,222737,1,0,0:0:0:30:soft-hitnormal.wav
256,192,222833,1,0,0:0:0:30:soft-hitnormal.wav
475,192,222833,1,0,0:0:0:30:soft-hitnormal.wav
182,192,222929,1,0,0:0:0:30:hihat.wav
36,192,222929,1,0,0:0:0:30:hihat.wav
402,192,222929,1,0,0:0:0:30:hihat.wav
329,192,223025,1,0,0:0:0:30:soft-hitnormal.wav
182,192,223121,1,0,0:0:0:30:soft-hitnormal.wav
256,192,223218,1,0,0:0:0:30:hihat.wav
475,192,223218,1,0,0:0:0:30:hihat.wav
36,192,223218,1,0,0:0:0:30:hihat.wav
329,192,223314,1,0,0:0:0:30:soft-hitnormal.wav
402,192,223410,1,0,0:0:0:30:soft-hitnormal.wav
109,192,223410,1,0,0:0:0:30:soft-hitnormal.wav
475,192,223506,1,0,0:0:0:30:hihat.wav
256,192,223506,1,0,0:0:0:30:hihat.wav
36,192,223506,1,0,0:0:0:30:hihat.wav
182,192,223602,1,0,0:0:0:30:soft-hitnormal.wav
329,192,223698,1,0,0:0:0:30:hihat.wav
475,192,223698,1,0,0:0:0:30:hihat.wav
109,192,223698,1,0,0:0:0:30:hihat.wav
256,192,223794,1,0,0:0:0:30:soft-hitnormal.wav
329,192,223891,1,0,0:0:0:30:soft-hitnormal.wav
182,192,223987,1,0,0:0:0:30:hihat.wav
402,192,223987,1,0,0:0:0:30:hihat.wav
36,192,223987,1,0,0:0:0:30:hihat.wav
256,192,224083,1,0,0:0:0:30:soft-hitnormal.wav
475,192,224083,1,0,0:0:0:30:soft-hitnormal.wav
36,192,224179,1,0,0:0:0:30:hihat.wav
182,192,224179,1,0,0:0:0:30:hihat.wav
402,192,224179,1,0,0:0:0:30:hihat.wav
329,192,224275,1,0,0:0:0:30:soft-hitnormal.wav
256,192,224371,1,0,0:0:0:30:soft-hitnormal.wav
475,192,224468,1,0,0:0:0:30:soft-hitnormal.wav
182,192,224468,1,0,0:0:0:30:soft-hitnormal.wav
36,192,224500,1,0,0:0:0:30:soft-hitnormal.wav
109,192,224564,1,0,0:0:0:30:soft-hitnormal.wav
402,192,224564,1,0,0:0:0:30:soft-hitnormal.wav
182,192,224660,1,0,0:0:0:30:soft-hitnormal.wav
329,192,224756,1,0,0:0:0:30:soft-hitnormal.wav
256,192,224756,1,0,0:0:0:30:soft-hitnormal.wav
36,192,224788,1,0,0:0:0:30:soft-hitnormal.wav
109,192,224852,1,0,0:0:0:30:soft-hitnormal.wav
475,192,224852,1,0,0:0:0:30:soft-hitnormal.wav
182,192,224948,1,0,0:0:0:30:soft-hitnormal.wav
256,192,225044,1,0,0:0:0:30:soft-hitnormal.wav
475,192,225044,1,0,0:0:0:30:soft-hitnormal.wav
36,192,225093,1,0,0:0:0:30:soft-hitnormal.wav
182,192,225141,1,0,0:0:0:30:soft-hitnormal.wav
402,192,225141,1,0,0:0:0:30:soft-hitnormal.wav
109,192,225237,1,0,0:0:0:30:soft-hitnormal.wav
329,192,225237,1,0,0:0:0:30:soft-hitnormal.wav
36,192,225333,1,0,0:0:0:30:hihat.wav
256,192,225333,1,0,0:0:0:30:hihat.wav
475,192,225333,1,0,0:0:0:30:hihat.wav
109,192,225525,1,0,0:0:0:30:hihat.wav
329,192,225525,1,0,0:0:0:30:crash.wav
402,192,225525,1,0,0:0:0:30:hihat.wav
475,192,225525,1,0,0:0:0:30:hihat.wav
182,192,225621,1,0,0:0:0:30:soft-hitnormal.wav
36,192,225718,1,0,0:0:0:30:hihat.wav
256,192,225718,1,0,0:0:0:30:hihat.wav
329,192,225718,1,0,0:0:0:30:hihat.wav
109,192,225814,1,0,0:0:0:30:hihat.wav
402,192,225814,1,0,0:0:0:30:hihat.wav
475,192,225814,1,0,0:0:0:30:hihat.wav
182,192,225910,1,0,0:0:0:30:soft-hitnormal.wav
329,192,226006,1,0,0:0:0:30:soft-hitnormal.wav
475,192,226102,1,0,0:0:0:30:hihat.wav
36,192,226102,1,0,0:0:0:30:hihat.wav
402,192,226198,1,0,0:0:0:30:soft-hitnormal.wav
109,192,226198,1,0,0:0:0:30:soft-hitnormal.wav
329,192,226294,1,0,0:0:0:30:soft-hitnormal.wav
182,192,226294,1,0,0:0:0:30:soft-hitnormal.wav
256,192,226391,1,0,0:0:0:30:soft-hitnormal.wav
402,192,226391,1,0,0:0:0:30:soft-hitnormal.wav
36,192,226487,1,0,0:0:0:30:hihat.wav
182,192,226487,1,0,0:0:0:30:hihat.wav
109,192,226487,1,0,0:0:0:30:hihat.wav
475,192,226583,1,0,0:0:0:30:soft-hitnormal.wav
402,192,226583,1,0,0:0:0:30:soft-hitnormal.wav
182,192,226679,1,0,0:0:0:30:soft-hitnormal.wav
329,192,226679,1,0,0:0:0:30:soft-hitnormal.wav
109,192,226775,1,0,0:0:0:30:soft-hitnormal.wav
402,192,226775,1,0,0:0:0:30:soft-hitnormal.wav
329,192,226871,1,0,0:0:0:30:hihat.wav
256,192,226871,1,0,0:0:0:30:hihat.wav
109,192,226968,1,0,0:0:0:30:soft-hitnormal.wav
36,192,226968,1,0,0:0:0:30:soft-hitnormal.wav
182,192,227064,1,0,0:0:0:30:soft-hitnormal.wav
402,192,227064,1,0,0:0:0:30:soft-hitnormal.wav
475,192,227160,1,0,0:0:0:30:soft-hitnormal.wav
256,192,227160,1,0,0:0:0:30:soft-hitnormal.wav
36,192,227256,1,0,0:0:0:30:hihat.wav
109,192,227256,1,0,0:0:0:30:hihat.wav
256,192,227352,1,0,0:0:0:30:soft-hitnormal.wav
329,192,227352,1,0,0:0:0:30:soft-hitnormal.wav
475,192,227448,1,0,0:0:0:30:soft-hitnormal.wav
182,192,227448,1,0,0:0:0:30:soft-hitnormal.wav
36,192,227544,1,0,0:0:0:30:soft-hitnormal.wav
402,192,227544,1,0,0:0:0:30:soft-hitnormal.wav
109,192,227641,1,0,0:0:0:30:hihat.wav
329,192,227641,1,0,0:0:0:30:crash.wav
182,192,227737,1,0,0:0:0:30:soft-hitnormal.wav
402,192,227737,1,0,0:0:0:30:soft-hitnormal.wav
256,192,227833,1,0,0:0:0:30:soft-hitnormal.wav
475,192,227833,1,0,0:0:0:30:soft-hitnormal.wav
36,192,227929,1,0,0:0:0:30:soft-hitnormal.wav
329,192,227929,1,0,0:0:0:30:soft-hitnormal.wav
109,192,228025,1,0,0:0:0:30:hihat.wav
475,192,228025,1,0,0:0:0:30:crash.wav
402,192,228025,1,0,0:0:0:30:hihat.wav
256,192,228121,1,0,0:0:0:30:soft-hitnormal.wav
475,192,228218,1,0,0:0:0:30:crash.wav
402,192,228218,1,0,0:0:0:30:hihat.wav
182,192,228218,1,0,0:0:0:30:hihat.wav
109,192,228314,1,0,0:0:0:30:soft-hitnormal.wav
329,192,228314,1,0,0:0:0:30:soft-hitnormal.wav
36,192,228410,1,0,0:0:0:30:hihat.wav
256,192,228410,1,0,0:0:0:30:hihat.wav
329,192,228602,1,0,0:0:0:30:crash.wav
475,192,228602,1,0,0:0:0:30:hihat.wav
402,192,228602,1,0,0:0:0:30:hihat.wav
109,192,228698,1,0,0:0:0:30:soft-hitnormal.wav
256,192,228794,1,0,0:0:0:30:soft-hitnormal.wav
402,192,228891,1,0,0:0:0:30:soft-hitnormal.wav
109,192,228987,1,0,0:0:0:30:hihat.wav
36,192,228987,1,0,0:0:0:30:hihat.wav
182,192,228987,1,0,0:0:0:30:hihat.wav
402,192,229083,1,0,0:0:0:30:soft-hitnormal.wav
475,192,229083,1,0,0:0:0:30:soft-hitnormal.wav
36,192,229179,1,0,0:0:0:30:soft-hitnormal.wav
256,192,229179,1,0,0:0:0:30:soft-hitnormal.wav
109,192,229275,1,0,0:0:0:30:soft-hitnormal.wav
182,192,229371,1,0,0:0:0:30:soft-hitnormal.wav
475,192,229371,1,0,0:0:0:30:soft-hitnormal.wav
36,192,229468,1,0,0:0:0:30:soft-hitnormal.wav
329,192,229468,1,0,0:0:0:30:soft-hitnormal.wav
109,192,229564,1,0,0:0:0:30:soft-hitnormal.wav
475,192,229564,1,0,0:0:0:30:soft-hitnormal.wav
256,192,229564,1,0,0:0:0:30:soft-hitnormal.wav
182,192,229660,1,0,0:0:0:30:soft-hitnormal.wav
36,192,229756,1,0,0:0:0:30:soft-hitnormal.wav
329,192,229756,1,0,0:0:0:30:soft-hitnormal.wav
402,192,229756,1,0,0:0:0:30:soft-hitnormal.wav
256,192,229852,1,0,0:0:0:30:soft-hitnormal.wav
182,192,229948,1,0,0:0:0:30:hihat.wav
402,192,229948,1,0,0:0:0:30:hihat.wav
475,192,229948,1,0,0:0:0:30:hihat.wav
329,192,230044,1,0,0:0:0:30:soft-hitnormal.wav
475,192,230141,1,0,0:0:0:30:soft-hitnormal.wav
36,192,230141,1,0,0:0:0:30:soft-hitnormal.wav
256,192,230141,1,0,0:0:0:30:soft-hitnormal.wav
109,192,230237,1,0,0:0:0:30:soft-hitnormal.wav
182,192,230333,1,0,0:0:0:30:hihat.wav
475,192,230333,1,0,0:0:0:30:hihat.wav
329,192,230333,1,0,0:0:0:30:hihat.wav
109,192,230429,1,0,0:0:0:30:soft-hitnormal.wav
36,192,230525,1,0,0:0:0:30:soft-hitnormal.wav
256,192,230525,1,0,0:0:0:30:soft-hitnormal.wav
402,192,230525,1,0,0:0:0:30:soft-hitnormal.wav
182,192,230621,1,0,0:0:0:30:soft-hitnormal.wav
109,192,230718,1,0,0:0:0:30:hihat.wav
329,192,230718,1,0,0:0:0:30:hihat.wav
475,192,230718,1,0,0:0:0:30:hihat.wav
256,192,230814,1,0,0:0:0:30:soft-hitnormal.wav
182,192,230910,1,0,0:0:0:30:hihat.wav
36,192,230958,1,0,0:0:0:30:hihat.wav
402,192,230958,1,0,0:0:0:30:hihat.wav
256,192,231006,1,0,0:0:0:30:soft-hitnormal.wav
329,192,231102,1,0,0:0:0:30:soft-hitnormal.wav
475,192,231198,1,0,0:0:0:30:hihat.wav
402,192,231198,1,0,0:0:0:30:hihat.wav
109,192,231198,1,0,0:0:0:25:hihat.wav
182,192,231294,1,0,0:0:0:25:drum.wav
256,192,231359,1,0,0:0:0:25:drum.wav
329,192,231423,1,0,0:0:0:25:drum.wav
36,192,231487,1,0,0:0:0:25:drum.wav
109,192,231487,1,0,0:0:0:25:crash.wav
402,192,231487,1,0,0:0:0:25:crash.wav
475,192,231487,1,0,0:0:0:25:drum.wav
182,192,231679,1,0,0:0:0:25:drum.wav
256,192,231679,1,0,0:0:0:25:drum.wav
329,192,231679,1,0,0:0:0:25:drum.wav
36,192,231775,1,0,0:0:0:25:drum.wav
109,192,231775,1,0,0:0:0:25:drum.wav
402,192,231775,1,0,0:0:0:25:drum.wav
475,192,231775,1,0,0:0:0:25:drum.wav
109,192,231968,1,0,0:0:0:25:drum.wav
182,192,231968,1,0,0:0:0:25:drum.wav
329,192,231968,1,0,0:0:0:25:drum.wav
402,192,231968,1,0,0:0:0:25:drum.wav
36,192,232160,1,0,0:0:0:25:drum.wav
109,192,232160,1,0,0:0:0:25:drum.wav
329,192,232160,1,0,0:0:0:25:drum.wav
256,192,232160,1,0,0:0:0:25:drum.wav
36,192,232352,1,0,0:0:0:25:drum.wav
109,192,232352,1,0,0:0:0:25:drum.wav
182,192,232448,1,0,0:0:0:25:drum.wav
402,192,232448,1,0,0:0:0:25:drum.wav
475,192,232448,1,0,0:0:0:25:drum.wav
256,192,232448,1,0,0:0:0:25:drum.wav
36,192,232544,1,0,0:0:0:25:drum.wav
109,192,232544,1,0,0:0:0:25:drum.wav
256,192,232641,1,0,0:0:0:25:drum.wav
182,192,232705,1,0,0:0:0:25:drum.wav
329,192,232705,1,0,0:0:0:25:drum.wav
109,192,232769,1,0,0:0:0:25:drum.wav
402,192,232769,1,0,0:0:0:25:drum.wav
256,192,232833,1,0,0:0:0:25:drum.wav
36,192,232833,1,0,0:0:0:25:drum.wav
475,192,232833,1,0,0:0:0:25:drum.wav
182,192,233025,1,0,0:0:0:25:crash.wav
329,192,233025,1,0,0:0:0:25:crash.wav
109,192,233025,1,0,0:0:0:25:drum.wav
402,192,233025,1,0,0:0:0:25:drum.wav
36,192,233121,1,0,0:0:0:25:drum.wav
256,192,233121,1,0,0:0:0:25:drum.wav
475,192,233121,1,0,0:0:0:25:drum.wav
182,192,233314,1,0,0:0:0:25:drum.wav
256,192,233314,1,0,0:0:0:25:drum.wav
329,192,233314,1,0,0:0:0:25:drum.wav
402,192,233506,1,0,0:0:0:25:drum.wav
109,192,233506,1,0,0:0:0:25:drum.wav
256,192,233506,1,0,0:0:0:25:drum.wav
36,192,233698,1,0,0:0:0:25:drum.wav
256,192,233698,1,0,0:0:0:25:drum.wav
475,192,233698,1,0,0:0:0:25:drum.wav
36,192,233923,1,0,0:0:0:30:drum.wav
182,192,233923,1,0,0:0:0:30:drum.wav
109,192,233923,1,0,0:0:0:30:drum.wav
402,192,233987,1,0,0:0:0:30:soft-hitnormal.wav
329,192,233987,1,0,0:0:0:30:soft-hitnormal.wav
36,192,234051,1,0,0:0:0:30:drum.wav
182,192,234051,1,0,0:0:0:30:drum.wav
109,192,234051,1,0,0:0:0:30:drum.wav
36,192,234179,1,0,0:0:0:30:drum.wav
109,192,234179,1,0,0:0:0:30:drum.wav
182,192,234179,1,0,0:0:0:30:drum.wav
329,192,234243,1,0,0:0:0:30:soft-hitnormal.wav
256,192,234243,1,0,0:0:0:30:soft-hitnormal.wav
402,192,234307,1,0,0:0:0:30:drum.wav
475,192,234307,1,0,0:0:0:30:drum.wav
36,192,234371,1,0,0:0:0:30:soft-hitnormal.wav
109,192,234435,1,0,0:0:0:30:drum.wav
256,192,234435,1,0,0:0:0:30:drum.wav
182,192,234435,1,0,0:0:0:30:drum.wav
329,192,234500,1,0,0:0:0:30:soft-hitnormal.wav
402,192,234564,1,0,0:0:0:30:crash.wav
475,192,234564,1,0,0:0:0:30:crash.wav
36,192,234564,1,0,0:0:0:30:soft-hitnormal.wav
182,192,234564,1,0,0:0:0:30:drum.wav
329,192,234660,1,0,0:0:0:30:soft-hitnormal.wav
256,192,234756,1,0,0:0:0:30:soft-hitnormal.wav
182,192,234852,1,0,0:0:0:30:soft-hitnormal.wav
109,192,234948,1,0,0:0:0:30:soft-hitnormal.wav
475,192,234948,1,0,0:0:0:30:soft-hitnormal.wav
402,192,235012,1,0,0:0:0:30:soft-hitnormal.wav
329,192,235044,1,0,0:0:0:30:soft-hitnormal.wav
256,192,235076,1,0,0:0:0:30:soft-hitnormal.wav
182,192,235109,1,0,0:0:0:30:soft-hitnormal.wav
109,192,235141,1,0,0:0:0:30:soft-hitnormal.wav
36,192,235173,1,0,0:0:0:30:soft-hitnormal.wav
475,192,235205,1,0,0:0:0:30:soft-hitnormal.wav
402,192,235237,1,0,0:0:0:30:soft-hitnormal.wav
329,192,235237,1,0,0:0:0:30:soft-hitnormal.wav
256,192,235237,1,0,0:0:0:30:soft-hitnormal.wav
182,192,235269,1,0,0:0:0:30:soft-hitnormal.wav
109,192,235301,1,0,0:0:0:30:soft-hitnormal.wav
475,192,235333,1,0,0:0:0:30:soft-hitnormal.wav
36,192,235333,1,0,0:0:0:30:soft-hitnormal.wav
402,192,235397,1,0,0:0:0:30:soft-hitnormal.wav
329,192,235397,1,0,0:0:0:30:soft-hitnormal.wav
182,192,235461,1,0,0:0:0:30:soft-hitnormal.wav
109,192,235461,1,0,0:0:0:30:soft-hitnormal.wav
329,192,235525,1,0,0:0:0:30:soft-hitnormal.wav
182,192,235589,1,0,0:0:0:30:soft-hitnormal.wav
329,192,235653,1,0,0:0:0:30:soft-hitnormal.wav
36,192,235718,1,0,0:0:0:30:soft-hitnormal.wav
109,192,235718,1,0,0:0:0:30:soft-hitnormal.wav
182,192,235782,1,0,0:0:0:30:soft-hitnormal.wav
256,192,235846,1,0,0:0:0:30:soft-hitnormal.wav
329,192,235846,1,0,0:0:0:30:soft-hitnormal.wav
402,192,235910,1,0,0:0:0:30:soft-hitnormal.wav
36,192,235910,1,0,0:0:0:30:soft-hitnormal.wav
475,192,235910,1,0,0:0:0:30:soft-hitnormal.wav
109,192,235942,1,0,0:0:0:30:soft-hitnormal.wav
182,192,235974,1,0,0:0:0:30:soft-hitnormal.wav
256,192,236006,1,0,0:0:0:30:soft-hitnormal.wav
329,192,236038,1,0,0:0:0:30:soft-hitnormal.wav
402,192,236070,1,0,0:0:0:30:soft-hitnormal.wav
475,192,236102,1,0,0:0:0:25:drum.wav
36,192,236102,1,0,0:0:0:25:drum.wav
109,192,236102,1,0,0:0:0:25:crash.wav
329,192,236166,1,0,0:0:0:25:drum.wav
256,192,236166,1,0,0:0:0:25:drum.wav
109,192,236230,1,0,0:0:0:25:drum.wav
182,192,236230,1,0,0:0:0:25:drum.wav
402,192,236294,1,0,0:0:0:25:drum.wav
475,192,236294,1,0,0:0:0:25:drum.wav
109,192,236391,1,0,0:0:0:25:drum.wav
36,192,236391,1,0,0:0:0:25:drum.wav
182,192,236391,1,0,0:0:0:25:
475,192,236487,1,0,0:0:0:25:drum.wav
402,192,236487,1,0,0:0:0:25:drum.wav
329,192,236487,1,0,0:0:0:25:
182,192,236583,1,0,0:0:0:25:drum.wav
109,192,236583,1,0,0:0:0:25:drum.wav
36,192,236583,1,0,0:0:0:25:
402,192,236679,1,0,0:0:0:25:drum.wav
329,192,236679,1,0,0:0:0:25:drum.wav
475,192,236679,1,0,0:0:0:25:
182,192,236775,1,0,0:0:0:30:drum.wav
256,192,236775,1,0,0:0:0:30:drum.wav
402,192,236871,1,0,0:0:0:30:hihat.wav
475,192,236871,1,0,0:0:0:30:hihat.wav
36,192,236871,1,0,0:0:0:30:soft-hitnormal.wav
402,192,237000,1,0,0:0:0:30:hihat.wav
475,192,237000,1,0,0:0:0:30:hihat.wav
109,192,237000,1,0,0:0:0:30:soft-hitnormal.wav
402,192,237128,1,0,0:0:0:30:hihat.wav
475,192,237128,1,0,0:0:0:30:hihat.wav
182,192,237128,1,0,0:0:0:30:soft-hitnormal.wav
36,192,237256,1,0,0:0:0:30:hihat.wav
109,192,237256,1,0,0:0:0:30:hihat.wav
402,192,237256,1,0,0:0:0:30:hihat.wav
475,192,237256,1,0,0:0:0:30:hihat.wav
329,192,237256,1,0,0:0:0:30:hihat.wav
402,192,237641,1,0,0:0:0:30:soft-hitnormal.wav
256,192,237641,1,0,0:0:0:30:soft-hitnormal.wav
182,192,237737,1,0,0:0:0:30:soft-hitnormal.wav
475,192,237833,1,0,0:0:0:30:soft-hitnormal.wav
109,192,237833,1,0,0:0:0:30:soft-hitnormal.wav
36,192,237929,1,0,0:0:0:30:soft-hitnormal.wav
475,192,238025,1,0,0:0:0:30:cymbol.wav
402,192,238025,1,0,0:0:0:30:cymbol.wav
329,192,238025,1,0,0:0:0:30:drum.wav
256,192,238025,1,0,0:0:0:30:drum.wav
182,192,238025,1,0,0:0:0:30:drum.wav
109,192,238121,1,0,0:0:0:30:soft-hitnormal.wav
36,192,238218,1,0,0:0:0:30:soft-hitnormal.wav
402,192,238314,1,0,0:0:0:30:soft-hitnormal.wav
329,192,238314,1,0,0:0:0:30:soft-hitnormal.wav
109,192,238410,1,0,0:0:0:30:soft-hitnormal.wav
256,192,238506,1,0,0:0:0:30:soft-hitnormal.wav
182,192,238506,1,0,0:0:0:30:soft-hitnormal.wav
109,192,238602,1,0,0:0:0:30:drum.wav
36,192,238602,1,0,0:0:0:30:drum.wav
329,192,238602,1,0,0:0:0:30:drum.wav
402,192,238602,1,0,0:0:0:30:cymbol.wav
475,192,238602,1,0,0:0:0:30:cymbol.wav
256,192,238698,1,0,0:0:0:30:soft-hitnormal.wav
182,192,238794,1,0,0:0:0:30:soft-hitnormal.wav
475,192,238794,1,0,0:0:0:30:soft-hitnormal.wav
402,192,238891,1,0,0:0:0:30:soft-hitnormal.wav
329,192,238987,1,0,0:0:0:30:hihat.wav
36,192,238987,1,0,0:0:0:30:hihat.wav
256,192,239051,1,0,0:0:0:30:hihat.wav
182,192,239115,1,0,0:0:0:30:hihat.wav
109,192,239179,1,0,0:0:0:30:hihat.wav
36,192,239179,1,0,0:0:0:30:hihat.wav
475,192,239179,1,0,0:0:0:30:hihat.wav
402,192,239275,1,0,0:0:0:30:soft-hitnormal.wav
36,192,239371,1,0,0:0:0:30:cymbol.wav
329,192,239371,1,0,0:0:0:30:drum.wav
256,192,239371,1,0,0:0:0:30:drum.wav
182,192,239371,1,0,0:0:0:30:drum.wav
109,192,239371,1,0,0:0:0:30:cymbol.wav
402,192,239468,1,0,0:0:0:30:soft-hitnormal.wav
475,192,239564,1,0,0:0:0:30:soft-hitnormal.wav
109,192,239660,1,0,0:0:0:30:cymbol.wav
256,192,239660,1,0,0:0:0:30:drum.wav
182,192,239660,1,0,0:0:0:30:drum.wav
329,192,239660,1,0,0:0:0:30:drum.wav
36,192,239660,1,0,0:0:0:30:cymbol.wav
402,192,239756,1,0,0:0:0:30:soft-hitnormal.wav
475,192,239852,1,0,0:0:0:30:soft-hitnormal.wav
182,192,239852,1,0,0:0:0:30:soft-hitnormal.wav
256,192,239948,1,0,0:0:0:30:soft-hitnormal.wav
329,192,240044,1,0,0:0:0:30:drum.wav
402,192,240044,1,0,0:0:0:30:drum.wav
475,192,240044,1,0,0:0:0:30:drum.wav
36,192,240044,1,0,0:0:0:30:cymbol.wav
109,192,240044,1,0,0:0:0:30:cymbol.wav
256,192,240141,1,0,0:0:0:30:soft-hitnormal.wav
402,192,240237,1,0,0:0:0:30:cymbol.wav
475,192,240237,1,0,0:0:0:30:cymbol.wav
36,192,240237,1,0,0:0:0:30:drum.wav
109,192,240237,1,0,0:0:0:30:drum.wav
182,192,240237,1,0,0:0:0:30:drum.wav
329,192,240333,1,0,0:0:0:30:soft-hitnormal.wav
256,192,240429,1,0,0:0:0:30:soft-hitnormal.wav
182,192,240525,1,0,0:0:0:30:soft-hitnormal.wav
402,192,240525,1,0,0:0:0:30:soft-hitnormal.wav
475,192,240525,1,0,0:0:0:30:soft-hitnormal.wav
109,192,240621,1,0,0:0:0:30:soft-hitnormal.wav
329,192,240621,1,0,0:0:0:30:soft-hitnormal.wav
36,192,240718,1,0,0:0:0:30:soft-hitnormal.wav
256,192,240718,1,0,0:0:0:30:soft-hitnormal.wav
109,192,240814,1,0,0:0:0:30:soft-hitnormal.wav
475,192,240814,1,0,0:0:0:30:soft-hitnormal.wav
182,192,240910,1,0,0:0:0:30:soft-hitnormal.wav
256,192,240910,1,0,0:0:0:30:soft-hitnormal.wav
329,192,240910,1,0,0:0:0:30:soft-hitnormal.wav
402,192,241006,1,0,0:0:0:30:soft-hitnormal.wav
36,192,241006,1,0,0:0:0:30:soft-hitnormal.wav
475,192,241102,1,0,0:0:0:30:soft-hitnormal.wav
109,192,241102,1,0,0:0:0:30:soft-hitnormal.wav
182,192,241198,1,0,0:0:0:30:soft-hitnormal.wav
329,192,241294,1,0,0:0:0:30:soft-hitnormal.wav
256,192,241294,1,0,0:0:0:30:soft-hitnormal.wav
402,192,241294,1,0,0:0:0:30:soft-hitnormal.wav
182,192,241391,1,0,0:0:0:30:soft-hitnormal.wav
109,192,241391,1,0,0:0:0:30:soft-hitnormal.wav
36,192,241487,1,0,0:0:0:30:soft-hitnormal.wav
402,192,241487,1,0,0:0:0:30:soft-hitnormal.wav
475,192,241487,1,0,0:0:0:30:soft-hitnormal.wav
329,192,241487,1,0,0:0:0:30:soft-hitnormal.wav
109,192,241583,1,0,0:0:0:30:soft-hitnormal.wav
182,192,241679,1,0,0:0:0:30:soft-hitnormal.wav
256,192,241775,1,0,0:0:0:30:soft-hitnormal.wav
329,192,241871,1,0,0:0:0:30:soft-hitnormal.wav
402,192,241871,1,0,0:0:0:30:soft-hitnormal.wav
182,192,241968,1,0,0:0:0:30:drum.wav
36,192,241968,1,0,0:0:0:30:cymbol.wav
475,192,241968,1,0,0:0:0:30:drum.wav
256,192,241968,1,0,0:0:0:30:drum.wav
109,192,241968,1,0,0:0:0:30:cymbol.wav
329,192,242064,1,0,0:0:0:30:soft-hitnormal.wav
182,192,242160,1,0,0:0:0:30:drum.wav
109,192,242160,1,0,0:0:0:30:cymbol.wav
36,192,242160,1,0,0:0:0:30:cymbol.wav
475,192,242160,1,0,0:0:0:30:drum.wav
402,192,242160,1,0,0:0:0:30:drum.wav
256,192,242256,1,0,0:0:0:30:soft-hitnormal.wav
36,192,242352,1,0,0:0:0:30:cymbol.wav
109,192,242352,1,0,0:0:0:30:cymbol.wav
475,192,242352,1,0,0:0:0:30:drum.wav
329,192,242352,1,0,0:0:0:30:drum.wav
402,192,242352,1,0,0:0:0:30:drum.wav
182,192,242448,1,0,0:0:0:30:soft-hitnormal.wav
256,192,242544,1,0,0:0:0:30:soft-hitnormal.wav
329,192,242641,1,0,0:0:0:30:soft-hitnormal.wav
109,192,242641,1,0,0:0:0:30:soft-hitnormal.wav
402,192,242737,1,0,0:0:0:30:soft-hitnormal.wav
36,192,242833,1,0,0:0:0:30:cymbol.wav
109,192,242833,1,0,0:0:0:30:cymbol.wav
475,192,242833,1,0,0:0:0:30:drum.wav
182,192,242833,1,0,0:0:0:30:drum.wav
256,192,242833,1,0,0:0:0:30:drum.wav
402,192,242929,1,0,0:0:0:30:soft-hitnormal.wav
329,192,243025,1,0,0:0:0:30:soft-hitnormal.wav
256,192,243121,1,0,0:0:0:30:soft-hitnormal.wav
36,192,243218,1,0,0:0:0:25:drum.wav
109,192,243218,1,0,0:0:0:25:drum.wav
182,192,243218,1,0,0:0:0:25:drum.wav
256,192,243314,1,0,0:0:0:25:drum.wav
329,192,243314,1,0,0:0:0:25:drum.wav
402,192,243362,1,0,0:0:0:25:drum.wav
36,192,243410,1,0,0:0:0:25:drum.wav
109,192,243410,1,0,0:0:0:25:drum.wav
475,192,243410,1,0,0:0:0:25:drum.wav
182,192,243506,1,0,0:0:0:25:drum.wav
256,192,243506,1,0,0:0:0:25:drum.wav
402,192,243602,1,0,0:0:0:25:drum.wav
475,192,243602,1,0,0:0:0:25:drum.wav
329,192,243602,1,0,0:0:0:25:drum.wav
36,192,243698,1,0,0:0:0:25:drum.wav
109,192,243698,1,0,0:0:0:25:drum.wav
256,192,243794,1,0,0:0:0:25:drum.wav
182,192,243794,1,0,0:0:0:25:drum.wav
329,192,243891,1,0,0:0:0:30:soft-hitnormal.wav
402,192,243987,1,0,0:0:0:30:soft-hitnormal.wav
109,192,243987,1,0,0:0:0:30:soft-hitnormal.wav
182,192,244051,1,0,0:0:0:30:soft-hitnormal.wav
256,192,244115,1,0,0:0:0:30:soft-hitnormal.wav
475,192,244179,1,0,0:0:0:30:drum.wav
402,192,244179,1,0,0:0:0:30:drum.wav
329,192,244179,1,0,0:0:0:30:drum.wav
36,192,244179,1,0,0:0:0:30:cymbol.wav
109,192,244179,1,0,0:0:0:30:cymbol.wav
182,192,244275,1,0,0:0:0:30:soft-hitnormal.wav
329,192,244371,1,0,0:0:0:30:soft-hitnormal.wav
475,192,244468,1,0,0:0:0:30:soft-hitnormal.wav
256,192,244468,1,0,0:0:0:30:soft-hitnormal.wav
109,192,244564,1,0,0:0:0:30:soft-hitnormal.wav
402,192,244564,1,0,0:0:0:30:soft-hitnormal.wav
182,192,244660,1,0,0:0:0:30:soft-hitnormal.wav
329,192,244756,1,0,0:0:0:30:drum.wav
402,192,244756,1,0,0:0:0:30:drum.wav
475,192,244756,1,0,0:0:0:30:drum.wav
36,192,244756,1,0,0:0:0:30:cymbol.wav
256,192,244756,1,0,0:0:0:30:cymbol.wav
109,192,244852,1,0,0:0:0:30:soft-hitnormal.wav
182,192,244948,1,0,0:0:0:30:soft-hitnormal.wav
329,192,245044,1,0,0:0:0:30:soft-hitnormal.wav
475,192,245141,1,0,0:0:0:30:soft-hitnormal.wav
36,192,245141,1,0,0:0:0:30:soft-hitnormal.wav
256,192,245141,1,0,0:0:0:30:soft-hitnormal.wav
182,192,245205,1,0,0:0:0:30:soft-hitnormal.wav
402,192,245237,1,0,0:0:0:30:soft-hitnormal.wav
109,192,245269,1,0,0:0:0:30:soft-hitnormal.wav
36,192,245333,1,0,0:0:0:30:soft-hitnormal.wav
256,192,245333,1,0,0:0:0:30:soft-hitnormal.wav
475,192,245333,1,0,0:0:0:30:soft-hitnormal.wav
182,192,245429,1,0,0:0:0:30:soft-hitnormal.wav
36,192,245525,1,0,0:0:0:30:drum.wav
109,192,245525,1,0,0:0:0:30:drum.wav
475,192,245525,1,0,0:0:0:30:cymbol.wav
402,192,245525,1,0,0:0:0:30:cymbol.wav
329,192,245525,1,0,0:0:0:30:drum.wav
256,192,245621,1,0,0:0:0:30:soft-hitnormal.wav
182,192,245718,1,0,0:0:0:30:soft-hitnormal.wav
36,192,245814,1,0,0:0:0:30:cymbol.wav
329,192,245814,1,0,0:0:0:30:drum.wav
402,192,245814,1,0,0:0:0:30:drum.wav
475,192,245814,1,0,0:0:0:30:drum.wav
109,192,245814,1,0,0:0:0:30:cymbol.wav
182,192,245910,1,0,0:0:0:30:soft-hitnormal.wav
475,192,246006,1,0,0:0:0:30:soft-hitnormal.wav
256,192,246006,1,0,0:0:0:30:soft-hitnormal.wav
329,192,246102,1,0,0:0:0:30:soft-hitnormal.wav
36,192,246198,1,0,0:0:0:30:drum.wav
109,192,246198,1,0,0:0:0:30:drum.wav
182,192,246198,1,0,0:0:0:30:drum.wav
475,192,246198,1,0,0:0:0:30:cymbol.wav
402,192,246198,1,0,0:0:0:30:cymbol.wav
256,192,246294,1,0,0:0:0:30:soft-hitnormal.wav
329,192,246391,1,0,0:0:0:30:drum.wav
402,192,246391,1,0,0:0:0:30:drum.wav
475,192,246391,1,0,0:0:0:30:drum.wav
36,192,246391,1,0,0:0:0:30:cymbol.wav
109,192,246391,1,0,0:0:0:30:cymbol.wav
256,192,246583,1,0,0:0:0:30:soft-hitnormal.wav
182,192,246583,1,0,0:0:0:30:soft-hitnormal.wav
475,192,246679,1,0,0:0:0:30:hihat.wav
402,192,246679,1,0,0:0:0:30:hihat.wav
329,192,246679,1,0,0:0:0:30:hihat.wav
36,192,246679,1,0,0:0:0:30:hihat.wav
109,192,246775,1,0,0:0:0:30:soft-hitnormal.wav
182,192,246871,1,0,0:0:0:30:soft-hitnormal.wav
256,192,246968,1,0,0:0:0:30:soft-hitnormal.wav
329,192,246968,1,0,0:0:0:30:soft-hitnormal.wav
402,192,246968,1,0,0:0:0:30:soft-hitnormal.wav
36,192,247064,1,0,0:0:0:30:hihat.wav
109,192,247064,1,0,0:0:0:30:hihat.wav
475,192,247064,1,0,0:0:0:30:hihat.wav
182,192,247064,1,0,0:0:0:30:hihat.wav
402,192,247160,1,0,0:0:0:30:soft-hitnormal.wav
329,192,247256,1,0,0:0:0:30:soft-hitnormal.wav
182,192,247352,1,0,0:0:0:30:soft-hitnormal.wav
402,192,247448,1,0,0:0:0:30:hihat.wav
475,192,247448,1,0,0:0:0:30:hihat.wav
109,192,247448,1,0,0:0:0:30:hihat.wav
329,192,247544,1,0,0:0:0:30:soft-hitnormal.wav
36,192,247544,1,0,0:0:0:30:soft-hitnormal.wav
256,192,247641,1,0,0:0:0:30:soft-hitnormal.wav
109,192,247641,1,0,0:0:0:30:soft-hitnormal.wav
475,192,247641,1,0,0:0:0:30:soft-hitnormal.wav
182,192,247737,1,0,0:0:0:30:soft-hitnormal.wav
329,192,247737,1,0,0:0:0:30:soft-hitnormal.wav
109,192,247833,1,0,0:0:0:30:soft-hitnormal.wav
402,192,247833,1,0,0:0:0:30:soft-hitnormal.wav
182,192,247929,1,0,0:0:0:30:soft-hitnormal.wav
329,192,248025,1,0,0:0:0:30:soft-hitnormal.wav
256,192,248025,1,0,0:0:0:30:soft-hitnormal.wav
36,192,248121,1,0,0:0:0:30:drum.wav
109,192,248121,1,0,0:0:0:30:drum.wav
182,192,248121,1,0,0:0:0:30:drum.wav
402,192,248121,1,0,0:0:0:30:cymbol.wav
475,192,248121,1,0,0:0:0:30:cymbol.wav
256,192,248218,1,0,0:0:0:30:soft-hitnormal.wav
36,192,248314,1,0,0:0:0:30:drum.wav
109,192,248314,1,0,0:0:0:30:drum.wav
329,192,248314,1,0,0:0:0:30:drum.wav
402,192,248314,1,0,0:0:0:30:cymbol.wav
475,192,248314,1,0,0:0:0:30:cymbol.wav
182,192,248410,1,0,0:0:0:30:soft-hitnormal.wav
36,192,248506,1,0,0:0:0:30:drum.wav
256,192,248506,1,0,0:0:0:30:drum.wav
329,192,248506,1,0,0:0:0:30:drum.wav
402,192,248506,1,0,0:0:0:30:cymbol.wav
475,192,248506,1,0,0:0:0:30:cymbol.wav
109,192,248602,1,0,0:0:0:30:soft-hitnormal.wav
182,192,248698,1,0,0:0:0:30:soft-hitnormal.wav
256,192,248794,1,0,0:0:0:30:drum.wav
329,192,248794,1,0,0:0:0:30:drum.wav
402,192,248794,1,0,0:0:0:30:drum.wav
475,192,248891,1,0,0:0:0:30:soft-hitnormal.wav
36,192,248987,1,0,0:0:0:30:drum.wav
182,192,248987,1,0,0:0:0:30:drum.wav
256,192,248987,1,0,0:0:0:30:drum.wav
329,192,248987,1,0,0:0:0:30:drum.wav
402,192,249083,1,0,0:0:0:30:soft-hitnormal.wav
109,192,249179,1,0,0:0:0:30:drum.wav
182,192,249179,1,0,0:0:0:30:drum.wav
256,192,249179,1,0,0:0:0:30:drum.wav
329,192,249243,1,0,0:0:0:30:hihat.wav
402,192,249307,1,0,0:0:0:30:hihat.wav
36,192,249371,1,0,0:0:0:25:drum.wav
109,192,249371,1,0,0:0:0:25:drum.wav
475,192,249371,1,0,0:0:0:25:drum.wav
256,192,249468,1,0,0:0:0:25:drum.wav
182,192,249468,1,0,0:0:0:25:drum.wav
329,192,249516,1,0,0:0:0:25:drum.wav
402,192,249564,1,0,0:0:0:25:drum.wav
475,192,249564,1,0,0:0:0:25:drum.wav
36,192,249564,1,0,0:0:0:25:drum.wav
109,192,249660,1,0,0:0:0:25:drum.wav
182,192,249660,1,0,0:0:0:25:drum.wav
256,192,249756,1,0,0:0:0:25:drum.wav
329,192,249756,1,0,0:0:0:25:drum.wav
402,192,249852,1,0,0:0:0:25:drum.wav
475,192,249852,1,0,0:0:0:25:drum.wav
36,192,249948,1,0,0:0:0:25:drum.wav
109,192,249948,1,0,0:0:0:25:drum.wav
182,192,250044,1,0,0:0:0:30:soft-hitnormal.wav
256,192,250141,1,0,0:0:0:30:soft-hitnormal.wav
329,192,250237,1,0,0:0:0:30:soft-hitnormal.wav
402,192,250333,1,0,0:0:0:30:cymbol.wav
36,192,250333,1,0,0:0:0:30:drum.wav
109,192,250333,1,0,0:0:0:30:drum.wav
182,192,250333,1,0,0:0:0:30:drum.wav
475,192,250333,1,0,0:0:0:30:cymbol.wav
256,192,250429,1,0,0:0:0:30:soft-hitnormal.wav
329,192,250525,1,0,0:0:0:30:soft-hitnormal.wav
109,192,250525,1,0,0:0:0:30:soft-hitnormal.wav
182,192,250621,1,0,0:0:0:30:soft-hitnormal.wav
256,192,250718,1,0,0:0:0:30:soft-hitnormal.wav
329,192,250718,1,0,0:0:0:30:soft-hitnormal.wav
402,192,250814,1,0,0:0:0:30:cymbol.wav
182,192,250814,1,0,0:0:0:30:drum.wav
475,192,250814,1,0,0:0:0:30:cymbol.wav
36,192,250814,1,0,0:0:0:30:drum.wav
109,192,250814,1,0,0:0:0:30:drum.wav
329,192,250910,1,0,0:0:0:30:soft-hitnormal.wav
182,192,251006,1,0,0:0:0:30:soft-hitnormal.wav
329,192,251102,1,0,0:0:0:30:soft-hitnormal.wav
36,192,251102,1,0,0:0:0:30:soft-hitnormal.wav
402,192,251198,1,0,0:0:0:30:soft-hitnormal.wav
109,192,251198,1,0,0:0:0:30:soft-hitnormal.wav
475,192,251198,1,0,0:0:0:30:soft-hitnormal.wav
182,192,251294,1,0,0:0:0:30:soft-hitnormal.wav
256,192,251391,1,0,0:0:0:30:soft-hitnormal.wav
475,192,251391,1,0,0:0:0:30:soft-hitnormal.wav
402,192,251391,1,0,0:0:0:30:soft-hitnormal.wav
329,192,251487,1,0,0:0:0:30:drum.wav
36,192,251487,1,0,0:0:0:30:crash.wav
109,192,251487,1,0,0:0:0:30:crash.wav
256,192,251679,1,0,0:0:0:30:hihat.wav
182,192,251775,1,0,0:0:0:30:hihat.wav
329,192,251775,1,0,0:0:0:30:hihat.wav
402,192,251871,1,0,0:0:0:30:hihat.wav
109,192,251871,1,0,0:0:0:30:hihat.wav
36,192,251968,1,0,0:0:0:30:hihat.wav
475,192,251968,1,0,0:0:0:30:hihat.wav
402,192,252160,1,0,0:0:0:30:soft-hitnormal.wav
109,192,252160,1,0,0:0:0:30:soft-hitnormal.wav
329,192,252160,1,0,0:0:0:30:soft-hitnormal.wav
109,192,252352,1,0,0:0:0:30:soft-hitnormal.wav
329,192,252352,1,0,0:0:0:30:soft-hitnormal.wav
256,192,252448,1,0,0:0:0:30:soft-hitnormal.wav
36,192,252448,1,0,0:0:0:30:soft-hitnormal.wav
402,192,252512,1,0,0:0:0:30:soft-hitnormal.wav
109,192,252544,1,0,0:0:0:30:soft-hitnormal.wav
329,192,252576,1,0,0:0:0:30:soft-hitnormal.wav
475,192,252641,1,0,0:0:0:30:soft-hitnormal.wav
182,192,252641,1,0,0:0:0:30:soft-hitnormal.wav
256,192,252737,1,0,0:0:0:30:soft-hitnormal.wav
402,192,252737,1,0,0:0:0:30:soft-hitnormal.wav
329,192,252833,1,0,0:0:0:30:soft-hitnormal.wav
109,192,252833,1,0,0:0:0:30:soft-hitnormal.wav
36,192,252833,1,0,0:0:0:30:soft-hitnormal.wav
182,192,252929,1,0,0:0:0:30:soft-hitnormal.wav
402,192,252929,1,0,0:0:0:30:soft-hitnormal.wav
256,192,253025,1,0,0:0:0:30:hihat.wav
475,192,253025,1,0,0:0:0:30:hihat.wav
36,192,253025,1,0,0:0:0:30:hihat.wav
182,192,253218,1,0,0:0:0:30:soft-hitnormal.wav
402,192,253218,1,0,0:0:0:30:soft-hitnormal.wav
109,192,253314,1,0,0:0:0:30:soft-hitnormal.wav
329,192,253314,1,0,0:0:0:30:soft-hitnormal.wav
36,192,253410,1,0,0:0:0:30:soft-hitnormal.wav
256,192,253410,1,0,0:0:0:30:soft-hitnormal.wav
475,192,253506,1,0,0:0:0:30:soft-hitnormal.wav
109,192,253506,1,0,0:0:0:30:soft-hitnormal.wav
182,192,253602,1,0,0:0:0:30:soft-hitnormal.wav
402,192,253602,1,0,0:0:0:30:soft-hitnormal.wav
36,192,253602,1,0,0:0:0:30:soft-hitnormal.wav
256,192,253698,1,0,0:0:0:30:soft-hitnormal.wav
329,192,253698,1,0,0:0:0:30:soft-hitnormal.wav
109,192,253698,1,0,0:0:0:30:soft-hitnormal.wav
182,192,253794,1,0,0:0:0:30:hihat.wav
402,192,253794,1,0,0:0:0:30:hihat.wav
475,192,253794,1,0,0:0:0:30:hihat.wav
109,192,253891,1,0,0:0:0:30:soft-hitnormal.wav
329,192,253891,1,0,0:0:0:30:soft-hitnormal.wav
36,192,253987,1,0,0:0:0:30:soft-hitnormal.wav
256,192,253987,1,0,0:0:0:30:soft-hitnormal.wav
109,192,254083,1,0,0:0:0:30:soft-hitnormal.wav
329,192,254083,1,0,0:0:0:30:soft-hitnormal.wav
256,192,254179,1,0,0:0:0:30:soft-hitnormal.wav
475,192,254179,1,0,0:0:0:30:soft-hitnormal.wav
402,192,254179,1,0,0:0:0:30:soft-hitnormal.wav
182,192,254179,1,0,0:0:0:30:soft-hitnormal.wav
109,192,254275,1,0,0:0:0:30:soft-hitnormal.wav
36,192,254275,1,0,0:0:0:30:soft-hitnormal.wav
329,192,254371,1,0,0:0:0:30:soft-hitnormal.wav
402,192,254371,1,0,0:0:0:30:soft-hitnormal.wav
182,192,254371,1,0,0:0:0:30:soft-hitnormal.wav
329,192,254468,1,0,0:0:0:30:soft-hitnormal.wav
402,192,254468,1,0,0:0:0:30:soft-hitnormal.wav
256,192,254564,1,0,0:0:0:30:crash.wav
36,192,254564,1,0,0:0:0:30:hihat.wav
109,192,254564,1,0,0:0:0:30:hihat.wav
329,192,254756,1,0,0:0:0:30:soft-hitnormal.wav
402,192,254756,1,0,0:0:0:30:soft-hitnormal.wav
109,192,254948,1,0,0:0:0:30:soft-hitnormal.wav
182,192,254948,1,0,0:0:0:30:soft-hitnormal.wav
36,192,255141,5,0,0:0:0:30:hihat.wav
475,192,255141,1,0,0:0:0:30:hihat.wav
109,192,255205,1,0,0:0:0:30:hihat.wav
402,192,255205,1,0,0:0:0:30:hihat.wav
182,192,255269,1,0,0:0:0:30:hihat.wav
329,192,255269,1,0,0:0:0:30:hihat.wav
36,192,255333,1,0,0:0:0:30:hihat.wav
256,192,255333,1,0,0:0:0:30:hihat.wav
475,192,255333,1,0,0:0:0:30:hihat.wav
182,192,255525,1,0,0:0:0:30:hihat.wav
329,192,255525,1,0,0:0:0:30:hihat.wav
109,192,255589,1,0,0:0:0:30:hihat.wav
402,192,255589,1,0,0:0:0:30:hihat.wav
36,192,255653,1,0,0:0:0:30:hihat.wav
475,192,255653,1,0,0:0:0:30:hihat.wav
182,192,255718,1,0,0:0:0:30:hihat.wav
256,192,255718,1,0,0:0:0:30:hihat.wav
329,192,255718,1,0,0:0:0:30:hihat.wav
475,192,255910,1,0,0:0:0:30:hihat.wav
36,192,255910,1,0,0:0:0:30:hihat.wav
402,192,255974,1,0,0:0:0:30:hihat.wav
329,192,256038,1,0,0:0:0:30:hihat.wav
256,192,256102,1,0,0:0:0:30:crash.wav
182,192,256102,1,0,0:0:0:30:crash.wav
109,192,256102,1,0,0:0:0:30:crash.wav
36,192,256102,1,0,0:0:0:30:crash.wav
329,192,256198,1,0,0:0:0:30:soft-hitnormal.wav
475,192,256198,1,0,0:0:0:30:soft-hitnormal.wav
182,192,256294,1,0,0:0:0:30:soft-hitnormal.wav
402,192,256294,1,0,0:0:0:30:soft-hitnormal.wav
329,192,256391,1,0,0:0:0:30:soft-hitnormal.wav
109,192,256391,1,0,0:0:0:30:soft-hitnormal.wav
256,192,256487,1,0,0:0:0:30:hihat.wav
36,192,256487,1,0,0:0:0:30:hihat.wav
475,192,256487,1,0,0:0:0:30:hihat.wav
109,192,256583,1,0,0:0:0:30:soft-hitnormal.wav
329,192,256583,1,0,0:0:0:30:soft-hitnormal.wav
182,192,256679,1,0,0:0:0:30:soft-hitnormal.wav
402,192,256679,1,0,0:0:0:30:soft-hitnormal.wav
256,192,256775,1,0,0:0:0:30:soft-hitnormal.wav
109,192,256775,1,0,0:0:0:30:soft-hitnormal.wav
36,192,256871,1,0,0:0:0:30:hihat.wav
329,192,256871,1,0,0:0:0:30:hihat.wav
109,192,256968,1,0,0:0:0:30:soft-hitnormal.wav
402,192,256968,1,0,0:0:0:30:soft-hitnormal.wav
182,192,257064,1,0,0:0:0:30:soft-hitnormal.wav
475,192,257064,1,0,0:0:0:30:soft-hitnormal.wav
36,192,257160,1,0,0:0:0:30:soft-hitnormal.wav
402,192,257160,1,0,0:0:0:30:soft-hitnormal.wav
109,192,257256,1,0,0:0:0:30:hihat.wav
329,192,257256,1,0,0:0:0:30:hihat.wav
182,192,257352,1,0,0:0:0:30:soft-hitnormal.wav
256,192,257352,1,0,0:0:0:30:soft-hitnormal.wav
109,192,257448,1,0,0:0:0:30:soft-hitnormal.wav
329,192,257448,1,0,0:0:0:30:soft-hitnormal.wav
36,192,257544,1,0,0:0:0:30:soft-hitnormal.wav
402,192,257544,1,0,0:0:0:30:soft-hitnormal.wav
109,192,257641,1,0,0:0:0:30:hihat.wav
475,192,257641,1,0,0:0:0:30:hihat.wav
36,192,257833,1,0,0:0:0:30:soft-hitnormal.wav
402,192,257833,1,0,0:0:0:30:soft-hitnormal.wav
182,192,257929,1,0,0:0:0:30:soft-hitnormal.wav
109,192,257929,1,0,0:0:0:30:soft-hitnormal.wav
475,192,257929,1,0,0:0:0:30:soft-hitnormal.wav
329,192,258025,1,0,0:0:0:30:cymbol.wav
36,192,258025,1,0,0:0:0:30:cymbol.wav
182,192,258218,1,0,0:0:0:30:soft-hitnormal.wav
402,192,258218,1,0,0:0:0:30:soft-hitnormal.wav
36,192,258314,1,0,0:0:0:30:soft-hitnormal.wav
256,192,258314,1,0,0:0:0:30:soft-hitnormal.wav
475,192,258314,1,0,0:0:0:30:soft-hitnormal.wav
109,192,258410,1,0,0:0:0:30:soft-hitnormal.wav
329,192,258410,1,0,0:0:0:30:soft-hitnormal.wav
182,192,258506,1,0,0:0:0:30:soft-hitnormal.wav
402,192,258506,1,0,0:0:0:30:soft-hitnormal.wav
36,192,258602,1,0,0:0:0:30:soft-hitnormal.wav
475,192,258602,1,0,0:0:0:30:soft-hitnormal.wav
402,192,258698,1,0,0:0:0:30:soft-hitnormal.wav
109,192,258698,1,0,0:0:0:30:soft-hitnormal.wav
256,192,258794,1,0,0:0:0:30:cymbol.wav
182,192,258794,1,0,0:0:0:30:cymbol.wav
329,192,258794,1,0,0:0:0:30:cymbol.wav
36,192,258987,1,0,0:0:0:30:soft-hitnormal.wav
329,192,258987,1,0,0:0:0:30:soft-hitnormal.wav
109,192,259083,1,0,0:0:0:30:soft-hitnormal.wav
402,192,259083,1,0,0:0:0:30:soft-hitnormal.wav
182,192,259179,1,0,0:0:0:30:cymbol.wav
475,192,259179,1,0,0:0:0:30:cymbol.wav
256,192,259179,1,0,0:0:0:30:cymbol.wav
36,192,259371,1,0,0:0:0:30:soft-hitnormal.wav
329,192,259371,1,0,0:0:0:30:soft-hitnormal.wav
402,192,259468,1,0,0:0:0:30:cymbol.wav
182,192,259468,1,0,0:0:0:30:cymbol.wav
109,192,259468,1,0,0:0:0:30:cymbol.wav
475,192,259564,1,0,0:0:0:30:soft-hitnormal.wav
256,192,259564,1,0,0:0:0:30:soft-hitnormal.wav
402,192,259660,1,0,0:0:0:30:soft-hitnormal.wav
36,192,259660,1,0,0:0:0:30:soft-hitnormal.wav
109,192,259756,1,0,0:0:0:30:crash.wav
329,192,259756,1,0,0:0:0:30:crash.wav
182,192,259756,1,0,0:0:0:30:crash.wav
36,192,260141,1,0,0:0:0:30:soft-hitnormal.wav
256,192,260141,1,0,0:0:0:30:soft-hitnormal.wav
402,192,260141,1,0,0:0:0:30:soft-hitnormal.wav
182,192,260237,1,0,0:0:0:30:soft-hitnormal.wav
109,192,260333,1,0,0:0:0:30:soft-hitnormal.wav
402,192,260333,1,0,0:0:0:30:soft-hitnormal.wav
329,192,260429,1,0,0:0:0:30:soft-hitnormal.wav
182,192,260525,1,0,0:0:0:30:soft-hitnormal.wav
109,192,260621,1,0,0:0:0:30:soft-hitnormal.wav
402,192,260621,1,0,0:0:0:30:soft-hitnormal.wav
36,192,260718,1,0,0:0:0:30:cymbol.wav
475,192,260718,1,0,0:0:0:30:cymbol.wav
256,192,260718,1,0,0:0:0:30:cymbol.wav
329,192,260910,1,0,0:0:0:30:soft-hitnormal.wav
109,192,260910,1,0,0:0:0:30:soft-hitnormal.wav
402,192,261006,1,0,0:0:0:30:soft-hitnormal.wav
182,192,261006,1,0,0:0:0:30:soft-hitnormal.wav
36,192,261102,1,0,0:0:0:30:cymbol.wav
475,192,261102,1,0,0:0:0:30:cymbol.wav
256,192,261102,1,0,0:0:0:30:cymbol.wav
182,192,261294,1,0,0:0:0:30:soft-hitnormal.wav
402,192,261294,1,0,0:0:0:30:soft-hitnormal.wav
109,192,261391,1,0,0:0:0:30:soft-hitnormal.wav
329,192,261391,1,0,0:0:0:30:soft-hitnormal.wav
36,192,261487,1,0,0:0:0:30:drum.wav
256,192,261487,1,0,0:0:0:30:drum.wav
475,192,261487,1,0,0:0:0:30:drum.wav
329,192,261583,1,0,0:0:0:30:drum.wav
182,192,261583,1,0,0:0:0:30:drum.wav
402,192,261679,1,0,0:0:0:30:drum.wav
109,192,261679,1,0,0:0:0:30:drum.wav
475,192,261775,1,0,0:0:0:30:drum.wav
36,192,261775,1,0,0:0:0:30:drum.wav
182,192,261871,1,0,0:0:0:30:soft-hitnormal.wav
256,192,261871,1,0,0:0:0:30:soft-hitnormal.wav
329,192,261871,1,0,0:0:0:30:soft-hitnormal.wav
475,192,261968,1,0,0:0:0:30:soft-hitnormal.wav
109,192,261968,1,0,0:0:0:30:soft-hitnormal.wav
36,192,262064,1,0,0:0:0:30:soft-hitnormal.wav
256,192,262064,1,0,0:0:0:30:soft-hitnormal.wav
109,192,262128,1,0,0:0:0:30:soft-hitnormal.wav
329,192,262128,1,0,0:0:0:30:soft-hitnormal.wav
182,192,262192,1,0,0:0:0:30:soft-hitnormal.wav
402,192,262192,1,0,0:0:0:30:soft-hitnormal.wav
256,192,262256,1,0,0:0:0:30:crash.wav
475,192,262256,1,0,0:0:0:30:crash.wav
36,192,262256,1,0,0:0:0:30:crash.wav
329,192,262352,1,0,0:0:0:30:soft-hitnormal.wav
109,192,262448,1,0,0:0:0:30:soft-hitnormal.wav
256,192,262544,1,0,0:0:0:30:soft-hitnormal.wav
402,192,262544,1,0,0:0:0:30:soft-hitnormal.wav
36,192,262641,1,0,0:0:0:30:hihat.wav
182,192,262641,1,0,0:0:0:30:hihat.wav
475,192,262641,1,0,0:0:0:30:hihat.wav
329,192,262737,1,0,0:0:0:30:soft-hitnormal.wav
109,192,262833,1,0,0:0:0:30:soft-hitnormal.wav
256,192,262833,1,0,0:0:0:30:soft-hitnormal.wav
402,192,262929,1,0,0:0:0:30:soft-hitnormal.wav
182,192,262929,1,0,0:0:0:30:soft-hitnormal.wav
475,192,263025,1,0,0:0:0:30:hihat.wav
329,192,263025,1,0,0:0:0:30:hihat.wav
109,192,263121,1,0,0:0:0:30:soft-hitnormal.wav
256,192,263121,1,0,0:0:0:30:soft-hitnormal.wav
182,192,263218,1,0,0:0:0:30:soft-hitnormal.wav
329,192,263218,1,0,0:0:0:30:soft-hitnormal.wav
256,192,263314,1,0,0:0:0:30:hihat.wav
402,192,263314,1,0,0:0:0:30:hihat.wav
36,192,263410,1,0,0:0:0:30:soft-hitnormal.wav
475,192,263410,1,0,0:0:0:30:soft-hitnormal.wav
109,192,263506,1,0,0:0:0:30:soft-hitnormal.wav
402,192,263506,1,0,0:0:0:30:soft-hitnormal.wav
182,192,263602,1,0,0:0:0:30:hihat.wav
329,192,263602,1,0,0:0:0:30:hihat.wav
256,192,263698,1,0,0:0:0:30:soft-hitnormal.wav
402,192,263698,1,0,0:0:0:30:soft-hitnormal.wav
475,192,263794,1,0,0:0:0:30:hihat.wav
329,192,263794,1,0,0:0:0:30:hihat.wav
36,192,263987,1,0,0:0:0:30:soft-hitnormal.wav
402,192,263987,1,0,0:0:0:30:soft-hitnormal.wav
329,192,264083,1,0,0:0:0:30:soft-hitnormal.wav
109,192,264083,1,0,0:0:0:30:soft-hitnormal.wav
182,192,264179,1,0,0:0:0:30:hihat.wav
475,192,264179,1,0,0:0:0:30:hihat.wav
402,192,264275,1,0,0:0:0:30:soft-hitnormal.wav
36,192,264275,1,0,0:0:0:30:soft-hitnormal.wav
329,192,264371,1,0,0:0:0:30:soft-hitnormal.wav
109,192,264371,1,0,0:0:0:30:soft-hitnormal.wav
182,192,264468,1,0,0:0:0:30:soft-hitnormal.wav
475,192,264468,1,0,0:0:0:30:soft-hitnormal.wav
402,192,264564,1,0,0:0:0:30:hihat.wav
36,192,264564,1,0,0:0:0:30:hihat.wav
109,192,264756,1,0,0:0:0:30:soft-hitnormal.wav
329,192,264756,1,0,0:0:0:30:soft-hitnormal.wav
182,192,264852,1,0,0:0:0:30:soft-hitnormal.wav
475,192,264852,1,0,0:0:0:30:soft-hitnormal.wav
256,192,264948,1,0,0:0:0:30:hihat.wav
402,192,264948,1,0,0:0:0:30:hihat.wav
182,192,265044,1,0,0:0:0:30:hihat.wav
36,192,265141,1,0,0:0:0:30:hihat.wav
475,192,265141,1,0,0:0:0:30:hihat.wav
109,192,265237,1,0,0:0:0:30:hihat.wav
402,192,265237,1,0,0:0:0:30:hihat.wav
182,192,265333,1,0,0:0:0:30:hihat.wav
329,192,265333,1,0,0:0:0:30:hihat.wav
256,192,265333,1,0,0:0:0:30:hihat.wav
109,192,265525,1,0,0:0:0:30:drum.wav
182,192,265525,1,0,0:0:0:30:drum.wav
329,192,265525,1,0,0:0:0:30:drum.wav
402,192,265525,1,0,0:0:0:30:drum.wav
109,192,265621,1,0,0:0:0:30:hihat.wav
182,192,265621,1,0,0:0:0:30:hihat.wav
329,192,265621,1,0,0:0:0:30:hihat.wav
402,192,265621,1,0,0:0:0:30:hihat.wav
256,192,265718,1,0,0:0:0:30:soft-hitnormal.wav
36,192,265814,1,0,0:0:0:30:hihat.wav
475,192,265814,1,0,0:0:0:30:hihat.wav
182,192,265814,1,0,0:0:0:30:hihat.wav
329,192,265814,1,0,0:0:0:30:hihat.wav
36,192,265910,1,0,0:0:0:30:drum.wav
182,192,265910,1,0,0:0:0:30:drum.wav
475,192,265910,1,0,0:0:0:30:drum.wav
329,192,265910,1,0,0:0:0:30:drum.wav
256,192,266006,1,0,0:0:0:30:soft-hitnormal.wav
109,192,266102,1,0,0:0:0:30:drum.wav
402,192,266102,1,0,0:0:0:30:drum.wav
475,192,266102,1,0,0:0:0:30:drum.wav
182,192,266102,1,0,0:0:0:30:drum.wav
109,192,266198,1,0,0:0:0:30:hihat.wav
402,192,266198,1,0,0:0:0:30:hihat.wav
475,192,266198,1,0,0:0:0:30:hihat.wav
182,192,266198,1,0,0:0:0:30:hihat.wav
256,192,266294,1,0,0:0:0:30:soft-hitnormal.wav
36,192,266391,1,0,0:0:0:30:hihat.wav
329,192,266391,1,0,0:0:0:30:hihat.wav
109,192,266391,1,0,0:0:0:30:hihat.wav
402,192,266391,1,0,0:0:0:30:hihat.wav
36,192,266487,1,0,0:0:0:30:drum.wav
109,192,266487,1,0,0:0:0:30:drum.wav
329,192,266487,1,0,0:0:0:30:drum.wav
402,192,266487,1,0,0:0:0:30:drum.wav
36,192,266679,1,0,0:0:0:30:hihat.wav
256,192,266679,1,0,0:0:0:30:hihat.wav
475,192,266679,1,0,0:0:0:30:hihat.wav
109,192,266775,1,0,0:0:0:30:hihat.wav
402,192,266775,1,0,0:0:0:30:hihat.wav
329,192,266871,5,0,0:0:0:30:hihat.wav
182,192,266871,1,0,0:0:0:30:hihat.wav
329,192,267000,1,0,0:0:0:30:hihat.wav
182,192,267000,1,0,0:0:0:30:hihat.wav
182,192,267128,1,0,0:0:0:30:hihat.wav
329,192,267128,1,0,0:0:0:30:hihat.wav
36,192,267256,1,0,0:0:0:30:hihat.wav
182,192,267256,1,0,0:0:0:30:hihat.wav
329,192,267256,1,0,0:0:0:30:hihat.wav
475,192,267256,1,0,0:0:0:30:hihat.wav
36,192,267384,1,0,0:0:0:30:hihat.wav
182,192,267384,1,0,0:0:0:30:hihat.wav
329,192,267384,1,0,0:0:0:30:hihat.wav
475,192,267384,1,0,0:0:0:30:hihat.wav
36,192,267512,1,0,0:0:0:30:hihat.wav
475,192,267512,1,0,0:0:0:30:hihat.wav
329,192,267512,1,0,0:0:0:30:hihat.wav
182,192,267512,1,0,0:0:0:30:hihat.wav
36,192,267641,1,0,0:0:0:20:crash.wav
182,192,267641,1,0,0:0:0:20:crash.wav
256,192,267641,1,0,0:0:0:20:crash.wav
329,192,267641,1,0,0:0:0:20:crash.wav
475,192,267641,1,0,0:0:0:20:crash.wav
475,192,268025,5,0,0:0:0:30:hihat.wav
329,192,268025,5,0,0:0:0:30:hihat.wav
36,192,268121,1,0,0:0:0:30:hihat.wav
109,192,268121,1,0,0:0:0:30:hihat.wav
182,192,268218,1,0,0:0:0:30:hihat.wav
256,192,268218,1,0,0:0:0:30:hihat.wav
329,192,268218,1,0,0:0:0:30:hihat.wav
402,192,268314,1,0,0:0:0:30:hihat.wav
475,192,268314,1,0,0:0:0:30:hihat.wav
329,192,268602,1,0,0:0:0:30:hihat.wav
402,192,268602,1,0,0:0:0:30:hihat.wav
109,192,268794,1,0,0:0:0:30:hihat.wav
182,192,268794,1,0,0:0:0:30:hihat.wav
329,192,268987,1,0,0:0:0:30:hihat.wav
402,192,268987,1,0,0:0:0:30:hihat.wav
109,192,269051,1,0,0:0:0:30:hihat.wav
182,192,269051,1,0,0:0:0:30:hihat.wav
329,192,269115,1,0,0:0:0:30:hihat.wav
402,192,269115,1,0,0:0:0:30:hihat.wav
36,192,269179,1,0,0:0:0:30:hihat.wav
475,192,269179,1,0,0:0:0:30:hihat.wav
256,192,269179,1,0,0:0:0:30:hihat.wav
329,192,269371,1,0,0:0:0:30:hihat.wav
182,192,269371,1,0,0:0:0:30:hihat.wav
36,192,269468,1,0,0:0:0:30:hihat.wav
109,192,269564,1,0,0:0:0:30:hihat.wav
256,192,269564,1,0,0:0:0:30:hihat.wav
402,192,269564,1,0,0:0:0:30:hihat.wav
36,192,269948,1,0,0:0:0:30:drum.wav
109,192,269948,1,0,0:0:0:30:drum.wav
475,192,269948,1,0,0:0:0:30:hihat.wav
402,192,270012,1,0,0:0:0:30:hihat.wav
36,192,270076,1,0,0:0:0:30:drum.wav
109,192,270076,1,0,0:0:0:30:drum.wav
329,192,270076,1,0,0:0:0:30:hihat.wav
475,192,270141,1,0,0:0:0:30:hihat.wav
36,192,270205,1,0,0:0:0:30:drum.wav
109,192,270205,1,0,0:0:0:30:drum.wav
402,192,270205,1,0,0:0:0:30:hihat.wav
329,192,270269,1,0,0:0:0:30:hihat.wav
36,192,270333,5,0,0:0:0:30:drum.wav
109,192,270333,1,0,0:0:0:30:drum.wav
182,192,270333,1,0,0:0:0:30:hihat.wav
475,192,270333,1,0,0:0:0:30:crash.wav
256,192,270333,1,0,0:0:0:30:hihat.wav
256,192,271487,5,0,0:0:0:30:soft-hitnormal.wav
329,192,271679,1,0,0:0:0:30:soft-hitnormal.wav
36,192,271679,1,0,0:0:0:30:soft-hitnormal.wav
109,192,271871,1,0,0:0:0:30:soft-hitnormal.wav
402,192,271871,1,0,0:0:0:30:soft-hitnormal.wav
182,192,271968,1,0,0:0:0:30:soft-hitnormal.wav
256,192,272064,1,0,0:0:0:30:soft-hitnormal.wav
475,192,272160,1,0,0:0:0:30:soft-hitnormal.wav
329,192,272160,1,0,0:0:0:30:soft-hitnormal.wav
475,192,272448,1,0,0:0:0:30:soft-hitnormal.wav
182,192,272448,1,0,0:0:0:30:soft-hitnormal.wav
402,192,272512,1,0,0:0:0:30:soft-hitnormal.wav
109,192,272544,1,0,0:0:0:30:soft-hitnormal.wav
329,192,272576,1,0,0:0:0:30:soft-hitnormal.wav
256,192,272641,1,0,0:0:0:30:soft-hitnormal.wav
36,192,272641,1,0,0:0:0:30:soft-hitnormal.wav
109,192,272737,1,0,0:0:0:30:soft-hitnormal.wav
182,192,272833,1,0,0:0:0:30:soft-hitnormal.wav
475,192,272833,1,0,0:0:0:30:soft-hitnormal.wav
256,192,272929,1,0,0:0:0:30:soft-hitnormal.wav
36,192,273025,1,0,0:0:0:30:soft-hitnormal.wav
329,192,273025,1,0,0:0:0:30:soft-hitnormal.wav
256,192,273218,1,0,0:0:0:30:soft-hitnormal.wav
475,192,273218,1,0,0:0:0:30:soft-hitnormal.wav
182,192,273314,1,0,0:0:0:30:soft-hitnormal.wav
402,192,273314,1,0,0:0:0:30:soft-hitnormal.wav
329,192,273410,1,0,0:0:0:30:soft-hitnormal.wav
109,192,273410,1,0,0:0:0:30:soft-hitnormal.wav
36,192,273506,1,0,0:0:0:30:soft-hitnormal.wav
256,192,273506,1,0,0:0:0:30:soft-hitnormal.wav
109,192,273602,1,0,0:0:0:30:soft-hitnormal.wav
182,192,273698,1,0,0:0:0:30:soft-hitnormal.wav
402,192,273698,1,0,0:0:0:30:soft-hitnormal.wav
36,192,273891,1,0,0:0:0:30:soft-hitnormal.wav
109,192,273987,1,0,0:0:0:30:soft-hitnormal.wav
182,192,274083,1,0,0:0:0:30:soft-hitnormal.wav
256,192,274179,1,0,0:0:0:30:soft-hitnormal.wav
329,192,274179,1,0,0:0:0:30:soft-hitnormal.wav
182,192,274371,1,0,0:0:0:30:soft-hitnormal.wav
402,192,274468,1,0,0:0:0:30:soft-hitnormal.wav
329,192,274468,1,0,0:0:0:30:soft-hitnormal.wav
36,192,274756,1,0,0:0:0:30:soft-hitnormal.wav
475,192,274756,1,0,0:0:0:30:soft-hitnormal.wav
109,192,274852,1,0,0:0:0:30:soft-hitnormal.wav
182,192,274948,1,0,0:0:0:30:soft-hitnormal.wav
256,192,275044,1,0,0:0:0:30:soft-hitnormal.wav
329,192,275141,1,0,0:0:0:30:soft-hitnormal.wav
475,192,275237,1,0,0:0:0:30:soft-hitnormal.wav
402,192,275237,1,0,0:0:0:30:soft-hitnormal.wav
109,192,275237,1,0,0:0:0:30:soft-hitnormal.wav
475,192,275525,1,0,0:0:0:30:soft-hitnormal.wav
402,192,275589,1,0,0:0:0:30:soft-hitnormal.wav
329,192,275653,1,0,0:0:0:30:soft-hitnormal.wav
36,192,275718,1,0,0:0:0:30:drum.wav
109,192,275718,1,0,0:0:0:30:drum.wav
182,192,275718,1,0,0:0:0:30:drum.wav
109,192,275846,1,0,0:0:0:30:drum.wav
36,192,275846,1,0,0:0:0:30:drum.wav
182,192,275846,1,0,0:0:0:30:drum.wav
36,192,276006,1,0,0:0:0:20:crash.wav
109,192,276006,1,0,0:0:0:20:crash.wav
256,192,276006,1,0,0:0:0:20:crash.wav
402,192,276006,1,0,0:0:0:20:crash.wav
475,192,276006,1,0,0:0:0:20:crash.wav
402,192,276294,1,0,0:0:0:30:soft-hitnormal.wav
329,192,276391,1,0,0:0:0:30:soft-hitnormal.wav
36,192,276487,1,0,0:0:0:30:soft-hitnormal.wav
256,192,276487,1,0,0:0:0:30:soft-hitnormal.wav
109,192,276583,1,0,0:0:0:30:soft-hitnormal.wav
475,192,276583,1,0,0:0:0:30:soft-hitnormal.wav
182,192,276679,1,0,0:0:0:30:soft-hitnormal.wav
329,192,276775,1,0,0:0:0:25:crash.wav
402,192,276775,1,0,0:0:0:25:crash.wav
475,192,276775,1,0,0:0:0:25:crash.wav
256,192,276775,1,0,0:0:0:25:crash.wav
109,192,277064,1,0,0:0:0:30:drum.wav
182,192,277064,1,0,0:0:0:30:drum.wav
402,192,277128,1,0,0:0:0:30:drum.wav
329,192,277128,1,0,0:0:0:30:drum.wav
109,192,277192,1,0,0:0:0:30:drum.wav
182,192,277192,1,0,0:0:0:30:drum.wav
329,192,277256,1,0,0:0:0:30:drum.wav
402,192,277256,1,0,0:0:0:30:drum.wav
256,192,277352,1,0,0:0:0:30:drum.wav
182,192,277448,1,0,0:0:0:30:drum.wav
109,192,277544,1,0,0:0:0:30:drum.wav
36,192,277641,1,0,0:0:0:30:crash.wav
329,192,277641,1,0,0:0:0:30:crash.wav
475,192,277641,1,0,0:0:0:30:crash.wav
256,192,277833,1,0,0:0:0:30:soft-hitnormal.wav
109,192,277833,1,0,0:0:0:30:soft-hitnormal.wav
402,192,277833,1,0,0:0:0:30:soft-hitnormal.wav
36,192,278025,1,0,0:0:0:30:soft-hitnormal.wav
475,192,278025,1,0,0:0:0:30:soft-hitnormal.wav
329,192,278025,1,0,0:0:0:30:soft-hitnormal.wav
109,192,278121,1,0,0:0:0:30:soft-hitnormal.wav
402,192,278121,1,0,0:0:0:30:soft-hitnormal.wav
182,192,278218,1,0,0:0:0:30:soft-hitnormal.wav
475,192,278314,1,0,0:0:0:30:hihat.wav
329,192,278314,1,0,0:0:0:30:hihat.wav
256,192,278314,1,0,0:0:0:30:hihat.wav
36,192,278602,1,0,0:0:0:30:hihat.wav
329,192,278602,1,0,0:0:0:30:hihat.wav
109,192,278666,1,0,0:0:0:30:hihat.wav
402,192,278698,1,0,0:0:0:30:hihat.wav
182,192,278730,1,0,0:0:0:30:hihat.wav
256,192,278794,1,0,0:0:0:30:soft-hitnormal.wav
475,192,278794,1,0,0:0:0:30:soft-hitnormal.wav
36,192,278794,1,0,0:0:0:30:soft-hitnormal.wav
109,192,278891,1,0,0:0:0:30:soft-hitnormal.wav
329,192,278891,1,0,0:0:0:30:soft-hitnormal.wav
182,192,278987,1,0,0:0:0:30:soft-hitnormal.wav
402,192,278987,1,0,0:0:0:30:soft-hitnormal.wav
256,192,279083,1,0,0:0:0:30:soft-hitnormal.wav
475,192,279083,1,0,0:0:0:30:soft-hitnormal.wav
36,192,279179,1,0,0:0:0:30:crash.wav
109,192,279179,1,0,0:0:0:30:crash.wav
329,192,279179,1,0,0:0:0:30:crash.wav
182,192,279371,1,0,0:0:0:30:soft-hitnormal.wav
475,192,279371,1,0,0:0:0:30:soft-hitnormal.wav
256,192,279468,1,0,0:0:0:30:soft-hitnormal.wav
402,192,279468,1,0,0:0:0:30:soft-hitnormal.wav
329,192,279564,1,0,0:0:0:30:soft-hitnormal.wav
109,192,279564,1,0,0:0:0:30:soft-hitnormal.wav
475,192,279564,1,0,0:0:0:30:soft-hitnormal.wav
36,192,279660,1,0,0:0:0:30:soft-hitnormal.wav
256,192,279660,1,0,0:0:0:30:soft-hitnormal.wav
109,192,279756,1,0,0:0:0:30:soft-hitnormal.wav
329,192,279756,1,0,0:0:0:30:soft-hitnormal.wav
182,192,279852,1,0,0:0:0:30:crash.wav
402,192,279852,1,0,0:0:0:30:crash.wav
475,192,279852,1,0,0:0:0:30:crash.wav
36,192,280044,1,0,0:0:0:30:soft-hitnormal.wav
329,192,280044,1,0,0:0:0:30:soft-hitnormal.wav
256,192,280044,1,0,0:0:0:30:soft-hitnormal.wav
109,192,280141,1,0,0:0:0:30:soft-hitnormal.wav
402,192,280141,1,0,0:0:0:30:soft-hitnormal.wav
182,192,280237,1,0,0:0:0:30:soft-hitnormal.wav
475,192,280237,1,0,0:0:0:30:soft-hitnormal.wav
36,192,280333,1,0,0:0:0:30:soft-hitnormal.wav
402,192,280333,1,0,0:0:0:30:soft-hitnormal.wav
256,192,280333,1,0,0:0:0:30:soft-hitnormal.wav
329,192,280429,1,0,0:0:0:30:soft-hitnormal.wav
109,192,280429,1,0,0:0:0:30:soft-hitnormal.wav
475,192,280429,1,0,0:0:0:30:soft-hitnormal.wav
402,192,280525,1,0,0:0:0:30:soft-hitnormal.wav
182,192,280525,1,0,0:0:0:30:soft-hitnormal.wav
36,192,280621,1,0,0:0:0:25:crash.wav
109,192,280621,1,0,0:0:0:25:crash.wav
256,192,280621,1,0,0:0:0:25:crash.wav
329,192,280621,1,0,0:0:0:25:crash.wav
36,192,280910,1,0,0:0:0:30:soft-hitnormal.wav
402,192,280910,1,0,0:0:0:30:soft-hitnormal.wav
256,192,280910,1,0,0:0:0:30:soft-hitnormal.wav
182,192,281006,1,0,0:0:0:30:soft-hitnormal.wav
329,192,281006,1,0,0:0:0:30:soft-hitnormal.wav
109,192,281102,1,0,0:0:0:30:soft-hitnormal.wav
256,192,281102,1,0,0:0:0:30:soft-hitnormal.wav
475,192,281102,1,0,0:0:0:30:soft-hitnormal.wav
36,192,281198,1,0,0:0:0:30:soft-hitnormal.wav
329,192,281198,1,0,0:0:0:30:soft-hitnormal.wav
402,192,281294,1,0,0:0:0:30:soft-hitnormal.wav
109,192,281294,1,0,0:0:0:30:
256,192,281391,1,0,0:0:0:30:soft-hitnormal.wav
182,192,281391,1,0,0:0:0:30:
329,192,281487,1,0,0:0:0:30:crash.wav
402,192,281487,1,0,0:0:0:30:crash.wav
475,192,281487,1,0,0:0:0:30:crash.wav
109,192,281487,1,0,0:0:0:30:crash.wav
36,192,281583,1,0,0:0:0:30:soft-hitnormal.wav
109,192,281679,1,0,0:0:0:30:soft-hitnormal.wav
182,192,281743,1,0,0:0:0:30:soft-hitnormal.wav
256,192,281807,1,0,0:0:0:30:soft-hitnormal.wav
36,192,281871,1,0,0:0:0:30:hihat.wav
329,192,281871,1,0,0:0:0:30:hihat.wav
475,192,281871,1,0,0:0:0:30:hihat.wav
402,192,281871,1,0,0:0:0:30:hihat.wav
256,192,281968,1,0,0:0:0:30:soft-hitnormal.wav
182,192,282064,1,0,0:0:0:30:soft-hitnormal.wav
36,192,282160,1,0,0:0:0:30:soft-hitnormal.wav
475,192,282160,1,0,0:0:0:30:soft-hitnormal.wav
109,192,282160,1,0,0:0:0:30:soft-hitnormal.wav
402,192,282160,1,0,0:0:0:30:soft-hitnormal.wav
256,192,282256,1,0,0:0:0:30:soft-hitnormal.wav
182,192,282256,1,0,0:0:0:30:soft-hitnormal.wav
329,192,282320,1,0,0:0:0:30:soft-hitnormal.wav
36,192,282352,1,0,0:0:0:30:soft-hitnormal.wav
109,192,282352,1,0,0:0:0:30:soft-hitnormal.wav
402,192,282384,1,0,0:0:0:30:soft-hitnormal.wav
475,192,282448,1,0,0:0:0:30:soft-hitnormal.wav
182,192,282448,1,0,0:0:0:30:soft-hitnormal.wav
256,192,282448,1,0,0:0:0:30:soft-hitnormal.wav
329,192,282512,1,0,0:0:0:30:soft-hitnormal.wav
109,192,282544,1,0,0:0:0:30:soft-hitnormal.wav
402,192,282576,1,0,0:0:0:30:soft-hitnormal.wav
475,192,282641,1,0,0:0:0:30:soft-hitnormal.wav
36,192,282641,1,0,0:0:0:30:soft-hitnormal.wav
109,192,282833,1,0,0:0:0:30:soft-hitnormal.wav
182,192,282833,1,0,0:0:0:30:soft-hitnormal.wav
329,192,282929,1,0,0:0:0:30:hihat.wav
402,192,282929,1,0,0:0:0:30:hihat.wav
475,192,282929,1,0,0:0:0:30:hihat.wav
256,192,283025,1,0,0:0:0:30:soft-hitnormal.wav
182,192,283121,1,0,0:0:0:30:soft-hitnormal.wav
36,192,283218,1,0,0:0:0:30:hihat.wav
109,192,283218,1,0,0:0:0:30:hihat.wav
402,192,283282,1,0,0:0:0:30:soft-hitnormal.wav
329,192,283346,1,0,0:0:0:30:soft-hitnormal.wav
256,192,283410,1,0,0:0:0:30:hihat.wav
182,192,283410,1,0,0:0:0:30:hihat.wav
475,192,283474,1,0,0:0:0:30:soft-hitnormal.wav
402,192,283538,1,0,0:0:0:30:soft-hitnormal.wav
329,192,283602,1,0,0:0:0:30:hihat.wav
256,192,283602,1,0,0:0:0:30:hihat.wav
182,192,283666,1,0,0:0:0:30:soft-hitnormal.wav
109,192,283730,1,0,0:0:0:30:soft-hitnormal.wav
256,192,283794,1,0,0:0:0:30:hihat.wav
36,192,283794,1,0,0:0:0:30:hihat.wav
402,192,283794,1,0,0:0:0:30:hihat.wav
475,192,283794,1,0,0:0:0:30:hihat.wav
109,192,283987,1,0,0:0:0:30:soft-hitnormal.wav
329,192,283987,1,0,0:0:0:30:soft-hitnormal.wav
402,192,283987,1,0,0:0:0:30:soft-hitnormal.wav
329,192,284179,1,0,0:0:0:15:crash.wav
36,192,284179,1,0,0:0:0:15:crash.wav
475,192,284179,1,0,0:0:0:15:crash.wav
256,192,284179,1,0,0:0:0:15:crash.wav
402,192,284275,1,0,0:0:0:30:soft-hitnormal.wav
182,192,284275,1,0,0:0:0:30:soft-hitnormal.wav
109,192,284371,1,0,0:0:0:30:soft-hitnormal.wav
329,192,284468,1,0,0:0:0:30:hihat.wav
182,192,284468,1,0,0:0:0:30:hihat.wav
475,192,284468,1,0,0:0:0:30:hihat.wav
36,192,284756,1,0,0:0:0:30:soft-hitnormal.wav
402,192,284756,1,0,0:0:0:30:soft-hitnormal.wav
182,192,284820,1,0,0:0:0:30:soft-hitnormal.wav
329,192,284852,1,0,0:0:0:30:soft-hitnormal.wav
109,192,284884,1,0,0:0:0:30:soft-hitnormal.wav
256,192,284948,1,0,0:0:0:30:soft-hitnormal.wav
475,192,284948,1,0,0:0:0:30:soft-hitnormal.wav
182,192,285044,1,0,0:0:0:30:soft-hitnormal.wav
402,192,285044,1,0,0:0:0:30:soft-hitnormal.wav
109,192,285141,1,0,0:0:0:30:soft-hitnormal.wav
329,192,285141,1,0,0:0:0:30:soft-hitnormal.wav
36,192,285237,1,0,0:0:0:30:soft-hitnormal.wav
256,192,285237,1,0,0:0:0:30:soft-hitnormal.wav
109,192,285333,1,0,0:0:0:30:crash.wav
402,192,285333,1,0,0:0:0:30:crash.wav
475,192,285333,1,0,0:0:0:30:crash.wav
182,192,285525,1,0,0:0:0:30:soft-hitnormal.wav
329,192,285525,1,0,0:0:0:30:soft-hitnormal.wav
109,192,285621,1,0,0:0:0:30:soft-hitnormal.wav
256,192,285621,1,0,0:0:0:30:soft-hitnormal.wav
36,192,285718,1,0,0:0:0:30:soft-hitnormal.wav
402,192,285718,1,0,0:0:0:30:soft-hitnormal.wav
475,192,285718,1,0,0:0:0:30:soft-hitnormal.wav
329,192,285814,1,0,0:0:0:30:soft-hitnormal.wav
109,192,285814,1,0,0:0:0:30:soft-hitnormal.wav
182,192,285910,1,0,0:0:0:30:soft-hitnormal.wav
256,192,285910,1,0,0:0:0:30:soft-hitnormal.wav
36,192,286006,1,0,0:0:0:30:crash.wav
402,192,286006,1,0,0:0:0:30:crash.wav
329,192,286006,1,0,0:0:0:30:crash.wav
109,192,286198,1,0,0:0:0:30:soft-hitnormal.wav
475,192,286198,1,0,0:0:0:30:soft-hitnormal.wav
182,192,286198,1,0,0:0:0:30:soft-hitnormal.wav
36,192,286294,1,0,0:0:0:30:soft-hitnormal.wav
402,192,286294,1,0,0:0:0:30:soft-hitnormal.wav
109,192,286391,1,0,0:0:0:30:soft-hitnormal.wav
329,192,286391,1,0,0:0:0:30:soft-hitnormal.wav
182,192,286487,1,0,0:0:0:30:soft-hitnormal.wav
256,192,286487,1,0,0:0:0:30:soft-hitnormal.wav
109,192,286583,1,0,0:0:0:30:soft-hitnormal.wav
329,192,286583,1,0,0:0:0:30:soft-hitnormal.wav
36,192,286679,1,0,0:0:0:30:soft-hitnormal.wav
402,192,286679,1,0,0:0:0:30:soft-hitnormal.wav
256,192,286775,1,0,0:0:0:30:crash.wav
475,192,286775,1,0,0:0:0:30:crash.wav
109,192,286775,1,0,0:0:0:30:crash.wav
182,192,286775,1,0,0:0:0:30:crash.wav
109,192,287064,1,0,0:0:0:30:soft-hitnormal.wav
475,192,287064,1,0,0:0:0:30:soft-hitnormal.wav
36,192,287064,1,0,0:0:0:30:soft-hitnormal.wav
182,192,287160,1,0,0:0:0:30:soft-hitnormal.wav
402,192,287160,1,0,0:0:0:30:soft-hitnormal.wav
256,192,287256,1,0,0:0:0:30:soft-hitnormal.wav
329,192,287256,1,0,0:0:0:30:soft-hitnormal.wav
182,192,287352,1,0,0:0:0:30:soft-hitnormal.wav
402,192,287352,1,0,0:0:0:30:soft-hitnormal.wav
109,192,287448,1,0,0:0:0:30:soft-hitnormal.wav
475,192,287448,1,0,0:0:0:30:soft-hitnormal.wav
36,192,287544,1,0,0:0:0:30:crash.wav
256,192,287544,1,0,0:0:0:30:crash.wav
329,192,287544,1,0,0:0:0:30:crash.wav
402,192,287544,1,0,0:0:0:30:crash.wav
475,192,287833,1,0,0:0:0:30:hihat.wav
182,192,287833,1,0,0:0:0:30:hihat.wav
402,192,287897,1,0,0:0:0:30:hihat.wav
109,192,287929,1,0,0:0:0:30:hihat.wav
329,192,287961,1,0,0:0:0:30:hihat.wav
256,192,288025,1,0,0:0:0:30:soft-hitnormal.wav
36,192,288025,1,0,0:0:0:30:soft-hitnormal.wav
109,192,288121,1,0,0:0:0:30:soft-hitnormal.wav
329,192,288121,1,0,0:0:0:30:soft-hitnormal.wav
182,192,288218,1,0,0:0:0:30:soft-hitnormal.wav
256,192,288314,1,0,0:0:0:30:crash.wav
475,192,288314,1,0,0:0:0:30:crash.wav
36,192,288314,1,0,0:0:0:30:crash.wav
109,192,288602,1,0,0:0:0:30:soft-hitnormal.wav
402,192,288602,1,0,0:0:0:30:soft-hitnormal.wav
475,192,288602,1,0,0:0:0:30:soft-hitnormal.wav
36,192,288698,1,0,0:0:0:30:soft-hitnormal.wav
256,192,288698,1,0,0:0:0:30:soft-hitnormal.wav
109,192,288794,1,0,0:0:0:30:soft-hitnormal.wav
329,192,288794,1,0,0:0:0:30:soft-hitnormal.wav
402,192,288794,1,0,0:0:0:30:soft-hitnormal.wav
182,192,288891,1,0,0:0:0:30:soft-hitnormal.wav
475,192,288891,1,0,0:0:0:30:soft-hitnormal.wav
36,192,288987,1,0,0:0:0:30:soft-hitnormal.wav
256,192,288987,1,0,0:0:0:30:soft-hitnormal.wav
109,192,289083,1,0,0:0:0:30:soft-hitnormal.wav
475,192,289083,1,0,0:0:0:30:soft-hitnormal.wav
182,192,289083,1,0,0:0:0:30:soft-hitnormal.wav
402,192,289179,1,0,0:0:0:30:soft-hitnormal.wav
256,192,289179,1,0,0:0:0:30:soft-hitnormal.wav
329,192,289275,1,0,0:0:0:30:soft-hitnormal.wav
182,192,289275,1,0,0:0:0:30:soft-hitnormal.wav
109,192,289371,1,0,0:0:0:30:soft-hitnormal.wav
256,192,289371,1,0,0:0:0:30:soft-hitnormal.wav
475,192,289419,1,0,0:0:0:30:soft-hitnormal.wav
36,192,289468,1,0,0:0:0:30:soft-hitnormal.wav
402,192,289468,1,0,0:0:0:30:soft-hitnormal.wav
109,192,289564,1,0,0:0:0:30:soft-hitnormal.wav
329,192,289564,1,0,0:0:0:30:soft-hitnormal.wav
182,192,289660,1,0,0:0:0:30:soft-hitnormal.wav
475,192,289660,1,0,0:0:0:30:soft-hitnormal.wav
256,192,289756,1,0,0:0:0:30:soft-hitnormal.wav
109,192,289756,1,0,0:0:0:30:soft-hitnormal.wav
329,192,289852,1,0,0:0:0:30:soft-hitnormal.wav
36,192,289852,1,0,0:0:0:30:soft-hitnormal.wav
402,192,289948,1,0,0:0:0:30:crash.wav
475,192,289948,1,0,0:0:0:30:crash.wav
182,192,289948,1,0,0:0:0:30:crash.wav
109,192,290141,1,0,0:0:0:30:soft-hitnormal.wav
475,192,290141,1,0,0:0:0:30:soft-hitnormal.wav
329,192,290141,1,0,0:0:0:30:soft-hitnormal.wav
475,192,290333,1,0,0:0:0:15:crash.wav
36,192,290333,1,0,0:0:0:15:crash.wav
402,192,290333,1,0,0:0:0:15:crash.wav
256,192,290333,1,0,0:0:0:15:crash.wav
329,192,290429,1,0,0:0:0:30:soft-hitnormal.wav
182,192,290429,1,0,0:0:0:30:soft-hitnormal.wav
109,192,290525,1,0,0:0:0:30:soft-hitnormal.wav
256,192,290525,1,0,0:0:0:30:soft-hitnormal.wav
36,192,290621,1,0,0:0:0:30:hihat.wav
402,192,290621,1,0,0:0:0:30:hihat.wav
475,192,290621,1,0,0:0:0:30:hihat.wav
475,192,290910,1,0,0:0:0:30:soft-hitnormal.wav
36,192,290910,1,0,0:0:0:30:soft-hitnormal.wav
109,192,290974,1,0,0:0:0:30:soft-hitnormal.wav
402,192,291006,1,0,0:0:0:30:soft-hitnormal.wav
182,192,291038,1,0,0:0:0:30:soft-hitnormal.wav
256,192,291102,1,0,0:0:0:30:soft-hitnormal.wav
329,192,291102,1,0,0:0:0:30:soft-hitnormal.wav
36,192,291198,1,0,0:0:0:30:soft-hitnormal.wav
475,192,291198,1,0,0:0:0:30:soft-hitnormal.wav
109,192,291294,1,0,0:0:0:30:soft-hitnormal.wav
402,192,291294,1,0,0:0:0:30:soft-hitnormal.wav
329,192,291391,1,0,0:0:0:30:soft-hitnormal.wav
182,192,291391,1,0,0:0:0:30:soft-hitnormal.wav
36,192,291487,1,0,0:0:0:30:crash.wav
256,192,291487,1,0,0:0:0:30:crash.wav
475,192,291487,1,0,0:0:0:30:crash.wav
109,192,291679,1,0,0:0:0:30:soft-hitnormal.wav
329,192,291679,1,0,0:0:0:30:soft-hitnormal.wav
182,192,291775,1,0,0:0:0:30:soft-hitnormal.wav
402,192,291775,1,0,0:0:0:30:soft-hitnormal.wav
36,192,291871,1,0,0:0:0:30:soft-hitnormal.wav
475,192,291871,1,0,0:0:0:30:soft-hitnormal.wav
256,192,291871,1,0,0:0:0:30:soft-hitnormal.wav
182,192,291968,1,0,0:0:0:30:soft-hitnormal.wav
402,192,291968,1,0,0:0:0:30:soft-hitnormal.wav
109,192,292064,1,0,0:0:0:30:soft-hitnormal.wav
329,192,292064,1,0,0:0:0:30:soft-hitnormal.wav
256,192,292160,1,0,0:0:0:30:crash.wav
182,192,292160,1,0,0:0:0:30:crash.wav
475,192,292160,1,0,0:0:0:30:crash.wav
36,192,292352,1,0,0:0:0:30:soft-hitnormal.wav
329,192,292352,1,0,0:0:0:30:soft-hitnormal.wav
109,192,292448,1,0,0:0:0:30:soft-hitnormal.wav
402,192,292448,1,0,0:0:0:30:soft-hitnormal.wav
182,192,292544,1,0,0:0:0:30:soft-hitnormal.wav
475,192,292544,1,0,0:0:0:30:soft-hitnormal.wav
402,192,292641,1,0,0:0:0:30:soft-hitnormal.wav
109,192,292641,1,0,0:0:0:30:soft-hitnormal.wav
329,192,292705,1,0,0:0:0:30:soft-hitnormal.wav
36,192,292737,1,0,0:0:0:30:soft-hitnormal.wav
256,192,292769,1,0,0:0:0:30:soft-hitnormal.wav
182,192,292833,1,0,0:0:0:30:soft-hitnormal.wav
109,192,292833,1,0,0:0:0:30:soft-hitnormal.wav
329,192,292929,1,0,0:0:0:30:crash.wav
402,192,292929,1,0,0:0:0:30:crash.wav
475,192,292929,1,0,0:0:0:30:crash.wav
36,192,292929,1,0,0:0:0:30:crash.wav
36,192,293218,1,0,0:0:0:30:soft-hitnormal.wav
256,192,293218,1,0,0:0:0:30:soft-hitnormal.wav
109,192,293314,1,0,0:0:0:30:soft-hitnormal.wav
329,192,293314,1,0,0:0:0:30:soft-hitnormal.wav
182,192,293410,1,0,0:0:0:30:soft-hitnormal.wav
402,192,293410,1,0,0:0:0:30:soft-hitnormal.wav
475,192,293506,1,0,0:0:0:30:soft-hitnormal.wav
109,192,293506,1,0,0:0:0:30:soft-hitnormal.wav
182,192,293602,1,0,0:0:0:30:soft-hitnormal.wav
402,192,293602,1,0,0:0:0:30:soft-hitnormal.wav
256,192,293698,1,0,0:0:0:30:soft-hitnormal.wav
329,192,293698,1,0,0:0:0:30:soft-hitnormal.wav
36,192,293794,1,0,0:0:0:30:crash.wav
109,192,293794,1,0,0:0:0:30:crash.wav
182,192,293794,1,0,0:0:0:30:crash.wav
475,192,293794,1,0,0:0:0:30:crash.wav
256,192,293987,1,0,0:0:0:30:soft-hitnormal.wav
402,192,293987,1,0,0:0:0:30:soft-hitnormal.wav
182,192,294083,1,0,0:0:0:30:soft-hitnormal.wav
329,192,294083,1,0,0:0:0:30:soft-hitnormal.wav
36,192,294179,1,0,0:0:0:30:soft-hitnormal.wav
109,192,294179,1,0,0:0:0:30:soft-hitnormal.wav
475,192,294179,1,0,0:0:0:30:soft-hitnormal.wav
402,192,294275,1,0,0:0:0:30:soft-hitnormal.wav
182,192,294275,1,0,0:0:0:30:soft-hitnormal.wav
329,192,294371,5,0,0:0:0:30:soft-hitnormal.wav
256,192,294371,1,0,0:0:0:30:soft-hitnormal.wav
36,192,294468,1,0,0:0:0:30:soft-hitnormal.wav
475,192,294468,1,0,0:0:0:30:soft-hitnormal.wav
402,192,294468,1,0,0:0:0:30:soft-hitnormal.wav
109,192,294564,1,0,0:0:0:30:hihat.wav
182,192,294564,1,0,0:0:0:30:hihat.wav
402,192,294628,1,0,0:0:0:30:hihat.wav
475,192,294628,1,0,0:0:0:30:hihat.wav
36,192,294692,1,0,0:0:0:30:hihat.wav
109,192,294692,1,0,0:0:0:30:hihat.wav
329,192,294756,1,0,0:0:0:30:hihat.wav
402,192,294756,1,0,0:0:0:30:hihat.wav
475,192,294852,1,0,0:0:0:30:soft-hitnormal.wav
256,192,294852,1,0,0:0:0:30:soft-hitnormal.wav
402,192,294948,1,0,0:0:0:30:soft-hitnormal.wav
182,192,294948,1,0,0:0:0:30:soft-hitnormal.wav
109,192,295141,1,0,0:0:0:30:soft-hitnormal.wav
329,192,295141,1,0,0:0:0:30:soft-hitnormal.wav
36,192,295141,1,0,0:0:0:30:soft-hitnormal.wav
256,192,295141,1,0,0:0:0:30:soft-hitnormal.wav
475,192,295237,1,0,0:0:0:30:hihat.wav
402,192,295237,1,0,0:0:0:30:hihat.wav
182,192,295237,1,0,0:0:0:30:hihat.wav
475,192,295525,5,0,0:0:0:30:soft-hitnormal.wav
36,192,295525,1,0,0:0:0:30:soft-hitnormal.wav
402,192,295589,1,0,0:0:0:30:soft-hitnormal.wav
109,192,295621,1,0,0:0:0:30:soft-hitnormal.wav
329,192,295653,1,0,0:0:0:30:soft-hitnormal.wav
475,192,295718,1,0,0:0:0:30:soft-hitnormal.wav
182,192,295718,1,0,0:0:0:30:soft-hitnormal.wav
402,192,295782,1,0,0:0:0:30:soft-hitnormal.wav
36,192,295814,1,0,0:0:0:30:soft-hitnormal.wav
329,192,295846,1,0,0:0:0:30:soft-hitnormal.wav
475,192,295910,1,0,0:0:0:30:soft-hitnormal.wav
109,192,295910,1,0,0:0:0:30:soft-hitnormal.wav
402,192,295974,1,0,0:0:0:30:soft-hitnormal.wav
182,192,296006,1,0,0:0:0:30:soft-hitnormal.wav
329,192,296038,1,0,0:0:0:30:soft-hitnormal.wav
256,192,296102,5,0,0:0:0:30:hihat.wav
36,192,296102,1,0,0:0:0:30:hihat.wav
475,192,296102,1,0,0:0:0:30:hihat.wav
329,192,296294,1,0,0:0:0:25:drum.wav
402,192,296294,1,0,0:0:0:25:drum.wav
329,192,296487,1,0,0:0:0:25:drum.wav
402,192,296487,1,0,0:0:0:25:drum.wav
182,192,296583,1,0,0:0:0:25:drum.wav
182,192,296679,1,0,0:0:0:25:drum.wav
329,192,296775,1,0,0:0:0:25:drum.wav
402,192,296775,1,0,0:0:0:25:drum.wav
182,192,296968,1,0,0:0:0:25:drum.wav
36,192,297064,1,0,0:0:0:25:drum.wav
109,192,297064,1,0,0:0:0:25:drum.wav
109,192,297256,5,0,0:0:0:25:drum.wav
182,192,297256,1,0,0:0:0:25:drum.wav
256,192,297256,1,0,0:0:0:25:drum.wav
329,192,297320,1,0,0:0:0:25:drum.wav
402,192,297320,1,0,0:0:0:25:drum.wav
109,192,297384,1,0,0:0:0:25:drum.wav
182,192,297384,1,0,0:0:0:25:drum.wav
402,192,297448,1,0,0:0:0:25:drum.wav
329,192,297448,1,0,0:0:0:25:drum.wav
109,192,297512,1,0,0:0:0:25:drum.wav
182,192,297512,1,0,0:0:0:25:drum.wav
329,192,297576,1,0,0:0:0:25:drum.wav
402,192,297576,1,0,0:0:0:25:drum.wav
36,192,297641,1,0,0:0:0:25:crash.wav
256,192,297641,1,0,0:0:0:25:crash.wav
475,192,297641,1,0,0:0:0:25:crash.wav
109,192,297833,1,0,0:0:0:30:soft-hitnormal.wav
182,192,297929,1,0,0:0:0:30:soft-hitnormal.wav
402,192,298025,1,0,0:0:0:30:soft-hitnormal.wav
329,192,298218,1,0,0:0:0:30:soft-hitnormal.wav
256,192,298410,1,0,0:0:0:30:soft-hitnormal.wav
182,192,298602,1,0,0:0:0:30:soft-hitnormal.wav
256,192,298794,1,0,0:0:0:30:soft-hitnormal.wav
329,192,298891,1,0,0:0:0:30:soft-hitnormal.wav
182,192,298987,1,0,0:0:0:30:soft-hitnormal.wav
36,192,299179,1,0,0:0:0:30:hihat.wav
109,192,299179,1,0,0:0:0:30:hihat.wav
402,192,299179,1,0,0:0:0:30:hihat.wav
475,192,299179,1,0,0:0:0:30:hihat.wav
109,192,299371,1,0,0:0:0:30:hihat.wav
329,192,299371,1,0,0:0:0:30:hihat.wav
475,192,299371,1,0,0:0:0:30:hihat.wav
329,192,299468,1,0,0:0:0:30:soft-hitnormal.wav
182,192,299564,1,0,0:0:0:30:hihat.wav
402,192,299564,1,0,0:0:0:30:hihat.wav
36,192,299564,1,0,0:0:0:30:hihat.wav
36,192,299756,1,0,0:0:0:30:hihat.wav
109,192,299756,1,0,0:0:0:30:hihat.wav
402,192,299756,1,0,0:0:0:30:hihat.wav
475,192,299756,1,0,0:0:0:30:hihat.wav
36,192,299852,1,0,0:0:0:30:hihat.wav
109,192,299852,1,0,0:0:0:30:hihat.wav
109,192,300044,1,0,0:0:0:30:hihat.wav
182,192,300044,1,0,0:0:0:30:hihat.wav
402,192,300044,1,0,0:0:0:30:hihat.wav
475,192,300044,1,0,0:0:0:30:hihat.wav
109,192,300141,1,0,0:0:0:30:hihat.wav
182,192,300141,1,0,0:0:0:30:hihat.wav
402,192,300333,1,0,0:0:0:30:hihat.wav
329,192,300333,1,0,0:0:0:30:hihat.wav
36,192,300333,1,0,0:0:0:30:hihat.wav
109,192,300333,1,0,0:0:0:30:hihat.wav
402,192,300429,1,0,0:0:0:30:hihat.wav
329,192,300429,1,0,0:0:0:30:hihat.wav
36,192,300621,1,0,0:0:0:30:hihat.wav
109,192,300621,1,0,0:0:0:30:hihat.wav
402,192,300621,1,0,0:0:0:30:hihat.wav
475,192,300621,1,0,0:0:0:30:hihat.wav
402,192,300718,1,0,0:0:0:30:hihat.wav
475,192,300718,1,0,0:0:0:30:hihat.wav
36,192,300910,1,0,0:0:0:30:hihat.wav
109,192,300910,1,0,0:0:0:30:hihat.wav
256,192,300910,1,0,0:0:0:30:hihat.wav
329,192,300910,1,0,0:0:0:30:hihat.wav
36,192,301006,1,0,0:0:0:30:hihat.wav
109,192,301006,1,0,0:0:0:30:hihat.wav
182,192,301198,1,0,0:0:0:30:hihat.wav
256,192,301198,1,0,0:0:0:30:hihat.wav
402,192,301198,1,0,0:0:0:30:hihat.wav
475,192,301198,1,0,0:0:0:30:hihat.wav
402,192,301294,1,0,0:0:0:30:hihat.wav
475,192,301294,1,0,0:0:0:30:hihat.wav
256,192,301487,1,0,0:0:0:30:hihat.wav
329,192,301487,1,0,0:0:0:30:hihat.wav
109,192,301487,1,0,0:0:0:30:hihat.wav
182,192,301487,1,0,0:0:0:30:hihat.wav
109,192,301583,1,0,0:0:0:30:hihat.wav
182,192,301583,1,0,0:0:0:30:hihat.wav
182,192,301775,1,0,0:0:0:30:hihat.wav
329,192,301775,1,0,0:0:0:30:hihat.wav
402,192,301775,1,0,0:0:0:30:hihat.wav
256,192,301775,1,0,0:0:0:30:hihat.wav
109,192,301871,1,0,0:0:0:30:hihat.wav
329,192,301968,1,0,0:0:0:30:hihat.wav
256,192,301968,1,0,0:0:0:30:soft-hitnormal.wav
182,192,302064,1,0,0:0:0:30:soft-hitnormal.wav
109,192,302160,1,0,0:0:0:30:hihat.wav
475,192,302160,1,0,0:0:0:30:hihat.wav
329,192,302160,1,0,0:0:0:30:hihat.wav
36,192,302160,1,0,0:0:0:30:hihat.wav
402,192,302160,1,0,0:0:0:30:hihat.wav
475,192,302448,1,0,0:0:0:30:hihat.wav
36,192,302448,1,0,0:0:0:30:hihat.wav
109,192,302448,1,0,0:0:0:30:hihat.wav
402,192,302448,1,0,0:0:0:30:hihat.wav
329,192,302544,1,0,0:0:0:30:hihat.wav
182,192,302544,1,0,0:0:0:30:soft-hitnormal.wav
36,192,302641,1,0,0:0:0:30:hihat.wav
109,192,302641,1,0,0:0:0:30:hihat.wav
475,192,302641,1,0,0:0:0:30:hihat.wav
402,192,302641,1,0,0:0:0:30:hihat.wav
36,192,302833,1,0,0:0:0:30:hihat.wav
109,192,302833,1,0,0:0:0:30:hihat.wav
329,192,302833,1,0,0:0:0:30:hihat.wav
402,192,302833,1,0,0:0:0:30:hihat.wav
475,192,302833,1,0,0:0:0:30:hihat.wav
36,192,302929,1,0,0:0:0:30:hihat.wav
109,192,302929,1,0,0:0:0:30:hihat.wav
36,192,303121,1,0,0:0:0:30:hihat.wav
109,192,303121,1,0,0:0:0:30:hihat.wav
182,192,303121,1,0,0:0:0:30:hihat.wav
402,192,303121,1,0,0:0:0:30:hihat.wav
475,192,303121,1,0,0:0:0:30:hihat.wav
402,192,303218,1,0,0:0:0:30:hihat.wav
475,192,303218,1,0,0:0:0:30:hihat.wav
36,192,303410,1,0,0:0:0:30:hihat.wav
182,192,303410,1,0,0:0:0:30:hihat.wav
329,192,303410,1,0,0:0:0:30:hihat.wav
402,192,303410,1,0,0:0:0:30:hihat.wav
475,192,303410,1,0,0:0:0:30:hihat.wav
36,192,303506,1,0,0:0:0:30:hihat.wav
182,192,303506,1,0,0:0:0:30:hihat.wav
36,192,303698,1,0,0:0:0:30:hihat.wav
109,192,303698,1,0,0:0:0:30:hihat.wav
182,192,303698,1,0,0:0:0:30:hihat.wav
329,192,303698,1,0,0:0:0:30:hihat.wav
475,192,303698,1,0,0:0:0:30:hihat.wav
329,192,303794,1,0,0:0:0:30:hihat.wav
475,192,303794,1,0,0:0:0:30:hihat.wav
36,192,303987,1,0,0:0:0:30:hihat.wav
256,192,303987,1,0,0:0:0:30:hihat.wav
329,192,303987,1,0,0:0:0:30:hihat.wav
402,192,303987,1,0,0:0:0:30:hihat.wav
109,192,303987,1,0,0:0:0:30:hihat.wav
36,192,304083,1,0,0:0:0:30:hihat.wav
109,192,304083,1,0,0:0:0:30:hihat.wav
402,192,304275,1,0,0:0:0:30:hihat.wav
475,192,304275,1,0,0:0:0:30:hihat.wav
256,192,304275,1,0,0:0:0:30:hihat.wav
182,192,304275,1,0,0:0:0:30:hihat.wav
109,192,304275,1,0,0:0:0:30:hihat.wav
402,192,304371,5,0,0:0:0:30:hihat.wav
475,192,304371,1,0,0:0:0:30:hihat.wav
36,192,304564,1,0,0:0:0:30:hihat.wav
109,192,304564,1,0,0:0:0:30:hihat.wav
182,192,304564,1,0,0:0:0:30:hihat.wav
256,192,304564,1,0,0:0:0:30:hihat.wav
329,192,304564,1,0,0:0:0:30:hihat.wav
36,192,304660,1,0,0:0:0:30:hihat.wav
109,192,304660,1,0,0:0:0:30:hihat.wav
402,192,304852,1,0,0:0:0:30:hihat.wav
329,192,304852,1,0,0:0:0:30:hihat.wav
256,192,304852,1,0,0:0:0:30:hihat.wav
475,192,304852,1,0,0:0:0:30:hihat.wav
182,192,304852,1,0,0:0:0:30:hihat.wav
109,192,304948,1,0,0:0:0:30:hihat.wav
182,192,305044,1,0,0:0:0:30:hihat.wav
402,192,305044,1,0,0:0:0:30:hihat.wav
329,192,305044,1,0,0:0:0:30:soft-hitnormal.wav
256,192,305141,1,0,0:0:0:30:soft-hitnormal.wav
36,192,305237,1,0,0:0:0:30:hihat.wav
109,192,305237,1,0,0:0:0:30:hihat.wav
182,192,305237,1,0,0:0:0:30:hihat.wav
402,192,305237,1,0,0:0:0:30:hihat.wav
475,192,305237,1,0,0:0:0:30:hihat.wav
475,192,305525,5,0,0:0:0:30:hihat.wav
402,192,305525,1,0,0:0:0:30:hihat.wav
329,192,305525,1,0,0:0:0:30:hihat.wav
256,192,305525,1,0,0:0:0:30:hihat.wav
475,192,305621,1,0,0:0:0:30:hihat.wav
402,192,305621,1,0,0:0:0:30:hihat.wav
329,192,305621,1,0,0:0:0:30:hihat.wav
475,192,305814,1,0,0:0:0:30:hihat.wav
402,192,305814,1,0,0:0:0:30:hihat.wav
329,192,305814,1,0,0:0:0:30:hihat.wav
182,192,305814,1,0,0:0:0:30:hihat.wav
475,192,305910,1,0,0:0:0:30:hihat.wav
402,192,305910,1,0,0:0:0:30:hihat.wav
329,192,305910,1,0,0:0:0:30:hihat.wav
329,192,306102,1,0,0:0:0:30:hihat.wav
402,192,306102,1,0,0:0:0:30:hihat.wav
475,192,306102,1,0,0:0:0:30:hihat.wav
109,192,306102,1,0,0:0:0:30:hihat.wav
329,192,306198,1,0,0:0:0:30:hihat.wav
402,192,306198,1,0,0:0:0:30:hihat.wav
475,192,306198,1,0,0:0:0:30:hihat.wav
329,192,306391,1,0,0:0:0:30:hihat.wav
402,192,306391,1,0,0:0:0:30:hihat.wav
475,192,306391,1,0,0:0:0:30:hihat.wav
36,192,306391,1,0,0:0:0:30:hihat.wav
329,192,306487,1,0,0:0:0:30:hihat.wav
402,192,306487,1,0,0:0:0:30:hihat.wav
475,192,306487,1,0,0:0:0:30:hihat.wav
36,192,306679,1,0,0:0:0:30:hihat.wav
109,192,306679,1,0,0:0:0:30:hihat.wav
182,192,306679,1,0,0:0:0:30:hihat.wav
475,192,306679,1,0,0:0:0:30:hihat.wav
36,192,306775,5,0,0:0:0:30:hihat.wav
109,192,306775,1,0,0:0:0:30:hihat.wav
182,192,306775,1,0,0:0:0:30:hihat.wav
182,192,306968,1,0,0:0:0:30:hihat.wav
109,192,306968,1,0,0:0:0:30:hihat.wav
36,192,306968,1,0,0:0:0:30:hihat.wav
402,192,306968,1,0,0:0:0:30:hihat.wav
36,192,307064,5,0,0:0:0:30:hihat.wav
182,192,307064,1,0,0:0:0:30:hihat.wav
109,192,307064,1,0,0:0:0:30:hihat.wav
36,192,307256,5,0,0:0:0:30:hihat.wav
329,192,307256,1,0,0:0:0:30:hihat.wav
182,192,307256,1,0,0:0:0:30:hihat.wav
109,192,307256,1,0,0:0:0:30:hihat.wav
36,192,307352,5,0,0:0:0:30:hihat.wav
109,192,307352,1,0,0:0:0:30:hihat.wav
182,192,307352,1,0,0:0:0:30:hihat.wav
256,192,307544,5,0,0:0:0:30:hihat.wav
36,192,307544,1,0,0:0:0:30:hihat.wav
109,192,307544,1,0,0:0:0:30:hihat.wav
182,192,307544,1,0,0:0:0:30:hihat.wav
329,192,307641,1,0,0:0:0:30:hihat.wav
402,192,307641,1,0,0:0:0:30:hihat.wav
475,192,307641,1,0,0:0:0:30:hihat.wav
402,192,307737,1,0,0:0:0:30:hihat.wav
475,192,307737,1,0,0:0:0:30:hihat.wav
329,192,307737,1,0,0:0:0:30:hihat.wav
329,192,307929,1,0,0:0:0:30:hihat.wav
475,192,307929,1,0,0:0:0:30:hihat.wav
402,192,307929,1,0,0:0:0:30:hihat.wav
36,192,307929,1,0,0:0:0:30:hihat.wav
109,192,307929,1,0,0:0:0:30:hihat.wav
36,192,308121,1,0,0:0:0:30:hihat.wav
109,192,308121,1,0,0:0:0:30:hihat.wav
182,192,308121,1,0,0:0:0:30:hihat.wav
402,192,308121,1,0,0:0:0:30:hihat.wav
475,192,308121,1,0,0:0:0:30:hihat.wav
36,192,308314,1,0,0:0:0:30:hihat.wav
182,192,308314,1,0,0:0:0:30:hihat.wav
329,192,308314,1,0,0:0:0:30:hihat.wav
475,192,308314,1,0,0:0:0:30:hihat.wav
109,192,308410,5,0,0:0:0:30:hihat.wav
256,192,308410,1,0,0:0:0:30:hihat.wav
402,192,308410,1,0,0:0:0:30:hihat.wav
36,192,308602,1,0,0:0:0:30:hihat.wav
182,192,308602,1,0,0:0:0:30:hihat.wav
329,192,308602,1,0,0:0:0:30:hihat.wav
475,192,308602,1,0,0:0:0:30:hihat.wav
36,192,308698,1,0,0:0:0:30:hihat.wav
182,192,308698,1,0,0:0:0:30:hihat.wav
329,192,308698,1,0,0:0:0:30:hihat.wav
475,192,308698,1,0,0:0:0:30:hihat.wav
256,192,308794,1,0,0:0:0:30:soft-hitnormal.wav
109,192,308891,1,0,0:0:0:30:hihat.wav
182,192,308891,1,0,0:0:0:30:hihat.wav
402,192,308891,1,0,0:0:0:30:hihat.wav
475,192,308891,1,0,0:0:0:30:hihat.wav
109,192,308987,1,0,0:0:0:30:hihat.wav
182,192,308987,1,0,0:0:0:30:hihat.wav
402,192,308987,1,0,0:0:0:30:hihat.wav
475,192,308987,1,0,0:0:0:30:hihat.wav
256,192,309083,1,0,0:0:0:30:soft-hitnormal.wav
36,192,309179,1,0,0:0:0:30:hihat.wav
109,192,309179,1,0,0:0:0:30:hihat.wav
329,192,309179,1,0,0:0:0:30:hihat.wav
402,192,309179,1,0,0:0:0:30:hihat.wav
36,192,309275,1,0,0:0:0:30:hihat.wav
109,192,309275,1,0,0:0:0:30:hihat.wav
329,192,309275,1,0,0:0:0:30:hihat.wav
402,192,309275,1,0,0:0:0:30:hihat.wav
256,192,309371,1,0,0:0:0:30:soft-hitnormal.wav
329,192,309468,1,0,0:0:0:30:hihat.wav
402,192,309468,1,0,0:0:0:30:hihat.wav
475,192,309468,1,0,0:0:0:30:hihat.wav
182,192,309468,1,0,0:0:0:30:hihat.wav
329,192,309564,1,0,0:0:0:30:hihat.wav
402,192,309564,1,0,0:0:0:30:hihat.wav
475,192,309564,1,0,0:0:0:30:hihat.wav
182,192,309564,1,0,0:0:0:30:hihat.wav
256,192,309660,1,0,0:0:0:30:soft-hitnormal.wav
36,192,309756,1,0,0:0:0:30:hihat.wav
109,192,309756,1,0,0:0:0:30:hihat.wav
182,192,309756,1,0,0:0:0:30:hihat.wav
329,192,309756,1,0,0:0:0:30:hihat.wav
36,192,309852,1,0,0:0:0:30:hihat.wav
109,192,309852,1,0,0:0:0:30:hihat.wav
182,192,309852,1,0,0:0:0:30:hihat.wav
329,192,309852,1,0,0:0:0:30:hihat.wav
402,192,309948,1,0,0:0:0:30:soft-hitnormal.wav
109,192,310044,1,0,0:0:0:30:hihat.wav
256,192,310044,1,0,0:0:0:30:hihat.wav
475,192,310044,1,0,0:0:0:30:hihat.wav
36,192,310044,1,0,0:0:0:30:hihat.wav
109,192,310141,1,0,0:0:0:30:hihat.wav
256,192,310141,1,0,0:0:0:30:hihat.wav
475,192,310141,1,0,0:0:0:30:hihat.wav
36,192,310141,1,0,0:0:0:30:hihat.wav
182,192,310237,1,0,0:0:0:30:soft-hitnormal.wav
36,192,310333,1,0,0:0:0:30:hihat.wav
475,192,310333,1,0,0:0:0:30:hihat.wav
256,192,310333,1,0,0:0:0:30:hihat.wav
402,192,310333,1,0,0:0:0:30:hihat.wav
36,192,310429,1,0,0:0:0:30:hihat.wav
475,192,310429,1,0,0:0:0:30:hihat.wav
256,192,310429,1,0,0:0:0:30:hihat.wav
402,192,310429,1,0,0:0:0:30:hihat.wav
329,192,310525,1,0,0:0:0:30:soft-hitnormal.wav
109,192,310621,1,0,0:0:0:30:hihat.wav
36,192,310621,1,0,0:0:0:30:hihat.wav
475,192,310621,1,0,0:0:0:30:hihat.wav
402,192,310621,1,0,0:0:0:30:hihat.wav
36,192,310718,1,0,0:0:0:30:hihat.wav
402,192,310718,1,0,0:0:0:30:hihat.wav
475,192,310718,1,0,0:0:0:30:hihat.wav
109,192,310718,1,0,0:0:0:30:hihat.wav
329,192,310814,1,0,0:0:0:30:soft-hitnormal.wav
256,192,310910,1,0,0:0:0:30:soft-hitnormal.wav
36,192,311006,1,0,0:0:0:30:hihat.wav
109,192,311006,1,0,0:0:0:30:hihat.wav
182,192,311006,1,0,0:0:0:30:hihat.wav
402,192,311006,1,0,0:0:0:30:hihat.wav
475,192,311006,1,0,0:0:0:30:hihat.wav
36,192,311198,1,0,0:0:0:30:hihat.wav
109,192,311198,1,0,0:0:0:30:hihat.wav
329,192,311198,1,0,0:0:0:30:hihat.wav
402,192,311198,1,0,0:0:0:30:hihat.wav
475,192,311198,1,0,0:0:0:30:hihat.wav
36,192,311391,1,0,0:0:0:30:hihat.wav
109,192,311391,1,0,0:0:0:30:hihat.wav
182,192,311391,1,0,0:0:0:30:hihat.wav
329,192,311391,1,0,0:0:0:30:hihat.wav
402,192,311391,1,0,0:0:0:30:hihat.wav
475,192,311391,1,0,0:0:0:30:hihat.wav
36,192,311871,1,0,0:0:0:25:drum.wav
109,192,311871,1,0,0:0:0:25:drum.wav
329,192,311871,1,0,0:0:0:25:drum.wav
109,192,312064,1,0,0:0:0:25:drum.wav
36,192,312064,1,0,0:0:0:25:drum.wav
329,192,312064,1,0,0:0:0:25:drum.wav
402,192,312256,1,0,0:0:0:25:drum.wav
475,192,312256,1,0,0:0:0:25:drum.wav
109,192,312352,1,0,0:0:0:25:drum.wav
182,192,312352,1,0,0:0:0:25:drum.wav
329,192,312448,1,0,0:0:0:25:drum.wav
402,192,312448,1,0,0:0:0:25:drum.wav
36,192,312544,1,0,0:0:0:25:drum.wav
109,192,312544,1,0,0:0:0:25:drum.wav
182,192,312544,1,0,0:0:0:25:drum.wav
256,192,312641,1,0,0:0:0:25:drum.wav
329,192,312641,1,0,0:0:0:25:drum.wav
402,192,312737,1,0,0:0:0:25:drum.wav
475,192,312737,1,0,0:0:0:25:drum.wav
36,192,312833,1,0,0:0:0:25:drum.wav
109,192,312833,1,0,0:0:0:25:drum.wav
329,192,312833,1,0,0:0:0:25:drum.wav
182,192,312929,1,0,0:0:0:25:drum.wav
256,192,312929,1,0,0:0:0:25:drum.wav
329,192,313025,1,0,0:0:0:30:hihat.wav
402,192,313025,1,0,0:0:0:30:hihat.wav
109,192,313089,1,0,0:0:0:30:hihat.wav
182,192,313089,1,0,0:0:0:30:hihat.wav
329,192,313153,1,0,0:0:0:30:hihat.wav
402,192,313153,1,0,0:0:0:30:hihat.wav
36,192,313218,1,0,0:0:0:30:hihat.wav
109,192,313218,1,0,0:0:0:30:hihat.wav
402,192,313282,1,0,0:0:0:30:hihat.wav
475,192,313282,1,0,0:0:0:30:hihat.wav
36,192,313346,1,0,0:0:0:30:hihat.wav
109,192,313346,1,0,0:0:0:30:hihat.wav
402,192,313410,1,0,0:0:0:30:hihat.wav
329,192,313410,1,0,0:0:0:30:hihat.wav
182,192,313474,1,0,0:0:0:30:hihat.wav
109,192,313474,1,0,0:0:0:30:hihat.wav
402,192,313538,1,0,0:0:0:30:hihat.wav
329,192,313538,1,0,0:0:0:30:hihat.wav
36,192,313602,1,0,0:0:0:30:hihat.wav
109,192,313602,1,0,0:0:0:30:hihat.wav
402,192,313666,1,0,0:0:0:30:hihat.wav
475,192,313666,1,0,0:0:0:30:hihat.wav
36,192,313730,1,0,0:0:0:30:hihat.wav
109,192,313730,1,0,0:0:0:30:hihat.wav
329,192,313794,1,0,0:0:0:30:hihat.wav
402,192,313794,1,0,0:0:0:30:hihat.wav
475,192,313794,1,0,0:0:0:30:hihat.wav
36,192,313859,1,0,0:0:0:30:hihat.wav
109,192,313859,1,0,0:0:0:30:hihat.wav
182,192,313859,1,0,0:0:0:30:hihat.wav
329,192,313923,1,0,0:0:0:30:hihat.wav
402,192,313923,1,0,0:0:0:30:hihat.wav
475,192,313923,1,0,0:0:0:30:hihat.wav
36,192,313987,1,0,0:0:0:30:hihat.wav
109,192,313987,1,0,0:0:0:30:hihat.wav
182,192,313987,1,0,0:0:0:30:hihat.wav
329,192,314051,1,0,0:0:0:30:hihat.wav
402,192,314051,1,0,0:0:0:30:hihat.wav
475,192,314051,1,0,0:0:0:30:hihat.wav
182,192,314115,1,0,0:0:0:30:hihat.wav
109,192,314115,1,0,0:0:0:30:hihat.wav
36,192,314115,1,0,0:0:0:30:hihat.wav
329,192,314179,1,0,0:0:0:30:hihat.wav
402,192,314179,1,0,0:0:0:30:hihat.wav
475,192,314179,1,0,0:0:0:30:hihat.wav
109,192,314275,1,0,0:0:0:30:soft-hitnormal.wav
182,192,314275,1,0,0:0:0:30:soft-hitnormal.wav
256,192,314275,1,0,0:0:0:30:soft-hitnormal.wav
36,192,314275,1,0,0:0:0:30:soft-hitnormal.wav
109,192,314564,1,0,0:0:0:30:soft-hitnormal.wav
182,192,314564,1,0,0:0:0:30:soft-hitnormal.wav
329,192,314564,1,0,0:0:0:30:soft-hitnormal.wav
402,192,314564,1,0,0:0:0:30:soft-hitnormal.wav
329,192,314756,1,0,0:0:0:30:soft-hitnormal.wav
402,192,314852,1,0,0:0:0:30:soft-hitnormal.wav
475,192,314948,1,0,0:0:0:30:soft-hitnormal.wav
256,192,314948,1,0,0:0:0:30:soft-hitnormal.wav
402,192,315012,1,0,0:0:0:30:soft-hitnormal.wav
182,192,315012,1,0,0:0:0:30:soft-hitnormal.wav
109,192,315076,1,0,0:0:0:30:soft-hitnormal.wav
329,192,315076,1,0,0:0:0:30:soft-hitnormal.wav
36,192,315141,1,0,0:0:0:30:soft-hitnormal.wav
256,192,315141,1,0,0:0:0:30:soft-hitnormal.wav
182,192,315237,1,0,0:0:0:30:soft-hitnormal.wav
475,192,315237,1,0,0:0:0:30:soft-hitnormal.wav
109,192,315333,1,0,0:0:0:30:hihat.wav
402,192,315333,1,0,0:0:0:30:hihat.wav
36,192,315333,1,0,0:0:0:30:hihat.wav
329,192,315333,1,0,0:0:0:30:hihat.wav
109,192,315621,1,0,0:0:0:30:hihat.wav
402,192,315621,1,0,0:0:0:30:hihat.wav
475,192,315621,1,0,0:0:0:30:hihat.wav
182,192,315621,1,0,0:0:0:30:hihat.wav
36,192,315910,1,0,0:0:0:30:hihat.wav
256,192,315910,1,0,0:0:0:30:hihat.wav
329,192,315910,1,0,0:0:0:30:hihat.wav
475,192,315910,1,0,0:0:0:30:hihat.wav
182,192,315910,1,0,0:0:0:30:hihat.wav
475,192,316294,1,0,0:0:0:30:soft-hitnormal.wav
402,192,316359,1,0,0:0:0:30:soft-hitnormal.wav
329,192,316423,1,0,0:0:0:30:soft-hitnormal.wav
36,192,316487,1,0,0:0:0:30:soft-hitnormal.wav
109,192,316519,1,0,0:0:0:30:soft-hitnormal.wav
182,192,316551,1,0,0:0:0:30:soft-hitnormal.wav
256,192,316583,1,0,0:0:0:30:soft-hitnormal.wav
329,192,316615,1,0,0:0:0:30:soft-hitnormal.wav
402,192,316647,1,0,0:0:0:30:soft-hitnormal.wav
475,192,316679,1,0,0:0:0:30:soft-hitnormal.wav
402,192,316871,1,0,0:0:0:30:soft-hitnormal.wav
36,192,316871,1,0,0:0:0:30:hihat.wav
109,192,316871,1,0,0:0:0:30:hihat.wav
182,192,316871,1,0,0:0:0:30:hihat.wav
329,192,316871,1,0,0:0:0:30:hihat.wav
256,192,316871,1,0,0:0:0:30:hihat.wav
109,192,317160,1,0,0:0:0:20:crash.wav
182,192,317160,1,0,0:0:0:20:crash.wav
256,192,317160,1,0,0:0:0:20:crash.wav
329,192,317160,1,0,0:0:0:20:crash.wav
402,192,317160,1,0,0:0:0:20:crash.wav
475,192,317160,1,0,0:0:0:20:crash.wav
