osu file format v14

[General]
AudioFilename: zenith.mp3
AudioLeadIn: 0
PreviewTime: -1
Countdown: 1
SampleSet: None
StackLeniency: 0.7
Mode: 0
LetterboxInBreaks: 1
WidescreenStoryboard: 0

[Editor]
DistanceSpacing: 0.8
BeatDivisor: 1
GridSize: 32
TimelineZoom: 1

[Metadata]
Title:Blue Zenith
TitleUnicode:Blue Zenith
Artist:xi
ArtistUnicode:xi
Creator:zhighet
Version:STREAM PRACTICE
Source:Fook
Tags:XDD
BeatmapID:769274
BeatmapSetID:348747

[Difficulty]
HPDrainRate:0
CircleSize:3
OverallDifficulty:6
ApproachRate:9
SliderMultiplier:1.4
SliderTickRate:1

[Events]
//Background and Video events
//Break Periods
//Storyboard Layer 0 (Background)
//Storyboard Layer 1 (Fail)
//Storyboard Layer 2 (Pass)
//Storyboard Layer 3 (Foreground)
//Storyboard Sound Samples

[TimingPoints]
0,300,4,1,0,100,1,0

[Colours]
Combo1 : 255,255,255
Combo2 : 255,255,255
Combo3 : 128,255,128
Combo4 : 255,255,255

[HitObjects]
64,64,131400,5,0,0:0:0:0:
64,64,134400,1,0,0:0:0:0:
96,96,138000,1,0,0:0:0:0:
96,96,138900,1,0,0:0:0:0:
96,96,139500,1,0,0:0:0:0:
96,96,139800,1,0,0:0:0:0:
96,96,140100,1,0,0:0:0:0:
96,96,140400,1,0,0:0:0:0:
96,96,140700,1,0,0:0:0:0:
96,96,141000,1,0,0:0:0:0:
96,96,141300,1,0,0:0:0:0:
96,96,141600,1,0,0:0:0:0:
96,96,141900,1,0,0:0:0:0:
96,96,142200,1,0,0:0:0:0:
96,96,142500,1,0,0:0:0:0:
96,96,142800,1,0,0:0:0:0:
96,96,143100,1,0,0:0:0:0:
96,96,143400,1,0,0:0:0:0:
96,96,143700,1,0,0:0:0:0:
96,96,144000,1,0,0:0:0:0:
96,96,144300,1,0,0:0:0:0:
96,96,144600,1,0,0:0:0:0:
96,96,144900,1,0,0:0:0:0:
96,96,145200,1,0,0:0:0:0:
96,96,145500,1,0,0:0:0:0:
96,96,145800,1,0,0:0:0:0:
96,96,146100,1,0,0:0:0:0:
96,96,146400,1,0,0:0:0:0:
96,96,146700,1,0,0:0:0:0:
96,96,147000,1,0,0:0:0:0:
96,96,147300,1,0,0:0:0:0:
96,96,147600,1,0,0:0:0:0:
96,96,147900,1,0,0:0:0:0:
96,96,148200,1,0,0:0:0:0:
96,96,148500,1,0,0:0:0:0:
96,96,148800,1,0,0:0:0:0:
96,96,149100,1,0,0:0:0:0:
96,96,149400,1,0,0:0:0:0:
96,96,149700,1,0,0:0:0:0:
96,96,150000,1,0,0:0:0:0:
96,96,150300,1,0,0:0:0:0:
96,96,150600,1,0,0:0:0:0:
96,96,150900,1,0,0:0:0:0:
96,96,151200,1,0,0:0:0:0:
96,96,152100,1,0,0:0:0:0:
96,96,152400,1,0,0:0:0:0:
96,96,152700,1,0,0:0:0:0:
96,96,153000,1,0,0:0:0:0:
96,96,153300,1,0,0:0:0:0:
96,96,153600,1,0,0:0:0:0:
96,96,153900,1,0,0:0:0:0:
96,96,154200,1,0,0:0:0:0:
96,96,154500,1,0,0:0:0:0:
96,96,154800,1,0,0:0:0:0:
96,96,155100,1,0,0:0:0:0:
96,96,155400,1,0,0:0:0:0:
96,96,155700,1,0,0:0:0:0:
96,96,156000,1,0,0:0:0:0:
96,96,156300,1,0,0:0:0:0:
96,96,156600,1,0,0:0:0:0:
96,96,156900,1,0,0:0:0:0:
96,96,157200,1,0,0:0:0:0:
96,96,157500,1,0,0:0:0:0:
96,96,157800,1,0,0:0:0:0:
96,96,158100,1,0,0:0:0:0:
96,96,158400,1,0,0:0:0:0:
96,96,158700,1,0,0:0:0:0:
96,96,159000,1,0,0:0:0:0:
96,96,159300,1,0,0:0:0:0:
96,96,159600,1,0,0:0:0:0:
96,96,159900,1,0,0:0:0:0:
96,96,160200,1,0,0:0:0:0:
96,96,160500,1,0,0:0:0:0:
96,96,160800,1,0,0:0:0:0:
96,96,161100,1,0,0:0:0:0:
96,96,161400,1,0,0:0:0:0:
96,96,161700,1,0,0:0:0:0:
96,96,162000,1,0,0:0:0:0:
96,96,162300,1,0,0:0:0:0:
96,96,162600,1,0,0:0:0:0:
96,96,162900,1,0,0:0:0:0:
96,96,163200,1,0,0:0:0:0:
96,96,163500,1,0,0:0:0:0:
96,96,163800,1,0,0:0:0:0:
96,96,164100,1,0,0:0:0:0:
96,96,164400,1,0,0:0:0:0:
96,96,164700,1,0,0:0:0:0:
96,96,165000,1,0,0:0:0:0:
96,96,165300,1,0,0:0:0:0:
96,96,165600,1,0,0:0:0:0:
96,96,165900,1,0,0:0:0:0:
96,96,166200,1,0,0:0:0:0:
96,96,166500,1,0,0:0:0:0:
96,96,166800,1,0,0:0:0:0:
96,96,167100,1,0,0:0:0:0:
96,96,167400,1,0,0:0:0:0:
96,96,167700,1,0,0:0:0:0:
96,96,168000,1,0,0:0:0:0:
96,96,168300,1,0,0:0:0:0:
96,96,168600,1,0,0:0:0:0:
96,96,168900,1,0,0:0:0:0:
96,96,169200,1,0,0:0:0:0:
96,96,169500,1,0,0:0:0:0:
96,96,169800,1,0,0:0:0:0:
96,96,170100,1,0,0:0:0:0:
96,96,170400,1,0,0:0:0:0:
96,96,170700,1,0,0:0:0:0:
96,96,171000,1,0,0:0:0:0:
96,96,171300,1,0,0:0:0:0:
96,96,171600,1,0,0:0:0:0:
96,96,171900,1,0,0:0:0:0:
96,96,172200,1,0,0:0:0:0:
96,96,172500,1,0,0:0:0:0:
96,96,172800,1,0,0:0:0:0:
96,96,173100,1,0,0:0:0:0:
96,96,173400,1,0,0:0:0:0:
96,96,173700,1,0,0:0:0:0:
96,96,174000,1,0,0:0:0:0:
96,96,174300,1,0,0:0:0:0:
96,96,174600,1,0,0:0:0:0:
96,96,174900,1,0,0:0:0:0:
96,96,175200,1,0,0:0:0:0:
96,96,175500,1,0,0:0:0:0:
96,96,175800,1,0,0:0:0:0:
96,96,176100,1,0,0:0:0:0:
96,96,176400,1,0,0:0:0:0:
96,96,176700,1,0,0:0:0:0:
96,96,177000,1,0,0:0:0:0:
96,96,177300,1,0,0:0:0:0:
96,96,177600,1,0,0:0:0:0:
96,96,177900,1,0,0:0:0:0:
96,96,178200,1,0,0:0:0:0:
96,96,178500,1,0,0:0:0:0:
96,96,178800,1,0,0:0:0:0:
96,96,179100,1,0,0:0:0:0:
96,96,179400,1,0,0:0:0:0:
96,96,179700,1,0,0:0:0:0:
96,96,180000,1,0,0:0:0:0:
96,96,180300,1,0,0:0:0:0:
96,96,180900,1,0,0:0:0:0:
96,96,181200,1,0,0:0:0:0:
96,96,181500,1,0,0:0:0:0:
96,96,181800,1,0,0:0:0:0:
96,96,182100,1,0,0:0:0:0:
96,96,182400,1,0,0:0:0:0:
96,96,182700,1,0,0:0:0:0:
96,96,183000,1,0,0:0:0:0:
96,96,183300,1,0,0:0:0:0:
96,96,183600,1,0,0:0:0:0:
96,96,183900,1,0,0:0:0:0:
96,96,184200,1,0,0:0:0:0:
96,96,184500,1,0,0:0:0:0:
96,96,184800,1,0,0:0:0:0:
96,96,185100,1,0,0:0:0:0:
96,96,185400,1,0,0:0:0:0:
96,96,185700,1,0,0:0:0:0:
96,96,186000,1,0,0:0:0:0:
96,96,186300,1,0,0:0:0:0:
96,96,186600,1,0,0:0:0:0:
96,96,186900,1,0,0:0:0:0:
96,96,187200,1,0,0:0:0:0:
96,96,187500,1,0,0:0:0:0:
96,96,187800,1,0,0:0:0:0:
96,96,188100,1,0,0:0:0:0:
96,96,188400,1,0,0:0:0:0:
96,96,188700,1,0,0:0:0:0:
96,96,189000,1,0,0:0:0:0:
96,96,189300,1,0,0:0:0:0:
96,96,189600,1,0,0:0:0:0:
96,96,189900,1,0,0:0:0:0:
96,96,190200,1,0,0:0:0:0:
96,96,190500,1,0,0:0:0:0:
96,96,191100,1,0,0:0:0:0:
