osu file format v14

[General]
AudioFilename: zenith.mp3
AudioLeadIn: 0
PreviewTime: 153434
Countdown: 0
SampleSet: Soft
StackLeniency: 0.7
Mode: 0
LetterboxInBreaks: 1
EpilepsyWarning: 1
WidescreenStoryboard: 0

[Editor]
DistanceSpacing: 1.3
BeatDivisor: 4
GridSize: 4
TimelineZoom: 1.2

[Metadata]
Title:Blue Zenith
TitleUnicode:Blue Zenith
Artist:xi
ArtistUnicode:xi
Creator:Asphyxia
Version:Hard
Source:
Tags:parousia ktgster RLC toybot Aka Frey collab collaboration 100sec record
BeatmapID:680920
BeatmapSetID:292301

[Difficulty]
HPDrainRate:5
CircleSize:4
OverallDifficulty:6
ApproachRate:8
SliderMultiplier:1.3
SliderTickRate:1

[Events]
//Background and Video events
0,0,"bg crop.jpg",0,0
//Break Periods
2,172834,176684
//Storyboard Layer 0 (Background)
//Storyboard Layer 1 (Fail)
//Storyboard Layer 2 (Pass)
//Storyboard Layer 3 (Foreground)
//Storyboard Sound Samples

[TimingPoints]
2234,300,4,1,1,60,1,0
7034,-100,4,2,1,80,0,0
74234,-142.857142857143,4,2,1,50,0,0
93434,-100,4,2,1,70,0,0
99584,-100,4,2,1,70,0,0
106484,-100,4,2,1,55,0,0
106634,-100,4,2,1,70,0,0
112634,-100,4,2,1,80,0,0
113234,-100,4,2,1,90,0,0
113834,-100,4,2,1,100,0,0
115034,-100,4,2,1,80,0,0
134534,-100,4,2,1,73,0,0
134834,-100,4,2,1,66,0,0
135134,-100,4,2,1,59,0,0
135434,-100,4,2,1,80,0,0
153434,-100,4,2,1,90,0,1
158159,-100,4,2,1,90,0,0
158234,-100,4,2,1,90,0,1
162734,-100,4,2,1,90,0,0
163034,-100,4,2,1,90,0,1
167759,-100,4,2,1,90,0,0
167834,-100,4,2,1,90,0,1
172634,-100,4,2,1,70,0,0
177434,-100,4,2,1,50,0,0
178634,-100,4,2,1,60,0,0
179834,-100,4,2,1,70,0,0
180434,-100,4,2,1,80,0,0
181034,-100,4,2,1,90,0,0
181634,-100,4,2,1,100,0,0
182234,-100,4,2,1,80,0,0
182834,-100,4,2,1,90,0,0
183434,-100,4,2,1,100,0,0
184634,-100,4,2,1,80,0,0
204134,-100,4,2,1,73,0,0
204434,-100,4,2,1,66,0,0
204734,-100,4,2,1,59,0,0
205034,-100,4,2,1,80,0,0
223034,-100,4,2,1,90,0,1
227759,-100,4,2,1,90,0,0
227834,-100,4,2,1,90,0,1
232334,-100,4,2,1,90,0,0
232634,-100,4,2,1,90,0,1
237359,-100,4,2,1,90,0,0
237434,-100,4,2,1,90,0,1
242234,-100,4,2,1,90,0,0
243434,-100,4,2,1,60,0,0
248234,-100,4,2,1,90,0,0
250634,-100,4,2,1,70,0,0
251234,-100,4,2,1,50,0,0
251834,-100,4,2,1,30,0,0
252434,-100,4,2,1,20,0,0

[Colours]
Combo1 : 0,128,255
Combo2 : 128,128,128
Combo3 : 0,0,255
Combo4 : 192,192,192

[HitObjects]
14,193,2234,6,0,L|155:173,1,130,4|0,0:0|0:0,0:0:0:0:
388,197,2834,2,0,L|247:217,1,130,0|0,0:0|0:0,0:0:0:0:
367,102,3434,2,0,P|426:107|480:166,1,130,0|0,0:0|0:0,0:0:0:0:
285,301,4034,2,0,P|226:296|172:237,1,130,0|0,0:0|0:0,0:0:0:0:
202,136,4634,21,0,0:0:0:0:
138,180,4934,1,0,0:0:0:0:
133,98,5234,1,0,0:0:0:0:
207,217,5534,1,0,0:0:0:0:
197,56,5834,1,0,0:0:0:0:
63,140,6134,1,0,0:0:0:0:
275,176,6434,1,0,0:0:0:0:
126,22,6734,1,0,0:0:0:0:
140,260,7034,22,0,P|105:262|19:207,1,130,2|2,0:0|0:0,0:0:0:0:
372,122,7634,2,0,P|407:120|493:175,1,130,2|2,0:0|0:0,0:0:0:0:
186,256,8234,2,0,P|169:218|193:114,1,130,2|2,0:0|0:0,0:0:0:0:
331,132,8834,2,0,P|346:195|326:256,1,130,2|2,0:0|0:0,0:0:0:0:
118,303,10334,2,0,L|83:294,3,32.5,0|0|0|0,0:0|0:0|0:0|0:0,0:0:0:0:
67,290,10634,22,0,P|80:248|39:162,1,130,0|0,1:0|1:0,0:0:0:0:
126,57,11084,1,0,0:0:0:0:
126,57,11234,2,0,P|113:94|117:133,1,65,0|0,1:0|0:0,0:0:0:0:
175,179,11534,2,0,L|243:171,1,65,0|0,1:0|0:0,0:0:0:0:
308,118,11834,22,0,P|326:165|297:236,1,130,4|0,1:2|1:0,0:0:0:0:
224,279,12284,1,0,0:0:0:0:
297,321,12434,2,0,P|340:312|365:291,2,65,0|0|0,1:0|0:0|1:0,0:0:0:0:
224,279,12884,1,0,0:0:0:0:
153,232,13034,2,0,B|121:219|90:227|90:227|60:237|20:224,1,130,0|0,1:0|1:0,0:0:0:0:
240,123,13634,2,0,B|274:134|304:124|304:124|335:116|367:129,1,130,0|0,1:0|1:0,0:0:0:0:
442,169,14084,1,0,0:0:0:0:
473,247,14234,22,0,L|459:336,1,65,0|0,1:0|0:0,0:0:0:0:
460,330,14459,1,0,0:0:0:0:
456,349,14534,2,0,P|416:359|389:353,1,65,0|0,1:0|0:0,0:0:0:0:
269,301,14834,2,0,P|299:291|331:295,1,65,0|0,1:0|0:0,0:0:0:0:
438,217,15134,2,0,P|405:221|375:211,1,65,0|0,1:0|0:0,0:0:0:0:
323,144,15434,2,0,L|303:10,1,130,0|0,1:0|1:0,0:0:0:0:
189,212,16034,2,0,L|169:340,1,130,0|0,1:0|1:0,0:0:0:0:
98,226,16484,1,0,0:0:0:0:
131,149,16634,38,0,P|186:127|261:168,1,130,6|2,0:0|1:2,0:0:0:0:
510,259,17234,22,0,P|451:284|392:262,1,130,2|0,1:2|1:0,0:0:0:0:
335,199,17684,1,0,0:0:0:0:
285,130,17834,6,0,L|293:90,3,32.5,4|0|0|0,0:0|0:0|0:0|0:0,0:0:0:0:
249,91,18134,2,0,L|241:51,3,32.5,0|0|0|0,1:0|0:0|0:0|0:0,0:0:0:0:
202,70,18434,2,0,L|176:38,3,32.5,0|0|0|0,1:0|0:0|0:0|0:0,0:0:0:0:
143,65,18734,2,0,L|105:49,3,32.5,0|0|0|0,1:0|0:0|0:0|0:0,0:0:0:0:
73,68,19034,22,0,P|60:114|42:140,1,65,4|0,1:2|0:0,0:0:0:0:
135,274,19334,2,0,P|120:245|113:213,1,65,0|0,1:0|0:0,0:0:0:0:
202,70,19634,2,0,P|189:116|171:142,1,65,4|0,1:2|0:0,0:0:0:0:
264,276,19934,2,0,P|249:247|242:215,1,65,0|0,0:0|0:0,0:0:0:0:
281,140,20234,2,0,P|322:115|409:126,1,130,4|4,1:2|1:2,0:0:0:0:
434,200,20684,1,0,0:0:0:0:
434,200,20834,2,0,L|419:276,2,65,4|0|4,1:2|0:0|1:2,0:0:0:0:
509,160,21284,1,0,0:0:0:0:
509,160,21359,1,0,0:0:0:0:
509,160,21434,22,0,L|371:134,1,130,0|0,1:0|1:0,0:0:0:0:
297,123,21884,1,0,0:0:0:0:
261,200,22034,2,0,P|224:214|188:214,1,65,0|0,1:0|0:0,0:0:0:0:
84,132,22334,2,0,P|116:134|146:147,1,65,0|0,1:0|0:0,0:0:0:0:
198,215,22634,2,0,B|207:254|207:254|178:356,2,130,0|0|0,1:0|1:0|1:0,0:0:0:0:
145,146,23384,2,0,L|137:105,2,32.5,0|0|0,0:0|0:0|1:0,0:0:0:0:
229,138,23684,1,0,0:0:0:0:
229,138,23759,1,0,0:0:0:0:
229,138,23834,6,0,L|203:4,1,130,2|2,1:2|1:2,0:0:0:0:
283,244,24434,22,0,L|309:378,1,130,2|2,1:2|1:2,0:0:0:0:
423,199,25034,38,0,P|390:192|335:96,1,130,0|0,1:0|1:0,0:0:0:0:
422,111,25484,1,0,0:0:0:0:
492,238,25634,2,0,P|471:262|431:279,1,65,2|2,1:0|0:1,0:0:0:0:
357,286,25934,2,0,L|281:273,1,65,2|2,1:0|0:1,0:0:0:0:
270,269,26159,1,0,0:0:0:0:
247,264,26234,22,0,P|280:217|275:142,1,130,4|0,1:2|1:0,0:0:0:0:
219,85,26684,1,0,0:0:0:0:
137,106,26834,2,0,P|72:101|21:48,1,130,0|0,1:0|1:0,0:0:0:0:
0,264,27434,2,0,P|47:221|110:216,1,130,0|0,1:0|1:0,0:0:0:0:
185,257,27884,2,0,L|196:294,2,32.5,0|0|0,0:0|0:0|1:0,0:0:0:0:
247,182,28184,1,0,0:0:0:0:
247,182,28259,1,0,0:0:0:0:
247,182,28334,2,0,L|258:145,2,32.5,0|0|0,1:0|0:0|0:0,0:0:0:0:
202,95,28634,6,0,P|243:75|322:111,1,130,2|2,1:2|1:2,0:0:0:0:
353,181,29084,1,2,0:0:0:0:
415,236,29234,22,0,P|359:265|298:246,1,130,2|2,1:2|1:2,0:0:0:0:
237,186,29684,1,2,0:0:0:0:
173,241,29834,38,0,L|152:374,2,130,0|0|0,1:0|1:0|1:0,0:0:0:0:
173,241,30584,1,0,0:0:0:0:
92,213,30734,2,0,L|19:193,1,65,0|0,1:0|0:0,0:0:0:0:
149,153,31034,22,0,P|172:120|261:96,1,130,6|0,1:2|1:0,0:0:0:0:
334,123,31484,1,0,0:0:0:0:
382,191,31634,2,0,B|395:221|395:221|379:328,1,130,0|0,1:0|1:0,0:0:0:0:
129,316,32234,2,0,B|115:220|115:220|128:190,1,130,2|0,1:2|1:0,0:0:0:0:
178,123,32684,1,0,0:0:0:0:
250,79,32834,2,0,L|391:74,1,130,0|0,1:0|1:0,0:0:0:0:
265,199,33434,6,0,L|232:200,2,32.5,8|0|0,1:2|0:0|0:0,0:0:0:0:
228,275,33734,2,0,L|195:276,2,32.5,8|0|0,1:2|0:0|0:0,0:0:0:0:
127,213,34034,22,0,L|94:214,2,32.5,8|0|0,1:2|0:0|0:0,0:0:0:0:
90,289,34334,2,0,L|57:290,2,32.5,0|0|0,1:0|0:0|0:0,0:0:0:0:
160,131,34634,38,0,L|128:-1,1,130,2|2,1:2|1:2,0:0:0:0:
265,15,35084,1,0,0:0:0:0:
265,15,35234,2,0,L|249:78,1,65,2|0,1:2|0:0,0:0:0:0:
297,184,35534,2,0,P|330:184|372:165,1,65,0|0,1:0|0:0,0:0:0:0:
378,160,35759,1,0,0:0:0:0:
394,144,35834,22,0,P|384:183|444:277,2,130,2|0|0,1:2|1:0|1:0,0:0:0:0:
455,84,36584,1,0,0:0:0:0:
455,84,36659,1,0,0:0:0:0:
455,84,36734,2,0,L|502:91,2,32.5,0|0|0,1:0|0:0|0:0,0:0:0:0:
373,63,37034,2,0,B|328:56|328:56|287:64|287:64|234:56,1,130,2|0,1:2|1:0,0:0:0:0:
162,34,37484,1,0,0:0:0:0:
181,116,37634,2,0,P|171:157|152:183,1,65,0|0,1:0|0:0,0:0:0:0:
260,281,37934,2,0,P|243:253|237:221,1,65,0|0,1:0|0:0,0:0:0:0:
322,222,38234,6,0,L|361:233,2,32.5,8|0|0,1:2|0:0|0:0,0:0:0:0:
373,154,38534,2,0,L|404:162,2,32.5,8|0|0,1:2|0:0|0:0,0:0:0:0:
424,86,38834,22,0,L|463:97,2,32.5,8|0|0,1:2|0:0|0:0,0:0:0:0:
476,18,39134,2,0,L|507:26,2,32.5,0|0|0,1:0|0:0|0:0,0:0:0:0:
392,5,39434,38,0,B|352:16|352:16|262:7,1,130,2|2,1:2|1:2,0:0:0:0:
122,100,40034,2,0,L|110:139,3,32.5,2|0|2|0,1:0|0:0|0:1|0:0,0:0:0:0:
138,164,40334,2,0,L|150:203,3,32.5,2|0|2|0,1:0|0:0|0:1|0:0,0:0:0:0:
161,235,40634,2,0,P|120:223|34:263,1,130,2|0,1:2|1:0,0:0:0:0:
32,337,41084,1,0,0:0:0:0:
116,330,41234,2,0,P|178:318|235:348,1,130,0|0,1:0|1:0,0:0:0:0:
338,306,41684,1,0,0:0:0:0:
264,263,41834,22,0,P|248:222|270:136,1,130,2|0,1:2|1:0,0:0:0:0:
332,87,42284,1,0,0:0:0:0:
332,87,42434,2,0,P|291:104|204:91,1,130,0|0,1:0|1:0,0:0:0:0:
137,44,42884,1,0,0:0:0:0:
96,118,43034,6,0,L|81:156,2,32.5,8|0|0,1:2|0:0|0:0,0:0:0:0:
168,162,43334,2,0,L|183:200,2,32.5,8|0|0,1:2|0:0|0:0,0:0:0:0:
109,222,43634,22,0,L|94:260,2,32.5,8|0|0,1:2|0:0|0:0,0:0:0:0:
181,266,43934,2,0,L|196:304,2,32.5,8|0|0,1:2|0:0|0:0,0:0:0:0:
242,207,44234,38,0,P|278:180|370:188,1,130,8|8,1:2|1:2,0:0:0:0:
422,239,44684,1,0,0:0:0:0:
451,159,44834,2,0,L|467:93,2,65,0|0|0,1:0|0:0|1:0,0:0:0:0:
422,239,45284,1,0,0:0:0:0:
488,293,45434,22,0,P|434:324|367:306,1,130,2|0,1:2|1:0,0:0:0:0:
317,242,45884,1,0,0:0:0:0:
317,242,45959,1,0,0:0:0:0:
317,242,46034,2,0,L|253:255,1,65,0|0,1:0|0:0,0:0:0:0:
141,174,46334,2,0,L|205:187,1,65,0|0,1:0|0:0,0:0:0:0:
67,224,46634,2,0,P|53:185|89:101,1,130,0|0,1:0|1:0,0:0:0:0:
165,83,47084,1,0,0:0:0:0:
165,83,47159,1,0,0:0:0:0:
165,83,47234,2,0,L|175:41,3,32.5,2|0|0|0,1:2|0:0|0:0|0:0,0:0:0:0:
215,54,47534,2,0,L|225:12,3,32.5,2|0|0|0,1:2|0:0|0:0|0:0,0:0:0:0:
264,13,47834,22,0,L|336:21,1,65,2|0,1:2|0:0,0:0:0:0:
452,103,48134,2,0,L|387:95,1,65,0|0,1:0|0:0,0:0:0:0:
209,184,48434,2,0,P|254:190|319:156,1,97.5,0|0,1:0|0:0,0:0:0:0:
322,162,48734,2,0,P|310:200|317:237,1,65,0|0,1:0|0:0,0:0:0:0:
363,291,49034,38,0,L|432:302,1,65,8|0,1:2|0:0,0:0:0:0:
279,335,49334,2,0,L|210:346,1,65,8|0,1:2|0:0,0:0:0:0:
110,265,49634,22,0,L|150:275,3,32.5,8|0|0|0,1:2|1:0|1:0|1:0,0:0:0:0:
179,255,49934,2,0,L|219:265,3,32.5,0|0|0|0,1:0|1:0|1:0|1:0,0:0:0:0:
252,256,50234,6,0,P|292:208|299:133,1,130,4|0,1:2|1:0,0:0:0:0:
283,54,50684,1,0,0:0:0:0:
362,82,50834,2,0,P|424:97|485:76,1,130,0|0,1:0|1:0,0:0:0:0:
369,294,51434,2,0,P|316:258|252:256,1,130,2|0,1:2|1:0,0:0:0:0:
179,299,51884,1,0,0:0:0:0:
117,241,52034,2,0,P|102:204|109:170,1,65,0|0,1:0|0:0,0:0:0:0:
200,79,52334,2,0,P|215:116|208:150,1,65,0|0,1:0|0:0,0:0:0:0:
117,241,52634,6,0,L|96:270,2,32.5,2|0|0,1:2|0:0|0:0,0:0:0:0:
167,173,52934,2,0,L|219:227,1,65,0|0,1:0|0:0,0:0:0:0:
293,197,53234,22,0,L|312:170,2,32.5,0|0|0,1:0|0:0|0:0,0:0:0:0:
283,281,53534,2,0,L|236:343,1,65,0|0,1:0|0:0,0:0:0:0:
162,312,53834,38,0,L|142:338,2,32.5,2|0|0,1:2|0:0|0:0,0:0:0:0:
221,241,54134,2,0,L|206:175,1,65,0|0,1:0|0:0,0:0:0:0:
257,86,54434,2,0,L|267:127,3,32.5,2|0|2|0,1:0|0:0|0:1|0:0,0:0:0:0:
306,122,54734,2,0,L|313:153,3,32.5,2|0|2|0,1:0|0:0|0:1|0:0,0:0:0:0:
343,183,55034,22,0,P|378:198|468:191,1,130,2|0,1:2|1:0,0:0:0:0:
511,301,55484,1,0,0:0:0:0:
511,301,55559,1,0,0:0:0:0:
511,301,55634,2,0,P|476:288|443:290,1,65,0|0,1:0|0:0,0:0:0:0:
371,323,55934,2,0,P|336:336|303:334,1,65,0|0,1:0|0:0,0:0:0:0:
282,254,56234,2,0,L|258:382,2,130,2|0|0,1:2|1:0|1:0,0:0:0:0:
360,220,56984,2,0,L|366:189,2,32.5,0|0|0,0:0|0:0|1:0,0:0:0:0:
282,254,57284,1,0,0:0:0:0:
205,289,57434,6,0,B|168:298|168:298|63:283,1,130,2|2,1:2|1:2,0:0:0:0:
307,95,58034,22,0,B|344:86|344:86|449:101,1,130,2|2,1:2|1:2,0:0:0:0:
168,173,58634,38,0,B|175:137|175:137|169:89|169:89|178:41,1,130,2|0,1:2|1:0,0:0:0:0:
344,211,59234,2,0,B|337:247|337:247|343:295|343:295|334:343,1,130,8|8,1:2|1:2,0:0:0:0:
251,350,59684,1,0,0:0:0:0:
202,280,59834,22,0,P|218:252|213:138,1,130,4|0,1:2|1:0,0:0:0:0:
163,94,60284,1,0,0:0:0:0:
163,94,60434,2,0,L|97:73,1,65,0|0,1:0|0:0,0:0:0:0:
250,77,60734,2,0,L|311:57,1,65,0|0,1:0|0:0,0:0:0:0:
395,44,61034,2,0,P|389:94|316:142,1,130,2|0,1:2|1:0,0:0:0:0:
117,340,61634,2,0,P|123:290|196:242,1,130,0|0,1:0|1:0,0:0:0:0:
267,240,62084,1,0,0:0:0:0:
345,271,62234,6,0,L|353:302,2,32.5,2|0|0,1:2|0:0|0:0,0:0:0:0:
427,287,62534,2,0,L|436:318,2,32.5,2|0|0,1:2|0:0|0:0,0:0:0:0:
402,205,62834,22,0,L|410:174,2,32.5,2|0|0,1:2|0:0|0:0,0:0:0:0:
484,189,63134,2,0,L|493:158,2,32.5,2|0|0,1:2|0:0|0:0,0:0:0:0:
402,205,63434,38,0,L|267:182,1,130,2|0,1:2|1:0,0:0:0:0:
38,197,64034,2,0,L|166:218,1,130,2|0,1:2|1:0,0:0:0:0:
248,235,64484,1,0,0:0:0:0:
304,297,64634,38,0,P|271:317|237:318,1,65,2|0,1:2|1:0,0:0:0:0:
336,209,64934,2,0,P|367:213|394:231,1,65,0|0,1:0|1:0,0:0:0:0:
438,303,65234,22,0,L|424:375,1,65,0|0,1:0|1:0,0:0:0:0:
467,195,65534,2,0,L|479:131,1,65,0|0,1:0|1:0,0:0:0:0:
484,108,65759,1,0,0:0:0:0:
490,86,65834,6,0,L|502:22,1,65,2|0,1:2|1:0,0:0:0:0:
381,44,66134,2,0,L|369:108,1,65,0|0,1:0|1:0,0:0:0:0:
246,124,66434,2,0,L|258:60,1,65,0|0,1:0|1:0,0:0:0:0:
137,82,66734,2,0,L|125:146,1,65,0|0,1:0|1:0,0:0:0:0:
136,165,66959,1,0,0:0:0:0:
146,185,67034,6,0,P|173:218|194:227,1,65,2|0,1:2|1:0,0:0:0:0:
335,269,67334,2,0,P|292:264|271:273,1,65,0|0,1:0|1:0,0:0:0:0:
255,288,67559,1,0,0:0:0:0:
241,306,67634,22,0,L|226:369,1,65,0|0,1:0|1:0,0:0:0:0:
335,269,67934,2,0,L|350:206,1,65,0|0,1:0|1:0,0:0:0:0:
358,184,68159,1,0,1:0:0:0:
364,164,68234,38,0,B|408:156|408:156|448:168|448:168|497:163,1,130,2|0,1:2|1:0,0:0:0:0:
358,81,68684,1,0,1:0:0:0:
358,81,68759,1,0,1:0:0:0:
358,81,68834,2,0,B|314:73|314:73|274:85|274:85|225:80,1,130,0|0,1:0|1:0,0:0:0:0:
150,54,69284,1,0,1:0:0:0:
196,192,69434,21,6,1:2:0:0:
256,192,69509,12,0,72134,0:0:0:0:
256,192,72209,12,0,73934,0:0:0:0:
190,277,74234,22,0,P|151:283|171:184,1,181.999994445801,6|2,0:0|0:0,0:0:0:0:
352,186,76034,2,0,L|414:199,2,60.666664815267,2|2|2,0:0|0:0|0:0,0:0:0:0:
278,216,76634,22,0,P|284:145|381:112,1,181.999994445801,2|2,0:0|0:0,0:0:0:0:
273,266,78434,1,2,0:0:0:0:
184,245,79034,21,2,0:0:0:0:
240,173,79634,1,2,0:0:0:0:
126,315,80834,2,0,L|63:324,2,60.666664815267,2|2|2,0:0|0:0|0:0,0:0:0:0:
203,299,81434,22,0,P|224:270|321:271,1,136.499995834351,2|0,0:0|0:0,0:0:0:0:
386,360,82034,2,0,P|321:372|272:328,2,136.499995834351,2|0|2,0:0|0:0|0:0,0:0:0:0:
473,280,83234,1,2,0:0:0:0:
370,221,83534,1,2,0:0:0:0:
267,162,83834,21,6,0:0:0:0:
356,58,85034,1,2,0:0:0:0:
405,134,85634,1,2,0:0:0:0:
314,136,86234,21,2,0:0:0:0:
400,296,87434,2,0,L|491:283,1,90.9999972229005,2|2,0:0|0:0,0:0:0:0:
316,241,88034,2,0,L|253:231,2,60.666664815267,2|2|2,0:0|0:0|0:0,0:0:0:0:
382,198,88634,22,0,P|403:164|345:44,1,181.999994445801,2|2,0:0|0:0,0:0:0:0:
215,28,90134,1,2,0:0:0:0:
137,117,90434,1,2,0:0:0:0:
252,141,90734,1,2,0:0:0:0:
368,162,91034,22,0,P|403:164|364:81,1,181.999994445801,2|2,0:0|0:0,0:0:0:0:
144,222,92234,2,0,P|109:220|148:303,1,181.999994445801,2|2,0:0|0:0,0:0:0:0:
332,135,93434,22,0,P|344:100|339:64,1,65,4|0,0:1|0:0,0:0:0:0:
255,190,93734,2,0,P|253:222|264:252,1,65,0|0,0:0|0:0,0:0:0:0:
335,299,94034,2,0,P|399:302|460:269,1,130,2|0,0:0|0:0,0:0:0:0:
489,194,94484,1,0,0:0:0:0:
150,137,95234,2,0,L|56:123,2,86.6666666666667,2|0|0,0:0|0:0|0:0,0:0:0:0:
260,161,95834,22,0,B|288:240|227:300|227:300|252:275|294:267|325:277|335:300,1,260,2|2,0:0|0:0,0:0:0:0:
397,332,96584,1,0,0:0:0:0:
397,332,96659,1,0,0:0:0:0:
397,332,96734,2,0,L|406:370,3,32.5,0|0|0|0,0:0|0:0|0:0|0:0,0:0:0:0:
441,383,97034,2,0,P|455:321|509:277,1,130,0|0,0:0|0:0,0:0:0:0:
414,215,97484,1,0,0:0:0:0:
414,215,97634,2,0,P|350:217|297:181,1,130,2|0,0:0|1:0,0:0:0:0:
252,109,98084,1,0,1:0:0:0:
207,37,98234,22,0,B|168:24|137:37|137:37|103:50|74:40,1,130,4|0,0:1|0:0,0:0:0:0:
10,159,98684,1,0,0:0:0:0:
10,159,98834,2,0,B|33:167|67:154|67:154|98:141|137:154,1,130,2|0,0:0|0:0,0:0:0:0:
208,199,99284,1,0,0:0:0:0:
208,199,100034,2,0,L|192:286,2,86.6666666666667,2|0|0,0:0|0:0|0:0,0:0:0:0:
300,135,100634,22,0,B|338:112|392:141|392:141|452:173|502:145|477:81|440:88|419:114,1,260,2|2,0:0|0:0,0:0:0:0:
368,215,101384,1,0,0:0:0:0:
368,215,101459,1,0,0:0:0:0:
368,215,101534,2,0,L|377:261,3,32.5,0|0|0|0,0:0|0:0|0:0|0:0,0:0:0:0:
355,284,101834,2,0,L|346:330,3,32.5,0|0|0|0,0:0|0:0|0:0|0:0,0:0:0:0:
338,356,102134,2,0,L|266:337,1,65,2|0,0:1|0:0,0:0:0:0:
129,303,102434,2,0,L|201:284,1,65,2|0,0:1|0:0,0:0:0:0:
271,193,102734,2,0,L|280:115,1,65,2|0,0:1|1:0,0:0:0:0:
281,105,102959,1,0,1:0:0:0:
281,105,103034,21,4,1:0:0:0:
242,362,104234,1,2,0:0:0:0:
160,260,104834,1,2,0:0:0:0:
251,226,105284,21,0,1:0:0:0:
251,226,105434,1,4,1:0:0:0:
251,226,106484,1,0,1:0:0:0:
251,226,106634,1,0,1:0:0:0:
310,175,106934,1,2,0:0:0:0:
236,149,107234,2,0,L|221:56,2,86.6666666666667,2|2|0,0:0|0:0|0:0,0:0:0:0:
258,259,107834,22,0,P|230:289|134:297,1,130,4|0,1:0|0:0,0:0:0:0:
310,175,108434,2,0,P|373:176|422:217,1,130,2|0,0:0|0:0,0:0:0:0:
459,293,108884,1,0,1:0:0:0:
459,293,109034,1,4,1:0:0:0:
290,333,109334,1,0,0:0:0:0:
249,166,109634,1,0,0:0:0:0:
416,124,109934,1,0,0:0:0:0:
333,140,110084,1,0,1:0:0:0:
359,59,110234,22,0,L|351:-8,1,65,4|0,1:0|1:0,0:0:0:0:
308,232,110684,1,0,1:0:0:0:
308,232,110834,2,0,L|315:296,1,65,4|0,1:0|1:0,0:0:0:0:
484,178,111284,1,0,1:0:0:0:
484,178,111434,2,0,L|476:111,1,65,4|0,1:0|1:0,0:0:0:0:
385,41,111734,2,0,L|392:105,1,65,0|0,1:0|1:0,0:0:0:0:
316,142,112034,2,0,B|281:149|281:149|174:132,1,130,0|0,1:0|1:0,0:0:0:0:
23,177,112634,22,0,L|102:190,1,65,4|0,1:0|0:0,0:0:0:0:
129,261,112934,2,0,L|193:271,1,65,0|0,0:0|0:0,0:0:0:0:
240,342,113234,2,0,L|304:352,1,65,0|0,0:0|0:0,0:0:0:0:
295,268,113534,1,0,0:0:0:0:
285,184,113684,1,0,0:0:0:0:
270,100,113834,2,0,B|309:92|309:92|353:100|353:100|401:92,3,130,4|4|4|4,0:0|0:0|0:0|0:0,0:0:0:0:
242,18,115034,22,0,P|208:39|188:126,1,130,4|0,1:2|1:0,0:0:0:0:
249,178,115484,1,0,0:0:0:0:
249,178,115634,2,0,L|116:164,1,130,0|0,1:0|1:0,0:0:0:0:
27,278,116084,1,0,0:0:0:0:
27,278,116159,1,0,0:0:0:0:
27,278,116234,2,0,P|58:258|89:256,1,65,2|0,1:2|0:0,0:0:0:0:
169,261,116534,2,0,P|199:271|220:294,1,65,0|0,1:0|0:0,0:0:0:0:
304,311,116834,2,0,P|330:254|404:226,1,130,0|0,1:0|1:0,0:0:0:0:
473,235,117284,1,0,0:0:0:0:
440,157,117434,22,0,B|436:134|436:134|446:86,1,65,2|0,1:2|0:0,0:0:0:0:
366,0,117734,2,0,B|365:41|365:41|357:62,1,65,0|0,1:0|0:0,0:0:0:0:
283,103,118034,2,0,L|142:70,1,130,0|0,1:0|1:0,0:0:0:0:
27,242,118634,2,0,P|82:205|144:217,1,130,2|0,1:2|1:0,0:0:0:0:
207,270,119084,1,0,0:0:0:0:
265,208,119234,2,0,L|248:142,1,65,0|0,1:0|0:0,0:0:0:0:
242,123,119459,1,0,0:0:0:0:
229,103,119534,2,0,L|156:93,1,65,0|0,1:0|0:0,0:0:0:0:
331,129,119834,22,0,P|386:166|448:154,1,130,2|0,1:2|1:0,0:0:0:0:
402,85,120284,1,0,0:0:0:0:
327,44,120434,2,0,L|186:23,1,130,0|0,1:0|1:0,0:0:0:0:
109,168,121034,2,0,L|176:159,2,65,2|0|0,1:2|0:0|1:0,0:0:0:0:
74,245,121484,1,0,0:0:0:0:
74,245,121634,2,0,L|9:253,2,65,0|0|0,1:0|0:0|1:0,0:0:0:0:
160,236,122084,1,0,0:0:0:0:
160,236,122234,22,0,B|201:227|201:227|241:239|241:239|295:230,2,130,2|0|0,1:2|1:0|1:0,0:0:0:0:
28,127,123134,2,0,L|46:54,1,65,0|0,1:0|0:0,0:0:0:0:
58,46,123359,1,0,0:0:0:0:
73,29,123434,2,0,P|114:16|208:23,1,130,2|0,1:2|1:0,0:0:0:0:
327,104,123884,1,0,0:0:0:0:
327,104,124034,2,0,P|262:111|200:95,1,130,0|0,1:0|1:0,0:0:0:0:
137,152,124484,1,0,0:0:0:0:
137,152,124634,22,0,P|142:194|132:225,1,65,2|0,1:2|0:0,0:0:0:0:
87,284,124934,2,0,L|23:296,1,65,0|0,1:0|0:0,0:0:0:0:
177,298,125234,2,0,P|239:281|303:289,1,130,0|0,1:0|1:0,0:0:0:0:
368,343,125684,1,0,0:0:0:0:
423,280,125834,2,0,L|444:204,1,65,2|0,1:2|0:0,0:0:0:0:
335,119,126134,2,0,L|352:181,1,65,0|0,1:0|0:0,0:0:0:0:
408,78,126434,2,0,B|372:87|344:74|344:74|313:60|272:73,1,130,0|0,1:0|1:0,0:0:0:0:
219,128,126884,1,0,0:0:0:0:
176,201,127034,22,0,L|191:334,2,130,2|0|0,1:2|1:0|1:0,0:0:0:0:
102,159,127784,2,0,L|64:149,2,32.5,0|0|0,0:0|0:0|1:0,0:0:0:0:
141,84,128084,1,0,0:0:0:0:
141,84,128159,1,0,0:0:0:0:
141,84,128234,2,0,L|72:64,1,65,2|0,1:2|0:0,0:0:0:0:
176,201,128534,2,0,L|245:181,1,65,0|0,1:0|0:0,0:0:0:0:
316,150,128834,2,0,P|321:196|270:262,1,130,0|0,1:0|1:0,0:0:0:0:
193,288,129284,1,0,0:0:0:0:
193,288,129434,22,0,L|48:263,1,130,2|0,1:2|1:0,0:0:0:0:
319,96,130034,2,0,L|464:121,1,130,0|0,1:0|1:0,0:0:0:0:
279,175,130484,1,0,0:0:0:0:
279,175,130634,2,0,P|243:138|245:45,1,130,2|0,1:2|1:0,0:0:0:0:
368,172,131084,1,0,0:0:0:0:
368,172,131234,2,0,P|404:209|402:302,1,130,0|0,1:0|1:0,0:0:0:0:
350,343,131684,1,0,0:0:0:0:
350,343,131759,1,0,0:0:0:0:
350,343,131834,22,0,L|279:331,1,65,2|0,1:2|1:0,0:0:0:0:
445,364,132134,2,0,L|516:352,1,65,0|0,1:0|1:0,0:0:0:0:
352,251,132434,2,0,L|281:239,1,65,0|0,1:0|1:0,0:0:0:0:
447,272,132734,2,0,L|518:260,1,65,0|0,1:0|1:0,0:0:0:0:
478,182,133034,2,0,L|442:190,3,32.5,2|0|0|0,1:2|0:0|1:0|0:0,0:0:0:0:
413,161,133334,2,0,L|377:169,3,32.5,0|0|0|0,1:0|0:0|1:0|0:0,0:0:0:0:
342,149,133634,2,0,L|306:157,3,32.5,0|0|0|0,1:0|0:0|1:0|0:0,0:0:0:0:
270,139,133934,2,0,L|234:147,3,32.5,0|0|0|0,1:0|0:0|1:0|0:0,0:0:0:0:
198,162,134234,22,0,L|182:236,1,65,14|0,1:2|0:0,0:0:0:0:
246,327,134534,2,0,L|259:263,1,65,8|0,1:2|0:0,0:0:0:0:
342,149,134834,2,0,L|326:223,1,65,8|0,1:2|0:0,0:0:0:0:
390,314,135134,2,0,L|403:250,1,65,8|0,1:2|0:0,0:0:0:0:
461,123,135434,2,0,P|405:154|342:149,1,130,2|0,1:2|1:0,0:0:0:0:
271,100,135884,1,0,0:0:0:0:
271,100,136034,2,0,L|253:234,1,130,0|0,1:0|1:0,0:0:0:0:
145,358,136634,22,0,L|127:229,1,130,2|0,1:2|1:0,0:0:0:0:
112,146,137084,1,0,0:0:0:0:
177,92,137234,2,0,P|195:64|202:26,2,65,0|0|0,1:0|0:0|1:0,0:0:0:0:
112,146,137684,1,0,0:0:0:0:
182,192,137834,2,0,L|52:203,2,130,2|0|0,1:2|1:0|1:0,0:0:0:0:
266,182,138584,5,0,0:0:0:0:
309,254,138734,2,0,P|273:266|244:264,1,65,0|0,1:0|0:0,0:0:0:0:
353,178,139034,6,0,P|392:229|378:306,2,130,2|0|0,1:2|1:0|1:0,0:0:0:0:
266,182,139784,1,0,0:0:0:0:
181,188,139934,2,0,L|111:175,1,65,0|0,1:0|0:0,0:0:0:0:
33,160,140234,2,0,P|51:119|81:100,1,65,2|0,1:2|0:0,0:0:0:0:
148,88,140534,2,0,L|211:99,1,65,0|0,1:0|0:0,0:0:0:0:
295,83,140834,2,0,P|277:42|247:23,1,65,0|0,1:0|0:0,0:0:0:0:
211,99,141134,1,0,1:0:0:0:
263,164,141284,1,0,0:0:0:0:
321,225,141434,22,0,L|305:359,2,130,2|0|0,1:2|1:0|1:0,0:0:0:0:
263,164,142184,1,0,0:0:0:0:
224,239,142334,2,0,L|215:312,1,65,0|0,1:0|0:0,0:0:0:0:
213,326,142559,1,0,0:0:0:0:
208,348,142634,2,0,P|175:364|132:363,1,65,2|0,1:2|0:0,0:0:0:0:
305,311,142934,2,0,L|445:330,1,130,0|0,1:0|1:0,0:0:0:0:
328,220,143384,5,0,0:0:0:0:
328,220,143534,2,0,L|260:212,1,65,0|0,1:0|0:0,0:0:0:0:
180,195,143834,6,0,L|51:177,2,130,2|0|2,1:2|1:0|1:2,0:0:0:0:
243,252,144584,1,0,0:0:0:0:
243,252,144659,1,0,0:0:0:0:
243,252,144734,2,0,P|264:217|266:188,1,65,0|0,1:0|0:0,0:0:0:0:
220,119,145034,2,0,P|281:107|339:146,1,130,2|0,1:2|1:0,0:0:0:0:
375,216,145484,1,0,0:0:0:0:
435,157,145634,2,0,P|454:114|441:29,1,130,2|0,1:2|1:0,0:0:0:0:
362,6,146084,1,0,0:0:0:0:
362,6,146159,1,0,0:0:0:0:
362,6,146234,22,0,L|292:14,1,65,2|0,1:2|0:0,0:0:0:0:
238,74,146534,2,0,L|168:82,1,65,0|0,1:0|0:0,0:0:0:0:
76,173,146834,2,0,L|204:157,1,130,0|0,1:0|1:0,0:0:0:0:
288,145,147284,1,0,0:0:0:0:
372,136,147434,2,0,L|381:175,3,32.5,2|0|0|0,1:2|0:0|0:0|0:0,0:0:0:0:
410,196,147734,2,0,L|401:235,3,32.5,0|0|0|0,1:0|0:0|0:0|0:0,0:0:0:0:
430,260,148034,6,0,L|439:299,3,32.5,0|0|0|0,1:0|0:0|0:0|0:0,0:0:0:0:
468,320,148334,2,0,L|459:359,3,32.5,0|0|0|0,1:0|0:0|0:0|0:0,0:0:0:0:
422,370,148634,6,0,L|351:359,1,65,6|0,1:2|1:0,0:0:0:0:
274,345,148934,2,0,L|203:334,1,65,0|0,1:0|1:0,0:0:0:0:
77,274,149234,2,0,L|148:263,1,65,0|0,1:0|1:0,0:0:0:0:
225,249,149534,2,0,L|296:238,1,65,0|0,1:0|1:0,0:0:0:0:
311,234,149759,1,0,0:0:0:0:
333,230,149834,2,0,L|359:163,1,65,6|0,1:2|1:0,0:0:0:0:
301,52,150134,2,0,L|277:112,1,65,0|0,1:0|1:0,0:0:0:0:
167,180,150434,2,0,L|193:113,1,65,0|0,1:0|1:0,0:0:0:0:
135,2,150734,2,0,L|111:62,1,65,0|0,1:0|1:0,0:0:0:0:
102,83,150959,1,0,0:0:0:0:
92,103,151034,22,0,L|23:117,2,65,6|0|0,1:2|1:0|1:0,0:0:0:0:
167,180,151484,1,0,1:0:0:0:
167,180,151634,2,0,L|236:194,2,65,6|0|0,1:2|1:0|1:0,0:0:0:0:
52,202,152084,1,0,1:0:0:0:
52,202,152159,1,0,0:0:0:0:
52,202,152234,2,0,P|76:238|51:325,1,130,6|6,1:2|1:2,0:0:0:0:
184,374,152684,1,0,1:0:0:0:
184,374,152834,2,0,P|169:341|174:305,1,65,6|0,1:2|1:0,0:0:0:0:
221,245,153134,2,0,L|298:233,1,65,6|0,1:2|0:0,0:0:0:0:
369,220,153434,38,0,P|350:177|270:149,1,130,6|0,1:0|1:0,0:0:0:0:
192,161,153884,1,0,0:0:0:0:
192,161,154034,2,0,L|56:140,1,130,2|0,1:0|1:0,0:0:0:0:
0,292,154634,2,0,L|136:271,1,130,2|0,1:0|1:0,0:0:0:0:
209,248,155084,1,2,0:0:0:0:
289,222,155234,2,0,P|300:190|295:117,2,97.5,2|2|2,1:0|0:1|0:0,0:0:0:0:
209,248,155834,22,0,P|230:285|328:299,1,130,2|0,1:0|1:0,0:0:0:0:
380,258,156284,1,2,0:0:0:0:
380,258,156434,2,0,P|354:292|366:380,1,130,2|0,1:0|1:0,0:0:0:0:
434,326,156884,1,2,0:0:0:0:
434,326,156959,1,0,0:0:0:0:
434,326,157034,2,0,L|503:312,1,65,2|2,1:0|0:0,0:0:0:0:
380,258,157334,2,0,L|311:244,1,65,2|2,1:0|0:0,0:0:0:0:
474,181,157634,2,0,B|437:191|437:191|337:169,1,130,2|2,1:0|1:0,0:0:0:0:
267,144,158084,1,2,0:0:0:0:
229,219,158234,22,0,L|195:349,1,130,2|0,1:0|1:0,0:0:0:0:
114,368,158684,1,0,0:0:0:0:
30,358,158834,2,0,P|45:319|134:285,1,130,2|0,1:0|1:0,0:0:0:0:
315,216,159434,2,0,L|170:194,1,130,2|0,1:0|0:0,0:0:0:0:
103,178,159884,1,2,0:0:0:0:
30,134,160034,2,0,P|60:104|130:96,2,97.5,2|2|2,1:0|0:1|0:0,0:0:0:0:
23,218,160634,22,0,B|48:317|48:317|41:349,1,130,2|0,1:0|1:0,0:0:0:0:
125,362,161084,1,2,0:0:0:0:
186,303,161234,2,0,P|217:286|321:294,1,130,2|0,1:0|1:0,0:0:0:0:
462,217,161834,2,0,P|398:226|338:202,1,130,2|2,1:0|1:0,0:0:0:0:
286,136,162284,1,2,0:0:0:0:
286,136,162434,2,0,L|268:68,1,65,2|2,1:0|0:0,0:0:0:0:
202,174,162734,6,0,L|185:236,1,65,2|2,1:0|0:0,0:0:0:0:
180,259,162959,1,0,0:0:0:0:
172,280,163034,6,0,P|123:308|49:292,1,130,6|2,1:0|1:0,0:0:0:0:
105,226,163484,1,0,0:0:0:0:
184,196,163634,2,0,P|228:194|289:120,1,130,2|0,1:0|1:0,0:0:0:0:
392,267,164234,2,0,P|436:269|497:343,1,130,2|0,1:0|1:0,0:0:0:0:
412,352,164684,1,2,0:0:0:0:
412,352,164759,1,0,0:0:0:0:
412,352,164834,2,0,L|337:341,1,65,2|0,1:0|0:0,0:0:0:0:
211,298,165134,2,0,L|286:287,1,65,2|2,1:2|0:0,0:0:0:0:
297,283,165359,1,0,0:0:0:0:
319,278,165434,22,0,L|301:145,1,130,2|0,1:0|1:0,0:0:0:0:
362,87,165884,1,2,0:0:0:0:
362,87,166034,2,0,P|330:66|244:84,1,130,2|0,1:0|1:0,0:0:0:0:
184,143,166484,1,2,0:0:0:0:
184,143,166559,1,0,0:0:0:0:
184,143,166634,2,0,L|110:129,1,65,2|2,1:0|0:0,0:0:0:0:
137,214,166934,2,0,P|202:226|255:188,2,130,2|2|2,1:0|1:0|1:0,0:0:0:0:
58,183,167684,1,2,0:0:0:0:
53,267,167834,22,0,L|34:343,1,65,6|0,1:2|1:0,0:0:0:0:
153,383,168134,2,0,L|137:319,1,65,0|0,1:0|1:0,0:0:0:0:
225,226,168434,2,0,L|206:302,1,65,2|0,1:2|1:0,0:0:0:0:
325,342,168734,2,0,L|309:278,1,65,0|0,1:0|1:0,0:0:0:0:
319,258,168959,1,0,0:0:0:0:
328,237,169034,2,0,L|352:176,1,65,6|0,1:2|1:0,0:0:0:0:
382,50,169334,2,0,L|406:111,1,65,0|0,1:0|1:0,0:0:0:0:
442,187,169634,2,0,L|415:250,1,65,2|0,1:2|1:0,0:0:0:0:
252,192,169934,2,0,L|276:131,1,65,2|0,1:2|1:0,0:0:0:0:
268,109,170159,1,0,0:0:0:0:
255,89,170234,22,0,L|137:72,2,97.5,6|0|4,1:2|0:0|1:2,0:0:0:0:
310,254,170834,2,0,L|428:237,2,97.5,6|4|4,1:2|1:2|1:2,0:0:0:0:
226,265,171434,2,0,P|183:260|156:248,1,65,6|0,1:2|0:0,0:0:0:0:
27,205,171734,2,0,P|57:194|89:191,1,65,6|0,1:2|0:0,0:0:0:0:
75,275,172034,2,0,L|66:310,3,32.5,6|0|2|0,1:2|0:0|0:0|0:0,0:0:0:0:
107,319,172334,2,0,L|116:354,3,32.5,6|0|2|0,1:2|0:0|0:0|0:0,0:0:0:0:
149,375,172634,21,6,1:2:0:0:
320,187,177434,38,0,B|285:208|245:192|245:192|213:179|156:154|110:192|107:238|109:259,2,260,2|2|0,0:0|0:0|0:0,0:0:0:0:
440,68,178934,1,2,0:0:0:0:
508,222,179234,1,2,0:0:0:0:
370,320,179534,1,2,0:0:0:0:
309,162,179834,22,0,P|278:121|280:222,1,260,2|2,0:0|0:0,0:0:0:0:
121,254,180734,1,0,0:0:0:0:
121,254,181034,2,0,P|168:345|68:320,1,260,2|2,0:0|0:0,0:0:0:0:
41,239,181784,1,0,0:0:0:0:
41,239,181859,1,0,0:0:0:0:
41,239,181934,2,0,L|27:197,3,32.5,0|0|0|0,0:0|0:0|0:0|0:0,0:0:0:0:
58,175,182234,22,0,L|79:105,1,65,4|0,1:0|0:0,0:0:0:0:
159,133,182534,2,0,L|180:63,1,65,0|0,0:0|0:0,0:0:0:0:
260,88,182834,2,0,L|281:18,1,65,0|0,0:0|0:0,0:0:0:0:
363,16,183134,1,0,0:0:0:0:
415,84,183284,1,0,0:0:0:0:
350,139,183434,2,0,B|338:182|338:182|311:209|311:209|298:255,3,130,4|4|4|4,0:0|0:0|0:0|0:0,0:0:0:0:
170,364,184634,22,0,B|140:331|99:335|99:335|45:342,1,130,6|0,1:2|1:0,0:0:0:0:
7,271,185084,1,0,0:0:0:0:
7,271,185234,2,0,L|81:262,1,65,0|0,1:0|0:0,0:0:0:0:
101,184,185534,2,0,L|36:191,1,65,0|0,1:0|0:0,0:0:0:0:
62,111,185834,2,0,L|191:95,1,130,2|0,1:2|1:0,0:0:0:0:
274,80,186284,1,0,0:0:0:0:
247,160,186434,2,0,P|238:194|243:228,1,65,0|0,1:0|0:0,0:0:0:0:
291,292,186734,2,0,P|318:313|352:322,1,65,0|0,1:0|0:0,0:0:0:0:
369,316,186959,1,0,0:0:0:0:
390,309,187034,22,0,P|421:293|516:315,2,130,2|0|0,1:2|1:0|1:0,0:0:0:0:
312,341,187784,1,0,0:0:0:0:
237,301,187934,2,0,P|216:267|214:228,1,65,0|0,1:0|0:0,0:0:0:0:
220,158,188234,2,0,P|242:130|243:17,1,130,2|0,1:2|1:0,0:0:0:0:
176,1,188684,1,0,0:0:0:0:
102,42,188834,2,0,L|25:27,1,65,0|0,1:0|0:0,0:0:0:0:
0,146,189134,2,0,L|77:131,1,65,0|0,1:0|0:0,0:0:0:0:
85,128,189359,1,0,0:0:0:0:
107,123,189434,22,0,L|69:279,1,130,2|0,1:2|1:0,0:0:0:0:
47,329,189884,1,0,0:0:0:0:
122,366,190034,2,0,P|158:365|185:353,1,65,0|0,1:0|0:0,0:0:0:0:
253,303,190334,2,0,P|289:304|316:316,1,65,0|0,1:0|0:0,0:0:0:0:
387,360,190634,2,0,P|449:360|499:311,1,130,2|0,1:2|1:0,0:0:0:0:
421,284,191084,1,0,0:0:0:0:
421,284,191159,1,0,0:0:0:0:
421,284,191234,2,0,L|351:272,1,65,0|0,1:0|0:0,0:0:0:0:
330,192,191534,2,0,L|394:202,1,65,0|0,1:0|0:0,0:0:0:0:
478,209,191834,22,0,P|459:150|389:121,1,130,2|0,1:2|1:0,0:0:0:0:
317,107,192284,1,0,0:0:0:0:
242,146,192434,2,0,L|173:134,1,65,0|0,1:0|0:0,0:0:0:0:
72,223,192734,2,0,L|141:211,1,65,0|0,1:0|0:0,0:0:0:0:
176,286,193034,2,0,L|40:311,2,130,2|0|0,1:2|1:0|1:0,0:0:0:0:
256,259,193784,1,0,0:0:0:0:
336,232,193934,2,0,L|407:243,1,65,0|0,1:0|0:0,0:0:0:0:
422,245,194159,1,0,0:0:0:0:
444,248,194234,22,0,P|474:210|470:130,1,130,2|0,1:2|1:0,0:0:0:0:
408,74,194684,1,0,0:0:0:0:
324,88,194834,2,0,P|294:126|298:206,1,130,0|0,1:0|1:0,0:0:0:0:
355,265,195284,1,0,0:0:0:0:
292,321,195434,2,0,B|259:331|259:331|157:322,2,130,2|0|0,1:2|1:0|1:0,0:0:0:0:
355,265,196184,1,0,2:0:0:0:
274,238,196334,2,0,P|259:206|265:166,1,65,0|0,1:0|2:0,0:0:0:0:
310,108,196634,22,0,P|279:134|187:133,1,130,2|0,1:2|1:0,0:0:0:0:
133,75,197084,1,0,0:0:0:0:
133,75,197234,2,0,L|114:8,1,65,0|0,1:0|0:0,0:0:0:0:
117,163,197534,2,0,L|99:225,1,65,0|0,1:0|0:0,0:0:0:0:
172,265,197834,2,0,P|124:306|61:301,1,130,2|0,1:2|1:0,0:0:0:0:
339,265,198434,2,0,P|387:306|451:301,1,130,0|0,1:0|1:0,0:0:0:0:
412,225,198884,1,0,0:0:0:0:
339,181,199034,22,0,L|316:320,2,130,2|0|0,1:2|1:0|1:0,0:0:0:0:
362,99,199784,1,0,0:0:0:0:
280,121,199934,2,0,L|211:110,1,65,0|0,1:0|0:0,0:0:0:0:
193,106,200159,1,0,0:0:0:0:
170,100,200234,2,0,L|182:34,2,65,2|0|0,1:2|0:0|1:0,0:0:0:0:
106,156,200684,1,0,0:0:0:0:
106,156,200834,2,0,L|94:219,2,65,0|0|0,1:0|0:0|1:0,0:0:0:0:
73,77,201284,1,0,0:0:0:0:
73,77,201434,22,0,L|7:89,1,65,2|0,1:2|1:0,0:0:0:0:
106,156,201734,2,0,L|169:144,1,65,0|0,1:0|1:0,0:0:0:0:
271,206,202034,2,0,L|205:218,1,65,0|0,1:0|1:0,0:0:0:0:
304,285,202334,2,0,L|367:273,1,65,0|0,1:0|1:0,0:0:0:0:
384,257,202559,1,0,0:0:0:0:
398,239,202634,2,0,L|380:171,1,65,2|0,1:2|1:0,0:0:0:0:
298,160,202934,2,0,L|280:92,1,65,0|0,1:0|1:0,0:0:0:0:
206,235,203234,2,0,L|188:167,1,65,0|0,1:0|1:0,0:0:0:0:
106,156,203534,2,0,L|88:88,1,65,0|0,1:0|1:0,0:0:0:0:
82,71,203759,1,0,0:0:0:0:
75,49,203834,22,0,P|117:29|204:38,2,130,8|8|8,1:2|1:2|1:2,0:0:0:0:
26,118,204584,1,0,0:0:0:0:
26,118,204734,2,0,L|11:184,1,65,8|0,1:2|0:0,0:0:0:0:
63,249,205034,2,0,P|122:272|186:262,1,130,2|0,1:2|1:0,0:0:0:0:
256,214,205484,1,0,0:0:0:0:
256,214,205559,1,0,0:0:0:0:
256,214,205634,2,0,L|269:283,1,65,0|0,1:0|0:0,0:0:0:0:
350,259,205934,2,0,L|337:195,1,65,0|0,1:0|0:0,0:0:0:0:
418,170,206234,22,0,L|443:306,2,130,2|0|0,1:2|1:0|1:0,0:0:0:0:
403,86,206984,1,0,0:0:0:0:
327,123,207134,2,0,P|295:130|260:127,1,65,0|0,1:0|0:0,0:0:0:0:
240,122,207359,1,0,0:0:0:0:
219,112,207434,2,0,P|191:94|168:67,1,65,2|0,1:2|0:0,0:0:0:0:
106,156,207734,2,0,P|97:187|80:214,1,65,0|0,1:0|0:0,0:0:0:0:
226,284,208034,38,0,P|209:256|200:225,1,65,0|0,1:0|0:0,0:0:0:0:
335,315,208334,2,0,P|326:346|309:373,1,65,0|0,1:0|0:0,0:0:0:0:
286,373,208559,1,0,0:0:0:0:
263,373,208634,38,0,L|126:358,1,130,2|0,1:2|1:0,0:0:0:0:
12,258,209084,1,0,0:0:0:0:
12,258,209234,2,0,L|141:272,1,130,0|0,1:0|1:0,0:0:0:0:
226,284,209684,1,0,0:0:0:0:
191,206,209834,2,0,L|182:171,3,32.5,2|0|0|0,1:2|0:0|0:0|0:0,0:0:0:0:
142,161,210134,2,0,L|151:126,3,32.5,0|0|0|0,1:0|0:0|0:0|0:0,0:0:0:0:
169,91,210434,2,0,L|160:56,3,32.5,0|0|0|0,1:0|0:0|0:0|0:0,0:0:0:0:
120,46,210734,2,0,L|129:11,3,32.5,0|0|0|0,1:0|0:0|0:0|0:0,0:0:0:0:
169,4,211034,22,0,P|207:16|304:8,1,130,2|0,1:2|1:0,0:0:0:0:
411,101,211484,1,0,0:0:0:0:
411,101,211634,2,0,P|348:85|284:94,1,130,0|0,1:0|1:0,0:0:0:0:
214,143,212084,1,0,0:0:0:0:
214,143,212234,2,0,L|196:222,1,65,2|0,1:2|0:0,0:0:0:0:
274,283,212534,2,0,L|288:219,1,65,0|0,1:0|0:0,0:0:0:0:
341,341,212834,38,0,P|284:369|221:353,1,130,0|0,1:0|1:0,0:0:0:0:
166,289,213284,1,0,0:0:0:0:
166,289,213359,1,0,0:0:0:0:
166,289,213434,38,0,L|28:308,1,130,2|0,1:2|1:0,0:0:0:0:
162,203,213884,1,0,0:0:0:0:
162,203,214034,2,0,L|290:185,1,130,2|0,1:2|1:0,0:0:0:0:
168,113,214484,1,0,0:0:0:0:
168,113,214634,2,0,L|39:130,1,130,2|0,1:2|1:0,0:0:0:0:
168,32,215084,1,0,0:0:0:0:
168,32,215234,2,0,L|296:14,1,130,2|0,1:2|1:0,0:0:0:0:
375,46,215684,1,0,0:0:0:0:
352,127,215834,22,0,P|315:144|280:146,1,65,2|0,1:2|0:0,0:0:0:0:
152,181,216134,2,0,P|183:185|212:200,1,65,0|0,1:0|0:0,0:0:0:0:
379,228,216434,2,0,P|342:245|307:247,1,65,0|0,1:0|0:0,0:0:0:0:
179,282,216734,2,0,P|210:286|239:301,1,65,0|0,1:0|0:0,0:0:0:0:
254,319,216959,1,0,0:0:0:0:
264,339,217034,2,0,L|255:371,3,32.5,2|0|0|0,1:2|0:0|0:0|0:0,0:0:0:0:
306,338,217334,2,0,L|315:370,3,32.5,0|0|0|0,1:0|0:0|0:0|0:0,0:0:0:0:
342,315,217634,38,0,L|367:336,3,32.5,0|0|0|0,1:0|0:0|0:0|0:0,0:0:0:0:
358,276,217934,2,0,L|390:281,3,32.5,0|0|0|0,1:0|0:0|0:0|0:0,0:0:0:0:
348,240,218234,38,0,L|326:171,1,65,6|0,1:2|1:0,0:0:0:0:
290,63,218534,2,0,L|270:124,1,65,0|0,1:0|1:0,0:0:0:0:
245,263,218834,2,0,L|223:194,1,65,0|0,1:0|1:0,0:0:0:0:
187,86,219134,2,0,L|167:147,1,65,0|0,1:0|1:0,0:0:0:0:
149,161,219359,1,0,0:0:0:0:
131,175,219434,2,0,B|98:184|98:184|59:184,1,65,6|0,1:2|1:0,0:0:0:0:
181,254,219734,2,0,B|211:254|211:254|244:263,1,65,0|0,1:0|1:0,0:0:0:0:
343,160,220034,2,0,B|310:169|310:169|271:169,1,65,0|0,1:0|1:0,0:0:0:0:
393,239,220334,2,0,B|423:239|423:239|456:248,1,65,0|0,1:0|1:0,0:0:0:0:
473,263,220559,1,0,0:0:0:0:
483,283,220634,22,0,L|474:352,2,65,6|0|0,1:2|1:0|1:0,0:0:0:0:
437,157,221084,1,0,1:0:0:0:
437,157,221234,2,0,L|445:92,2,65,6|0|0,1:2|1:0|1:0,0:0:0:0:
312,221,221684,1,0,1:0:0:0:
312,221,221759,1,0,0:0:0:0:
312,221,221834,2,0,P|276:232|176:215,1,130,6|6,1:2|1:2,0:0:0:0:
61,299,222284,1,0,1:0:0:0:
61,299,222434,2,0,P|94:285|128:287,1,65,6|0,1:2|1:0,0:0:0:0:
200,320,222734,2,0,L|219:385,1,65,6|0,1:2|0:0,0:0:0:0:
356,287,223034,6,0,P|297:299|241:257,1,130,6|0,1:0|1:0,0:0:0:0:
209,183,223484,1,0,0:0:0:0:
209,183,223634,2,0,L|70:198,1,130,2|0,1:0|1:0,0:0:0:0:
295,167,224234,2,0,L|424:153,1,130,2|0,1:0|1:0,0:0:0:0:
479,217,224684,1,2,0:0:0:0:
414,270,224834,2,0,P|365:273|312:254,2,97.5,2|2|2,1:0|0:1|0:0,0:0:0:0:
479,217,225434,22,0,L|441:348,1,130,2|0,1:0|1:0,0:0:0:0:
358,341,225884,1,2,0:0:0:0:
358,341,226034,2,0,L|321:216,1,130,2|0,1:0|1:0,0:0:0:0:
295,135,226484,1,2,0:0:0:0:
295,135,226559,1,0,0:0:0:0:
295,135,226634,2,0,L|220:119,1,65,2|2,1:0|0:0,0:0:0:0:
326,51,226934,2,0,L|401:35,1,65,2|2,1:0|0:0,0:0:0:0:
510,165,227234,2,0,P|474:169|390:125,1,130,2|2,1:0|1:0,0:0:0:0:
348,218,227684,1,2,0:0:0:0:
348,218,227834,22,0,L|333:361,1,130,2|0,1:0|1:0,0:0:0:0:
252,369,228284,1,0,0:0:0:0:
186,315,228434,2,0,P|149:306|62:333,1,130,2|0,1:0|1:0,0:0:0:0:
63,51,229034,2,0,P|122:77|186:69,1,130,2|0,1:0|1:0,0:0:0:0:
258,25,229484,1,2,0:0:0:0:
269,108,229634,2,0,L|280:206,2,97.5,2|2|2,1:0|0:1|0:0,0:0:0:0:
258,25,230234,22,0,P|303:32|351:112,1,130,2|0,1:0|1:0,0:0:0:0:
346,181,230684,1,2,0:0:0:0:
346,181,230834,2,0,B|396:188|396:188|428:176|428:176|476:184,1,130,2|0,1:0|1:0,0:0:0:0:
166,203,231434,2,0,B|116:196|116:196|84:208|84:208|36:200,1,130,2|2,1:0|1:0,0:0:0:0:
131,281,231884,1,2,0:0:0:0:
131,281,232034,2,0,L|203:292,1,65,2|2,1:0|0:0,0:0:0:0:
320,241,232334,6,0,L|255:231,1,65,2|2,1:0|0:0,0:0:0:0:
243,211,232559,1,0,0:0:0:0:
231,191,232634,6,0,P|214:140|226:60,1,130,2|0,1:0|1:0,0:0:0:0:
335,15,233084,1,0,0:0:0:0:
335,15,233234,2,0,P|345:78|327:140,1,130,2|0,1:0|1:0,0:0:0:0:
123,298,233834,2,0,B|150:284|150:284|258:293,1,130,2|0,1:0|1:0,0:0:0:0:
334,297,234284,1,2,0:0:0:0:
334,297,234359,1,0,0:0:0:0:
334,297,234434,2,0,L|313:229,1,65,2|0,1:0|0:0,0:0:0:0:
372,155,234734,2,0,L|391:217,1,65,2|2,1:2|0:0,0:0:0:0:
408,232,234959,1,0,0:0:0:0:
424,247,235034,22,0,P|462:232|496:152,1,130,2|0,1:0|1:0,0:0:0:0:
482,70,235484,1,2,0:0:0:0:
482,70,235634,2,0,L|353:42,1,130,2|0,1:0|1:0,0:0:0:0:
265,97,236084,1,2,0:0:0:0:
265,97,236159,1,0,0:0:0:0:
265,97,236234,2,0,L|279:172,1,65,2|2,1:0|0:0,0:0:0:0:
302,241,236534,2,0,P|257:243|197:186,2,130,2|2|2,1:0|1:0|1:0,0:0:0:0:
370,189,237284,1,2,0:0:0:0:
395,269,237434,22,0,L|402:342,1,65,6|0,1:2|1:0,0:0:0:0:
473,222,237734,2,0,L|466:157,1,65,0|0,1:0|1:0,0:0:0:0:
352,38,238034,2,0,L|358:102,1,65,2|0,1:2|1:0,0:0:0:0:
286,214,238334,2,0,L|279:149,1,65,0|0,1:0|1:0,0:0:0:0:
263,133,238559,1,0,0:0:0:0:
243,120,238634,2,0,B|209:112|209:112|170:118,1,65,6|0,1:2|1:0,0:0:0:0:
55,181,238934,2,0,B|84:185|84:185|118:177,1,65,0|0,1:0|1:0,0:0:0:0:
286,214,239234,2,0,B|252:206|252:206|213:212,1,65,2|0,1:2|1:0,0:0:0:0:
107,298,239534,2,0,B|136:302|136:302|170:294,1,65,2|0,1:2|1:0,0:0:0:0:
192,288,239759,1,0,0:0:0:0:
214,284,239834,22,0,L|195:381,2,97.5,6|0|4,1:2|0:0|1:2,0:0:0:0:
286,214,240434,2,0,L|267:118,2,97.5,4|4|4,1:2|1:2|1:2,0:0:0:0:
350,268,241034,2,0,P|384:264|415:249,1,65,6|0,1:2|0:0,0:0:0:0:
512,152,241334,2,0,P|482:138|450:135,1,65,6|0,1:2|0:0,0:0:0:0:
366,150,241634,2,0,L|338:167,3,32.5,6|0|2|0,1:2|0:0|0:0|0:0,0:0:0:0:
296,177,241934,2,0,L|268:160,3,32.5,6|0|2|0,1:2|0:0|0:0|0:0,0:0:0:0:
232,137,242234,21,6,1:2:0:0:
268,320,243434,5,2,0:0:0:0:
212,56,244034,1,2,0:0:0:0:
280,372,244634,1,2,0:0:0:0:
200,24,245834,21,2,0:0:0:0:
236,189,246134,1,2,0:0:0:0:
365,151,246434,2,0,P|405:138|464:146,2,86.6666666666667,2|2|2,0:0|0:0|0:0,0:0:0:0:
256,279,247034,2,0,B|215:301|175:281|175:281|144:317|91:307|91:307|76:288|57:263|99:234|120:271,1,260,10|2,0:0|0:0,0:0:0:0:
256,192,248234,21,14,0:0:0:0:
256,192,248309,12,0,253034,0:0:0:0:
