osu file format v14

[General]
AudioFilename: zenith.mp3
AudioLeadIn: 0
PreviewTime: 153434
Countdown: 0
SampleSet: Soft
StackLeniency: 0.7
Mode: 0
LetterboxInBreaks: 1
EpilepsyWarning: 1
WidescreenStoryboard: 0

[Editor]
Bookmarks: 48431,49031,50231,67031,69431,115031,134231,177431,182231,199031,201431,202631,203831
DistanceSpacing: 1.4
BeatDivisor: 4
GridSize: 4
TimelineZoom: 2.9

[Metadata]
Title:Blue Zenith
TitleUnicode:Blue Zenith
Artist:xi
ArtistUnicode:xi
Creator:Asphyxia
Version:FOUR DIMENSIONS
Source:
Tags:parousia ktgster RLC toybot Aka Frey collab collaboration 100sec record
BeatmapID:658127
BeatmapSetID:292301

[Difficulty]
HPDrainRate:6
CircleSize:4
OverallDifficulty:9
ApproachRate:9.6
SliderMultiplier:1.8
SliderTickRate:1

[Events]
//Background and Video events
0,0,"bg crop.jpg",0,0
//Break Periods
2,172834,176925
//Storyboard Layer 0 (Background)
//Storyboard Layer 1 (Fail)
//Storyboard Layer 2 (Pass)
//Storyboard Layer 3 (Foreground)
//Storyboard Sound Samples

[TimingPoints]
2234,300,4,1,1,60,1,0
7034,-100,4,2,1,80,0,0
74234,-200,4,2,1,50,0,0
93434,-100,4,2,1,70,0,0
99434,-100,4,2,1,100,0,0
99584,-100,4,2,1,70,0,0
106484,-100,4,2,1,55,0,0
106634,-100,4,2,1,70,0,0
112634,-100,4,2,1,80,0,0
113234,-100,4,2,1,90,0,0
113834,-100,4,2,1,100,0,0
115034,-100,4,2,1,80,0,0
134534,-100,4,2,1,73,0,0
134834,-100,4,2,1,66,0,0
135134,-100,4,2,1,59,0,0
135434,-100,4,2,1,80,0,0
153434,-83.3333333333333,4,2,1,90,0,1
158159,-83.3333333333333,4,2,1,90,0,0
158234,-83.3333333333333,4,2,1,90,0,1
162734,-83.3333333333333,4,2,1,90,0,0
163034,-83.3333333333333,4,2,1,90,0,1
167759,-83.3333333333333,4,2,1,90,0,0
167834,-83.3333333333333,4,2,1,90,0,1
172634,-100,4,2,1,70,0,0
177434,-100,4,2,1,50,0,0
178634,-100,4,2,1,60,0,0
179834,-100,4,2,1,70,0,0
180434,-100,4,2,1,80,0,0
181034,-100,4,2,1,90,0,0
181634,-100,4,2,1,100,0,0
182234,-100,4,2,1,80,0,0
182834,-100,4,2,1,90,0,0
183434,-100,4,2,1,100,0,0
184634,-100,4,2,1,80,0,0
204134,-100,4,2,1,73,0,0
204434,-100,4,2,1,66,0,0
204734,-100,4,2,1,59,0,0
205034,-100,4,2,1,80,0,0
223034,-83.3333333333333,4,2,1,90,0,1
227759,-83.3333333333333,4,2,1,90,0,0
227834,-83.3333333333333,4,2,1,90,0,1
232334,-83.3333333333333,4,2,1,90,0,0
232634,-83.3333333333333,4,2,1,90,0,1
237359,-83.3333333333333,4,2,1,90,0,0
237434,-83.3333333333333,4,2,1,90,0,1
242234,-100,4,2,1,90,0,0
243434,-133.333333333333,4,2,1,60,0,0
248234,-100,4,2,1,90,0,0
250634,-100,4,2,1,70,0,0
251234,-100,4,2,1,50,0,0
251834,-100,4,2,1,30,0,0
252434,-100,4,2,1,20,0,0

[Colours]
Combo1 : 0,128,255
Combo2 : 128,128,128
Combo3 : 0,0,255
Combo4 : 192,192,192

[HitObjects]
255,329,2234,5,4,0:0:0:0:
336,80,2534,1,0,0:0:0:0:
125,234,2834,1,0,0:0:0:0:
386,234,3134,1,0,0:0:0:0:
175,80,3434,21,0,0:0:0:0:
386,234,3734,1,0,0:0:0:0:
125,234,4034,1,0,0:0:0:0:
336,80,4334,1,0,0:0:0:0:
255,368,4634,21,0,0:0:0:0:
358,49,4934,1,0,0:0:0:0:
87,246,5234,1,0,0:0:0:0:
422,246,5534,1,0,0:0:0:0:
151,49,5834,21,0,0:0:0:0:
422,246,6134,1,0,0:0:0:0:
87,246,6434,1,0,0:0:0:0:
358,49,6734,1,0,0:0:0:0:
130,255,7034,22,0,L|80:244,3,45,2|0|0|0,0:0|0:0|0:0|0:0,0:0:0:0:
238,238,7334,2,0,L|281:247,3,45,2|0|0|0,0:0|0:0|0:0|0:0,0:0:0:0:
196,320,7634,2,0,L|185:363,3,45,2|0|0|0,0:0|0:0|0:0|0:0,0:0:0:0:
177,171,7934,2,0,L|188:128,3,45,2|0|0|0,0:0|0:0|0:0|0:0,0:0:0:0:
118,260,8234,22,0,L|64:248,3,45,2|0|0|0,0:0|0:0|0:0|0:0,0:0:0:0:
236,242,8534,2,0,L|284:252,3,45,2|0|0|0,0:0|0:0|0:0|0:0,0:0:0:0:
190,331,8834,2,0,L|178:378,3,45,2|0|0|0,0:0|0:0|0:0|0:0,0:0:0:0:
170,169,9134,2,0,L|181:122,3,45,2|0|0|0,0:0|0:0|0:0|0:0,0:0:0:0:
138,252,10034,21,0,0:0:0:0:
146,254,10109,1,0,0:0:0:0:
156,256,10184,1,0,0:0:0:0:
166,259,10259,1,0,0:0:0:0:
174,261,10334,1,0,0:0:0:0:
182,263,10409,1,0,0:0:0:0:
190,265,10484,1,0,0:0:0:0:
198,267,10559,1,0,0:0:0:0:
206,270,10634,21,0,1:0:0:0:
241,262,10709,1,0,0:0:0:0:
275,252,10784,1,0,0:0:0:0:
309,241,10859,1,0,0:0:0:0:
343,229,10934,1,0,1:0:0:0:
375,191,11009,1,0,0:0:0:0:
384,142,11084,1,0,0:0:0:0:
365,96,11159,1,0,0:0:0:0:
326,64,11234,1,0,1:0:0:0:
276,60,11309,1,0,0:0:0:0:
230,78,11384,1,0,0:0:0:0:
199,116,11459,1,0,0:0:0:0:
153,136,11534,2,0,P|117:126|103:117,1,45,0|0,1:0|0:0,0:0:0:0:
0,244,11684,2,0,P|20:234|42:230,1,45
206,270,11834,21,4,1:2:0:0:
314,371,11984,1,0,0:0:0:0:
340,340,12059,1,0,0:0:0:0:
377,325,12134,1,0,1:0:0:0:
417,321,12209,1,0,0:0:0:0:
456,312,12284,1,0,0:0:0:0:
488,287,12359,1,0,0:0:0:0:
502,249,12434,2,0,L|495:201,3,45,0|0|0|0,1:0|0:0|0:0|0:0,0:0:0:0:
387,130,12734,2,0,L|393:174,3,45,0|0|0|0,1:0|0:0|0:0|0:0,0:0:0:0:
362,18,13034,21,0,1:0:0:0:
295,178,13184,1,0,0:0:0:0:
303,217,13259,1,0,0:0:0:0:
310,256,13334,1,0,1:0:0:0:
168,133,13484,1,0,0:0:0:0:
160,94,13559,1,0,0:0:0:0:
151,54,13634,2,0,L|142:9,3,45,0|0|0|0,1:0|0:0|0:0|0:0,0:0:0:0:
82,130,13934,2,0,L|91:175,3,45,0|0|0|0,1:0|0:0|0:0|0:0,0:0:0:0:
226,51,14234,21,0,1:0:0:0:
266,51,14309,1,0,0:0:0:0:
301,70,14384,1,0,0:0:0:0:
325,102,14459,1,0,0:0:0:0:
357,125,14534,1,0,1:0:0:0:
395,136,14609,1,0,0:0:0:0:
435,137,14684,1,0,0:0:0:0:
471,119,14759,1,0,0:0:0:0:
497,88,14834,2,0,P|509:48|498:0,1,90,0|0,1:0|0:0,0:0:0:0:
381,218,15134,2,0,P|370:261|382:304,1,90,0|0,1:0|0:0,0:0:0:0:
512,176,15434,22,0,B|464:156|425:181|425:181|386:204|333:187,1,180,0|0,1:0|1:0,0:0:0:0:
206,115,15884,1,0,0:0:0:0:
196,75,15959,1,0,0:0:0:0:
185,35,16034,1,0,1:0:0:0:
122,233,16184,1,0,0:0:0:0:
295,181,16334,1,0,1:0:0:0:
60,112,16484,1,0,0:0:0:0:
170,324,16634,37,6,0:0:0:0:
186,317,16709,1,0,0:0:0:0:
202,309,16784,1,2,0:0:0:0:
218,301,16859,1,0,0:0:0:0:
224,269,16934,21,2,1:2:0:0:
254,275,17009,1,0,0:0:0:0:
284,283,17084,1,2,0:0:0:0:
314,292,17159,1,0,0:0:0:0:
343,303,17234,21,2,1:2:0:0:
372,291,17309,1,0,0:0:0:0:
400,278,17384,1,2,0:0:0:0:
428,264,17459,1,0,0:0:0:0:
455,248,17534,1,0,1:0:0:0:
310,104,17684,1,0,0:0:0:0:
93,234,17834,5,4,0:0:0:0:
133,235,17909,1,0,0:0:0:0:
171,222,17984,1,0,0:0:0:0:
202,196,18059,1,0,0:0:0:0:
220,159,18134,1,0,1:0:0:0:
223,109,18209,1,0,0:0:0:0:
203,63,18284,1,0,0:0:0:0:
164,32,18359,1,0,0:0:0:0:
115,21,18434,1,0,1:0:0:0:
67,33,18509,1,0,0:0:0:0:
33,69,18584,1,0,0:0:0:0:
25,118,18659,1,0,0:0:0:0:
55,157,18734,1,0,1:0:0:0:
101,172,18809,1,0,0:0:0:0:
147,155,18884,1,0,0:0:0:0:
174,114,18959,1,0,0:0:0:0:
223,109,19034,21,4,1:2:0:0:
433,209,19184,1,0,0:0:0:0:
374,53,19334,1,0,1:0:0:0:
276,262,19484,1,0,0:0:0:0:
276,19,19634,1,4,1:2:0:0:
385,308,19784,1,0,0:0:0:0:
473,105,19934,1,0,0:0:0:0:
185,213,20084,1,0,0:0:0:0:
325,158,20234,21,4,1:2:0:0:
205,321,20384,2,0,L|185:330,4,22.5,0|0|0|0|4,0:0|0:0|0:0|0:0|1:2,0:0:0:0:
343,235,20684,2,0,L|363:244,4,22.5,0|0|0|0|4,0:0|0:0|0:0|0:0|1:2,0:0:0:0:
152,117,20984,1,0,0:0:0:0:
114,102,21059,1,0,0:0:0:0:
75,88,21134,2,0,L|35:96,6,22.5,4|0|0|0|0|0|0,1:2|0:0|0:0|0:0|0:0|0:0|0:0,0:0:0:0:
114,102,21434,22,0,L|12:89,1,90,0|0,1:0|0:0,0:0:0:0:
186,214,21734,1,0,1:0:0:0:
221,193,21809,1,0,0:0:0:0:
246,161,21884,1,0,0:0:0:0:
254,121,21959,1,0,0:0:0:0:
249,80,22034,1,0,1:0:0:0:
266,85,22109,1,0,0:0:0:0:
282,92,22184,1,0,0:0:0:0:
298,98,22259,1,0,0:0:0:0:
314,105,22334,1,0,1:0:0:0:
330,112,22409,1,0,0:0:0:0:
346,118,22484,1,0,0:0:0:0:
362,124,22559,1,0,0:0:0:0:
378,131,22634,21,0,1:0:0:0:
347,98,22709,1,0,0:0:0:0:
350,53,22784,1,0,0:0:0:0:
377,17,22859,1,0,0:0:0:0:
419,1,22934,1,0,1:0:0:0:
463,9,23009,1,0,0:0:0:0:
496,39,23084,1,0,0:0:0:0:
506,82,23159,1,0,0:0:0:0:
492,124,23234,1,0,1:0:0:0:
459,154,23309,1,0,0:0:0:0:
436,193,23384,1,0,0:0:0:0:
436,237,23459,1,0,0:0:0:0:
461,273,23534,1,0,1:0:0:0:
498,297,23609,1,0,0:0:0:0:
453,303,23684,1,0,0:0:0:0:
418,334,23759,1,0,0:0:0:0:
407,377,23834,38,0,L|359:382,3,45,2|0|0|0,1:2|0:0|0:0|0:0,0:0:0:0:
267,288,24134,2,0,L|311:283,3,45,2|0|0|0,1:2|0:0|0:0|0:0,0:0:0:0:
230,188,24434,22,0,L|182:193,3,45,2|0|0|0,1:2|0:0|0:0|0:0,0:0:0:0:
90,99,24734,2,0,L|134:94,3,45,2|0|0|0,1:2|0:0|0:0|0:0,0:0:0:0:
90,99,25034,6,0,P|43:83|12:45,1,90,0|0,1:0|0:0,0:0:0:0:
189,170,25334,2,0,P|154:205|106:216,1,90,0|0,1:0|0:0,0:0:0:0:
282,23,25634,1,2,1:0:0:0:
290,48,25709,1,0,0:0:0:0:
297,73,25784,1,2,0:1:0:0:
305,98,25859,1,0,0:0:0:0:
348,72,25934,21,2,1:0:0:0:
336,116,26009,1,0,0:0:0:0:
328,160,26084,1,2,0:1:0:0:
316,204,26159,1,0,0:0:0:0:
300,244,26234,22,0,P|371:207|466:234,1,180,4|0,1:2|1:0,0:0:0:0:
230,326,26684,1,0,0:0:0:0:
230,326,26759,1,0,0:0:0:0:
230,326,26834,1,0,1:0:0:0:
180,138,26984,1,0,0:0:0:0:
383,234,27134,1,0,1:0:0:0:
212,249,27284,1,0,0:0:0:0:
161,58,27434,21,0,1:0:0:0:
151,299,27584,1,0,0:0:0:0:
246,91,27734,1,0,1:0:0:0:
74,279,27884,1,0,0:0:0:0:
286,271,28034,1,0,1:0:0:0:
286,271,28109,1,0,0:0:0:0:
286,271,28184,1,0,0:0:0:0:
286,271,28259,1,0,0:0:0:0:
279,226,28334,1,0,1:0:0:0:
291,182,28409,1,0,0:0:0:0:
321,149,28484,1,0,0:0:0:0:
362,131,28559,1,0,0:0:0:0:
406,130,28634,38,0,P|448:150|454:155,3,45,2|0|2|0,1:2|0:0|0:0|0:0,0:0:0:0:
480,250,28934,2,0,P|458:291|453:297,3,45,2|0|2|0,1:2|0:0|0:0|0:0,0:0:0:0:
364,309,29234,22,0,P|322:289|316:284,3,45,2|0|2|0,1:2|0:0|0:0|0:0,0:0:0:0:
290,189,29534,2,0,P|311:147|316:141,3,45,2|0|2|0,1:2|0:0|0:0|0:0,0:0:0:0:
394,95,29834,5,0,1:0:0:0:
380,77,29909,1,0,0:0:0:0:
372,55,29984,2,0,L|375:29,2,22.5
458,149,30134,1,0,1:0:0:0:
444,167,30209,1,0,0:0:0:0:
436,189,30284,2,0,L|439:215,2,22.5
470,279,30434,21,0,1:0:0:0:
449,318,30509,1,0,0:0:0:0:
414,346,30584,1,0,0:0:0:0:
371,359,30659,1,0,0:0:0:0:
326,352,30734,1,0,1:0:0:0:
287,328,30809,1,0,0:0:0:0:
246,308,30884,1,0,0:0:0:0:
201,306,30959,1,0,0:0:0:0:
156,314,31034,22,0,L|63:336,1,90,6|0,1:2|0:0,0:0:0:0:
360,200,31334,2,0,L|447:220,1,90,0|0,1:0|0:0,0:0:0:0:
143,181,31634,2,0,P|183:144|304:142,1,180,0|0,1:0|1:0,0:0:0:0:
64,272,32084,1,0,0:0:0:0:
64,272,32159,1,0,0:0:0:0:
64,272,32234,21,2,1:2:0:0:
36,236,32309,1,0,0:0:0:0:
25,192,32384,1,0,0:0:0:0:
30,147,32459,1,0,0:0:0:0:
48,106,32534,1,0,1:0:0:0:
83,78,32609,1,0,0:0:0:0:
125,64,32684,1,0,0:0:0:0:
169,66,32759,1,0,0:0:0:0:
210,84,32834,2,0,P|233:51|236:23,1,45,0|0,1:0|0:0,0:0:0:0:
278,185,32984,2,0,P|287:205|302:222,1,45
428,256,33134,1,0,1:0:0:0:
441,253,33209,1,0,0:0:0:0:
454,250,33284,1,0,0:0:0:0:
467,246,33359,1,0,0:0:0:0:
480,242,33434,38,0,L|460:336,1,90,8|0,1:2|0:0,0:0:0:0:
259,97,33734,2,0,L|279:191,1,90,8|0,1:2|0:0,0:0:0:0:
61,313,34034,22,0,P|125:273|243:279,1,180,8|0,1:2|1:0,0:0:0:0:
397,149,34484,1,0,0:0:0:0:
397,149,34559,1,0,0:0:0:0:
397,149,34634,6,0,L|500:135,1,90,2|0,1:2|0:0,0:0:0:0:
115,149,34934,2,0,L|12:135,1,90,2|0,1:2|0:0,0:0:0:0:
256,279,35234,2,0,P|327:285|377:235,1,135,2|0,1:2|0:0,0:0:0:0:
372,245,35534,2,0,L|354:352,1,90,0|0,1:0|0:0,0:0:0:0:
450,174,35834,21,2,1:2:0:0:
426,153,35909,1,0,0:0:0:0:
396,143,35984,1,0,0:0:0:0:
364,141,36059,1,0,0:0:0:0:
333,148,36134,1,0,1:0:0:0:
305,164,36209,1,0,0:0:0:0:
283,187,36284,1,0,0:0:0:0:
271,216,36359,1,0,0:0:0:0:
266,247,36434,2,0,L|277:300,3,45,0|0|0|0,1:0|0:0|0:0|0:0,0:0:0:0:
234,365,36734,1,0,1:0:0:0:
205,378,36809,1,0,0:0:0:0:
173,379,36884,1,0,0:0:0:0:
142,370,36959,1,0,0:0:0:0:
116,351,37034,22,0,L|105:299,3,45,2|0|0|0,1:2|0:0|0:0|0:0,0:0:0:0:
31,237,37334,2,0,L|42:185,3,45,0|0|0|0,1:0|0:0|0:0|0:0,0:0:0:0:
147,130,37634,1,0,1:0:0:0:
119,99,37709,1,0,0:0:0:0:
83,79,37784,1,0,0:0:0:0:
43,70,37859,1,0,0:0:0:0:
3,78,37934,1,0,1:0:0:0:
43,71,38009,1,0,0:0:0:0:
80,51,38084,1,0,0:0:0:0:
113,28,38159,1,0,0:0:0:0:
145,4,38234,6,0,P|192:6|239:25,1,90,8|0,1:2|0:0,0:0:0:0:
446,106,38534,2,0,P|399:108|352:127,1,90,8|0,1:2|0:0,0:0:0:0:
251,342,38834,22,0,P|211:285|229:173,1,180,8|0,1:2|1:0,0:0:0:0:
72,246,39284,1,0,0:0:0:0:
64,285,39359,1,0,0:0:0:0:
56,324,39434,37,2,1:2:0:0:
225,180,39584,1,0,0:0:0:0:
217,141,39659,1,0,0:0:0:0:
209,102,39734,1,2,1:2:0:0:
370,253,39884,1,0,0:0:0:0:
138,174,40034,1,2,1:0:0:0:
120,171,40109,1,0,0:0:0:0:
102,168,40184,1,2,0:1:0:0:
84,165,40259,1,0,0:0:0:0:
37,155,40334,21,2,1:0:0:0:
75,143,40409,1,0,0:0:0:0:
114,133,40484,1,2,0:1:0:0:
153,122,40559,1,0,0:0:0:0:
192,114,40634,22,0,P|249:121|274:12,1,180,2|0,1:2|1:0,0:0:0:0:
104,256,41084,1,0,0:0:0:0:
125,239,41159,1,0,0:0:0:0:
150,229,41234,1,0,1:0:0:0:
176,226,41309,1,0,0:0:0:0:
202,230,41384,1,0,0:0:0:0:
226,241,41459,1,0,0:0:0:0:
246,258,41534,2,0,P|268:306|266:346,1,90,0|0,1:0|0:0,0:0:0:0:
495,210,41834,22,0,L|403:191,1,90,2|0,1:2|0:0,0:0:0:0:
270,21,42134,1,0,1:0:0:0:
276,61,42209,1,0,0:0:0:0:
264,99,42284,1,0,0:0:0:0:
238,130,42359,1,0,0:0:0:0:
199,145,42434,1,0,1:0:0:0:
159,145,42509,1,0,0:0:0:0:
123,126,42584,1,0,0:0:0:0:
83,119,42659,1,0,0:0:0:0:
42,124,42734,2,0,P|11:156|-3:206,1,90,0|0,1:0|0:0,0:0:0:0:
99,352,43034,5,8,1:2:0:0:
140,333,43109,1,0,0:0:0:0:
182,317,43184,1,0,0:0:0:0:
411,286,43334,1,8,1:2:0:0:
370,267,43409,1,0,0:0:0:0:
328,251,43484,1,0,0:0:0:0:
81,260,43634,21,8,1:2:0:0:
117,242,43709,1,0,0:0:0:0:
154,226,43784,1,0,0:0:0:0:
418,191,43934,1,8,1:2:0:0:
382,173,44009,1,0,0:0:0:0:
345,157,44084,1,0,0:0:0:0:
72,161,44234,37,8,1:2:0:0:
104,145,44309,1,0,0:0:0:0:
137,132,44384,1,0,0:0:0:0:
425,89,44534,1,8,1:2:0:0:
393,73,44609,1,0,0:0:0:0:
360,60,44684,1,0,0:0:0:0:
253,175,44834,2,0,L|239:273,1,90,0|0,1:0|0:0,0:0:0:0:
189,73,45134,1,0,1:0:0:0:
322,278,45284,1,0,0:0:0:0:
125,351,45434,21,2,1:2:0:0:
131,338,45509,1,0,0:0:0:0:
134,325,45584,1,0,0:0:0:0:
135,311,45659,1,0,0:0:0:0:
132,297,45734,1,0,1:0:0:0:
122,276,45809,1,0,0:0:0:0:
108,258,45884,1,0,0:0:0:0:
98,237,45959,1,0,0:0:0:0:
93,214,46034,1,0,1:0:0:0:
94,191,46109,1,0,0:0:0:0:
102,169,46184,1,0,0:0:0:0:
113,149,46259,1,0,0:0:0:0:
128,132,46334,1,0,1:0:0:0:
146,119,46409,1,0,0:0:0:0:
166,109,46484,1,0,0:0:0:0:
187,103,46559,1,0,0:0:0:0:
209,103,46634,21,0,1:0:0:0:
244,109,46709,1,0,0:0:0:0:
274,128,46784,1,0,0:0:0:0:
297,154,46859,1,0,0:0:0:0:
330,167,46934,1,0,1:0:0:0:
365,168,47009,1,0,0:0:0:0:
399,156,47084,1,0,0:0:0:0:
425,132,47159,1,0,0:0:0:0:
434,97,47234,21,2,1:2:0:0:
420,54,47309,1,0,0:0:0:0:
401,95,47384,1,0,0:0:0:0:
425,132,47459,1,0,0:0:0:0:
462,155,47534,1,2,1:2:0:0:
478,197,47609,1,0,0:0:0:0:
472,241,47684,1,0,0:0:0:0:
452,281,47759,1,0,0:0:0:0:
414,305,47834,21,2,1:2:0:0:
370,315,47909,1,0,0:0:0:0:
326,305,47984,1,0,0:0:0:0:
285,285,48059,1,0,0:0:0:0:
240,280,48134,21,0,1:0:0:0:
192,292,48209,1,0,0:0:0:0:
162,331,48284,1,0,0:0:0:0:
116,349,48359,1,0,0:0:0:0:
66,343,48434,21,0,1:0:0:0:
28,311,48509,1,0,0:0:0:0:
12,264,48584,1,0,0:0:0:0:
20,215,48659,1,0,0:0:0:0:
53,178,48734,21,0,1:0:0:0:
109,161,48809,1,0,0:0:0:0:
163,181,48884,1,0,0:0:0:0:
217,202,48959,1,0,0:0:0:0:
274,185,49034,5,8,1:2:0:0:
325,163,49109,1,0,0:0:0:0:
351,111,49184,2,0,L|359:81,2,22.5
403,217,49334,1,8,1:2:0:0:
403,217,49409,1,0,0:0:0:0:
403,217,49484,2,0,L|397:238,2,22.5
435,297,49634,21,8,1:2:0:0:
384,267,49709,1,0,1:0:0:0:
325,270,49784,1,0,1:0:0:0:
279,307,49859,1,0,1:0:0:0:
227,333,49934,1,0,1:0:0:0:
168,327,50009,1,0,1:0:0:0:
119,293,50084,1,0,1:0:0:0:
95,239,50159,1,0,1:0:0:0:
115,184,50234,38,0,P|132:135|120:81,1,90,4|0,1:2|0:0,0:0:0:0:
384,97,50534,2,0,P|380:142|397:184,1,90,0|0,1:0|0:0,0:0:0:0:
258,336,50834,2,0,B|279:287|260:249|260:249|237:201|257:159,1,180,0|0,1:0|1:0,0:0:0:0:
473,146,51284,1,0,0:0:0:0:
473,146,51359,1,0,0:0:0:0:
473,146,51434,22,0,P|440:189|402:202,1,90,2|0,1:2|0:0,0:0:0:0:
39,146,51734,2,0,P|72:189|110:202,1,90,0|0,1:0|0:0,0:0:0:0:
256,20,52034,2,0,L|256:204,1,180,0|0,1:0|1:0,0:0:0:0:
334,334,52484,1,0,0:0:0:0:
377,346,52559,1,0,0:0:0:0:
421,340,52634,6,0,P|459:331|485:335,3,45,2|0|0|0,1:2|0:0|0:0|0:0,0:0:0:0:
509,262,52934,1,0,1:0:0:0:
465,250,53009,1,0,0:0:0:0:
432,219,53084,1,0,0:0:0:0:
417,176,53159,1,0,0:0:0:0:
425,131,53234,21,0,1:0:0:0:
388,157,53309,1,0,0:0:0:0:
343,158,53384,1,0,0:0:0:0:
304,135,53459,1,0,0:0:0:0:
284,94,53534,1,0,1:0:0:0:
289,49,53609,1,0,0:0:0:0:
318,15,53684,1,0,0:0:0:0:
361,3,53759,1,0,0:0:0:0:
404,15,53834,38,0,P|449:18|471:8,3,45,2|0|0|0,1:2|0:0|0:0|0:0,0:0:0:0:
511,83,54134,1,0,1:0:0:0:
508,96,54209,1,0,0:0:0:0:
505,109,54284,1,0,0:0:0:0:
502,122,54359,1,0,0:0:0:0:
462,120,54434,21,2,1:0:0:0:
471,159,54509,1,0,0:0:0:0:
482,197,54584,1,2,0:1:0:0:
492,236,54659,1,0,0:0:0:0:
502,270,54734,21,2,1:0:0:0:
483,315,54809,1,0,0:0:0:0:
441,341,54884,1,2,0:1:0:0:
391,337,54959,1,0,0:0:0:0:
353,304,55034,22,0,L|339:216,1,90,2|0,1:2|0:0,0:0:0:0:
256,55,55334,2,0,L|242:143,1,90,0|0,1:0|0:0,0:0:0:0:
194,320,55634,1,0,1:0:0:0:
121,252,55784,1,0,0:0:0:0:
121,252,55859,1,0,0:0:0:0:
121,252,55934,1,0,1:0:0:0:
318,196,56084,1,0,0:0:0:0:
197,6,56234,21,2,1:2:0:0:
226,40,56309,1,0,0:0:0:0:
268,56,56384,1,0,0:0:0:0:
312,57,56459,1,0,0:0:0:0:
354,43,56534,1,0,1:0:0:0:
397,30,56609,1,0,0:0:0:0:
441,31,56684,1,0,0:0:0:0:
481,51,56759,1,0,0:0:0:0:
505,88,56834,1,0,1:0:0:0:
507,132,56909,1,0,0:0:0:0:
494,175,56984,1,0,0:0:0:0:
460,205,57059,1,0,0:0:0:0:
416,215,57134,1,0,1:0:0:0:
372,202,57209,1,0,0:0:0:0:
327,195,57284,1,0,0:0:0:0:
283,207,57359,1,0,0:0:0:0:
249,237,57434,38,0,L|238:288,3,45,2|0|0|0,1:2|0:0|0:0|0:0,0:0:0:0:
334,313,57734,2,0,L|323:364,3,45,2|0|0|0,1:2|0:0|0:0|0:0,0:0:0:0:
146,299,58034,22,0,L|135:350,3,45,2|0|0|0,1:2|0:0|0:0|0:0,0:0:0:0:
69,186,58334,2,0,L|58:237,3,45,2|0|0|0,1:2|0:0|0:0|0:0,0:0:0:0:
69,186,58634,6,0,P|114:181|161:160,1,90,2|0,1:2|0:0,0:0:0:0:
373,96,58934,2,0,P|328:91|281:70,1,90,0|0,1:0|0:0,0:0:0:0:
504,192,59234,1,8,1:2:0:0:
461,178,59309,1,0,0:0:0:0:
416,178,59384,1,0,0:0:0:0:
157,294,59534,1,8,1:2:0:0:
202,294,59609,1,0,0:0:0:0:
245,280,59684,1,0,0:0:0:0:
283,15,59834,22,0,L|265:110,1,90,4|0,1:2|0:0,0:0:0:0:
229,369,60134,2,0,L|247:274,1,90,0|0,1:0|0:0,0:0:0:0:
430,359,60434,1,0,1:0:0:0:
396,329,60509,1,0,0:0:0:0:
381,286,60584,1,0,0:0:0:0:
385,241,60659,1,0,0:0:0:0:
412,207,60734,1,0,1:0:0:0:
369,222,60809,1,0,0:0:0:0:
324,217,60884,1,0,0:0:0:0:
285,194,60959,1,0,0:0:0:0:
244,175,61034,21,2,1:2:0:0:
190,169,61109,1,0,0:0:0:0:
136,178,61184,1,0,0:0:0:0:
93,211,61259,1,0,0:0:0:0:
73,261,61334,1,0,1:0:0:0:
79,314,61409,1,0,0:0:0:0:
111,357,61484,1,0,0:0:0:0:
158,383,61559,1,0,0:0:0:0:
211,380,61634,1,0,1:0:0:0:
255,349,61709,1,0,0:0:0:0:
306,331,61784,1,0,0:0:0:0:
359,337,61859,1,0,0:0:0:0:
409,357,61934,1,0,1:0:0:0:
422,304,62009,1,0,0:0:0:0:
452,259,62084,1,0,0:0:0:0:
499,232,62159,1,0,0:0:0:0:
503,178,62234,6,0,P|485:136|486:119,3,45,2|0|0|0,1:2|0:0|0:0|0:0,0:0:0:0:
402,45,62534,2,0,P|396:66|384:85,3,45,2|0|0|0,1:2|0:0|0:0|0:0,0:0:0:0:
272,134,62834,21,2,1:2:0:0:
254,129,62909,1,0,0:0:0:0:
236,125,62984,1,0,0:0:0:0:
218,121,63059,1,0,0:0:0:0:
200,117,63134,1,2,1:2:0:0:
182,112,63209,1,0,0:0:0:0:
164,108,63284,1,0,0:0:0:0:
146,104,63359,1,0,0:0:0:0:
128,100,63434,38,0,P|82:97|38:121,1,90,2|0,1:2|0:0,0:0:0:0:
247,212,63734,2,0,P|293:215|337:191,1,90,0|0,1:0|0:0,0:0:0:0:
174,312,64034,2,0,B|122:297|84:320|84:320|46:343|-4:327,1,180,2|0,1:2|1:0,0:0:0:0:
305,347,64484,1,0,0:0:0:0:
305,347,64559,1,0,0:0:0:0:
305,347,64634,37,2,1:2:0:0:
220,125,64784,1,0,1:0:0:0:
395,240,64934,1,0,1:0:0:0:
84,198,65084,1,0,1:0:0:0:
306,76,65234,21,0,1:0:0:0:
349,295,65384,1,0,1:0:0:0:
150,161,65534,1,0,1:0:0:0:
338,138,65684,2,0,L|350:190,1,45,0|0,1:0|0:0,0:0:0:0:
387,359,65834,5,2,1:2:0:0:
148,237,65984,1,0,1:0:0:0:
368,39,66134,1,0,1:0:0:0:
302,238,66284,1,0,1:0:0:0:
84,198,66434,1,0,1:0:0:0:
306,76,66584,1,0,1:0:0:0:
169,305,66734,1,0,1:0:0:0:
126,58,66884,1,0,1:0:0:0:
126,58,66959,1,0,0:0:0:0:
126,58,67034,6,0,L|114:115,1,45,2|0,1:2|0:0,0:0:0:0:
211,217,67184,2,0,L|220:172,1,45,0|0,1:0|0:0,0:0:0:0:
378,110,67334,2,0,L|366:167,1,45,0|0,1:0|0:0,0:0:0:0:
463,269,67484,2,0,L|472:224,1,45,0|0,1:0|0:0,0:0:0:0:
302,31,67634,22,0,L|292:75,1,45,0|0,1:0|0:0,0:0:0:0:
298,363,67784,2,0,L|308:319,1,45,0|0,1:0|0:0,0:0:0:0:
116,188,67935,2,0,L|107:233,1,45,0|0,1:0|0:0,0:0:0:0:
404,192,68084,38,0,L|430:183,4,22.5,0|0|0|0|2,1:0|1:0|1:0|1:0|1:2,0:0:0:0:
220,60,68384,2,0,L|213:34,4,22.5,0|0|0|0|0,1:0|1:0|1:0|1:0|1:0,0:0:0:0:
198,292,68684,2,0,L|176:299,4,22.5,0|0|0|0|0,1:0|1:0|1:0|1:0|1:0,0:0:0:0:
308,319,68909,1,0,0:0:0:0:
308,319,68984,2,0,L|313:340,10,22.5,0|0|0|0|0|0|0|0|0|0|0,1:0|1:0|1:0|1:0|1:0|1:0|1:0|1:0|1:0|1:0|1:0,0:0:0:0:
268,204,69434,21,6,1:2:0:0:
256,192,69509,12,0,72134,0:0:0:0:
256,192,72209,12,0,74084,0:0:0:0:
213,304,74234,22,0,B|163:308|132:273|132:273|92:298|29:284,1,180,6|2,0:0|0:0,0:0:0:0:
380,111,76034,2,0,L|390:176,2,60,2|2|2,0:0|0:0|0:0,0:0:0:0:
161,229,76634,22,0,B|209:238|235:214|235:214|260:224|260:224|288:206|342:222,1,180,2|2,0:0|0:0,0:0:0:0:
428,292,78434,1,2,0:0:0:0:
45,260,79034,21,2,0:0:0:0:
468,216,79634,1,2,0:0:0:0:
76,166,80834,2,0,L|3:175,2,60,2|2|2,0:0|0:0|0:0,0:0:0:0:
151,228,81434,22,0,P|100:157|146:86,1,180,2|2,0:0|0:0,0:0:0:0:
309,45,82934,1,2,0:0:0:0:
298,125,83234,1,2,0:0:0:0:
375,99,83534,1,2,0:0:0:0:
26,221,83834,21,6,0:0:0:0:
492,281,85034,1,2,0:0:0:0:
54,309,85634,1,2,0:0:0:0:
479,375,86234,21,2,0:0:0:0:
311,135,87434,2,0,L|299:237,1,90,2|2,0:0|0:0,0:0:0:0:
399,80,88034,2,0,L|413:145,2,60,2|2|2,0:0|0:0|0:0,0:0:0:0:
225,195,88634,22,0,L|204:381,1,180,2|2,0:0|0:0,0:0:0:0:
87,114,90134,1,2,0:0:0:0:
202,39,90434,1,2,0:0:0:0:
216,176,90734,1,2,0:0:0:0:
101,251,91034,22,0,L|125:68,1,180,2|2,0:0|0:0,0:0:0:0:
277,73,92234,2,0,L|253:256,1,180,2|2,0:0|0:0,0:0:0:0:
253,251,93434,21,4,0:1:0:0:
291,262,93509,1,0,0:0:0:0:
331,256,93584,1,0,0:0:0:0:
365,234,93659,1,0,0:0:0:0:
402,218,93734,1,0,0:0:0:0:
442,212,93809,1,0,0:0:0:0:
480,224,93884,1,0,0:0:0:0:
506,254,93959,1,0,0:0:0:0:
511,294,94034,1,2,0:0:0:0:
501,333,94109,1,0,0:0:0:0:
470,360,94184,1,0,0:0:0:0:
430,368,94259,1,0,0:0:0:0:
390,359,94334,1,0,0:0:0:0:
350,348,94409,1,0,0:0:0:0:
309,343,94484,1,0,0:0:0:0:
300,346,94559,1,0,0:0:0:0:
292,350,94634,21,0,0:0:0:0:
256,348,94709,1,0,0:0:0:0:
220,342,94784,1,0,0:0:0:0:
189,322,94859,1,0,0:0:0:0:
167,293,94934,1,0,0:0:0:0:
157,258,95009,1,0,0:0:0:0:
159,249,95084,1,0,0:0:0:0:
162,240,95159,1,0,0:0:0:0:
165,231,95234,1,2,0:0:0:0:
168,222,95309,1,0,0:0:0:0:
171,213,95384,1,0,0:0:0:0:
174,204,95459,1,2,0:0:0:0:
177,195,95534,1,0,0:0:0:0:
179,186,95609,1,0,0:0:0:0:
182,177,95684,1,2,0:0:0:0:
185,168,95759,1,0,0:0:0:0:
188,159,95834,21,2,0:0:0:0:
219,80,96434,1,2,0:0:0:0:
235,64,96509,1,0,0:0:0:0:
256,56,96584,1,0,0:0:0:0:
278,52,96659,1,0,0:0:0:0:
300,52,96734,1,0,0:0:0:0:
339,61,96809,1,0,0:0:0:0:
371,84,96884,1,0,0:0:0:0:
392,118,96959,1,0,0:0:0:0:
400,157,97034,21,0,0:0:0:0:
394,197,97109,1,0,0:0:0:0:
374,232,97184,1,0,0:0:0:0:
342,257,97259,1,0,0:0:0:0:
302,266,97334,1,0,0:0:0:0:
261,261,97409,1,0,0:0:0:0:
229,234,97484,1,0,0:0:0:0:
241,272,97559,1,0,0:0:0:0:
255,309,97634,1,2,0:0:0:0:
267,347,97709,1,0,0:0:0:0:
229,330,97784,1,0,0:0:0:0:
190,317,97859,1,0,0:0:0:0:
150,324,97934,22,0,L|134:366,1,45,0|0,1:0|0:0,0:0:0:0:
74,233,98084,2,0,L|58:191,1,45,0|0,1:0|0:0,0:0:0:0:
114,66,98234,21,4,0:1:0:0:
116,57,98309,1,0,0:0:0:0:
118,48,98384,1,0,0:0:0:0:
120,39,98459,1,0,0:0:0:0:
122,30,98534,21,0,0:0:0:0:
152,57,98609,1,0,0:0:0:0:
190,68,98684,1,0,0:0:0:0:
230,67,98759,1,0,0:0:0:0:
267,50,98834,1,2,0:0:0:0:
306,39,98909,1,0,0:0:0:0:
346,39,98984,1,0,0:0:0:0:
384,50,99059,1,0,0:0:0:0:
419,70,99134,2,0,P|433:103|434:123,3,45
405,198,99434,21,0,0:0:0:0:
403,206,99509,1,0,0:0:0:0:
401,214,99584,1,0,0:0:0:0:
424,246,99659,1,0,0:0:0:0:
442,282,99734,1,0,0:0:0:0:
441,322,99809,1,0,0:0:0:0:
419,356,99884,1,0,0:0:0:0:
383,374,99959,1,0,0:0:0:0:
342,374,100034,1,2,0:0:0:0:
307,352,100109,1,0,0:0:0:0:
288,316,100184,1,0,0:0:0:0:
288,275,100259,1,0,0:0:0:0:
311,242,100334,1,0,0:0:0:0:
322,203,100409,1,2,0:0:0:0:
322,162,100484,1,0,0:0:0:0:
301,126,100559,1,0,0:0:0:0:
265,106,100634,21,2,0:0:0:0:
197,58,101234,1,2,0:0:0:0:
190,52,101309,1,0,0:0:0:0:
183,45,101384,1,0,0:0:0:0:
177,37,101459,1,0,0:0:0:0:
173,28,101534,1,0,0:0:0:0:
164,67,101609,1,0,0:0:0:0:
140,100,101684,1,0,0:0:0:0:
103,117,101759,1,0,0:0:0:0:
62,121,101834,21,0,0:0:0:0:
98,138,101909,1,0,0:0:0:0:
125,168,101984,1,0,0:0:0:0:
138,206,102059,1,0,0:0:0:0:
142,246,102134,22,2,P|113:295|-2:308,2,180,2|2|2,0:1|0:1|0:1,0:1:0:0:
373,99,102884,1,0,1:0:0:0:
373,99,102959,1,0,1:0:0:0:
373,99,103034,21,4,1:0:0:0:
279,43,104234,1,2,0:0:0:0:
246,279,104834,1,2,0:0:0:0:
480,208,105284,1,0,1:0:0:0:
480,208,105359,1,0,1:0:0:0:
480,208,105434,21,4,1:0:0:0:
256,26,106484,21,0,1:0:0:0:
237,262,106634,1,2,1:2:0:0:
257,12,106934,1,2,0:0:0:0:
232,277,107234,2,0,B|98:292,1,120,2|2,0:0|0:0,0:0:0:0:
318,151,107684,1,0,1:0:0:0:
318,151,107759,1,0,1:0:0:0:
318,151,107834,21,4,1:0:0:0:
296,372,108434,1,2,0:0:0:0:
320,129,108884,1,0,1:0:0:0:
320,129,108959,1,0,1:0:0:0:
320,129,109034,21,4,1:0:0:0:
79,232,109634,1,0,0:0:0:0:
275,17,109934,1,0,0:0:0:0:
234,276,110084,1,0,1:0:0:0:
234,276,110159,1,0,1:0:0:0:
234,276,110234,21,4,1:0:0:0:
58,227,110384,1,0,1:0:0:0:
259,284,110684,1,0,1:0:0:0:
259,284,110759,1,0,1:0:0:0:
259,284,110834,1,4,1:0:0:0:
35,223,110984,1,0,1:0:0:0:
285,293,111284,1,0,1:0:0:0:
285,293,111359,1,0,1:0:0:0:
285,293,111434,21,4,1:0:0:0:
11,218,111584,1,0,1:0:0:0:
58,202,111659,1,0,1:0:0:0:
90,164,111734,1,0,1:0:0:0:
99,115,111809,1,0,1:0:0:0:
81,68,111884,1,0,1:0:0:0:
100,22,111959,1,0,1:0:0:0:
144,0,112034,1,0,1:0:0:0:
192,10,112109,1,0,1:0:0:0:
221,49,112184,1,0,1:0:0:0:
264,72,112259,1,0,1:0:0:0:
312,63,112334,1,0,1:0:0:0:
358,35,112409,1,0,1:0:0:0:
411,33,112484,1,0,1:0:0:0:
459,55,112559,1,0,1:0:0:0:
468,108,112634,21,4,1:0:0:0:
321,154,112784,1,0,0:0:0:0:
365,298,112934,1,0,0:0:0:0:
511,254,113084,1,0,0:0:0:0:
424,205,113234,21,0,0:0:0:0:
268,308,113384,1,0,0:0:0:0:
164,160,113534,1,0,0:0:0:0:
315,53,113684,1,0,0:0:0:0:
320,368,113834,21,4,0:0:0:0:
97,264,113984,1,0,0:0:0:0:
97,264,114059,1,0,0:0:0:0:
97,264,114134,1,4,0:0:0:0:
208,62,114284,1,0,0:0:0:0:
350,257,114434,1,4,0:0:0:0:
97,264,114584,1,0,0:0:0:0:
385,90,114734,1,4,0:0:0:0:
426,168,115034,21,4,1:2:0:0:
382,178,115109,1,0,0:0:0:0:
338,168,115184,1,0,0:0:0:0:
304,137,115259,1,0,0:0:0:0:
288,94,115334,1,0,1:0:0:0:
254,63,115409,1,0,0:0:0:0:
210,50,115484,1,0,0:0:0:0:
165,55,115559,1,0,0:0:0:0:
127,80,115634,1,0,1:0:0:0:
101,116,115709,1,0,0:0:0:0:
92,160,115784,1,0,0:0:0:0:
102,203,115859,1,0,0:0:0:0:
129,238,115934,2,0,P|121:275|114:290,3,45,0|0|0|0,1:0|0:0|0:0|0:0,0:0:0:0:
42,343,116234,21,2,1:2:0:0:
79,318,116309,1,0,0:0:0:0:
123,312,116384,1,0,0:0:0:0:
167,317,116459,1,0,0:0:0:0:
209,330,116534,1,0,1:0:0:0:
246,355,116609,1,0,0:0:0:0:
288,369,116684,1,0,0:0:0:0:
332,368,116759,1,0,0:0:0:0:
372,348,116834,1,0,1:0:0:0:
400,313,116909,1,0,0:0:0:0:
411,269,116984,1,0,0:0:0:0:
405,224,117059,1,0,0:0:0:0:
377,188,117134,2,0,L|389:145,3,45,0|0|0|0,1:0|0:0|0:0|0:0,0:0:0:0:
486,94,117434,21,2,1:2:0:0:
448,119,117509,1,0,0:0:0:0:
403,128,117584,1,0,0:0:0:0:
358,118,117659,1,0,0:0:0:0:
322,90,117734,1,0,1:0:0:0:
299,50,117809,1,0,0:0:0:0:
259,27,117884,1,0,0:0:0:0:
214,27,117959,1,0,0:0:0:0:
175,49,118034,1,0,1:0:0:0:
152,87,118109,1,0,0:0:0:0:
150,131,118184,1,0,0:0:0:0:
168,171,118259,1,0,0:0:0:0:
168,215,118334,1,0,1:0:0:0:
137,247,118409,1,0,0:0:0:0:
92,252,118484,1,0,0:0:0:0:
55,225,118559,1,0,0:0:0:0:
46,180,118634,21,2,1:2:0:0:
66,139,118709,1,0,0:0:0:0:
110,129,118784,1,0,0:0:0:0:
150,148,118859,1,0,0:0:0:0:
168,189,118934,1,0,1:0:0:0:
178,232,119009,1,0,0:0:0:0:
213,260,119084,1,0,0:0:0:0:
257,266,119159,1,0,0:0:0:0:
300,252,119234,1,0,1:0:0:0:
336,225,119309,1,0,0:0:0:0:
378,211,119384,1,0,0:0:0:0:
422,215,119459,1,0,0:0:0:0:
461,237,119534,2,0,L|471:190,3,45,0|0|0|0,1:0|0:0|0:0|0:0,0:0:0:0:
461,59,119834,21,2,1:2:0:0:
420,40,119909,1,0,0:0:0:0:
375,43,119984,1,0,0:0:0:0:
336,66,120059,1,0,0:0:0:0:
313,105,120134,1,0,1:0:0:0:
311,149,120209,1,0,0:0:0:0:
328,190,120284,1,0,0:0:0:0:
344,232,120359,1,0,0:0:0:0:
331,275,120434,1,0,1:0:0:0:
300,307,120509,1,0,0:0:0:0:
256,319,120584,1,0,0:0:0:0:
212,307,120659,1,0,0:0:0:0:
181,275,120734,1,0,1:0:0:0:
168,232,120809,1,0,0:0:0:0:
184,190,120884,1,0,0:0:0:0:
201,149,120959,1,0,0:0:0:0:
199,105,121034,21,2,1:2:0:0:
176,66,121109,1,0,0:0:0:0:
137,43,121184,1,0,0:0:0:0:
92,40,121259,1,0,0:0:0:0:
51,59,121334,1,0,1:0:0:0:
23,94,121409,1,0,0:0:0:0:
16,138,121484,1,0,0:0:0:0:
29,180,121559,1,0,0:0:0:0:
60,212,121634,1,0,1:0:0:0:
76,252,121709,1,0,0:0:0:0:
72,296,121784,1,0,0:0:0:0:
48,332,121859,1,0,0:0:0:0:
8,356,121934,2,0,P|44:373|56:389,3,45,0|0|0|0,1:0|0:0|0:0|0:0,0:0:0:0:
135,354,122234,21,2,1:2:0:0:
176,337,122309,1,0,0:0:0:0:
220,335,122384,1,0,0:0:0:0:
261,351,122459,1,0,0:0:0:0:
305,358,122534,1,0,1:0:0:0:
349,354,122609,1,0,0:0:0:0:
388,333,122684,1,0,0:0:0:0:
411,294,122759,1,0,0:0:0:0:
414,249,122834,1,0,1:0:0:0:
395,207,122909,1,0,0:0:0:0:
359,179,122984,1,0,0:0:0:0:
314,173,123059,1,0,0:0:0:0:
271,187,123134,1,0,1:0:0:0:
234,213,123209,1,0,0:0:0:0:
191,227,123284,1,0,0:0:0:0:
146,221,123359,1,0,0:0:0:0:
110,193,123434,21,2,1:2:0:0:
91,151,123509,1,0,0:0:0:0:
94,106,123584,1,0,0:0:0:0:
117,67,123659,1,0,0:0:0:0:
156,46,123734,1,0,1:0:0:0:
200,42,123809,1,0,0:0:0:0:
244,49,123884,1,0,0:0:0:0:
285,65,123959,1,0,0:0:0:0:
329,63,124034,1,0,1:0:0:0:
370,44,124109,1,0,0:0:0:0:
413,30,124184,1,0,0:0:0:0:
457,27,124259,1,0,0:0:0:0:
499,41,124334,2,0,L|506:91,3,45,0|0|0|0,1:0|0:0|0:0|0:0,0:0:0:0:
481,201,124634,21,2,1:2:0:0:
444,226,124709,1,0,0:0:0:0:
399,231,124784,1,0,0:0:0:0:
357,213,124859,1,0,0:0:0:0:
326,180,124934,1,0,1:0:0:0:
304,219,125009,1,0,0:0:0:0:
266,243,125084,1,0,0:0:0:0:
221,246,125159,1,0,0:0:0:0:
180,227,125234,1,0,1:0:0:0:
136,213,125309,1,0,0:0:0:0:
91,217,125384,1,0,0:0:0:0:
56,245,125459,1,0,0:0:0:0:
37,285,125534,2,0,P|31:317|14:341,3,45,0|0|0|0,1:0|0:0|0:0|0:0,0:0:0:0:
108,136,125834,22,0,P|98:115|96:93,3,45,2|0|0|0,1:2|0:0|0:0|0:0,0:0:0:0:
186,305,126134,2,0,P|180:337|163:361,3,45,0|0|0|0,1:0|0:0|0:0|0:0,0:0:0:0:
259,129,126434,2,0,P|249:108|247:86,3,45,0|0|0|0,1:0|0:0|0:0|0:0,0:0:0:0:
374,298,126734,2,0,P|368:330|351:354,3,45,0|0|0|0,1:0|0:0|0:0|0:0,0:0:0:0:
488,253,127034,21,2,1:2:0:0:
446,270,127109,1,0,0:0:0:0:
401,271,127184,1,0,0:0:0:0:
359,253,127259,1,0,0:0:0:0:
330,218,127334,1,0,1:0:0:0:
315,175,127409,1,0,0:0:0:0:
321,130,127484,1,0,0:0:0:0:
351,96,127559,1,0,0:0:0:0:
370,136,127634,1,0,1:0:0:0:
376,181,127709,1,0,0:0:0:0:
361,224,127784,1,0,0:0:0:0:
332,259,127859,1,0,0:0:0:0:
290,277,127934,1,0,1:0:0:0:
245,278,128009,1,0,0:0:0:0:
204,259,128084,1,0,0:0:0:0:
172,226,128159,1,0,0:0:0:0:
156,183,128234,21,2,1:2:0:0:
119,208,128309,1,0,0:0:0:0:
74,208,128384,1,0,0:0:0:0:
35,184,128459,1,0,0:0:0:0:
16,142,128534,1,0,1:0:0:0:
23,97,128609,1,0,0:0:0:0:
53,64,128684,1,0,0:0:0:0:
96,52,128759,1,0,0:0:0:0:
138,65,128834,1,0,1:0:0:0:
168,98,128909,1,0,0:0:0:0:
171,142,128984,1,0,0:0:0:0:
188,183,129059,1,0,0:0:0:0:
222,212,129134,1,0,1:0:0:0:
266,221,129209,1,0,0:0:0:0:
309,208,129284,1,0,0:0:0:0:
342,178,129359,1,0,0:0:0:0:
353,134,129434,21,2,1:2:0:0:
384,165,129509,1,0,0:0:0:0:
426,179,129584,1,0,0:0:0:0:
469,169,129659,1,0,0:0:0:0:
501,138,129734,1,0,1:0:0:0:
511,94,129809,1,0,0:0:0:0:
501,49,129884,1,0,0:0:0:0:
466,19,129959,1,0,0:0:0:0:
421,9,130034,1,0,1:0:0:0:
378,25,130109,1,0,0:0:0:0:
340,49,130184,1,0,0:0:0:0:
295,57,130259,1,0,0:0:0:0:
251,45,130334,1,0,1:0:0:0:
216,16,130409,1,0,0:0:0:0:
225,60,130484,1,0,0:0:0:0:
195,93,130559,1,0,0:0:0:0:
154,112,130634,22,0,L|104:105,3,45,2|0|0|0,1:2|0:0|0:0|0:0,0:0:0:0:
223,214,130934,2,0,L|267:220,3,45,0|0|0|0,1:0|0:0|0:0|0:0,0:0:0:0:
96,227,131234,2,0,L|46:220,3,45,0|0|0|0,1:0|0:0|0:0|0:0,0:0:0:0:
141,332,131534,2,0,L|185:338,3,45,0|0|0|0,1:0|0:0|0:0|0:0,0:0:0:0:
270,344,131834,21,2,1:2:0:0:
315,315,131909,1,0,0:0:0:0:
367,301,131984,1,0,1:0:0:0:
421,301,132059,1,0,0:0:0:0:
471,318,132134,1,0,1:0:0:0:
489,267,132209,1,0,0:0:0:0:
486,213,132284,1,0,1:0:0:0:
452,170,132359,1,0,0:0:0:0:
402,148,132434,1,0,1:0:0:0:
349,159,132509,1,0,0:0:0:0:
299,181,132584,1,0,1:0:0:0:
255,213,132659,1,0,0:0:0:0:
203,229,132734,1,0,1:0:0:0:
149,221,132809,1,0,0:0:0:0:
99,199,132884,1,0,1:0:0:0:
71,152,132959,1,0,0:0:0:0:
70,98,133034,21,2,1:2:0:0:
106,52,133109,1,0,0:0:0:0:
162,35,133184,1,0,1:0:0:0:
218,51,133259,1,0,0:0:0:0:
252,97,133334,1,0,1:0:0:0:
252,155,133409,1,0,0:0:0:0:
220,204,133484,1,0,1:0:0:0:
200,259,133559,1,0,0:0:0:0:
212,316,133634,1,0,1:0:0:0:
258,351,133709,1,0,0:0:0:0:
316,358,133784,1,0,1:0:0:0:
362,323,133859,1,0,0:0:0:0:
374,266,133934,1,0,1:0:0:0:
354,211,134009,1,0,0:0:0:0:
331,156,134084,1,0,1:0:0:0:
325,97,134159,1,0,0:0:0:0:
361,51,134234,22,0,P|400:34|454:48,1,90,14|0,1:2|0:0,0:0:0:0:
446,331,134534,2,0,P|402:340|362:323,1,90,8|0,1:2|0:0,0:0:0:0:
65,53,134834,2,0,P|109:43|150:61,1,90,8|0,1:2|0:0,0:0:0:0:
150,333,135134,2,0,P|110:350|66:341,1,90,8|0,1:2|0:0,0:0:0:0:
10,203,135434,21,2,1:2:0:0:
47,178,135509,1,0,0:0:0:0:
90,167,135584,1,0,0:0:0:0:
134,167,135659,1,0,0:0:0:0:
176,182,135734,1,0,1:0:0:0:
210,210,135809,1,0,0:0:0:0:
233,248,135884,1,0,0:0:0:0:
244,291,135959,1,0,0:0:0:0:
241,335,136034,1,0,1:0:0:0:
244,291,136109,1,0,0:0:0:0:
263,250,136184,1,0,0:0:0:0:
291,216,136259,1,0,0:0:0:0:
329,193,136334,1,0,1:0:0:0:
373,185,136409,1,0,0:0:0:0:
416,192,136484,1,0,0:0:0:0:
457,209,136559,1,0,0:0:0:0:
490,240,136634,21,2,1:2:0:0:
447,253,136709,1,0,0:0:0:0:
402,245,136784,1,0,0:0:0:0:
360,226,136859,1,0,0:0:0:0:
329,193,136934,1,0,1:0:0:0:
311,151,137009,1,0,0:0:0:0:
280,118,137084,1,0,0:0:0:0:
239,98,137159,1,0,0:0:0:0:
194,90,137234,1,0,1:0:0:0:
149,93,137309,1,0,0:0:0:0:
106,108,137384,1,0,0:0:0:0:
71,137,137459,1,0,0:0:0:0:
46,174,137534,1,0,1:0:0:0:
39,218,137609,1,0,0:0:0:0:
44,262,137684,1,0,0:0:0:0:
62,303,137759,1,0,0:0:0:0:
91,336,137834,21,2,1:2:0:0:
130,356,137909,1,0,0:0:0:0:
174,363,137984,1,0,0:0:0:0:
218,360,138059,1,0,0:0:0:0:
261,347,138134,2,0,L|271:295,3,45,0|0|0|0,1:0|0:0|0:0|0:0,0:0:0:0:
360,226,138434,6,0,L|368:270,3,45,0|0|0|0,1:0|0:0|0:0|0:0,0:0:0:0:
457,350,138734,2,0,L|467:298,3,45,0|0|0|0,1:0|0:0|0:0|0:0,0:0:0:0:
506,172,139034,5,2,1:2:0:0:
467,148,139109,1,0,0:0:0:0:
442,110,139184,1,0,0:0:0:0:
432,66,139259,1,0,0:0:0:0:
444,22,139334,1,0,1:0:0:0:
412,53,139409,1,0,0:0:0:0:
371,73,139484,1,0,0:0:0:0:
326,81,139559,1,0,0:0:0:0:
281,75,139634,1,0,1:0:0:0:
242,52,139709,1,0,0:0:0:0:
200,34,139784,1,0,0:0:0:0:
155,26,139859,1,0,0:0:0:0:
110,34,139934,1,0,1:0:0:0:
73,59,140009,1,0,0:0:0:0:
49,97,140084,1,0,0:0:0:0:
44,139,140159,1,0,0:0:0:0:
50,178,140234,21,2,1:2:0:0:
78,213,140309,1,0,0:0:0:0:
106,247,140384,1,0,0:0:0:0:
136,280,140459,1,0,0:0:0:0:
143,324,140534,1,0,1:0:0:0:
122,364,140609,1,0,0:0:0:0:
82,379,140684,1,0,0:0:0:0:
37,373,140759,1,0,0:0:0:0:
6,339,140834,1,0,1:0:0:0:
6,294,140909,1,0,0:0:0:0:
27,254,140984,1,0,0:0:0:0:
67,234,141059,1,0,0:0:0:0:
111,227,141134,1,0,1:0:0:0:
155,229,141209,1,0,0:0:0:0:
195,249,141284,1,0,0:0:0:0:
234,270,141359,1,0,0:0:0:0:
278,278,141434,21,2,1:2:0:0:
321,268,141509,1,0,0:0:0:0:
359,245,141584,1,0,0:0:0:0:
388,210,141659,1,0,0:0:0:0:
402,167,141734,1,0,1:0:0:0:
398,122,141809,1,0,0:0:0:0:
378,81,141884,1,0,0:0:0:0:
345,50,141959,1,0,0:0:0:0:
303,33,142034,1,0,1:0:0:0:
258,33,142109,1,0,0:0:0:0:
215,48,142184,1,0,0:0:0:0:
182,78,142259,1,0,0:0:0:0:
160,117,142334,1,0,1:0:0:0:
122,140,142409,1,0,0:0:0:0:
77,143,142484,1,0,0:0:0:0:
36,124,142559,1,0,0:0:0:0:
8,88,142634,22,0,L|15:42,3,45,2|0|0|0,1:2|0:0|0:0|0:0,0:0:0:0:
102,214,142934,2,0,L|95:258,3,45,0|0|0|0,1:0|0:0|0:0|0:0,0:0:0:0:
264,157,143234,6,0,L|271:111,3,45,0|0|0|0,1:0|0:0|0:0|0:0,0:0:0:0:
359,282,143534,2,0,L|352:326,3,45,0|0|0|0,1:0|0:0|0:0|0:0,0:0:0:0:
442,236,143834,5,2,1:2:0:0:
410,203,143909,1,0,0:0:0:0:
366,190,143984,1,0,0:0:0:0:
321,197,144059,1,0,0:0:0:0:
285,224,144134,1,0,1:0:0:0:
267,265,144209,1,0,0:0:0:0:
264,309,144284,1,0,0:0:0:0:
223,291,144359,1,0,0:0:0:0:
178,297,144434,1,2,1:2:0:0:
143,325,144509,1,0,0:0:0:0:
100,339,144584,1,0,0:0:0:0:
55,334,144659,1,0,0:0:0:0:
19,306,144734,1,0,1:0:0:0:
7,262,144809,1,0,0:0:0:0:
19,218,144884,1,0,0:0:0:0:
53,189,144959,1,0,0:0:0:0:
97,183,145034,21,2,1:2:0:0:
137,202,145109,1,0,0:0:0:0:
181,206,145184,1,0,0:0:0:0:
223,190,145259,1,0,0:0:0:0:
253,157,145334,1,0,1:0:0:0:
281,122,145409,1,0,0:0:0:0:
320,99,145484,1,0,0:0:0:0:
364,95,145559,1,0,0:0:0:0:
407,107,145634,1,2,1:2:0:0:
440,136,145709,1,0,0:0:0:0:
459,176,145784,1,0,0:0:0:0:
459,221,145859,1,0,0:0:0:0:
444,263,145934,1,0,1:0:0:0:
411,294,146009,1,0,0:0:0:0:
368,309,146084,1,0,0:0:0:0:
323,305,146159,1,0,0:0:0:0:
282,285,146234,21,2,1:2:0:0:
311,250,146309,1,0,0:0:0:0:
312,205,146384,1,0,0:0:0:0:
290,165,146459,1,0,0:0:0:0:
250,144,146534,1,0,1:0:0:0:
205,148,146609,1,0,0:0:0:0:
170,177,146684,1,0,0:0:0:0:
155,219,146759,1,0,0:0:0:0:
168,261,146834,1,0,1:0:0:0:
123,253,146909,1,0,0:0:0:0:
86,280,146984,1,0,0:0:0:0:
75,326,147059,1,0,0:0:0:0:
95,365,147134,1,0,1:0:0:0:
139,381,147209,1,0,0:0:0:0:
182,370,147284,1,0,0:0:0:0:
224,354,147359,1,0,0:0:0:0:
268,358,147434,22,0,L|325:370,3,45,2|0|0|0,1:2|0:0|0:0|0:0,0:0:0:0:
230,223,147734,2,0,L|185:213,3,45,0|0|0|0,1:0|0:0|0:0|0:0,0:0:0:0:
405,237,148034,6,0,L|462:249,3,45,0|0|0|0,1:0|0:0|0:0|0:0,0:0:0:0:
367,102,148334,2,0,L|322:92,3,45,0|0|0|0,1:0|0:0|0:0|0:0,0:0:0:0:
255,16,148634,5,6,1:2:0:0:
201,9,148709,1,0,0:0:0:0:
153,34,148784,1,0,1:0:0:0:
126,81,148859,1,0,0:0:0:0:
130,134,148934,1,0,1:0:0:0:
161,177,149009,1,0,0:0:0:0:
211,195,149084,1,0,1:0:0:0:
264,185,149159,1,0,0:0:0:0:
313,163,149234,1,0,1:0:0:0:
367,168,149309,1,0,0:0:0:0:
408,202,149384,1,0,1:0:0:0:
423,253,149459,1,0,0:0:0:0:
408,305,149534,1,0,1:0:0:0:
367,340,149609,1,0,0:0:0:0:
313,347,149684,1,0,1:0:0:0:
264,322,149759,1,0,0:0:0:0:
212,304,149834,21,6,1:2:0:0:
158,312,149909,1,0,0:0:0:0:
109,336,149984,1,0,1:0:0:0:
55,329,150059,1,0,0:0:0:0:
20,287,150134,1,0,1:0:0:0:
19,233,150209,1,0,0:0:0:0:
55,193,150284,1,0,1:0:0:0:
108,181,150359,1,0,0:0:0:0:
154,207,150434,1,0,1:0:0:0:
207,216,150509,1,0,0:0:0:0:
258,198,150584,1,0,1:0:0:0:
296,160,150659,1,0,0:0:0:0:
310,107,150734,1,0,1:0:0:0:
292,56,150809,1,0,0:0:0:0:
258,15,150884,1,0,1:0:0:0:
202,0,150959,1,0,0:0:0:0:
146,18,151034,21,6,1:2:0:0:
104,58,151109,1,0,0:0:0:0:
92,115,151184,1,0,1:0:0:0:
111,170,151259,1,0,0:0:0:0:
137,221,151334,1,0,1:0:0:0:
135,279,151409,1,0,0:0:0:0:
107,330,151484,1,0,1:0:0:0:
49,341,151559,1,0,0:0:0:0:
3,303,151634,21,6,1:2:0:0:
1,244,151709,1,0,0:0:0:0:
42,203,151784,1,0,1:0:0:0:
100,205,151859,1,0,0:0:0:0:
148,237,151934,1,0,1:0:0:0:
200,263,152009,1,0,0:0:0:0:
258,261,152084,1,0,1:0:0:0:
307,229,152159,1,0,0:0:0:0:
355,196,152234,21,6,1:2:0:0:
409,182,152309,1,0,0:0:0:0:
465,201,152384,1,0,1:0:0:0:
493,252,152459,1,0,0:0:0:0:
481,309,152534,1,6,1:2:0:0:
433,342,152609,1,0,0:0:0:0:
374,335,152684,1,0,1:0:0:0:
336,290,152759,1,0,0:0:0:0:
337,231,152834,1,6,1:2:0:0:
350,174,152909,1,0,0:0:0:0:
328,119,152984,1,0,1:0:0:0:
277,89,153059,1,0,0:0:0:0:
218,94,153134,2,0,L|200:123,6,22.5,6|0|0|0|0|0|0,1:2|0:0|0:0|0:0|0:0|0:0|0:0,0:0:0:0:
176,150,153434,6,0,P|118:144|69:184,1,107.999996704102,6|0,1:0|0:0,0:0:0:0:
410,265,153734,2,0,P|455:292|507:285,1,107.999996704102,0|0,1:0|0:0,0:0:0:0:
161,32,154034,2,0,L|190:262,1,215.999993408203,2|0,1:0|1:0,0:0:0:0:
6,349,154484,1,0,0:0:0:0:
74,239,154634,21,2,1:0:0:0:
119,201,154709,1,0,0:0:0:0:
128,142,154784,1,2,0:0:0:0:
115,83,154859,1,0,0:0:0:0:
140,29,154934,1,0,1:0:0:0:
192,1,155009,1,0,0:0:0:0:
246,23,155084,1,2,0:0:0:0:
271,77,155159,1,0,0:0:0:0:
276,136,155234,2,2,P|265:209|325:277,1,161.999995056153,2|2,1:0|0:1,0:0:0:0:
407,293,155534,2,2,L|517:277,1,107.999996704102,2|2,1:2|0:0,0:0:0:0:
276,136,155834,21,2,1:0:0:0:
219,117,155909,1,0,0:0:0:0:
159,120,155984,1,2,0:0:0:0:
102,139,156059,1,0,0:0:0:0:
58,179,156134,1,0,1:0:0:0:
38,235,156209,1,0,0:0:0:0:
40,294,156284,1,2,0:0:0:0:
66,346,156359,1,0,0:0:0:0:
114,379,156434,1,2,1:0:0:0:
173,380,156509,1,0,0:0:0:0:
230,366,156584,1,2,0:0:0:0:
283,339,156659,1,0,0:0:0:0:
334,309,156734,1,0,1:0:0:0:
392,300,156809,1,0,0:0:0:0:
449,313,156884,1,2,0:0:0:0:
497,279,156959,1,0,0:0:0:0:
507,220,157034,21,2,1:0:0:0:
473,171,157109,1,0,0:0:0:0:
414,160,157184,1,2,0:0:0:0:
363,191,157259,1,0,0:0:0:0:
318,230,157334,1,2,1:0:0:0:
259,239,157409,1,0,0:0:0:0:
204,215,157484,1,2,0:0:0:0:
169,166,157559,1,0,0:0:0:0:
165,106,157634,1,2,1:0:0:0:
194,54,157709,1,0,0:0:0:0:
246,25,157784,1,2,0:0:0:0:
305,26,157859,1,0,0:0:0:0:
355,57,157934,1,2,1:0:0:0:
377,111,158009,1,0,0:0:0:0:
372,170,158084,1,2,0:0:0:0:
336,217,158159,1,0,0:0:0:0:
317,273,158234,22,0,P|327:339|367:366,1,107.999996704102,2|0,1:0|0:0,0:0:0:0:
189,140,158534,2,0,P|133:176|125:224,1,107.999996704102,0|0,1:0|0:0,0:0:0:0:
510,79,158834,2,0,B|455:52|405:89|405:89|355:125|307:105,1,215.999993408203,2|0,1:0|1:0,0:0:0:0:
81,18,159284,1,0,0:0:0:0:
48,294,159434,21,2,1:0:0:0:
93,255,159509,1,0,0:0:0:0:
150,238,159584,1,2,0:0:0:0:
209,239,159659,1,0,0:0:0:0:
265,257,159734,1,0,0:0:0:0:
324,258,159809,1,0,0:0:0:0:
375,228,159884,1,2,0:0:0:0:
406,177,159959,1,0,0:0:0:0:
400,117,160034,2,2,P|349:58|251:54,1,161.999995056153,2|2,1:0|0:1,0:0:0:0:
188,94,160334,2,2,L|170:211,1,107.999996704102,2|2,1:2|0:0,0:0:0:0:
322,358,160634,21,2,1:0:0:0:
280,315,160709,1,0,0:0:0:0:
265,257,160784,1,2,0:0:0:0:
276,198,160859,1,0,0:0:0:0:
316,154,160934,1,0,1:0:0:0:
370,130,161009,1,0,0:0:0:0:
429,137,161084,1,2,0:0:0:0:
477,170,161159,1,0,0:0:0:0:
505,221,161234,1,2,1:0:0:0:
508,280,161309,1,0,0:0:0:0:
482,333,161384,1,2,0:0:0:0:
429,360,161459,1,0,0:0:0:0:
370,350,161534,1,0,1:0:0:0:
319,318,161609,1,0,0:0:0:0:
259,318,161684,1,2,0:0:0:0:
202,336,161759,1,0,0:0:0:0:
155,372,161834,21,2,1:0:0:0:
137,315,161909,1,0,0:0:0:0:
89,278,161984,1,2,0:0:0:0:
30,267,162059,1,0,0:0:0:0:
0,219,162134,1,2,1:0:0:0:
7,160,162209,1,0,0:0:0:0:
53,123,162284,1,2,0:0:0:0:
112,125,162359,1,0,0:0:0:0:
153,167,162434,1,2,1:0:0:0:
206,193,162509,1,0,0:0:0:0:
264,183,162584,1,2,0:0:0:0:
306,141,162659,1,0,0:0:0:0:
314,82,162734,5,2,1:0:0:0:
287,29,162809,1,0,0:0:0:0:
233,3,162884,1,2,0:0:0:0:
174,11,162959,1,0,0:0:0:0:
134,54,163034,6,0,P|88:82|35:79,1,107.999996704102,6|0,1:0|0:0,0:0:0:0:
323,248,163334,2,0,P|368:276|421:273,1,107.999996704102,2|0,1:0|0:0,0:0:0:0:
220,98,163634,2,0,P|116:83|42:157,1,215.999993408203,2|0,1:0|1:0,0:0:0:0:
323,248,164084,1,0,0:0:0:0:
262,22,164234,21,2,1:0:0:0:
235,74,164309,1,0,0:0:0:0:
228,133,164384,1,2,0:0:0:0:
244,190,164459,1,0,0:0:0:0:
274,241,164534,1,0,1:0:0:0:
295,296,164609,1,0,0:0:0:0:
274,351,164684,1,2,0:0:0:0:
219,374,164759,1,0,0:0:0:0:
162,354,164834,2,2,P|137:293|191:219,1,161.999995056153,2|2,1:0|0:1,0:0:0:0:
116,152,165134,2,2,L|8:134,1,107.999996704102,2|2,1:2|0:0,0:0:0:0:
235,74,165434,21,2,1:0:0:0:
293,63,165509,1,0,0:0:0:0:
349,82,165584,1,2,0:0:0:0:
391,123,165659,1,0,0:0:0:0:
408,179,165734,1,0,1:0:0:0:
398,237,165809,1,0,0:0:0:0:
361,283,165884,1,2,0:0:0:0:
306,307,165959,1,0,0:0:0:0:
246,302,166034,1,2,1:0:0:0:
197,268,166109,1,0,0:0:0:0:
140,248,166184,1,2,0:0:0:0:
82,263,166259,1,0,0:0:0:0:
58,317,166334,1,0,1:0:0:0:
84,370,166409,1,0,0:0:0:0:
141,383,166484,1,2,0:0:0:0:
188,347,166559,1,0,0:0:0:0:
190,287,166634,21,2,1:0:0:0:
161,235,166709,1,0,0:0:0:0:
163,175,166784,1,2,0:0:0:0:
179,117,166859,1,0,0:0:0:0:
226,81,166934,1,2,1:0:0:0:
285,85,167009,1,0,0:0:0:0:
333,119,167084,1,2,0:0:0:0:
353,174,167159,1,0,0:0:0:0:
334,230,167234,1,2,1:0:0:0:
361,283,167309,1,0,0:0:0:0:
418,298,167384,1,2,0:0:0:0:
466,264,167459,1,0,0:0:0:0:
475,205,167534,1,2,1:0:0:0:
435,160,167609,1,0,0:0:0:0:
420,102,167684,1,2,0:0:0:0:
448,49,167759,1,0,0:0:0:0:
504,30,167834,21,6,1:2:0:0:
404,226,167984,1,0,1:0:0:0:
254,175,168134,1,0,1:0:0:0:
127,314,168284,1,0,1:0:0:0:
361,283,168434,1,2,1:2:0:0:
163,175,168584,1,0,1:0:0:0:
333,119,168734,1,0,1:0:0:0:
206,10,168884,1,0,1:0:0:0:
266,325,169034,21,6,1:2:0:0:
333,119,169184,1,0,1:0:0:0:
127,314,169334,1,0,1:0:0:0:
468,339,169484,1,0,1:0:0:0:
163,175,169634,1,2,1:2:0:0:
445,86,169784,1,0,1:0:0:0:
265,227,169934,1,2,1:2:0:0:
468,339,170084,1,0,1:0:0:0:
445,86,170234,22,0,L|338:72,1,107.999996704102,6|0,1:2|1:0,0:0:0:0:
258,308,170534,2,0,L|365:322,1,107.999996704102,0|4,1:0|1:2,0:0:0:0:
163,175,170834,2,0,B|122:142|82:155|82:155|39:168|5:142,2,161.999995056153,6|4|4,1:2|1:2|1:2,0:0:0:0:
347,350,171434,22,0,P|366:300|486:288,1,161.999995056153,6|0,1:2|0:0,0:0:0:0:
379,196,171734,2,0,P|323:191|277:161,1,107.999996704102,6|0,1:2|0:0,0:0:0:0:
12,336,172034,1,6,1:2:0:0:
70,308,172109,1,0,0:0:0:0:
133,297,172184,1,2,0:0:0:0:
195,313,172259,1,0,0:0:0:0:
258,325,172334,1,6,1:2:0:0:
320,341,172409,1,0,0:0:0:0:
382,357,172484,1,2,0:0:0:0:
445,346,172559,1,0,0:0:0:0:
503,318,172634,21,6,1:2:0:0:
260,85,177434,5,2,0:0:0:0:
256,93,177509,1,0,0:0:0:0:
252,101,177584,1,0,0:0:0:0:
250,109,177659,1,0,0:0:0:0:
248,117,177734,1,0,0:0:0:0:
248,125,177809,1,0,0:0:0:0:
247,133,177884,1,0,0:0:0:0:
248,141,177959,1,0,0:0:0:0:
249,149,178034,1,2,0:0:0:0:
250,157,178109,1,0,0:0:0:0:
252,165,178184,1,0,0:0:0:0:
254,173,178259,1,0,0:0:0:0:
258,181,178334,1,0,0:0:0:0:
262,188,178409,1,0,0:0:0:0:
267,195,178484,1,0,0:0:0:0:
271,202,178559,1,0,0:0:0:0:
278,209,178634,21,0,0:0:0:0:
286,219,178709,1,0,0:0:0:0:
293,231,178784,1,0,0:0:0:0:
301,248,178859,1,0,0:0:0:0:
305,266,178934,1,2,0:0:0:0:
303,290,179009,1,0,0:0:0:0:
293,312,179084,1,0,0:0:0:0:
272,329,179159,1,0,0:0:0:0:
243,340,179234,21,2,0:0:0:0:
210,336,179309,1,0,0:0:0:0:
180,319,179384,1,0,0:0:0:0:
165,286,179459,1,0,0:0:0:0:
164,250,179534,1,2,0:0:0:0:
181,218,179609,1,0,0:0:0:0:
211,198,179684,1,0,0:0:0:0:
245,187,179759,1,0,0:0:0:0:
282,170,179834,21,2,0:0:0:0:
320,147,179909,1,0,0:0:0:0:
338,102,179984,1,0,0:0:0:0:
328,58,180059,1,0,0:0:0:0:
292,29,180134,1,0,0:0:0:0:
247,28,180209,1,0,0:0:0:0:
211,55,180284,1,0,0:0:0:0:
197,97,180359,1,0,0:0:0:0:
170,133,180434,21,2,0:0:0:0:
130,154,180509,1,0,0:0:0:0:
85,157,180584,1,0,0:0:0:0:
33,173,180659,1,0,0:0:0:0:
1,217,180734,1,0,0:0:0:0:
1,271,180809,1,0,0:0:0:0:
25,318,180884,1,0,0:0:0:0:
73,342,180959,1,0,0:0:0:0:
126,336,181034,21,2,0:0:0:0:
179,303,181109,1,0,0:0:0:0:
239,285,181184,1,0,0:0:0:0:
301,291,181259,1,0,0:0:0:0:
355,322,181334,1,0,0:0:0:0:
413,345,181409,1,0,0:0:0:0:
471,322,181484,1,0,0:0:0:0:
495,263,181559,1,0,0:0:0:0:
465,207,181634,1,2,0:0:0:0:
404,188,181709,1,0,0:0:0:0:
341,199,181784,1,0,0:0:0:0:
287,166,181859,1,0,0:0:0:0:
265,106,181934,1,0,0:0:0:0:
285,46,182009,1,0,0:0:0:0:
339,14,182084,1,0,0:0:0:0:
401,21,182159,1,0,0:0:0:0:
441,71,182234,21,4,1:0:0:0:
417,226,182384,1,0,0:0:0:0:
262,198,182534,1,0,0:0:0:0:
285,46,182684,1,0,0:0:0:0:
482,163,182834,21,0,0:0:0:0:
354,300,182984,1,0,0:0:0:0:
182,145,183134,1,0,0:0:0:0:
441,71,183284,1,0,0:0:0:0:
354,300,183434,21,4,0:0:0:0:
370,20,183584,1,0,0:0:0:0:
370,20,183659,1,0,0:0:0:0:
370,20,183734,1,4,0:0:0:0:
354,300,183884,1,0,0:0:0:0:
182,145,184034,1,4,0:0:0:0:
482,163,184184,1,0,0:0:0:0:
182,145,184334,1,4,0:0:0:0:
81,218,184634,21,6,1:2:0:0:
53,253,184709,1,0,0:0:0:0:
49,297,184784,1,0,0:0:0:0:
69,337,184859,1,0,0:0:0:0:
108,359,184934,1,0,1:0:0:0:
152,357,185009,1,0,0:0:0:0:
189,332,185084,1,0,0:0:0:0:
233,323,185159,1,0,0:0:0:0:
268,350,185234,1,0,1:0:0:0:
312,353,185309,1,0,0:0:0:0:
352,334,185384,1,0,0:0:0:0:
374,295,185459,1,0,0:0:0:0:
372,250,185534,1,0,1:0:0:0:
345,213,185609,1,0,0:0:0:0:
302,197,185684,1,0,0:0:0:0:
258,209,185759,1,0,0:0:0:0:
214,198,185834,21,2,1:2:0:0:
180,167,185909,1,0,0:0:0:0:
164,124,185984,1,0,0:0:0:0:
170,79,186059,1,0,0:0:0:0:
198,44,186134,1,0,1:0:0:0:
238,24,186209,1,0,0:0:0:0:
282,25,186284,1,0,0:0:0:0:
321,47,186359,1,0,0:0:0:0:
346,84,186434,1,0,1:0:0:0:
350,128,186509,1,0,0:0:0:0:
334,170,186584,1,0,0:0:0:0:
300,200,186659,1,0,0:0:0:0:
275,238,186734,1,0,1:0:0:0:
268,282,186809,1,0,0:0:0:0:
286,322,186884,1,0,0:0:0:0:
323,346,186959,1,0,0:0:0:0:
367,347,187034,21,2,1:2:0:0:
405,323,187109,1,0,0:0:0:0:
425,282,187184,1,0,0:0:0:0:
417,237,187259,1,0,0:0:0:0:
387,203,187334,1,0,1:0:0:0:
343,192,187409,1,0,0:0:0:0:
299,202,187484,1,0,0:0:0:0:
254,199,187559,1,0,0:0:0:0:
212,181,187634,1,0,1:0:0:0:
187,143,187709,1,0,0:0:0:0:
176,99,187784,1,0,0:0:0:0:
143,67,187859,1,0,0:0:0:0:
98,59,187934,1,0,1:0:0:0:
57,77,188009,1,0,0:0:0:0:
32,114,188084,1,0,0:0:0:0:
32,159,188159,1,0,0:0:0:0:
55,197,188234,21,2,1:2:0:0:
94,217,188309,1,0,0:0:0:0:
138,226,188384,1,0,0:0:0:0:
178,245,188459,1,0,0:0:0:0:
204,281,188534,1,0,1:0:0:0:
204,326,188609,1,0,0:0:0:0:
181,364,188684,1,0,0:0:0:0:
140,383,188759,1,0,0:0:0:0:
95,376,188834,1,0,1:0:0:0:
59,348,188909,1,0,0:0:0:0:
49,303,188984,1,0,0:0:0:0:
62,260,189059,1,0,0:0:0:0:
97,232,189134,1,0,1:0:0:0:
126,198,189209,1,0,0:0:0:0:
142,156,189284,1,0,0:0:0:0:
151,112,189359,1,0,0:0:0:0:
148,67,189434,22,0,L|138:16,3,45,2|0|0|0,1:2|0:0|0:0|0:0,0:0:0:0:
247,126,189734,2,0,L|255:170,3,45,0|0|0|0,1:0|0:0|0:0|0:0,0:0:0:0:
383,205,190034,2,0,L|373:154,3,45,0|0|0|0,1:0|0:0|0:0|0:0,0:0:0:0:
482,264,190334,2,0,L|490:308,3,45,0|0|0|0,1:0|0:0|0:0|0:0,0:0:0:0:
408,366,190634,21,2,1:2:0:0:
370,341,190709,1,0,0:0:0:0:
328,324,190784,1,0,0:0:0:0:
283,320,190859,1,0,0:0:0:0:
238,327,190934,1,0,1:0:0:0:
193,332,191009,1,0,0:0:0:0:
150,316,191084,1,0,0:0:0:0:
115,286,191159,1,0,0:0:0:0:
105,241,191234,1,0,1:0:0:0:
61,250,191309,1,0,0:0:0:0:
20,230,191384,1,0,0:0:0:0:
1,189,191459,1,0,0:0:0:0:
11,145,191534,1,0,1:0:0:0:
46,117,191609,1,0,0:0:0:0:
90,116,191684,1,0,0:0:0:0:
126,141,191759,1,0,0:0:0:0:
169,150,191834,21,2,1:2:0:0:
212,138,191909,1,0,0:0:0:0:
244,107,191984,1,0,0:0:0:0:
258,64,192059,1,0,0:0:0:0:
251,19,192134,1,0,1:0:0:0:
289,42,192209,1,0,0:0:0:0:
333,44,192284,1,0,0:0:0:0:
377,38,192359,1,0,0:0:0:0:
419,23,192434,1,0,1:0:0:0:
463,25,192509,1,0,0:0:0:0:
493,57,192584,1,0,0:0:0:0:
502,101,192659,1,0,0:0:0:0:
480,140,192734,1,0,1:0:0:0:
438,157,192809,1,0,0:0:0:0:
394,146,192884,1,0,0:0:0:0:
349,144,192959,1,0,0:0:0:0:
308,163,193034,21,2,1:2:0:0:
282,199,193109,1,0,0:0:0:0:
276,243,193184,1,0,0:0:0:0:
294,283,193259,1,0,0:0:0:0:
289,327,193334,1,0,1:0:0:0:
260,361,193409,1,0,0:0:0:0:
217,374,193484,1,0,0:0:0:0:
173,363,193559,1,0,0:0:0:0:
144,329,193634,1,0,1:0:0:0:
139,285,193709,1,0,0:0:0:0:
157,245,193784,1,0,0:0:0:0:
151,201,193859,1,0,0:0:0:0:
132,160,193934,1,0,1:0:0:0:
95,133,194009,1,0,0:0:0:0:
63,101,194084,1,0,0:0:0:0:
49,57,194159,1,0,0:0:0:0:
53,12,194234,22,0,L|100:3,3,45,2|0|0|0,1:2|0:0|0:0|0:0,0:0:0:0:
194,68,194534,2,0,L|241:59,3,45,0|0|0|0,1:0|0:0|0:0|0:0,0:0:0:0:
339,172,194834,2,0,L|294:163,3,45,0|0|0|0,1:0|0:0|0:0|0:0,0:0:0:0:
216,247,195134,2,0,L|171:238,3,45,0|0|0|0,1:0|0:0|0:0|0:0,0:0:0:0:
258,362,195434,21,2,1:2:0:0:
238,321,195509,1,0,2:0:0:0:
232,277,195584,1,0,2:0:0:0:
236,231,195659,1,0,2:0:0:0:
259,191,195734,1,0,1:0:0:0:
275,148,195809,1,0,2:0:0:0:
279,104,195884,1,0,2:0:0:0:
273,58,195959,1,0,2:0:0:0:
255,18,196034,1,0,1:0:0:0:
212,2,196109,1,0,0:0:0:0:
169,17,196184,1,0,2:0:0:0:
151,57,196259,1,0,2:0:0:0:
145,103,196334,1,0,1:0:0:0:
149,147,196409,1,0,2:0:0:0:
165,190,196484,1,0,2:0:0:0:
188,230,196559,1,0,2:0:0:0:
192,276,196634,21,2,1:2:0:0:
186,320,196709,1,0,2:0:0:0:
163,358,196784,1,0,2:0:0:0:
124,381,196859,1,0,0:0:0:0:
79,382,196934,1,0,1:0:0:0:
38,361,197009,1,0,0:0:0:0:
11,324,197084,1,0,0:0:0:0:
5,279,197159,1,0,0:0:0:0:
20,236,197234,1,0,1:0:0:0:
54,207,197309,1,0,0:0:0:0:
97,196,197384,1,0,0:0:0:0:
141,204,197459,1,0,0:0:0:0:
175,233,197534,1,0,1:0:0:0:
216,250,197609,1,0,0:0:0:0:
260,253,197684,1,0,0:0:0:0:
302,237,197759,1,0,0:0:0:0:
335,206,197834,22,0,P|348:178|351:154,3,45,2|0|0|0,1:2|0:0|0:0|0:0,0:0:0:0:
437,67,198134,2,0,P|442:88|452:108,3,45,0|0|0|0,1:0|0:0|0:0|0:0,0:0:0:0:
495,240,198434,2,0,L|449:233,3,45,0|0|0|0,1:0|0:0|0:0|0:0,0:0:0:0:
293,334,198734,2,0,L|337:327,3,45,0|0|0|0,1:0|0:0|0:0|0:0,0:0:0:0:
423,363,199034,21,2,1:2:0:0:
388,334,199109,1,0,0:0:0:0:
369,293,199184,1,0,0:0:0:0:
367,248,199259,1,0,0:0:0:0:
384,206,199334,1,0,1:0:0:0:
418,176,199409,1,0,0:0:0:0:
430,132,199484,1,0,0:0:0:0:
428,87,199559,1,0,0:0:0:0:
401,50,199634,1,0,1:0:0:0:
358,35,199709,1,0,0:0:0:0:
314,46,199784,1,0,0:0:0:0:
283,79,199859,1,0,0:0:0:0:
275,123,199934,1,0,1:0:0:0:
293,163,200009,1,0,0:0:0:0:
303,206,200084,1,0,0:0:0:0:
288,248,200159,1,0,0:0:0:0:
255,279,200234,21,2,1:2:0:0:
222,248,200309,1,0,0:0:0:0:
207,206,200384,1,0,0:0:0:0:
217,163,200459,1,0,0:0:0:0:
235,123,200534,1,0,1:0:0:0:
227,79,200609,1,0,0:0:0:0:
196,46,200684,1,0,0:0:0:0:
152,35,200759,1,0,0:0:0:0:
109,50,200834,1,0,1:0:0:0:
82,87,200909,1,0,0:0:0:0:
80,132,200984,1,0,0:0:0:0:
92,176,201059,1,0,0:0:0:0:
126,206,201134,1,0,1:0:0:0:
143,248,201209,1,0,0:0:0:0:
141,293,201284,1,0,0:0:0:0:
122,334,201359,1,0,0:0:0:0:
87,363,201434,21,2,1:2:0:0:
33,358,201509,1,0,0:0:0:0:
0,314,201584,1,0,1:0:0:0:
8,260,201659,1,0,0:0:0:0:
53,231,201734,1,0,1:0:0:0:
106,238,201809,1,0,0:0:0:0:
150,268,201884,1,0,1:0:0:0:
203,277,201959,1,0,0:0:0:0:
253,257,202034,1,0,1:0:0:0:
283,213,202109,1,0,0:0:0:0:
285,159,202184,1,0,1:0:0:0:
255,114,202259,1,0,0:0:0:0:
205,91,202334,1,0,1:0:0:0:
152,101,202409,1,0,0:0:0:0:
112,138,202484,1,0,1:0:0:0:
101,190,202559,1,0,0:0:0:0:
117,241,202634,21,2,1:2:0:0:
168,268,202709,1,0,0:0:0:0:
226,271,202784,1,0,1:0:0:0:
283,282,202859,1,0,0:0:0:0:
323,320,202934,1,0,1:0:0:0:
371,352,203009,1,0,0:0:0:0:
429,353,203084,1,0,1:0:0:0:
480,325,203159,1,0,0:0:0:0:
509,274,203234,1,0,1:0:0:0:
506,215,203309,1,0,0:0:0:0:
475,166,203384,1,0,1:0:0:0:
421,141,203459,1,0,0:0:0:0:
362,148,203534,1,0,1:0:0:0:
318,186,203609,1,0,0:0:0:0:
259,191,203684,1,0,1:0:0:0:
209,159,203759,1,0,0:0:0:0:
183,106,203834,22,0,L|196:15,1,90,8|0,1:2|0:0,0:0:0:0:
383,215,204134,2,0,L|370:304,1,90,8|0,1:2|0:0,0:0:0:0:
100,108,204434,2,0,L|113:17,1,90,8|0,1:2|0:0,0:0:0:0:
457,273,204734,2,0,L|444:362,1,90,8|0,1:2|0:0,0:0:0:0:
239,370,205034,21,2,1:2:0:0:
196,356,205109,1,0,0:0:0:0:
156,334,205184,1,0,0:0:0:0:
134,294,205259,1,0,0:0:0:0:
138,249,205334,1,0,1:0:0:0:
167,214,205409,1,0,0:0:0:0:
209,200,205484,1,0,0:0:0:0:
252,211,205559,1,0,0:0:0:0:
296,218,205634,1,0,1:0:0:0:
338,204,205709,1,0,0:0:0:0:
369,171,205784,1,0,0:0:0:0:
382,127,205859,1,0,0:0:0:0:
373,82,205934,1,0,1:0:0:0:
344,47,206009,1,0,0:0:0:0:
301,31,206084,1,0,0:0:0:0:
256,36,206159,1,0,0:0:0:0:
219,61,206234,21,2,1:2:0:0:
200,101,206309,1,0,0:0:0:0:
200,145,206384,1,0,0:0:0:0:
218,185,206459,1,0,0:0:0:0:
245,220,206534,1,0,1:0:0:0:
252,264,206609,1,0,0:0:0:0:
238,307,206684,1,0,0:0:0:0:
206,338,206759,1,0,0:0:0:0:
162,350,206834,1,0,1:0:0:0:
119,335,206909,1,0,0:0:0:0:
87,304,206984,1,0,0:0:0:0:
73,261,207059,1,0,0:0:0:0:
80,217,207134,1,0,1:0:0:0:
107,182,207209,1,0,0:0:0:0:
125,142,207284,1,0,0:0:0:0:
125,98,207359,1,0,0:0:0:0:
99,60,207434,21,2,1:2:0:0:
55,50,207509,1,0,0:0:0:0:
14,70,207584,1,0,0:0:0:0:
0,113,207659,1,0,0:0:0:0:
9,156,207734,1,0,1:0:0:0:
47,179,207809,1,0,0:0:0:0:
91,176,207884,1,0,0:0:0:0:
125,147,207959,1,0,0:0:0:0:
164,124,208034,5,0,1:0:0:0:
208,119,208109,1,0,0:0:0:0:
251,128,208184,1,0,0:0:0:0:
289,150,208259,1,0,0:0:0:0:
318,184,208334,1,0,1:0:0:0:
336,224,208409,1,0,0:0:0:0:
339,268,208484,1,0,0:0:0:0:
329,311,208559,1,0,0:0:0:0:
309,351,208634,6,0,P|271:366|249:366,3,45,2|0|0|0,1:2|0:0|0:0|0:0,0:0:0:0:
175,337,208934,2,0,P|156:299|155:277,3,45,0|0|0|0,1:0|0:0|0:0|0:0,0:0:0:0:
183,203,209234,2,0,P|221:188|243:188,3,45,0|0|0|0,1:0|0:0|0:0|0:0,0:0:0:0:
322,207,209534,2,0,P|340:244|341:266,3,45,0|0|0|0,1:0|0:0|0:0|0:0,0:0:0:0:
279,295,209834,21,2,1:2:0:0:
320,277,209909,1,0,0:0:0:0:
364,274,209984,1,0,0:0:0:0:
406,287,210059,1,0,0:0:0:0:
444,309,210134,1,0,1:0:0:0:
436,264,210209,1,0,0:0:0:0:
439,219,210284,1,0,0:0:0:0:
461,179,210359,1,0,0:0:0:0:
491,145,210434,1,0,1:0:0:0:
499,100,210509,1,0,0:0:0:0:
487,56,210584,1,0,0:0:0:0:
455,23,210659,1,0,0:0:0:0:
411,10,210734,1,0,1:0:0:0:
367,18,210809,1,0,0:0:0:0:
332,47,210884,1,0,0:0:0:0:
314,88,210959,1,0,0:0:0:0:
284,121,211034,21,2,1:2:0:0:
243,140,211109,1,0,0:0:0:0:
198,140,211184,1,0,0:0:0:0:
155,123,211259,1,0,0:0:0:0:
124,89,211334,1,0,1:0:0:0:
105,129,211409,1,0,0:0:0:0:
92,172,211484,1,0,0:0:0:0:
81,215,211559,1,0,0:0:0:0:
70,258,211634,1,0,1:0:0:0:
57,301,211709,1,0,0:0:0:0:
45,344,211784,1,0,0:0:0:0:
86,326,211859,1,0,0:0:0:0:
130,326,211934,1,0,1:0:0:0:
173,336,212009,1,0,0:0:0:0:
214,353,212084,1,0,0:0:0:0:
258,360,212159,1,0,0:0:0:0:
302,358,212234,21,2,1:2:0:0:
343,341,212309,1,0,0:0:0:0:
376,311,212384,1,0,0:0:0:0:
394,270,212459,1,0,0:0:0:0:
399,225,212534,1,0,1:0:0:0:
386,181,212609,1,0,0:0:0:0:
358,145,212684,1,0,0:0:0:0:
318,122,212759,1,0,0:0:0:0:
273,115,212834,5,0,1:0:0:0:
229,125,212909,1,0,0:0:0:0:
191,150,212984,1,0,0:0:0:0:
149,167,213059,1,0,0:0:0:0:
104,161,213134,1,0,1:0:0:0:
70,130,213209,1,0,0:0:0:0:
60,86,213284,1,0,0:0:0:0:
75,43,213359,1,0,0:0:0:0:
115,22,213434,6,0,L|167:32,3,45,2|0|0|0,1:2|0:0|0:0|0:0,0:0:0:0:
229,125,213734,2,0,L|281:135,3,45,0|0|0|0,1:0|0:0|0:0|0:0,0:0:0:0:
468,170,214034,2,0,L|416:180,3,45,2|0|0|0,1:2|0:0|0:0|0:0,0:0:0:0:
354,273,214334,2,0,L|302:283,3,45,0|0|0|0,1:0|0:0|0:0|0:0,0:0:0:0:
201,317,214634,21,2,1:2:0:0:
156,310,214709,1,0,0:0:0:0:
117,287,214784,1,0,0:0:0:0:
90,250,214859,1,0,0:0:0:0:
77,206,214934,1,0,1:0:0:0:
81,161,215009,1,0,0:0:0:0:
100,120,215084,1,0,0:0:0:0:
134,90,215159,1,0,0:0:0:0:
176,74,215234,1,2,1:2:0:0:
220,73,215309,1,0,0:0:0:0:
262,89,215384,1,0,0:0:0:0:
297,117,215459,1,0,0:0:0:0:
344,105,215534,1,0,1:0:0:0:
387,114,215609,1,0,0:0:0:0:
421,142,215684,1,0,0:0:0:0:
437,183,215759,1,0,0:0:0:0:
435,227,215834,21,2,1:2:0:0:
411,265,215909,1,0,0:0:0:0:
372,287,215984,1,0,0:0:0:0:
327,289,216059,1,0,0:0:0:0:
286,270,216134,1,0,1:0:0:0:
248,244,216209,1,0,0:0:0:0:
203,239,216284,1,0,0:0:0:0:
163,259,216359,1,0,0:0:0:0:
146,300,216434,1,0,1:0:0:0:
157,343,216509,1,0,0:0:0:0:
193,369,216584,1,0,0:0:0:0:
238,369,216659,1,0,0:0:0:0:
274,343,216734,1,0,1:0:0:0:
284,299,216809,1,0,0:0:0:0:
277,254,216884,1,0,0:0:0:0:
257,213,216959,1,0,0:0:0:0:
219,188,217034,22,0,L|175:176,3,45,2|0|0|0,1:2|0:0|0:0|0:0,0:0:0:0:
303,141,217334,2,0,L|317:99,3,45,0|0|0|0,1:0|0:0|0:0|0:0,0:0:0:0:
352,225,217634,6,0,L|396:237,3,45,0|0|0|0,1:0|0:0|0:0|0:0,0:0:0:0:
268,271,217934,2,0,L|254:313,3,45,0|0|0|0,1:0|0:0|0:0|0:0,0:0:0:0:
160,313,218234,5,6,1:2:0:0:
131,358,218309,1,0,0:0:0:0:
77,367,218384,1,0,1:0:0:0:
27,345,218459,1,0,0:0:0:0:
0,297,218534,1,0,1:0:0:0:
1,243,218609,1,0,0:0:0:0:
33,200,218684,1,0,1:0:0:0:
83,180,218759,1,0,0:0:0:0:
135,190,218834,1,0,1:0:0:0:
188,187,218909,1,0,0:0:0:0:
240,174,218984,1,0,1:0:0:0:
289,151,219059,1,0,0:0:0:0:
313,102,219134,1,0,1:0:0:0:
299,49,219209,1,0,0:0:0:0:
254,18,219284,1,0,1:0:0:0:
200,22,219359,1,0,0:0:0:0:
162,60,219434,21,6,1:2:0:0:
160,113,219509,1,0,0:0:0:0:
193,155,219584,1,0,1:0:0:0:
229,194,219659,1,0,0:0:0:0:
249,243,219734,1,0,1:0:0:0:
249,297,219809,1,0,0:0:0:0:
218,341,219884,1,0,1:0:0:0:
270,328,219959,1,0,0:0:0:0:
322,339,220034,1,0,1:0:0:0:
373,356,220109,1,0,0:0:0:0:
426,362,220184,1,0,1:0:0:0:
476,343,220259,1,0,0:0:0:0:
509,300,220334,1,0,1:0:0:0:
511,246,220409,1,0,0:0:0:0:
485,198,220484,1,0,1:0:0:0:
436,174,220559,1,0,0:0:0:0:
382,182,220634,21,6,1:2:0:0:
338,220,220709,1,0,0:0:0:0:
285,246,220784,1,0,1:0:0:0:
226,243,220859,1,0,0:0:0:0:
175,213,220934,1,0,1:0:0:0:
143,163,221009,1,0,0:0:0:0:
137,104,221084,1,0,1:0:0:0:
160,50,221159,1,0,0:0:0:0:
206,14,221234,1,6,1:2:0:0:
262,0,221309,1,0,0:0:0:0:
318,16,221384,1,0,1:0:0:0:
362,54,221459,1,0,0:0:0:0:
382,108,221534,1,0,1:0:0:0:
388,166,221609,1,0,0:0:0:0:
361,218,221684,1,0,1:0:0:0:
356,276,221759,1,0,0:0:0:0:
390,323,221834,21,6,1:2:0:0:
447,334,221909,1,0,0:0:0:0:
497,305,221984,1,0,1:0:0:0:
511,248,222059,1,0,0:0:0:0:
484,196,222134,1,6,1:2:0:0:
427,179,222209,1,0,0:0:0:0:
373,203,222284,1,0,1:0:0:0:
332,245,222359,1,0,0:0:0:0:
287,283,222434,1,6,1:2:0:0:
229,294,222509,1,0,0:0:0:0:
172,279,222584,1,0,1:0:0:0:
131,237,222659,1,0,0:0:0:0:
116,180,222734,2,0,L|127:151,6,22.5,6|0|0|0|0|0|0,1:2|0:0|0:0|0:0|0:0|0:0|0:0,0:0:0:0:
139,113,223034,38,0,L|32:129,1,107.999996704102,6|0,1:0|0:0,0:0:0:0:
342,41,223334,2,0,L|449:57,1,107.999996704102,0|0,1:0|0:0,0:0:0:0:
149,367,223634,2,0,P|91:290|117:178,1,215.999993408203,2|0,1:0|1:0,0:0:0:0:
422,52,224084,1,0,0:0:0:0:
491,161,224234,21,2,1:0:0:0:
430,182,224309,1,0,0:0:0:0:
366,171,224384,1,2,0:0:0:0:
314,131,224459,1,0,0:0:0:0:
253,108,224534,1,0,1:0:0:0:
188,108,224609,1,0,0:0:0:0:
126,128,224684,1,2,0:0:0:0:
78,172,224759,1,0,0:0:0:0:
51,231,224834,2,2,P|40:282|111:365,1,161.999995056153,2|2,1:0|0:1,0:0:0:0:
201,352,225134,2,2,L|308:305,1,107.999996704102,2|2,1:2|0:0,0:0:0:0:
436,252,225434,21,2,1:0:0:0:
380,285,225509,1,0,0:0:0:0:
315,288,225584,1,2,0:0:0:0:
250,288,225659,1,0,0:0:0:0:
195,252,225734,1,0,1:0:0:0:
145,210,225809,1,0,0:0:0:0:
80,219,225884,1,2,0:0:0:0:
44,273,225959,1,0,0:0:0:0:
60,335,226034,1,2,1:0:0:0:
117,365,226109,1,0,0:0:0:0:
178,343,226184,1,2,0:0:0:0:
203,283,226259,1,0,0:0:0:0:
175,224,226334,1,0,1:0:0:0:
146,165,226409,1,0,0:0:0:0:
148,100,226484,1,2,0:0:0:0:
182,45,226559,1,0,0:0:0:0:
240,17,226634,21,2,1:0:0:0:
304,18,226709,1,0,0:0:0:0:
357,54,226784,1,2,0:0:0:0:
385,112,226859,1,0,0:0:0:0:
381,176,226934,1,2,1:0:0:0:
445,174,227009,1,0,0:0:0:0:
492,217,227084,1,2,0:0:0:0:
497,281,227159,1,0,0:0:0:0:
456,330,227234,1,2,1:0:0:0:
392,337,227309,1,0,0:0:0:0:
341,295,227384,1,2,0:0:0:0:
282,266,227459,1,0,0:0:0:0:
217,260,227534,1,2,1:0:0:0:
156,283,227609,1,0,0:0:0:0:
94,303,227684,1,2,0:0:0:0:
34,278,227759,1,0,0:0:0:0:
2,221,227834,22,0,P|10:172|59:117,1,107.999996704102,2|0,1:0|0:0,0:0:0:0:
305,18,228134,2,0,P|297:67|248:122,1,107.999996704102,0|0,1:0|0:0,0:0:0:0:
59,336,228434,2,0,B|101:302|161:329|161:329|216:352|266:321,1,215.999993408203,2|0,1:0|1:0,0:0:0:0:
483,90,228884,1,0,0:0:0:0:
405,193,229034,21,2,1:0:0:0:
345,168,229109,1,0,0:0:0:0:
282,151,229184,1,2,0:0:0:0:
218,165,229259,1,0,0:0:0:0:
162,198,229334,1,0,1:0:0:0:
102,222,229409,1,0,0:0:0:0:
40,202,229484,1,2,0:0:0:0:
8,145,229559,1,0,0:0:0:0:
20,81,229634,2,2,P|64:33|174:34,1,161.999995056153,2|2,1:0|0:1,0:0:0:0:
217,109,229934,2,2,L|198:230,1,107.999996704102,2|2,1:2|0:0,0:0:0:0:
403,363,230234,21,2,1:0:0:0:
352,322,230309,1,0,0:0:0:0:
331,260,230384,1,2,0:0:0:0:
349,198,230459,1,0,0:0:0:0:
389,146,230534,1,0,1:0:0:0:
402,82,230609,1,0,0:0:0:0:
374,23,230684,1,2,0:0:0:0:
311,6,230759,1,0,0:0:0:0:
256,40,230834,1,2,1:0:0:0:
200,6,230909,1,0,0:0:0:0:
137,23,230984,1,2,0:0:0:0:
109,82,231059,1,0,0:0:0:0:
122,146,231134,1,0,1:0:0:0:
161,198,231209,1,0,0:0:0:0:
180,260,231284,1,2,0:0:0:0:
159,322,231359,1,0,0:0:0:0:
108,363,231434,21,2,1:0:0:0:
43,355,231509,1,0,0:0:0:0:
1,307,231584,1,2,0:0:0:0:
0,243,231659,1,0,0:0:0:0:
41,192,231734,1,2,1:0:0:0:
104,181,231809,1,0,0:0:0:0:
160,212,231884,1,2,0:0:0:0:
218,239,231959,1,0,0:0:0:0:
282,239,232034,1,2,1:0:0:0:
339,209,232109,1,0,0:0:0:0:
374,154,232184,1,2,0:0:0:0:
375,89,232259,1,0,0:0:0:0:
344,32,232334,5,2,1:0:0:0:
286,1,232409,1,0,0:0:0:0:
221,1,232484,1,2,0:0:0:0:
166,35,232559,1,0,0:0:0:0:
137,92,232634,6,0,P|94:91|37:47,1,107.999996704102,2|0,1:0|0:0,0:0:0:0:
339,209,232934,2,0,P|380:176|434:171,1,107.999996704102,0|0,1:0|0:0,0:0:0:0:
182,343,233234,2,0,P|77:346|6:267,1,215.999993408203,2|0,1:0|1:0,0:0:0:0:
254,66,233684,1,0,0:0:0:0:
392,285,233834,21,2,1:0:0:0:
429,232,233909,1,0,0:0:0:0:
423,167,233984,1,2,0:0:0:0:
376,122,234059,1,0,0:0:0:0:
311,118,234134,1,0,1:0:0:0:
259,156,234209,1,0,0:0:0:0:
245,219,234284,1,2,0:0:0:0:
193,258,234359,1,0,0:0:0:0:
127,255,234434,2,2,P|79:205|91:109,1,161.999995056153,2|2,1:0|0:1,0:0:0:0:
157,45,234734,2,2,L|292:29,1,107.999996704102,2|2,1:2|0:0,0:0:0:0:
482,289,235034,21,2,1:0:0:0:
422,263,235109,1,0,0:0:0:0:
357,265,235184,1,2,0:0:0:0:
304,303,235259,1,0,0:0:0:0:
278,362,235334,1,0,1:0:0:0:
225,323,235409,1,0,0:0:0:0:
161,311,235484,1,2,0:0:0:0:
100,333,235559,1,0,0:0:0:0:
37,317,235634,1,2,1:0:0:0:
4,261,235709,1,0,0:0:0:0:
21,198,235784,1,2,0:0:0:0:
75,163,235859,1,0,0:0:0:0:
136,183,235934,1,0,1:0:0:0:
190,217,236009,1,0,0:0:0:0:
253,204,236084,1,2,0:0:0:0:
298,158,236159,1,0,0:0:0:0:
300,93,236234,21,2,1:0:0:0:
258,43,236309,1,0,0:0:0:0:
193,34,236384,1,2,0:0:0:0:
139,70,236459,1,0,0:0:0:0:
123,132,236534,1,2,1:0:0:0:
151,190,236609,1,0,0:0:0:0:
210,215,236684,1,2,0:0:0:0:
258,258,236759,1,0,0:0:0:0:
272,321,236834,1,2,1:0:0:0:
318,365,236909,1,0,0:0:0:0:
381,376,236984,1,2,0:0:0:0:
440,349,237059,1,0,0:0:0:0:
474,294,237134,1,2,1:0:0:0:
469,229,237209,1,0,0:0:0:0:
428,178,237284,1,2,0:0:0:0:
365,160,237359,1,0,0:0:0:0:
302,176,237434,21,6,1:2:0:0:
142,344,237584,1,0,1:0:0:0:
216,124,237734,1,0,1:0:0:0:
254,384,237884,1,0,1:0:0:0:
27,299,238034,1,2,1:2:0:0:
371,274,238184,1,0,1:0:0:0:
121,212,238334,1,0,1:0:0:0:
256,3,238484,1,0,1:0:0:0:
248,248,238634,21,6,1:2:0:0:
9,163,238784,1,0,1:0:0:0:
325,102,238934,1,0,1:0:0:0:
254,384,239084,1,0,1:0:0:0:
121,212,239234,1,2,1:2:0:0:
256,3,239384,1,0,1:0:0:0:
371,274,239534,1,2,1:2:0:0:
101,77,239684,1,0,1:0:0:0:
371,274,239834,22,0,L|487:259,1,107.999996704102,6|0,1:2|0:0,0:0:0:0:
107,188,240134,2,0,L|-1:174,1,107.999996704102,0|4,0:0|1:2,0:0:0:0:
357,51,240434,2,0,B|388:29|429:43|429:43|472:57|515:28,2,161.999995056153,4|4|4,1:2|1:2|1:2,0:0:0:0:
259,361,241034,22,0,P|228:301|273:212,1,161.999995056153,6|0,1:2|0:0,0:0:0:0:
178,156,241334,2,0,L|62:135,1,107.999996704102,6|0,1:2|0:0,0:0:0:0:
255,15,241634,1,6,1:2:0:0:
208,74,241709,1,0,0:0:0:0:
198,148,241784,1,2,0:0:0:0:
227,217,241859,1,0,0:0:0:0:
287,261,241934,1,6,1:2:0:0:
362,270,242009,1,0,0:0:0:0:
431,239,242084,1,2,0:0:0:0:
472,175,242159,1,0,0:0:0:0:
480,99,242234,21,6,1:2:0:0:
27,206,243434,37,2,0:0:0:0:
480,252,244034,1,2,0:0:0:0:
37,355,244634,1,2,0:0:0:0:
442,62,245834,21,2,0:0:0:0:
300,319,246134,1,2,0:0:0:0:
352,224,246434,2,0,L|335:129,2,90.0000034332277,2|2|2,0:0|0:0|0:0,0:0:0:0:
206,372,247034,2,0,B|156:383|119:349|119:349|82:368|17:349|21:308|21:308|61:276|76:327,1,270.000010299683,10|2,0:0|0:0,0:0:0:0:
256,192,248234,21,14,0:0:0:0:
256,192,248309,12,0,253034,0:0:0:0:
