osu file format v9

[General]
AudioFilename: Ascension to Heaven.mp3
AudioLeadIn: 0
PreviewTime: 241024
Countdown: 0
SampleSet: Soft
StackLeniency: 0.5
Mode: 0
LetterboxInBreaks: 0

[Editor]
DistanceSpacing: 1
BeatDivisor: 4
GridSize: 4

[Metadata]
Title:Ascension to Heaven
Artist:xi
Creator:Zapy
Version:Extreme
Source:BMS
Tags:Parousia Jenny

[Difficulty]
HPDrainRate:4
CircleSize:4
OverallDifficulty:7
ApproachRate:9
SliderMultiplier:1.9
SliderTickRate:1

[Events]
//Background and Video events
0,0,"BGGG.jpg"
//Break Periods
//Storyboard Layer 0 (Background)
//Storyboard Layer 1 (Fail)
//Storyboard Layer 2 (Pass)
//Storyboard Layer 3 (Foreground)
//Storyboard Sound Samples
//Background Colour Transformations
3,100,163,162,255

[TimingPoints]
23825,300,4,1,0,70,1,0
24275,-100,4,1,0,45,0,0
24425,-100,4,1,0,30,0,0
24575,-100,4,1,0,40,0,0
24725,-100,4,1,0,50,0,0
24875,-100,4,1,0,60,0,0
25025,-100,4,1,0,70,0,0
44224,-100,4,2,0,70,0,0
80224,-100,4,1,0,35,0,0
80374,-100,4,1,0,40,0,0
80524,-100,4,1,0,45,0,0
80674,-100,4,1,0,50,0,0
80824,-100,4,1,0,55,0,0
80974,-100,4,1,0,60,0,0
81124,-100,4,1,0,65,0,0
81274,-100,4,1,0,70,0,0
82662,-100,4,2,0,5,0,0
86224,-200,4,2,0,70,0,0
121024,-133.333333333333,4,1,0,70,0,0
122300,-100,4,1,0,70,0,0
125824,-100,4,2,0,70,0,0
164224,-83.3333333333333,4,2,0,70,0,1
202549,-100,4,2,0,70,0,0
202624,-100,4,2,0,70,0,1
202699,-100,4,2,0,70,0,0
205024,-200,4,2,0,70,0,0
233824,-133.333333333333,4,2,0,70,0,0
236224,-100,4,2,0,70,0,0
241024,-83.3333333333333,4,2,0,70,0,1
277024,-83.3333333333333,4,1,1,35,0,1
277174,-83.3333333333333,4,1,1,39,0,1
277324,-83.3333333333333,4,1,1,43,0,1
277474,-83.3333333333333,4,1,1,47,0,1
277624,-83.3333333333333,4,1,1,51,0,1
277774,-83.3333333333333,4,1,1,55,0,1
277924,-83.3333333333333,4,1,1,64,0,1
278074,-83.3333333333333,4,1,1,68,0,1
278224,-83.3333333333333,4,1,1,70,0,1
279349,-83.3333333333333,4,1,1,70,0,0
279424,-83.3333333333333,4,1,1,70,0,1
279499,-200,4,2,0,70,0,0
298961,-200,4,1,0,70,0,1
298999,-200,4,2,0,70,0,0

[Colours]
Combo1 : 200,227,240
Combo2 : 0,196,217
Combo3 : 62,62,255
Combo4 : 255,255,255

[HitObjects]
256,24,24275,1,0
256,120,24425,1,0
256,124,24500,1,0
256,133,24575,1,0
256,147,24650,1,0
256,166,24725,1,0
256,189,24800,1,0
256,217,24875,1,0
256,250,24950,1,0
256,288,25025,6,0,B|280:340|344:332,1,95,0|0
380,324,25250,1,0
424,280,25325,2,0,B|404:184,1,95,8|0
424,128,25550,2,0,B|436:88|472:104|492:56,1,95
400,12,25850,1,0
352,16,25925,2,0,B|308:-8|252:8,1,95,8|0
104,216,26225,6,8,B|92:164|124:128,1,95
28,272,26525,2,0,B|12:248|16:216,1,47.5,0|8
192,192,26750,2,8,B|204:244|172:280,1,95,8|0
124,128,27050,1,0
124,128,27125,2,0,B|91:164|103:216,1,95,8|0
256,328,27425,5,4
332,272,27575,1,0
380,268,27650,1,0
424,288,27725,2,0,B|476:304|508:264,1,95,8|0
451,222,27950,2,0,B|387:172|415:84,1,142.5
256,24,28325,2,0,B|256:224,1,190,8|8
332,152,28775,5,8
184,76,28925,1,0
136,72,29000,2,0,B|80:64|48:124,1,95,8|0
120,143,29225,2,0,B|164:168|160:224,1,95,8|0
88,208,29450,2,0,B|32:200|0:260,1,95,8|0
76,280,29675,1,8
96,324,29750,1,8
92,372,29825,5,4
256,244,29975,1,0
256,292,30050,1,0
256,340,30125,1,8
436,280,30275,1,0
436,280,30350,2,0,B|404:320|420:372,1,95
492,222,30650,1,0
492,222,30725,2,0,B|524:262|508:314,1,95,8|0
384,100,31025,6,8,B|332:104|300:48,1,95
436,168,31325,2,0,B|404:192|356:172,1,47.5,0|8
384,12,31550,2,0,B|436:8|468:64,1,95,8|0
304,56,31850,1,0
305,56,31925,2,0,B|336:104|383:100,1,95,8|0
256,212,32225,5,0
180,272,32375,1,0
132,268,32450,1,0
88,288,32525,2,0,B|36:304|4:264,1,95,8|0
61,222,32750,2,0,B|124:172|96:84,1,142.5
256,20,33125,2,0,B|256:128,1,95,8|0
256,212,33425,5,8
256,220,33500,1,0
256,228,33575,1,0
256,236,33650,1,0
256,244,33725,1,8
256,248,33800,1,0
256,252,33875,1,0
256,256,33950,1,0
256,260,34025,6,0,B|256:312,3,47.5,8|0|8|0
256,316,34325,2,0,B|256:368,3,47.5,8|8|8|8
256,372,34625,5,4
352,340,34775,1,0
376,300,34850,1,0
380,252,34925,2,0,B|387:202|350:164,1,95,8|0
356,48,35150,2,0,B|312:72|304:124,2,95
404,44,35525,1,8
256,192,35675,1,0
168,272,35825,6,0,B|131:234|139:185,1,95,8|8
112,336,36125,2,0,B|88:368|48:364,1,47.5,0|8
152,24,36350,2,0,B|188:61|180:110,1,95,0|0
168,272,36650,1,0
168,272,36725,2,0,B|131:234|139:185,1,95,8|0
256,112,37025,5,0
256,272,37175,1,0
256,320,37250,1,0
256,368,37325,1,8
336,220,37475,1,0
336,220,37550,2,0,B|384:192|396:132,1,95
424,44,37775,2,0,B|369:51|353:99,2,95,0|8|0
480,212,38225,5,8
488,116,38375,1,8
408,280,38525,2,0,B|408:328,1,47.5,0|8
256,272,38750,2,0,B|256:319,1,47.5,0|8
104,280,38975,2,0,B|104:328,1,47.5,0|8
28,212,39200,1,8
27,188,39275,1,8
25,164,39350,1,8
26,140,39425,6,0,B|34:89|80:62,1,95
256,112,39725,1,8
256,272,39875,1,0
256,272,39950,1,0
256,272,40025,1,0
180,216,40175,1,0
256,112,40325,1,8
332,216,40475,1,0
336,324,40625,5,8
176,324,40775,1,8
128,240,40925,2,0,B|80:224,1,47.5,0|8
92,136,41150,1,0
256,192,41300,1,8
420,136,41450,1,0
424,112,41525,1,8
428,88,41600,2,0,B|408:44|408:44|348:28,1,95,0|8
336,80,41825,6,0,B|292:92|256:136,1,95,0|0
256,192,42050,1,0
253,251,42125,2,0,B|220:292|176:304,1,95,8|0
132,324,42350,1,8
84,316,42425,1,0
52,280,42500,1,8
52,232,42575,2,0,B|60:200|68:196,4,23.75,0|0|0|0|8
64,184,42800,5,8
100,152,42875,1,8
112,108,42950,1,8
100,64,43025,1,4
256,192,43100,12,12,43925
180,108,44225,5,10
168,12,44375,1,0
120,20,44450,1,0
92,56,44525,2,0,B|64:100|88:164,1,95,10|0
264,160,44825,2,0,B|292:116|268:52,1,95,0|0
0,140,45125,2,8,B|2:191|45:219,1,95,10|0
300,252,45425,5,0
180,108,45575,1,0
356,48,45725,1,8
180,196,45875,1,2
168,240,45950,1,0
168,288,46025,1,2
188,332,46100,1,0
224,364,46175,1,2
268,380,46250,1,0
316,380,46325,2,0,B|376:376|404:336,1,95,10|0
468,215,46625,6,0,B|419:183|335:195|299:251,1,190,2|8
400,342,47075,1,0
468,215,47225,2,0,B|468:100,1,95
256,28,47525,2,0,B|256:123,2,95,8|0|0
256,220,47975,1,0
176,168,48125,5,10
164,212,48200,1,0
168,260,48275,1,0
144,94,48425,1,2
108,128,48500,1,0
92,172,48575,1,0
368,290,48725,1,10
404,256,48800,1,0
420,212,48875,1,2
424,164,48950,1,0
420,116,49025,6,0,B|408:60|352:32,1,95,4|0
336,216,49325,2,0,B|356:168|340:120,1,95,8|0
268,68,49625,1,0
244,316,49775,1,0
176,168,49925,2,0,B|156:216|172:264,1,95,8|0
44,120,50225,6,0,B|44:215,1,95,2|0
44,240,50450,1,0
44,264,50525,1,10
44,288,50600,1,0
48,312,50675,2,0,B|64:368|128:388,1,95,0|2
148,284,50975,1,0
330,289,51125,2,0,B|300:324|244:316,1,95,10|0
181,94,51425,6,0,B|211:59|268:68,1,95,2|0
364,100,51725,1,12
144,176,51875,2,0,B|126:171|108:148,2,47.5
181,95,52175,1,0
364,100,52325,2,0,B|409:108|430:161,1,95,8|0
268,68,52625,5,2
288,36,52700,1,0
320,12,52775,1,0
356,8,52850,1,0
392,12,52925,1,10
428,28,53000,1,0
452,56,53075,1,0
460,92,53150,1,0
456,128,53225,5,2
440,164,53300,1,0
408,188,53375,1,0
372,196,53450,1,0
336,188,53525,1,10
304,172,53600,1,0
268,172,53675,1,0
232,180,53750,1,0
200,200,53825,6,0,B|164:232|164:292,1,95,0|0
276,280,54125,1,12
184,92,54275,2,0,B|156:41,2,47.5
112,160,54575,1,0
275,75,54725,2,0,B|332:68|364:100,1,95,8|0
236,308,55025,6,0,B|180:316|148:284,2,95,2|0|0
372,211,55475,2,0,B|380:268|348:300,2,95,2|0|0
275,75,55925,2,0,B|332:68|364:100,1,95,2|0
139,172,56225,2,0,B|132:116|164:84,1,95,2|0
256,192,56525,5,8
188,256,56675,1,0
140,264,56750,1,0
92,252,56825,1,0
56,220,56900,1,0
48,172,56975,1,0
256,192,57125,1,8
324,128,57275,1,0
372,120,57350,1,0
420,132,57425,6,0,B|472:160|464:220,1,95,2|0
360,344,57725,2,0,B|308:316|316:256,1,95,8|0
256,192,58025,1,2
256,192,58100,1,0
256,192,58175,1,0
152,40,58325,2,0,B|204:68|196:128,1,95,8|8
92,252,58625,6,0,B|40:224|48:164,2,95,4|0|8
168,328,59075,2,0,B|191:286,1,47.5,0|2
256,372,59300,1,2
312,288,59450,1,0
344,328,59525,1,8
388,348,59600,1,2
436,348,59675,1,0
332,196,59825,5,0
376,216,59900,1,0
400,256,59975,1,2
244,176,60125,1,8
264,132,60200,1,0
304,108,60275,1,2
396,128,60425,1,2
224,264,60575,1,0
184,244,60650,1,0
156,208,60725,1,10
152,160,60800,1,2
164,112,60875,1,2
156,64,60950,1,2
124,32,61025,6,0,B|80:0|24:20,1,95,2|0
60,204,61325,2,0,B|44:156|60:109,1,95,12|0
256,96,61625,1,0
256,144,61700,1,0
256,192,61775,1,0
452,204,61925,2,0,B|468:156|452:109,1,95,8|0
348,112,62225,1,0
384,272,62375,1,0
256,368,62525,5,10
208,384,62600,1,0
160,376,62675,1,0
32,264,62825,1,2
80,256,62900,1,0
128,272,62975,1,0
128,112,63125,1,10
80,128,63200,1,0
32,120,63275,1,0
204,44,63425,6,0,B|256:20|312:48,1,95,4|0
388,68,63725,1,8
332,144,63875,1,0
324,192,63950,2,0,B|312:248|340:292,1,95
364,324,64175,1,0
456,128,64325,2,0,B|428:144|412:168,2,47.5,8|0|0
388,68,64625,5,0
300,56,64775,1,0
252,44,64850,1,0
204,44,64925,1,10
156,56,65000,1,0
116,84,65075,1,2
92,124,65150,1,0
84,172,65225,1,2
96,216,65300,1,0
128,252,65375,6,0,B|184:260|204:316,1,95,0|8
8,156,65675,2,0,B|-2:105|29:65,1,95,2|0
192,156,65975,1,0
116,336,66125,1,14
44,284,66275,6,0,B|8:252|8:220,2,47.5,2|0|2
204,300,66575,2,0,B|240:268|240:236,2,47.5,2|0|10
468,100,66875,2,0,B|504:132|504:164,2,47.5,2|0|2
308,84,67175,2,0,B|272:116|272:148,2,47.5,2|0|10
384,164,67475,1,2
356,204,67550,1,0
312,224,67625,1,2
264,224,67700,1,0
220,204,67775,1,2
437,223,67925,1,10
440,272,68000,1,0
417,315,68075,1,2
380,345,68150,1,0
336,364,68225,6,0,B|244:400|248:328|140:372,1,190,0|12
64,332,68675,1,0
28,244,68825,1,0
28,220,68900,1,0
32,196,68975,2,0,B|39:144|71:113,1,95,0|8
156,52,69275,6,0,B|148:38|116:26,2,47.5,0|0|2
166,274,69575,1,0
136,240,69650,1,0
127,195,69725,1,10
346,110,69875,1,0
376,144,69950,1,0
385,189,70025,1,2
380,236,70100,1,0
356,276,70175,1,2
264,68,70325,2,0,B|285:34|312:25,2,47.5,10|0|2
256,192,70625,5,0
248,316,70775,1,0
256,192,70925,1,12
264,68,71075,1,0
296,32,71150,1,0
340,20,71225,2,0,B|400:24|424:68,1,95
380,236,71525,2,0,B|384:176|428:152,1,95,8|0
480,232,71825,5,2
472,280,71900,1,0
440,316,71975,1,0
396,332,72050,1,0
348,328,72125,1,10
308,304,72200,1,0
284,264,72275,1,0
280,216,72350,1,0
300,172,72425,1,2
308,124,72500,1,0
292,80,72575,1,2
256,48,72650,1,0
208,40,72725,1,10
164,52,72800,1,2
132,88,72875,1,2
120,132,72950,1,2
132,176,73025,5,0
212,128,73175,1,0
44,88,73325,2,0,B|16:140|56:220,1,95,12|0
196,332,73625,1,0
196,332,73775,1,0
196,332,73925,2,0,B|219:291|191:239,1,95,8|0
44,88,74225,6,0,B|16:140|56:220,1,95,2|0
96,268,74525,1,8
212,128,74675,2,0,B|228:84|207:35,2,95,2|0|0
300,256,75125,2,0,B|284:300|304:348,1,95,10|2
384,296,75425,5,2
396,252,75500,1,0
384,208,75575,1,0
348,180,75650,1,0
300,168,75725,1,10
268,132,75800,1,0
260,84,75875,1,0
280,40,75950,1,0
320,16,76025,2,0,B|344:4|376:12,3,47.5,2|0|2|0
412,20,76325,2,0,B|435:32|448:62,3,47.5,10|2|2|2
460,100,76625,6,0,B|444:148|472:204,2,95,2|0|8
500,272,77075,2,0,B|516:320|488:376,2,95,2|0|0
416,312,77525,1,14
346,95,77675,6,0,B|312:52|264:48,1,95,4|0
264,144,77975,1,0
245,335,78125,2,0,B|200:332|166:289,1,95,8|0
120,300,78350,2,0,B|75:279|71:223,1,95
32,200,78575,1,0
192,84,78725,2,0,B|212:60|232:52,2,47.5,8|0|0
264,144,79025,5,2
352,180,79175,1,0
396,168,79250,1,0
428,132,79325,1,2
268,288,79475,1,0
280,332,79550,1,0
316,364,79625,1,2
364,280,79775,1,2
160,204,79925,1,2
116,216,80000,1,0
84,252,80075,1,2
168,300,80225,5,0
364,280,80375,1,0
344,84,80525,1,0
148,104,80675,1,0
224,240,80825,1,0
304,224,80975,1,0
288,144,81125,1,0
208,160,81275,5,0
164,180,81350,1,0
116,176,81425,1,0
80,144,81500,1,0
68,100,81575,1,0
84,56,81650,1,0
124,28,81725,2,0,B|152:20|180:28,3,47.5
212,52,82025,1,0
356,36,82175,2,0,B|396:16,4,23.75
412,292,82475,2,0,B|432:332,4,23.75,0|0|0|0|4
256,192,82663,12,0,85025
244,352,86225,5,2
200,268,86525,1,2
256,192,86825,1,2
212,108,87125,1,2
128,68,87425,6,0,B|80:76,1,47.5,2|0
25,131,87725,2,0,B|72:124,1,47.5,0|0
128,68,88325,1,2
24,132,88475,1,2
444,60,89825,5,2
68,60,91025,5,2
256,48,91625,5,2
256,48,92225,6,0,B|304:56,1,47.5,2|0
359,111,92525,2,0,B|312:103,1,47.5,0|0
256,48,93125,1,2
360,112,93275,1,2
16,192,94625,5,2
76,116,95225,1,2
160,72,95825,1,2
256,60,96425,1,2
344,92,97025,6,0,B|396:120,1,47.5,2|0
464,216,97325,2,0,B|412:188,1,47.5,0|0
344,92,97925,1,2
464,216,98075,1,2
256,256,99425,5,2
168,216,100025,1,2
88,264,100625,1,2
124,352,101225,1,2
220,344,101825,6,0,B|276:368,1,47.5,2|0
392,336,102125,2,0,B|348:317,1,47.5,0|0
220,344,103025,5,0
292,40,104225,5,2
448,144,105425,5,2
480,232,105725,1,2
408,296,106025,1,2
324,252,106325,1,2
348,160,106625,6,0,B|380:104|368:68|368:68|255:26|188:108,1,285,6|0
160,88,107675,2,0,B|168:160|216:192|216:192|216:260|140:288,1,237.5,0|0
89,182,108725,1,2
160,88,109025,6,0,B|204:16|284:12|284:12|356:48|368:128,1,285
316,304,110225,2,0,B|297:246|336:193|336:193|293:170|291:137,1,190,0|0
412,264,111125,1,2
228,316,111425,6,0,B|204:332|180:332|180:332|156:324|132:305,1,95
284,68,112025,2,0,B|308:52|332:52|332:52|356:60|380:79,1,95
132,164,112625,2,0,B|116:140|116:116|116:116|124:92|143:68,1,95
68,164,113075,2,0,B|84:188|84:212|84:212|76:236|57:259,1,95,0|0
44,116,113525,1,2
196,40,113825,6,0,B|200:48|200:48|204:40|204:40|208:48|208:48|212:40|212:40|216:48|216:48|220:40|220:40|224:48|224:48|228:40|228:40|232:48|232:48|236:40|236:40|240:48|240:48|244:40|244:40|248:48|248:48|252:40|252:40|256:48|256:48|260:40|260:40|264:48|264:48|268:40|268:40|272:48|272:48|316:24|316:24|352:40|356:96,1,285,0|0
336,280,115025,2,0,B|324:336|280:356|280:356|220:348|200:304,1,190,0|2
272,186,115925,1,2
384,128,116225,6,0,B|396:142|404:166|404:166|404:190|388:214,1,95
464,124,116675,2,0,B|451:109|443:85|443:85|443:61|459:37,1,95
476,204,117125,1,2
128,256,117425,6,0,B|115:241|107:217|107:217|107:193|123:169,1,95
48,260,117875,2,0,B|60:274|68:298|68:298|68:322|52:346,1,95
36,180,118325,1,2
196,320,118625,5,0
236,344,118775,1,0
284,344,118925,1,0
324,320,119075,1,0
256,152,119525,5,2
256,192,119825,1,0
256,192,119900,12,2,120725
256,192,121025,5,0
256,192,121100,2,0,B|256:56,1,106.875004076958,0|8
184,296,121775,5,0
256,320,121925,1,8
328,296,122075,1,0
256,192,122225,1,0
256,192,122300,2,0,B|256:44,1,142.5,0|8
140,228,122825,6,0,B|92:252,1,47.5
372,156,123050,2,0,B|420:132,1,47.5,0|8
232,256,123275,1,0
232,256,123350,1,0
232,256,123425,6,0,B|248:192|204:128|144:128,2,142.5
280,128,124025,2,0,B|264:192|308:256|368:256,2,142.5
372,156,124625,1,0
256,192,124700,12,8,125525
80,136,125825,5,4
156,176,125975,1,0
172,216,126050,1,0
156,256,126125,1,10
76,284,126275,1,0
156,84,126425,2,0,B|144:52|104:44,2,47.5,2|0|2
268,36,126725,2,0,B|292:12|332:22,2,47.5,10|0|2
352,112,127025,5,2
392,96,127100,1,0
412,60,127175,1,0
312,188,127325,1,10
351,204,127400,1,0
390,191,127475,1,0
488,144,127625,2,0,B|512:188|488:256,1,95,2|0
420,372,127925,2,0,B|396:328|420:260,1,95,10|10
312,296,128225,5,0
228,312,128375,2,0,B|156:328,2,47.5,0|0|10
96,284,128675,1,2
64,256,128750,1,0
52,216,128825,1,2
60,176,128900,1,0
88,144,128975,1,2
128,128,129050,1,0
172,136,129125,1,8
136,212,129275,1,0
172,52,129425,5,2
212,64,129500,1,0
256,68,129575,1,2
300,64,129650,1,0
340,52,129725,1,8
420,20,129875,1,0
416,104,130025,2,0,B|412:216,1,95,2|0
216,308,130325,2,8,B|220:196,1,95,10|10
408,280,130625,5,2
492,280,130775,1,0
484,320,130850,1,0
456,352,130925,1,10
324,276,131075,1,0
332,236,131150,1,0
360,204,131225,1,2
188,108,131375,5,0
180,148,131450,1,0
152,180,131525,1,10
20,104,131675,1,2
28,64,131750,1,0
56,32,131825,6,0,B|76:16|76:16|108:12,3,47.5,2|0|0|0
140,12,132125,1,10
184,4,132200,1,0
228,12,132275,1,2
268,32,132350,1,0
292,68,132425,2,0,B|296:96|296:96|288:152,3,47.5,2|0|0|0
284,156,132725,1,10
288,200,132800,1,0
320,228,132875,1,10
360,244,132950,1,0
404,240,133025,6,0,B|456:232|480:184,1,95,2|0
456,88,133325,2,0,B|404:96|380:144,1,95,10|0
128,240,133625,2,0,B|180:232|204:184,1,95,2|0
180,88,133925,2,0,B|128:96|104:144,1,95,10|0
100,328,134225,5,2
144,332,134300,1,0
184,320,134375,1,2
212,288,134450,1,0
228,248,134525,2,0,B|228:216|216:192,3,47.5,10|0|0|0
260,220,134825,1,2
304,224,134900,1,0
344,204,134975,1,2
368,168,135050,1,0
376,124,135125,2,0,B|380:92|372:60,1,47.5,10|0
280,40,135275,2,0,B|276:72|284:104,1,47.5,10|0
472,128,135425,6,0,B|476:188|456:236,1,95,2|0
40,256,135725,2,0,B|36:196|56:148,1,95,10|0
100,92,136025,2,0,B|116:72|152:56,2,47.5,2|0|0
172,140,136325,1,10
172,140,136400,1,0
172,140,136475,1,0
132,216,136625,6,0,B|128:264|144:312,1,95,2|0
380,168,136925,2,0,B|384:120|368:72,1,95,10|0
288,48,137225,1,2
288,48,137300,1,0
288,48,137375,1,0
448,40,137525,2,0,B|488:16,2,47.5,10|0|0
460,220,137825,5,2
436,300,137975,1,0
408,332,138050,1,0
364,336,138125,1,10
320,332,138200,1,0
288,304,138275,1,0
276,264,138350,1,0
292,224,138425,5,2
204,320,138575,1,0
168,344,138650,1,0
124,352,138725,1,10
84,344,138800,1,0
56,312,138875,1,0
52,268,138950,1,0
68,228,139025,2,0,B|80:204|76:176,3,47.5,2|0|0|0
60,140,139325,2,0,B|48:116|52:88,3,47.5,10|0|0|0
68,56,139625,6,0,B|104:12,1,47.5,2|0
184,76,139775,2,0,B|148:120,1,47.5,2|0
284,108,139925,2,0,B|320:64,1,47.5,10|0
400,128,140075,1,10
400,128,140150,2,0,B|364:172,1,47.5,0|4
464,216,140375,5,2
472,256,140450,1,0
464,300,140525,1,10
440,336,140600,1,0
400,352,140675,1,2
356,356,140750,1,0
316,340,140825,1,2
256,280,140975,5,2
232,316,141050,1,0
196,340,141125,1,10
156,356,141200,1,0
112,352,141275,1,2
72,336,141350,1,0
48,300,141425,1,2
224,80,141575,5,2
212,128,141650,1,0
168,148,141725,2,0,B|127:124,3,47.5,10|0|0|0
332,236,142025,2,0,B|373:260,3,47.5,2|0|0|0
232,272,142325,2,0,B|232:320,3,47.5,10|2|2|2
232,272,142625,1,6
280,112,143225,2,2,B|280:80,15,23.75
280,68,143825,5,4
368,24,143975,1,2
416,28,144050,1,0
452,60,144125,1,6
464,104,144200,1,0
452,152,144275,1,2
420,184,144350,1,0
376,208,144425,5,6
344,240,144500,1,0
332,284,144575,1,2
312,328,144650,1,0
268,348,144725,1,6
220,352,144800,1,0
176,336,144875,1,2
156,292,144950,1,0
120,260,145025,5,6
76,340,145175,1,2
244,264,145325,1,2
36,128,145475,2,0,B|28:152|36:175,2,47.5,2|2|2
192,80,145775,2,0,B|200:56|192:32,2,47.5,2|0|2
348,48,146075,1,2
396,32,146150,1,0
448,36,146225,5,2
488,68,146300,1,0
500,120,146375,1,2
480,168,146450,1,0
432,192,146525,1,2
380,196,146600,1,0
332,220,146675,1,2
308,268,146750,1,0
308,320,146825,6,0,B|312:352|332:368,3,47.5,2|0|2|0
431,332,147125,2,0,B|423:301|408:292,3,47.5,2|0|2|0
504,256,147425,1,2
248,192,147575,2,0,B|200:180|200:204|136:192,2,95,2|0|2
168,292,148025,5,2
116,288,148100,1,0
76,256,148175,1,2
56,208,148250,1,0
60,156,148325,1,2
84,112,148400,1,0
132,88,148475,1,2
184,88,148550,1,0
232,108,148625,6,0,B|280:132|328:120,1,95,2|0
376,104,148850,1,0
428,108,148925,2,0,B|480:116|508:172,1,95,2|0
504,216,149150,1,0
484,264,149225,1,2
436,288,149300,1,0
384,276,149375,1,2
360,232,149450,1,0
312,204,149525,1,2
260,212,149600,1,2
224,248,149675,1,2
220,300,149750,1,2
256,336,149825,1,2
168,172,149975,5,2
136,212,150050,1,2
128,264,150125,2,4,B|112:312|140:360,1,95
80,136,150425,6,0,B|40:100,3,47.5,2|0|2|0
160,76,150725,2,0,B|149:23,3,47.5,2|0|2|0
252,112,151025,2,0,B|288:72,2,47.5,2|0|0
260,148,151250,1,2
260,184,151325,2,0,B|312:192,2,47.5,2|0|0
244,220,151550,1,2
224,252,151625,2,0,B|260:288,2,47.5,2|0|0
192,272,151850,1,2
168,300,151925,1,2
168,336,152000,1,0
196,360,152075,1,2
232,368,152150,1,0
264,348,152225,1,2
144,160,152375,5,0
132,112,152450,1,0
140,64,152525,1,2
168,24,152600,1,0
212,4,152675,1,0
256,0,152750,1,0
300,12,152825,5,2
336,40,152900,1,0
352,84,152975,1,0
344,132,153050,1,0
316,172,153125,1,2
308,220,153200,1,0
324,264,153275,1,0
356,296,153350,1,0
400,308,153425,5,2
408,212,153575,1,0
244,100,153725,2,0,B|212:144|220:192,1,95,0|2
480,288,154025,2,0,B|512:244|504:196,1,95,0|2
236,280,154325,1,2
140,284,154475,1,0
92,272,154550,1,2
60,236,154625,6,0,B|32:192|40:140,1,95,8|0
316,32,154925,2,0,B|344:76|336:128,1,95,4|8
244,100,155225,1,0
408,44,155375,2,0,B|428:91|412:141,1,95,4|8
244,100,155675,1,0
500,64,155825,2,0,B|512:113|488:160,1,95,4|8
244,100,156125,1,0
12,320,156275,2,0,B|0:270|20:227,1,95,4|8
256,192,156575,1,2
256,192,156725,1,8
304,128,156875,5,6
336,164,156950,1,2
340,212,157025,1,2
316,252,157100,1,0
272,272,157175,1,0
224,268,157250,1,0
184,240,157325,1,2
168,196,157400,1,0
180,152,157475,1,0
196,108,157550,1,0
200,60,157625,2,0,B|188:28|144:12,3,47.5,2|0|0|0
108,92,157925,6,0,B|44:116,1,47.5,2|0
76,199,158075,2,0,B|32:216,1,47.5,2|0
92,300,158225,1,2
136,340,158300,1,0
188,360,158375,1,0
244,372,158450,1,0
300,372,158525,1,2
356,360,158600,1,0
400,324,158675,1,0
428,276,158750,1,0
436,220,158825,5,2
432,168,158900,1,0
412,120,158975,1,0
368,88,159050,1,0
320,72,159125,5,2
272,72,159200,1,0
228,88,159275,1,0
200,124,159350,1,0
192,172,159425,6,0,B|188:200|192:224,1,47.5,2|0
348,232,159575,2,0,B|352:204|348:180,1,47.5
264,276,159725,1,4
100,104,160025,6,0,B|40:96,3,47.5,2|0|0|0
24,192,160325,2,0,B|84:200,3,47.5,2|0|0|0
108,288,160625,1,2
124,332,160700,1,0
168,352,160775,1,0
216,348,160850,1,0
252,320,160925,1,2
264,276,161000,1,0
252,232,161075,1,0
220,200,161150,1,0
204,156,161225,5,2
216,112,161300,1,0
256,88,161375,1,2
304,84,161450,1,0
344,108,161525,1,0
360,152,161600,1,0
344,196,161675,1,2
344,244,161750,1,0
368,284,161825,5,6
184,276,161975,1,0
432,216,162125,2,0,B|516:164,1,95,0|8
280,157,162425,1,6
100,144,162575,1,0
416,96,162725,2,0,B|500:44,1,95,0|8
160,72,163025,6,0,B|108:44,3,47.5,14|0|2|0
384,156,163325,2,0,B|431:149,3,47.5,14|0|2|0
128,228,163625,2,0,B|80:234,3,47.5,14|0|2|0
352,312,163925,2,0,B|384:332,6,23.75,14|8|10|8|10|8|10
308,296,164225,5,2
252,292,164300,1,0
204,320,164375,1,0
152,344,164450,1,0
96,344,164525,1,2
48,316,164600,1,0
12,272,164675,1,2
8,216,164750,1,0
24,160,164825,2,0,B|44:132|44:132|80:108,3,57.0000013589859,2|0|0|0
120,108,165125,2,0,B|156:104|156:104|196:124,3,57.0000013589859,2|0|2|0
228,144,165425,5,2
260,192,165500,1,0
312,216,165575,1,0
368,212,165650,1,0
416,180,165725,1,2
440,128,165800,1,0
436,72,165875,1,2
400,28,165950,1,0
348,8,166025,2,0,B|316:0|316:0|280:16,3,57.0000013589859,2|0|0|0
244,40,166325,2,0,B|224:64|224:64|212:112,3,57.0000013589859,2|0|2|0
228,144,166625,5,2
260,192,166700,1,0
312,216,166775,1,0
368,212,166850,1,0
420,232,166925,1,2
444,284,167000,1,0
428,340,167075,1,0
376,360,167150,1,0
320,344,167225,5,2
264,344,167300,1,0
212,368,167375,1,0
156,368,167450,1,0
104,344,167525,1,2
72,296,167600,1,0
80,240,167675,1,0
64,184,167750,1,0
36,136,167825,6,0,B|28:104|28:104|36:60,3,57.0000013589859,2|0|0|0
160,208,168125,2,0,B|168:240|168:240|160:284,3,57.0000013589859,2|0|0|0
136,120,168425,2,0,B|128:88|128:88|136:44,3,57.0000013589859,2|0|0|0
260,192,168725,2,0,B|268:224|268:224|260:268,3,57.0000013589859,2|0|4|0
232,104,169025,5,2
288,96,169100,1,0
340,120,169175,1,0
368,168,169250,1,0
368,224,169325,1,2
340,276,169400,1,0
344,332,169475,1,2
392,364,169550,1,0
448,364,169625,5,2
484,320,169700,1,0
476,264,169775,1,0
448,216,169850,1,0
448,160,169925,1,2
448,104,170000,1,0
472,52,170075,1,2
280,280,170225,5,2
224,288,170300,1,0
172,264,170375,1,0
144,216,170450,1,0
144,160,170525,1,2
172,108,170600,1,0
168,52,170675,1,2
120,20,170750,1,0
64,20,170825,5,2
28,64,170900,1,0
36,120,170975,1,0
64,168,171050,1,0
64,224,171125,1,2
64,280,171200,1,0
40,332,171275,1,2
240,192,171425,5,2
296,184,171500,1,0
348,204,171575,1,2
380,252,171650,1,0
432,272,171725,1,2
488,256,171800,1,0
508,204,171875,1,2
488,152,171950,1,0
444,120,172025,2,0,B|424:100|424:100|416:64,7,57.0000013589859,2|0|2|0|2|0|2|0
396,16,172625,5,2
348,48,172700,1,0
292,60,172775,1,2
236,52,172850,1,0
184,24,172925,1,2
128,20,173000,1,0
76,44,173075,1,2
56,96,173150,1,0
80,148,173225,2,0,B|92:180|92:180|84:216,3,57.0000013589859,2|0|2|0
68,256,173525,2,0,B|56:288|56:288|64:324,3,57.0000013589859,2|0|2|0
108,348,173825,5,2
164,360,173900,1,0
216,340,173975,1,0
228,284,174050,1,0
200,236,174125,1,2
208,180,174200,1,0
260,152,174275,1,2
316,168,174350,1,0
340,220,174425,5,2
328,276,174500,1,0
352,328,174575,1,0
408,344,174650,1,0
460,324,174725,1,2
488,276,174800,1,0
472,220,174875,1,2
424,188,174950,1,0
404,136,175025,5,2
424,84,175100,1,0
408,28,175175,1,0
356,8,175250,1,0
300,24,175325,1,2
288,80,175400,1,0
304,136,175475,1,2
280,188,175550,1,0
224,204,175625,5,2
176,172,175700,1,0
168,116,175775,1,0
180,60,175850,1,0
144,16,175925,1,2
88,16,176000,1,0
44,52,176075,1,2
40,108,176150,1,0
56,164,176225,6,0,B|61:181|61:181|51:218,3,57.0000013589859,2|0|0|0
184,300,176525,2,0,B|193:336|193:336|183:367,3,57.0000013589859,2|0|0|0
324,216,176825,2,0,B|318:198|318:198|328:161,3,57.0000013589859,2|0|0|0
460,300,177125,2,0,B|451:336|451:336|461:367,3,57.0000013589859,2|0|0|0
492,147,177425,6,0,B|501:111|501:111|495:92,3,57.0000013589859,2|0|0|0
328,300,177725,2,0,B|318:336|318:336|324:354,3,57.0000013589859,2|0|0|0
208,167,178025,2,0,B|217:131|217:131|211:112,3,57.0000013589859,2|0|0|0
44,320,178325,2,0,B|34:356|34:356|40:374,3,57.0000013589859,2|0|6|0
84,276,178625,5,2
104,224,178700,1,0
88,168,178775,1,0
96,112,178850,1,0
136,68,178925,1,2
188,48,179000,1,0
244,56,179075,1,0
296,80,179150,1,0
324,128,179225,1,2
324,184,179300,1,0
304,236,179375,1,0
260,272,179450,1,0
204,280,179525,2,0,B|149:264|149:264|86:213,1,114.000002717972,2|2
208,168,179825,1,2
388,48,179975,5,0
416,100,180050,1,0
420,156,180125,1,2
416,212,180200,1,0
400,268,180275,1,0
368,316,180350,1,0
316,344,180425,1,2
260,360,180500,1,0
204,364,180575,1,0
148,356,180650,1,0
96,332,180725,5,2
64,284,180800,1,0
56,228,180875,1,2
72,172,180950,1,0
120,144,181025,2,0,B|160:128|160:128|200:128,7,57.0000013589859,2|0|2|0|2|0|2|0
392,240,181625,2,0,B|352:256|352:256|312:256,7,57.0000013589859,2|0|2|0|2|0|2|0
208,328,182225,2,0,B|192:292|192:292|193:273,7,57.0000013589859,2|2|2|2|2|2|2|2
318,110,182825,2,0,B|320:92|320:92|304:56,7,57.0000013589859,2|2|2|2|2|2|2|2
184,104,183425,5,6
128,88,183500,1,0
72,100,183575,1,0
36,144,183650,1,0
36,200,183725,1,2
68,248,183800,1,0
124,260,183875,1,2
180,248,183950,1,0
216,204,184025,1,2
272,192,184100,1,0
328,196,184175,1,0
372,228,184250,1,0
384,284,184325,2,0,B|392:312|392:312|388:348,3,57.0000013589859,2|0|2|0
476,212,184625,5,2
492,156,184700,1,0
476,100,184775,1,0
432,64,184850,1,0
376,60,184925,1,2
332,96,185000,1,0
276,112,185075,1,2
220,100,185150,1,0
176,64,185225,1,2
120,48,185300,1,0
64,60,185375,1,0
28,104,185450,1,0
16,160,185525,2,0,B|8:188|8:188|16:232,3,57.0000013589859,2|0|2|0
120,152,185825,5,2
168,184,185900,1,0
188,236,185975,1,0
172,292,186050,1,0
180,348,186125,1,2
228,376,186200,1,0
284,372,186275,1,0
324,332,186350,1,0
316,276,186425,2,0,B|312:248|312:248|280:216,3,57.0000013589859,2|0|0|0
88,244,186725,2,0,B|64:248|64:248|36:272,3,57.0000013589859,2|0|0|0
184,96,187025,5,2
240,92,187100,1,0
288,64,187175,1,0
320,16,187250,1,0
376,4,187325,1,2
428,24,187400,1,0
440,80,187475,1,0
404,124,187550,1,0
380,176,187625,2,0,B|376:208|376:208|388:248,3,57.0000013589859,2|0|0|0
468,300,187925,2,0,B|472:332|472:332|460:372,3,57.0000013589859,2|0|4|0
320,360,188225,5,2
263,368,188300,1,0
212,341,188375,1,0
175,297,188450,1,0
187,242,188525,1,2
227,204,188600,1,0
248,152,188675,1,2
236,96,188750,1,0
188,68,188825,5,2
132,68,188900,1,0
84,96,188975,1,0
68,152,189050,1,0
88,204,189125,1,2
112,256,189200,1,0
92,308,189275,1,2
44,340,189350,1,0
8,308,189425,6,0,B|-8:284|-8:284|0:248,3,57.0000013589859,2|0|0|0
0,200,189725,2,0,B|-8:148|-8:148|16:60,1,114.000002717972,2|2
160,148,190025,1,2
332,216,190175,1,2
384,236,190250,1,0
440,228,190325,2,0,B|468:216|468:216|488:184,3,57.0000013589859,2|2|2|2
484,136,190625,5,2
464,84,190700,1,0
416,56,190775,1,0
360,48,190850,1,0
304,64,190925,1,2
268,108,191000,1,0
252,164,191075,1,0
232,216,191150,1,0
180,240,191225,1,2
124,236,191300,1,0
80,200,191375,1,2
68,144,191450,1,0
84,88,191525,1,2
128,56,191600,1,0
184,60,191675,1,0
376,144,191825,5,2
372,200,191900,1,0
352,252,191975,1,0
320,296,192050,1,0
272,328,192125,1,2
216,344,192200,1,0
160,348,192275,1,0
104,336,192350,1,0
52,316,192425,2,0,B|24:300|24:300|0:256,3,57.0000013589859,2|0|0|0
213,141,192725,2,0,B|184:136|184:136|160:148,3,57.0000013589859,2|0|2|0
184,60,193025,5,2
128,56,193100,1,0
84,88,193175,1,0
68,144,193250,1,0
80,200,193325,2,0,B|96:224|96:224|128:240,3,57.0000013589859,2|0|2|0
176,240,193625,1,2
232,224,193700,1,0
260,176,193775,1,0
272,120,193850,1,0
304,72,193925,2,0,B|320:48|320:48|360:32,3,57.0000013589859,2|0|2|0
404,44,194225,5,2
456,68,194300,1,0
480,120,194375,1,0
472,176,194450,1,0
432,216,194525,2,0,B|408:236|408:236|376:248,3,57.0000013589859,2|0|2|0
328,252,194825,1,2
284,288,194900,1,0
256,336,194975,1,0
208,364,195050,1,0
152,364,195125,2,0,B|116:364|116:364|80:344,3,57.0000013589859,2|0|2|0
64,308,195425,5,2
36,260,195500,1,0
32,204,195575,1,0
52,152,195650,1,0
104,128,195725,1,2
160,128,195800,1,0
200,168,195875,1,0
248,200,195950,1,0
304,196,196025,1,2
356,168,196100,1,0
380,116,196175,1,0
372,60,196250,1,0
328,20,196325,1,2
272,16,196400,1,0
220,44,196475,1,0
120,220,196625,5,2
160,260,196700,1,0
212,288,196775,1,0
268,288,196850,1,0
324,292,196925,1,2
380,276,197000,1,0
424,244,197075,1,0
456,196,197150,1,0
472,140,197225,2,0,B|476:104|476:104|472:72,3,57.0000013589859,2|0|0|0
233,122,197525,2,0,B|260:120|260:120|288:108,3,57.0000013589859,2|0|4|0
116,120,197825,5,2
64,140,197900,1,0
32,188,197975,1,0
28,244,198050,1,0
56,292,198125,1,2
108,316,198200,1,0
164,304,198275,1,0
204,264,198350,1,0
216,208,198425,2,0,B|216:184|216:184|200:152,3,57.0000013589859,2|0|0|0
312,272,198725,2,0,B|336:284|336:284|384:288,3,57.0000013589859,2|0|2|0
420,276,199025,5,2
468,244,199100,1,0
484,188,199175,1,2
472,132,199250,1,0
428,96,199325,1,2
372,88,199400,1,0
316,100,199475,1,2
280,144,199550,1,0
288,200,199625,2,0,B|304:228|304:228|328:244,3,57.0000013589859,2|0|2|0
212,72,199925,2,0,B|180:63|180:63|152:69,3,57.0000013589859,2|0|2|0
100,80,200225,5,2
52,112,200300,1,0
28,164,200375,1,2
32,220,200450,1,0
64,268,200525,1,2
120,284,200600,1,0
176,276,200675,1,2
216,236,200750,1,0
224,180,200825,1,2
264,140,200900,1,0
320,124,200975,1,2
376,128,201050,1,0
420,164,201125,1,2
432,220,201200,1,0
420,276,201275,1,2
376,312,201350,1,0
320,312,201425,6,0,B|288:308|288:308|256:284,3,57.0000013589859,2|0|2|0
380,52,201725,2,0,B|412:56|412:56|444:80,3,57.0000013589859,2|0|2|0
120,284,202025,2,0,B|88:280|88:280|56:256,3,57.0000013589859,2|0|2|0
180,24,202325,2,0,B|212:28|212:28|244:52,3,57.0000013589859,2|0|2|0
44,104,202625,1,4
468,280,205025,5,4
232,44,207425,5,2
280,340,208625,5,2
340,28,209825,5,6
172,356,211025,5,0
216,276,211325,1,0
256,192,211625,1,2
296,108,211925,1,2
340,28,212225,1,4
448,320,214625,5,2
64,64,215825,1,0
256,192,217025,1,4
64,64,218225,6,0,B|0:192|136:192|56:304,1,237.5,4|0
8,236,219125,1,2
124,124,219275,1,2
196,96,219425,2,0,B|292:84|396:96,1,190,4|0
386,96,220625,1,2
256,192,220700,12,4,221825
256,60,224225,5,2
370,258,225425,1,2
141,258,226625,1,4
256,112,227825,5,2
325,232,228425,1,2
186,232,229025,1,2
256,60,230225,5,2
333,298,230525,1,2
130,151,230825,1,2
381,151,231125,1,2
178,298,231425,6,0,B|148:320,1,23.75,4|0
84,236,231725,2,0,B|58:194|58:194|38:154|52:104|68:96,1,142.5,8|0
124,72,232325,1,8
192,92,232475,1,0
333,298,232625,6,0,B|364:320,1,23.75
428,236,232925,2,0,B|454:194|454:194|474:154|460:104|444:96,1,142.5,8|0
388,72,233525,1,8
320,92,233675,2,0,B|308:104,3,11.875
320,92,233825,6,0,B|280:40,1,35.6249989382923,4|0
296,180,234125,2,0,B|348:268|348:268|384:324|448:316,1,213.749993629754,8|0
312,356,234725,1,8
256,280,234875,1,0
200,356,235025,5,0
200,356,235100,1,0
70,316,235325,2,0,B|128:324|164:268|164:268|196:224,1,142.499995753169,8|0
192,224,235700,1,8
76,228,235850,2,0,B|32:228,1,35.6249989382923,0|8
136,160,236075,1,0
80,80,236225,6,0,B|48:32,1,47.5,4|0
168,48,236525,2,0,B|264:120|256:16|356:60,1,190,8|0
380,88,236900,1,8
308,148,237050,1,0
280,188,237125,1,8
396,208,237275,1,0
432,304,237425,6,0,B|464:352,1,47.5,4|0
344,336,237725,2,0,B|248:264|256:368|156:324,1,190,8|8
76,340,238175,1,8
200,240,238325,2,0,B|192:200,7,23.75,2|2|2|2|2|2|2|2
200,240,238625,1,2
256,192,238661,12,0,239674
312,144,239824,5,6
256,192,239861,12,12,240724
256,192,240875,5,8
156,104,241025,5,2
100,84,241100,1,0
44,96,241175,1,0
12,144,241250,1,0
16,200,241325,2,0,B|24:232|24:232|48:256,3,57.0000013589859,2|0|0|0
100,176,241625,1,2
128,224,241700,1,0
128,280,241775,1,0
96,328,241850,1,0
40,344,241925,2,0,B|12:348|12:348|-20:332,3,57.0000013589859,2|0|0|0
180,344,242225,5,2
224,304,242300,1,0
280,292,242375,1,0
336,304,242450,1,0
384,332,242525,2,0,B|408:356|408:356|416:380,3,57.0000013589859,2|0|0|0
408,248,242825,1,2
400,192,242900,1,0
420,140,242975,1,0
464,108,243050,1,0
496,64,243125,2,0,B|504:32|504:32|496:4,3,57.0000013589859,2|0|2|0
392,44,243425,6,0,B|360:32|360:32|320:44,3,57.0000013589859,2|0|0|0
260,212,243725,2,0,B|292:224|292:224|332:212,3,57.0000013589859,2|0|0|0
220,44,244025,2,0,B|188:32|188:32|148:44,3,57.0000013589859,2|0|0|0
92,216,244325,2,0,B|124:228|124:228|164:216,3,57.0000013589859,2|0|0|0
104,116,244625,5,2
56,148,244700,1,0
36,200,244775,1,0
44,256,244850,1,0
76,304,244925,1,2
128,324,245000,1,0
184,324,245075,1,0
236,296,245150,1,0
260,244,245225,1,2
280,192,245300,1,0
320,152,245375,1,0
376,148,245450,1,0
432,164,245525,2,0,B|468:204|468:204|480:268,1,114.000002717972,2|2
148,220,245825,5,6
196,192,245900,1,0
220,140,245975,1,0
220,84,246050,1,0
180,40,246125,2,0,B|119:18,3,57.0000013589859,2|0|0|0
124,124,246425,2,0,B|64:128,3,57.0000013589859,2|0|0|0
64,228,246725,2,0,B|0:256,1,57.0000013589859,2|0
116,308,246875,2,0,B|96:368,1,57.0000013589859,2|0
216,356,247025,5,2
272,372,247100,1,0
328,360,247175,1,0
372,324,247250,1,0
376,268,247325,2,0,B|368:208,3,57.0000013589859,2|0|0|0
460,192,247625,2,0,B|472:124,3,57.0000013589859,2|0|0|0
392,92,247925,2,0,B|377:36,1,57.0000013589859,2|0
288,40,248075,2,0,B|304:100,1,57.0000013589859,2|0
192,36,248225,5,2
136,28,248300,1,0
84,48,248375,1,0
52,96,248450,1,0
48,152,248525,1,2
76,200,248600,1,0
128,224,248675,1,0
184,216,248750,1,0
232,184,248825,5,2
280,152,248900,1,0
336,144,248975,1,0
388,164,249050,1,0
420,212,249125,1,2
424,268,249200,1,0
396,316,249275,1,0
344,336,249350,1,0
288,340,249425,6,0,B|256:340|256:340|216:312,3,57.0000013589859,2|0|0|0
128,312,249725,2,0,B|120:280|120:280|131:234,3,57.0000013589859,2|0|0|0
40,184,250025,1,2
40,184,250100,1,0
40,184,250175,1,0
40,184,250250,1,0
40,184,250325,2,0,B|60:156|60:156|96:136,3,57.0000013589859,6|0|2|0
32,120,250625,5,2
56,68,250700,1,0
108,40,250775,1,0
164,36,250850,1,0
216,60,250925,1,2
248,108,251000,1,0
260,164,251075,1,0
228,212,251150,1,0
180,240,251225,5,2
148,288,251300,1,0
164,344,251375,1,0
208,380,251450,1,0
264,384,251525,1,2
316,360,251600,1,0
340,308,251675,1,0
380,268,251750,1,0
436,256,251825,6,0,B|468:252|468:252|504:264,3,57.0000013589859,2|0|0|0
428,160,252125,2,0,B|396:164|396:164|364:192,3,57.0000013589859,2|0|0|0
448,64,252425,2,0,B|484:72|484:72|516:100,3,57.0000013589859,2|0|0|0
344,52,252725,2,0,B|352:20|352:20|380:-16,3,57.0000013589859,2|0|0|0
256,72,253025,5,2
208,40,253100,1,0
152,36,253175,1,0
96,52,253250,1,0
56,92,253325,1,2
40,148,253400,1,0
56,204,253475,1,0
80,256,253550,1,0
72,312,253625,2,0,B|61:335|61:335|28:357,3,57.0000013589859,2|0|0|0
192,304,253925,2,0,B|208:284|208:284|212:244,3,57.0000013589859,2|0|0|0
316,328,254225,6,0,B|380:340,1,57.0000013589859,2|0
496,288,254375,2,0,B|432:276,1,57.0000013589859,2|0
304,232,254525,2,0,B|368:244,1,57.0000013589859,2|0
484,192,254675,2,0,B|420:180,1,57.0000013589859,2|0
384,104,254825,1,2
352,56,254900,1,0
296,44,254975,1,2
240,60,255050,1,0
208,108,255125,1,6
192,164,255200,1,0
140,192,255275,1,4
84,192,255350,1,0
32,164,255425,5,2
112,96,255575,1,0
112,96,255650,1,0
112,96,255725,1,2
296,144,255875,1,0
296,144,255950,1,0
296,144,256025,5,2
288,200,256100,1,0
256,248,256175,1,0
208,276,256250,1,0
152,292,256325,1,2
96,292,256400,1,0
40,272,256475,1,2
40,272,256550,1,0
40,272,256625,5,2
276,340,256775,1,0
276,340,256850,1,0
276,340,256925,1,2
456,300,257075,1,0
456,300,257150,1,0
456,300,257225,5,2
408,268,257300,1,0
376,220,257375,1,2
384,164,257450,1,0
420,120,257525,2,0,B|440:104|440:104|472:96,3,57.0000013589859,2|0|2|0
300,184,257825,5,2
244,188,257900,1,0
192,164,257975,1,0
152,124,258050,1,0
144,68,258125,1,2
96,36,258200,1,0
40,44,258275,1,0
12,92,258350,1,0
24,148,258425,5,2
68,188,258500,1,0
96,240,258575,1,0
100,296,258650,1,0
128,344,258725,1,2
180,372,258800,1,0
236,364,258875,1,0
272,320,258950,1,0
260,264,259025,5,2
212,236,259100,1,0
172,196,259175,1,0
144,148,259250,1,0
140,92,259325,1,2
168,44,259400,1,0
220,24,259475,1,0
276,24,259550,1,0
324,52,259625,5,2
348,104,259700,1,0
336,160,259775,1,0
328,216,259850,1,0
348,268,259925,1,2
396,300,260000,1,0
452,300,260075,1,2
492,260,260150,1,0
492,204,260225,6,0,B|488:168|488:168|468:136,7,57.0000013589859,6|0|0|0|2|0|0|0
416,49,260825,1,2
409,105,260900,1,0
376,152,260975,1,0
321,161,261050,1,0
268,139,261125,1,2
228,100,261200,1,0
172,100,261275,1,0
132,140,261350,1,0
140,196,261425,6,0,B|165:219|165:219|201:231,7,57.0000013589859,2|0|0|0|2|0|0|0
324,68,262025,1,2
288,24,262100,1,0
232,8,262175,1,0
176,4,262250,1,0
120,20,262325,1,2
72,52,262400,1,0
28,88,262475,1,0
12,144,262550,1,0
68,136,262625,5,2
44,188,262700,1,0
32,244,262775,1,0
56,296,262850,1,0
100,332,262925,1,2
152,352,263000,1,0
208,348,263075,1,0
260,324,263150,1,0
296,280,263225,5,2
292,224,263300,1,0
260,176,263375,1,0
212,148,263450,1,0
176,104,263525,1,2
176,48,263600,1,0
220,12,263675,1,0
276,16,263750,1,0
324,48,263825,6,0,B|344:68|344:68|352:104,1,57.0000013589859,2|0
496,144,263975,2,0,B|502:171|502:171|493:198,1,57.0000013589859,0|0
373,183,264124,2,0,B|380:212|380:212|400:232,1,57.0000013589859,2|0
464,292,264275,2,0,B|472:318|472:318|465:346,1,57.0000013589859
376,352,264425,1,2
320,368,264500,1,0
264,352,264575,1,0
224,312,264650,1,0
204,260,264725,2,0,B|188:232|188:232|152:208,3,57.0000013589859,4|0|0|0
112,304,265025,5,2
68,268,265100,1,0
60,212,265175,1,0
76,156,265250,1,0
120,116,265325,1,2
176,108,265400,1,0
232,124,265475,1,0
268,168,265550,1,0
288,220,265625,5,2
324,264,265700,1,0
380,276,265775,1,0
436,264,265850,1,0
476,224,265925,1,2
484,168,266000,1,0
468,112,266075,1,0
424,72,266150,1,0
368,72,266225,5,2
164,212,266375,1,0
384,176,266525,1,2
184,320,266675,1,2
68,268,266825,1,2
76,156,266975,1,2
120,116,267050,1,0
176,108,267125,1,2
232,124,267200,1,2
268,168,267275,1,2
288,220,267350,1,2
324,264,267425,6,0,B|356:276|356:276|404:276,7,57.0000013589859,2|0|0|0|2|0|0|0
328,124,268025,2,0,B|340:92|340:92|340:44,7,57.0000013589859,2|0|0|0|2|0|0|0
133,108,268625,2,0,B|156:108|156:108|188:120,7,57.0000013589859,2|0|0|0|2|0|0|0
172,314,269225,1,2
172,314,269300,1,0
172,314,269375,1,0
172,314,269450,1,0
172,314,269525,2,0,B|172:292|172:292|184:260,3,57.0000013589859,6|0|0|0
264,296,269825,5,2
296,248,269900,1,0
348,224,269975,1,0
404,236,270050,1,0
460,228,270125,1,2
500,184,270200,1,0
496,128,270275,1,0
464,80,270350,1,0
408,68,270425,5,2
356,96,270500,1,0
308,128,270575,1,0
252,120,270650,1,0
212,80,270725,1,2
164,52,270800,1,0
108,56,270875,1,0
64,92,270950,1,0
56,148,271025,5,2
88,196,271100,1,0
144,208,271175,1,0
200,188,271250,1,0
256,196,271325,1,2
308,220,271400,1,0
348,260,271475,1,0
352,316,271550,1,0
312,360,271625,5,2
256,372,271700,1,0
200,356,271775,1,0
144,344,271850,1,0
88,352,271925,1,2
32,344,272000,1,0
8,292,272075,1,0
16,236,272150,1,0
12,180,272225,6,0,B|8:152|8:152|16:112,3,57.0000013589859,2|0|0|0
136,64,272525,2,0,B|140:92|140:92|132:132,3,57.0000013589859,2|0|0|0
260,16,272825,1,2
316,20,272900,1,0
368,44,272975,1,0
396,96,273050,1,0
388,152,273125,1,2
340,184,273200,1,0
312,236,273275,1,0
324,292,273350,1,0
368,328,273425,6,0,B|396:340|396:340|440:340,3,57.0000013589859,2|0|0|0
224,280,273725,2,0,B|196:268|196:268|152:268,3,57.0000013589859,2|0|0|0
64,304,274025,1,2
56,248,274100,1,0
76,192,274175,1,0
120,156,274250,1,0
176,144,274325,2,0,B|204:140|204:140|236:152,3,57.0000013589859,6|0|6|0
220,96,274625,5,2
248,48,274700,1,0
304,36,274775,1,0
360,52,274850,1,0
384,104,274925,2,0,B|400:156|400:156|400:264,1,114.000002717972,2|0
452,192,275150,2,0,B|426:240|426:240|350:316,1,114.000002717972,2|0
440,300,275375,2,0,B|389:320|389:320|282:329,1,114.000002717972,2|0
348,380,275600,2,0,B|293:372|293:372|195:328,1,114.000002717972,2|0
208,384,275825,5,2
92,212,275975,1,0
88,268,276050,1,0
116,316,276125,1,2
196,236,276275,1,0
204,180,276350,1,0
176,128,276425,1,2
124,104,276500,1,0
68,112,276575,1,2
8,232,276725,2,0,B|0:264|0:264|4:296,2,57.0000013589859,2|0|2
208,328,277025,6,0,B|268:324|268:324|328:292,1,114.000002717972
304,56,277325,2,0,B|244:60|244:60|184:92,1,114.000002717972,2|0
416,336,277625,2,0,B|408:268|408:268|384:220,1,114.000002717972,0|0
96,48,277925,2,0,B|104:116|104:116|128:164,1,114.000002717972,2|0
444,96,278225,5,0
404,136,278300,1,0
348,136,278375,1,0
292,148,278450,1,0
256,192,278525,1,2
220,236,278600,1,0
164,248,278675,1,0
108,248,278750,1,0
68,288,278825,5,0
160,344,278975,2,0,B|188:368,4,28.500000679493,0|0|0|0|2
20,188,279275,2,0,B|48:148,3,28.500000679493
20,188,279424,1,4
492,196,281825,5,2
88,44,284225,6,0,B|32:72|20:156|72:208|72:208|180:184|232:260|200:312|200:312,1,380,4|0
424,44,286625,2,0,B|480:72|492:156|440:208|440:208|344:176|280:260|312:312|312:312,1,380,4|0
400,300,288125,1,0
148,48,288425,1,2
148,336,288725,1,2
400,84,289025,1,4
92,192,291425,5,6
420,192,292625,1,0
148,316,293874,6,0,B|156:264|112:236|112:236|140:196|104:136,1,190,4|2
256,344,295099,1,0
256,344,295887,2,0,B|252:320|260:320|256:284,2,47.5,0|2|2
364,316,296375,2,0,B|356:264|400:236|400:236|372:196|408:136,1,190,4|2
256,192,297650,1,4
256,192,297725,12,4,298962
