osu file format v12

[General]
AudioFilename: Ascension to Heaven.mp3
AudioLeadIn: 2
PreviewTime: 121240
Countdown: 0
SampleSet: Soft
StackLeniency: 0.7
Mode: 3
LetterboxInBreaks: 0
SpecialStyle: 0
WidescreenStoryboard: 1

[Editor]
DistanceSpacing: 0.8
BeatDivisor: 8
GridSize: 8
TimelineZoom: 1.4

[Metadata]
Title:Ascension to Heaven
TitleUnicode:Ascension to Heaven
Artist:xi
ArtistUnicode:xi
Creator:MasterSonic10
Version:4k SHD
Source:Stepmania
Tags:Stepmania
BeatmapID:411806
BeatmapSetID:170023

[Difficulty]
HPDrainRate:5
CircleSize:4
OverallDifficulty:7
ApproachRate:10
SliderMultiplier:1.4
SliderTickRate:1

[Events]
//Background and Video events
0,0,"background.jpg",0,0
//Break Periods
//Storyboard Layer 0 (Background)
//Storyboard Layer 1 (Fail)
//Storyboard Layer 2 (Pass)
//Storyboard Layer 3 (Foreground)
//Storyboard Sound Samples
//Background Colour Transformations
3,100,163,162,255

[TimingPoints]
1300,300,4,2,0,15,1,0

[HitObjects]
64,192,1241,5,0,0:0:0:0:
320,192,1279,1,0,0:0:0:0:
64,192,3641,1,0,0:0:0:0:
320,192,3679,1,0,0:0:0:0:
192,192,4841,1,0,0:0:0:0:
448,192,4879,1,0,0:0:0:0:
64,192,6041,1,0,0:0:0:0:
320,192,6079,1,0,0:0:0:0:
64,192,8441,1,0,0:0:0:0:
320,192,8479,1,0,0:0:0:0:
192,192,9641,1,0,0:0:0:0:
448,192,9679,1,0,0:0:0:0:
320,192,9941,1,0,0:0:0:0:
192,192,10016,1,0,0:0:0:0:
320,192,10091,1,0,0:0:0:0:
192,192,10166,1,0,0:0:0:0:
448,192,10241,1,0,0:0:0:0:
64,192,10316,1,0,0:0:0:0:
448,192,10391,1,0,0:0:0:0:
64,192,10466,1,0,0:0:0:0:
448,192,10541,1,0,0:0:0:0:
192,192,10616,1,0,0:0:0:0:
320,192,10691,1,0,0:0:0:0:
448,192,10766,1,0,0:0:0:0:
64,192,10841,1,0,0:0:0:0:
192,192,10841,1,0,0:0:0:0:
64,192,10991,1,0,0:0:0:0:
448,192,10991,1,0,0:0:0:0:
192,192,11066,1,0,0:0:0:0:
320,192,11066,1,0,0:0:0:0:
64,192,11141,1,0,0:0:0:0:
448,192,11141,1,0,0:0:0:0:
64,192,11291,1,0,0:0:0:0:
192,192,11291,1,0,0:0:0:0:
320,192,11366,1,0,0:0:0:0:
448,192,11366,1,0,0:0:0:0:
320,192,11516,1,0,0:0:0:0:
448,192,11516,1,0,0:0:0:0:
64,192,11591,1,0,0:0:0:0:
192,192,11666,1,0,0:0:0:0:
320,192,11666,1,0,0:0:0:0:
64,192,11741,1,0,0:0:0:0:
448,192,11741,1,0,0:0:0:0:
64,192,11891,1,0,0:0:0:0:
192,192,11891,1,0,0:0:0:0:
320,192,11966,1,0,0:0:0:0:
448,192,11966,1,0,0:0:0:0:
64,192,12041,1,0,0:0:0:0:
192,192,12041,1,0,0:0:0:0:
192,192,12191,1,0,0:0:0:0:
448,192,12191,1,0,0:0:0:0:
64,192,12341,1,0,0:0:0:0:
448,192,12341,1,0,0:0:0:0:
192,192,12416,1,0,0:0:0:0:
320,192,12416,1,0,0:0:0:0:
64,192,12491,1,0,0:0:0:0:
320,192,12566,1,0,0:0:0:0:
448,192,12566,1,0,0:0:0:0:
192,192,12641,1,0,0:0:0:0:
64,192,12716,1,0,0:0:0:0:
448,192,12716,1,0,0:0:0:0:
320,192,12791,1,0,0:0:0:0:
64,192,12866,1,0,0:0:0:0:
192,192,12866,1,0,0:0:0:0:
320,192,12941,1,0,0:0:0:0:
448,192,12941,1,0,0:0:0:0:
64,192,13016,1,0,0:0:0:0:
192,192,13016,1,0,0:0:0:0:
320,192,13091,1,0,0:0:0:0:
448,192,13141,1,0,0:0:0:0:
64,192,13191,1,0,0:0:0:0:
192,192,13241,1,0,0:0:0:0:
320,192,13241,1,0,0:0:0:0:
448,192,13316,1,0,0:0:0:0:
64,192,13391,1,0,0:0:0:0:
192,192,13391,1,0,0:0:0:0:
320,192,13466,1,0,0:0:0:0:
448,192,13466,1,0,0:0:0:0:
64,192,13541,1,0,0:0:0:0:
192,192,13541,1,0,0:0:0:0:
192,192,13691,1,0,0:0:0:0:
320,192,13691,1,0,0:0:0:0:
64,192,13766,1,0,0:0:0:0:
448,192,13766,1,0,0:0:0:0:
192,192,13841,1,0,0:0:0:0:
320,192,13916,1,0,0:0:0:0:
64,192,13991,1,0,0:0:0:0:
448,192,13991,1,0,0:0:0:0:
320,192,14141,1,0,0:0:0:0:
448,192,14141,1,0,0:0:0:0:
64,192,14291,1,0,0:0:0:0:
192,192,14341,1,0,0:0:0:0:
320,192,14391,1,0,0:0:0:0:
448,192,14441,1,0,0:0:0:0:
320,192,14516,1,0,0:0:0:0:
64,192,14591,1,0,0:0:0:0:
192,192,14591,1,0,0:0:0:0:
320,192,14666,1,0,0:0:0:0:
192,192,14741,1,0,0:0:0:0:
448,192,14741,1,0,0:0:0:0:
320,192,14816,1,0,0:0:0:0:
64,192,14891,1,0,0:0:0:0:
448,192,14891,1,0,0:0:0:0:
192,192,14966,1,0,0:0:0:0:
64,192,15041,1,0,0:0:0:0:
320,192,15041,1,0,0:0:0:0:
448,192,15116,1,0,0:0:0:0:
320,192,15191,1,0,0:0:0:0:
192,192,15241,1,0,0:0:0:0:
64,192,15291,1,0,0:0:0:0:
320,192,15341,1,0,0:0:0:0:
448,192,15341,1,0,0:0:0:0:
64,192,15416,1,0,0:0:0:0:
192,192,15491,1,0,0:0:0:0:
320,192,15541,1,0,0:0:0:0:
448,192,15591,1,0,0:0:0:0:
64,192,15641,1,0,0:0:0:0:
192,192,15641,1,0,0:0:0:0:
320,192,15791,1,0,0:0:0:0:
448,192,15791,1,0,0:0:0:0:
64,192,15866,1,0,0:0:0:0:
192,192,15866,1,0,0:0:0:0:
320,192,15941,1,0,0:0:0:0:
448,192,15941,1,0,0:0:0:0:
192,192,16091,1,0,0:0:0:0:
320,192,16091,1,0,0:0:0:0:
64,192,16166,1,0,0:0:0:0:
448,192,16166,1,0,0:0:0:0:
320,192,16241,1,0,0:0:0:0:
64,192,16391,1,0,0:0:0:0:
192,192,16391,1,0,0:0:0:0:
192,192,16541,1,0,0:0:0:0:
320,192,16541,1,0,0:0:0:0:
320,192,16691,1,0,0:0:0:0:
448,192,16691,1,0,0:0:0:0:
192,192,16741,1,0,0:0:0:0:
64,192,16791,1,0,0:0:0:0:
192,192,16841,1,0,0:0:0:0:
448,192,16841,1,0,0:0:0:0:
320,192,16916,1,0,0:0:0:0:
64,192,16991,1,0,0:0:0:0:
192,192,16991,1,0,0:0:0:0:
192,192,17141,1,0,0:0:0:0:
448,192,17141,1,0,0:0:0:0:
64,192,17216,1,0,0:0:0:0:
320,192,17216,1,0,0:0:0:0:
192,192,17291,1,0,0:0:0:0:
64,192,17366,1,0,0:0:0:0:
448,192,17366,1,0,0:0:0:0:
320,192,17441,1,0,0:0:0:0:
64,192,17516,1,0,0:0:0:0:
192,192,17516,1,0,0:0:0:0:
448,192,17591,1,0,0:0:0:0:
64,192,17666,1,0,0:0:0:0:
320,192,17666,1,0,0:0:0:0:
192,192,17741,1,0,0:0:0:0:
448,192,17741,1,0,0:0:0:0:
320,192,17816,1,0,0:0:0:0:
192,192,17891,1,0,0:0:0:0:
320,192,17966,1,0,0:0:0:0:
64,192,18041,1,0,0:0:0:0:
448,192,18041,1,0,0:0:0:0:
192,192,18191,1,0,0:0:0:0:
64,192,18266,1,0,0:0:0:0:
192,192,18341,1,0,0:0:0:0:
320,192,18341,1,0,0:0:0:0:
448,192,18491,1,0,0:0:0:0:
64,192,18566,1,0,0:0:0:0:
320,192,18566,1,0,0:0:0:0:
192,192,18641,1,0,0:0:0:0:
64,192,18791,1,0,0:0:0:0:
320,192,18791,1,0,0:0:0:0:
448,192,18941,1,0,0:0:0:0:
320,192,18979,1,0,0:0:0:0:
192,192,19016,1,0,0:0:0:0:
64,192,19054,1,0,0:0:0:0:
448,192,19091,1,0,0:0:0:0:
320,192,19129,1,0,0:0:0:0:
192,192,19166,1,0,0:0:0:0:
64,192,19204,1,0,0:0:0:0:
320,192,19241,1,0,0:0:0:0:
448,192,19241,1,0,0:0:0:0:
64,192,19316,1,0,0:0:0:0:
448,192,19391,1,0,0:0:0:0:
64,192,19466,1,0,0:0:0:0:
192,192,19541,1,0,0:0:0:0:
64,192,19616,1,0,0:0:0:0:
320,192,19691,1,0,0:0:0:0:
192,192,19766,1,0,0:0:0:0:
448,192,19841,1,0,0:0:0:0:
64,192,19891,1,0,0:0:0:0:
192,192,19941,1,0,0:0:0:0:
320,192,19991,1,0,0:0:0:0:
448,192,20041,1,0,0:0:0:0:
64,192,20091,1,0,0:0:0:0:
192,192,20141,1,0,0:0:0:0:
320,192,20141,1,0,0:0:0:0:
448,192,20141,1,0,0:0:0:0:
64,192,20441,1,0,0:0:0:0:
320,192,20441,1,0,0:0:0:0:
448,192,20441,1,0,0:0:0:0:
192,192,20516,1,0,0:0:0:0:
320,192,20591,1,0,0:0:0:0:
192,192,20666,1,0,0:0:0:0:
64,192,20741,1,0,0:0:0:0:
448,192,20741,1,0,0:0:0:0:
320,192,20816,1,0,0:0:0:0:
192,192,20891,1,0,0:0:0:0:
320,192,20966,1,0,0:0:0:0:
448,192,20966,1,0,0:0:0:0:
192,192,21041,1,0,0:0:0:0:
64,192,21116,1,0,0:0:0:0:
192,192,21191,1,0,0:0:0:0:
320,192,21191,1,0,0:0:0:0:
448,192,21266,1,0,0:0:0:0:
64,192,21341,1,0,0:0:0:0:
192,192,21341,1,0,0:0:0:0:
320,192,21416,1,0,0:0:0:0:
64,192,21491,1,0,0:0:0:0:
448,192,21491,1,0,0:0:0:0:
192,192,21566,1,0,0:0:0:0:
320,192,21641,1,0,0:0:0:0:
192,192,21716,1,0,0:0:0:0:
64,192,21791,1,0,0:0:0:0:
320,192,21866,1,0,0:0:0:0:
192,192,21941,1,0,0:0:0:0:
448,192,21941,1,0,0:0:0:0:
320,192,22016,1,0,0:0:0:0:
64,192,22091,1,0,0:0:0:0:
192,192,22166,1,0,0:0:0:0:
320,192,22241,1,0,0:0:0:0:
448,192,22316,1,0,0:0:0:0:
192,192,22391,1,0,0:0:0:0:
320,192,22466,1,0,0:0:0:0:
64,192,22541,1,0,0:0:0:0:
448,192,22541,1,0,0:0:0:0:
192,192,22616,1,0,0:0:0:0:
320,192,22691,1,0,0:0:0:0:
448,192,22691,1,0,0:0:0:0:
64,192,22766,1,0,0:0:0:0:
192,192,22841,1,0,0:0:0:0:
320,192,22841,1,0,0:0:0:0:
64,192,22916,1,0,0:0:0:0:
448,192,22991,1,0,0:0:0:0:
320,192,23066,1,0,0:0:0:0:
64,192,23141,1,0,0:0:0:0:
192,192,23141,1,0,0:0:0:0:
320,192,23216,1,0,0:0:0:0:
64,192,23291,1,0,0:0:0:0:
192,192,23366,1,0,0:0:0:0:
320,192,23366,1,0,0:0:0:0:
448,192,23441,1,0,0:0:0:0:
64,192,23516,1,0,0:0:0:0:
192,192,23591,1,0,0:0:0:0:
448,192,23591,1,0,0:0:0:0:
320,192,23666,1,0,0:0:0:0:
64,192,23741,1,0,0:0:0:0:
448,192,23741,1,0,0:0:0:0:
320,192,23816,1,0,0:0:0:0:
64,192,23891,1,0,0:0:0:0:
192,192,23891,1,0,0:0:0:0:
448,192,23966,1,0,0:0:0:0:
64,192,24041,1,0,0:0:0:0:
192,192,24116,1,0,0:0:0:0:
320,192,24191,1,0,0:0:0:0:
448,192,24266,1,0,0:0:0:0:
64,192,24341,1,0,0:0:0:0:
192,192,24341,1,0,0:0:0:0:
448,192,24416,1,0,0:0:0:0:
320,192,24491,1,0,0:0:0:0:
192,192,24566,1,0,0:0:0:0:
64,192,24641,1,0,0:0:0:0:
320,192,24716,1,0,0:0:0:0:
192,192,24791,1,0,0:0:0:0:
320,192,24866,1,0,0:0:0:0:
64,192,24941,1,0,0:0:0:0:
448,192,24941,1,0,0:0:0:0:
192,192,25016,1,0,0:0:0:0:
320,192,25091,1,0,0:0:0:0:
448,192,25091,1,0,0:0:0:0:
192,192,25166,1,0,0:0:0:0:
64,192,25241,1,0,0:0:0:0:
320,192,25241,1,0,0:0:0:0:
192,192,25316,1,0,0:0:0:0:
448,192,25391,1,0,0:0:0:0:
320,192,25466,1,0,0:0:0:0:
64,192,25541,1,0,0:0:0:0:
192,192,25541,1,0,0:0:0:0:
320,192,25616,1,0,0:0:0:0:
448,192,25691,1,0,0:0:0:0:
192,192,25766,1,0,0:0:0:0:
320,192,25766,1,0,0:0:0:0:
64,192,25841,1,0,0:0:0:0:
448,192,25916,1,0,0:0:0:0:
64,192,25991,1,0,0:0:0:0:
192,192,25991,1,0,0:0:0:0:
320,192,26066,1,0,0:0:0:0:
64,192,26141,1,0,0:0:0:0:
448,192,26141,1,0,0:0:0:0:
320,192,26216,1,0,0:0:0:0:
192,192,26291,1,0,0:0:0:0:
448,192,26291,1,0,0:0:0:0:
64,192,26366,1,0,0:0:0:0:
192,192,26441,1,0,0:0:0:0:
320,192,26516,1,0,0:0:0:0:
448,192,26591,1,0,0:0:0:0:
320,192,26666,1,0,0:0:0:0:
64,192,26741,1,0,0:0:0:0:
448,192,26741,1,0,0:0:0:0:
192,192,26816,1,0,0:0:0:0:
448,192,26891,1,0,0:0:0:0:
192,192,26966,1,0,0:0:0:0:
64,192,27041,1,0,0:0:0:0:
320,192,27116,1,0,0:0:0:0:
192,192,27191,1,0,0:0:0:0:
320,192,27266,1,0,0:0:0:0:
192,192,27341,1,0,0:0:0:0:
448,192,27341,1,0,0:0:0:0:
64,192,27416,1,0,0:0:0:0:
320,192,27491,1,0,0:0:0:0:
448,192,27491,1,0,0:0:0:0:
192,192,27566,1,0,0:0:0:0:
64,192,27641,1,0,0:0:0:0:
320,192,27641,1,0,0:0:0:0:
448,192,27716,1,0,0:0:0:0:
192,192,27791,1,0,0:0:0:0:
64,192,27866,1,0,0:0:0:0:
320,192,27941,1,0,0:0:0:0:
448,192,27941,1,0,0:0:0:0:
192,192,28016,1,0,0:0:0:0:
64,192,28091,1,0,0:0:0:0:
192,192,28166,1,0,0:0:0:0:
448,192,28166,1,0,0:0:0:0:
320,192,28241,1,0,0:0:0:0:
448,192,28316,1,0,0:0:0:0:
64,192,28391,1,0,0:0:0:0:
192,192,28391,1,0,0:0:0:0:
320,192,28466,1,0,0:0:0:0:
64,192,28541,1,0,0:0:0:0:
448,192,28541,1,0,0:0:0:0:
320,192,28616,1,0,0:0:0:0:
192,192,28691,1,0,0:0:0:0:
448,192,28691,1,0,0:0:0:0:
64,192,28766,1,0,0:0:0:0:
192,192,28841,1,0,0:0:0:0:
320,192,28916,1,0,0:0:0:0:
448,192,28991,1,0,0:0:0:0:
320,192,29066,1,0,0:0:0:0:
192,192,29141,1,0,0:0:0:0:
64,192,29216,1,0,0:0:0:0:
320,192,29291,1,0,0:0:0:0:
192,192,29366,1,0,0:0:0:0:
320,192,29441,1,0,0:0:0:0:
64,0,29441,128,0,29516:1:0:0:0:
448,192,29516,1,0,0:0:0:0:
320,192,29591,1,0,0:0:0:0:
192,192,29666,1,0,0:0:0:0:
64,192,29741,1,0,0:0:0:0:
448,0,29741,128,0,29816:1:0:0:0:
320,192,29816,1,0,0:0:0:0:
192,192,29891,1,0,0:0:0:0:
64,192,29966,1,0,0:0:0:0:
192,192,30041,1,0,0:0:0:0:
320,192,30041,1,0,0:0:0:0:
448,192,30116,1,0,0:0:0:0:
64,192,30191,1,0,0:0:0:0:
192,192,30266,1,0,0:0:0:0:
320,192,30341,1,0,0:0:0:0:
448,192,30341,1,0,0:0:0:0:
64,192,30416,1,0,0:0:0:0:
192,192,30491,1,0,0:0:0:0:
64,192,30566,1,0,0:0:0:0:
448,192,30566,1,0,0:0:0:0:
320,192,30641,1,0,0:0:0:0:
192,192,30716,1,0,0:0:0:0:
64,192,30791,1,0,0:0:0:0:
448,192,30791,1,0,0:0:0:0:
320,192,30866,1,0,0:0:0:0:
64,192,30941,1,0,0:0:0:0:
192,192,30941,1,0,0:0:0:0:
448,192,31016,1,0,0:0:0:0:
64,192,31091,1,0,0:0:0:0:
192,192,31091,1,0,0:0:0:0:
320,192,31166,1,0,0:0:0:0:
448,192,31241,1,0,0:0:0:0:
64,192,31316,1,0,0:0:0:0:
192,192,31391,1,0,0:0:0:0:
320,192,31466,1,0,0:0:0:0:
64,192,31541,1,0,0:0:0:0:
448,192,31541,1,0,0:0:0:0:
192,192,31616,1,0,0:0:0:0:
320,192,31691,1,0,0:0:0:0:
448,192,31691,1,0,0:0:0:0:
192,192,31766,1,0,0:0:0:0:
64,192,31841,1,0,0:0:0:0:
192,192,31916,1,0,0:0:0:0:
320,192,31991,1,0,0:0:0:0:
448,192,31991,1,0,0:0:0:0:
192,192,32066,1,0,0:0:0:0:
64,192,32141,1,0,0:0:0:0:
448,192,32141,1,0,0:0:0:0:
320,192,32216,1,0,0:0:0:0:
64,192,32291,1,0,0:0:0:0:
192,192,32291,1,0,0:0:0:0:
320,192,32366,1,0,0:0:0:0:
192,192,32441,1,0,0:0:0:0:
448,192,32441,1,0,0:0:0:0:
320,192,32516,1,0,0:0:0:0:
192,192,32591,1,0,0:0:0:0:
64,192,32666,1,0,0:0:0:0:
320,192,32741,1,0,0:0:0:0:
448,192,32741,1,0,0:0:0:0:
64,192,32816,1,0,0:0:0:0:
192,192,32891,1,0,0:0:0:0:
64,192,32966,1,0,0:0:0:0:
320,192,32966,1,0,0:0:0:0:
192,192,33041,1,0,0:0:0:0:
320,192,33116,1,0,0:0:0:0:
192,192,33191,1,0,0:0:0:0:
448,192,33191,1,0,0:0:0:0:
320,192,33266,1,0,0:0:0:0:
448,192,33341,1,0,0:0:0:0:
64,192,33416,1,0,0:0:0:0:
320,192,33491,1,0,0:0:0:0:
448,192,33491,1,0,0:0:0:0:
192,192,33566,1,0,0:0:0:0:
64,192,33641,1,0,0:0:0:0:
320,192,33641,1,0,0:0:0:0:
192,192,33716,1,0,0:0:0:0:
448,192,33716,1,0,0:0:0:0:
320,192,33791,1,0,0:0:0:0:
64,192,33866,1,0,0:0:0:0:
192,192,33866,1,0,0:0:0:0:
320,192,33941,1,0,0:0:0:0:
448,192,33941,1,0,0:0:0:0:
64,192,34016,1,0,0:0:0:0:
192,192,34091,1,0,0:0:0:0:
320,192,34091,1,0,0:0:0:0:
448,192,34166,1,0,0:0:0:0:
64,192,34241,1,0,0:0:0:0:
192,192,34241,1,0,0:0:0:0:
448,192,34316,1,0,0:0:0:0:
192,192,34391,1,0,0:0:0:0:
320,192,34391,1,0,0:0:0:0:
64,192,34466,1,0,0:0:0:0:
192,192,34541,1,0,0:0:0:0:
448,192,34541,1,0,0:0:0:0:
64,192,34616,1,0,0:0:0:0:
320,192,34691,1,0,0:0:0:0:
448,192,34691,1,0,0:0:0:0:
192,192,34766,1,0,0:0:0:0:
64,192,34841,1,0,0:0:0:0:
448,192,34841,1,0,0:0:0:0:
320,192,34916,1,0,0:0:0:0:
192,192,34991,1,0,0:0:0:0:
64,192,35066,1,0,0:0:0:0:
320,192,35141,1,0,0:0:0:0:
448,192,35141,1,0,0:0:0:0:
64,192,35216,1,0,0:0:0:0:
192,192,35291,1,0,0:0:0:0:
320,192,35291,1,0,0:0:0:0:
64,192,35366,1,0,0:0:0:0:
448,192,35366,1,0,0:0:0:0:
320,192,35441,1,0,0:0:0:0:
192,192,35516,1,0,0:0:0:0:
64,192,35591,1,0,0:0:0:0:
448,192,35591,1,0,0:0:0:0:
192,192,35666,1,0,0:0:0:0:
320,192,35741,1,0,0:0:0:0:
448,192,35741,1,0,0:0:0:0:
64,192,35816,1,0,0:0:0:0:
192,192,35891,1,0,0:0:0:0:
320,192,35891,1,0,0:0:0:0:
448,192,35966,1,0,0:0:0:0:
64,192,36041,1,0,0:0:0:0:
192,192,36116,1,0,0:0:0:0:
320,192,36191,1,0,0:0:0:0:
448,192,36266,1,0,0:0:0:0:
64,192,36341,1,0,0:0:0:0:
192,192,36341,1,0,0:0:0:0:
320,192,36416,1,0,0:0:0:0:
64,192,36491,1,0,0:0:0:0:
448,192,36491,1,0,0:0:0:0:
192,192,36566,1,0,0:0:0:0:
320,192,36641,1,0,0:0:0:0:
448,192,36716,1,0,0:0:0:0:
64,192,36791,1,0,0:0:0:0:
192,192,36791,1,0,0:0:0:0:
448,192,36866,1,0,0:0:0:0:
192,192,36941,1,0,0:0:0:0:
320,192,36941,1,0,0:0:0:0:
64,192,37016,1,0,0:0:0:0:
320,192,37091,1,0,0:0:0:0:
448,192,37091,1,0,0:0:0:0:
64,192,37166,1,0,0:0:0:0:
192,192,37241,1,0,0:0:0:0:
448,192,37241,1,0,0:0:0:0:
320,192,37316,1,0,0:0:0:0:
448,192,37391,1,0,0:0:0:0:
64,192,37466,1,0,0:0:0:0:
192,192,37466,1,0,0:0:0:0:
320,192,37541,1,0,0:0:0:0:
448,192,37541,1,0,0:0:0:0:
192,192,37616,1,0,0:0:0:0:
64,192,37691,1,0,0:0:0:0:
320,192,37766,1,0,0:0:0:0:
448,192,37766,1,0,0:0:0:0:
64,192,37841,1,0,0:0:0:0:
192,192,37916,1,0,0:0:0:0:
320,192,37991,1,0,0:0:0:0:
448,192,37991,1,0,0:0:0:0:
64,192,38066,1,0,0:0:0:0:
192,192,38141,1,0,0:0:0:0:
320,192,38141,1,0,0:0:0:0:
448,192,38216,1,0,0:0:0:0:
64,192,38291,1,0,0:0:0:0:
320,192,38291,1,0,0:0:0:0:
448,192,38366,1,0,0:0:0:0:
64,192,38441,1,0,0:0:0:0:
192,192,38441,1,0,0:0:0:0:
320,192,38516,1,0,0:0:0:0:
448,192,38516,1,0,0:0:0:0:
192,192,38591,1,0,0:0:0:0:
64,192,38666,1,0,0:0:0:0:
448,192,38741,1,0,0:0:0:0:
192,0,38741,128,0,38816:1:0:0:0:
320,192,38816,1,0,0:0:0:0:
192,192,38891,1,0,0:0:0:0:
64,192,38966,1,0,0:0:0:0:
448,0,39041,128,0,39116:1:0:0:0:
192,192,39116,1,0,0:0:0:0:
320,192,39191,1,0,0:0:0:0:
192,192,39266,1,0,0:0:0:0:
64,192,39341,1,0,0:0:0:0:
448,192,39341,1,0,0:0:0:0:
320,192,39416,1,0,0:0:0:0:
192,192,39491,1,0,0:0:0:0:
448,192,39491,1,0,0:0:0:0:
320,192,39566,1,0,0:0:0:0:
64,192,39641,1,0,0:0:0:0:
192,192,39641,1,0,0:0:0:0:
448,192,39641,1,0,0:0:0:0:
320,192,39716,1,0,0:0:0:0:
192,192,39791,1,0,0:0:0:0:
64,192,39866,1,0,0:0:0:0:
320,192,39941,1,0,0:0:0:0:
448,192,39941,1,0,0:0:0:0:
192,192,40016,1,0,0:0:0:0:
64,192,40091,1,0,0:0:0:0:
192,192,40166,1,0,0:0:0:0:
448,192,40166,1,0,0:0:0:0:
64,192,40241,1,0,0:0:0:0:
320,192,40316,1,0,0:0:0:0:
192,192,40391,1,0,0:0:0:0:
448,192,40391,1,0,0:0:0:0:
320,192,40466,1,0,0:0:0:0:
64,192,40541,1,0,0:0:0:0:
192,192,40541,1,0,0:0:0:0:
320,192,40616,1,0,0:0:0:0:
64,192,40691,1,0,0:0:0:0:
448,192,40691,1,0,0:0:0:0:
192,192,40766,1,0,0:0:0:0:
320,192,40841,1,0,0:0:0:0:
448,192,40916,1,0,0:0:0:0:
64,192,40991,1,0,0:0:0:0:
320,192,41066,1,0,0:0:0:0:
192,192,41141,1,0,0:0:0:0:
448,192,41141,1,0,0:0:0:0:
64,192,41216,1,0,0:0:0:0:
192,192,41291,1,0,0:0:0:0:
320,192,41366,1,0,0:0:0:0:
448,192,41441,1,0,0:0:0:0:
64,192,41516,1,0,0:0:0:0:
192,192,41591,1,0,0:0:0:0:
320,192,41591,1,0,0:0:0:0:
64,192,41666,1,0,0:0:0:0:
320,192,41741,1,0,0:0:0:0:
448,192,41741,1,0,0:0:0:0:
192,192,41816,1,0,0:0:0:0:
64,192,41891,1,0,0:0:0:0:
448,192,41891,1,0,0:0:0:0:
192,192,41966,1,0,0:0:0:0:
320,192,42041,1,0,0:0:0:0:
64,192,42116,1,0,0:0:0:0:
192,192,42191,1,0,0:0:0:0:
320,192,42266,1,0,0:0:0:0:
64,192,42341,1,0,0:0:0:0:
448,192,42341,1,0,0:0:0:0:
320,192,42416,1,0,0:0:0:0:
192,192,42491,1,0,0:0:0:0:
448,192,42566,1,0,0:0:0:0:
64,192,42641,1,0,0:0:0:0:
192,192,42716,1,0,0:0:0:0:
320,192,42791,1,0,0:0:0:0:
192,192,42866,1,0,0:0:0:0:
448,192,42941,1,0,0:0:0:0:
64,192,43016,1,0,0:0:0:0:
192,192,43091,1,0,0:0:0:0:
320,192,43166,1,0,0:0:0:0:
64,192,43241,1,0,0:0:0:0:
448,192,43241,1,0,0:0:0:0:
320,192,43316,1,0,0:0:0:0:
192,192,43391,1,0,0:0:0:0:
448,192,43466,1,0,0:0:0:0:
192,192,43541,1,0,0:0:0:0:
320,192,43541,1,0,0:0:0:0:
64,192,43616,1,0,0:0:0:0:
448,192,43691,1,0,0:0:0:0:
64,192,43766,1,0,0:0:0:0:
192,192,43841,1,0,0:0:0:0:
320,192,43916,1,0,0:0:0:0:
448,192,43991,1,0,0:0:0:0:
320,192,44066,1,0,0:0:0:0:
64,192,44141,1,0,0:0:0:0:
192,192,44141,1,0,0:0:0:0:
320,192,44216,1,0,0:0:0:0:
192,192,44291,1,0,0:0:0:0:
448,192,44291,1,0,0:0:0:0:
320,192,44366,1,0,0:0:0:0:
64,192,44441,1,0,0:0:0:0:
448,192,44441,1,0,0:0:0:0:
192,192,44516,1,0,0:0:0:0:
320,192,44591,1,0,0:0:0:0:
192,192,44666,1,0,0:0:0:0:
64,192,44741,1,0,0:0:0:0:
448,192,44741,1,0,0:0:0:0:
320,192,44816,1,0,0:0:0:0:
192,192,44891,1,0,0:0:0:0:
64,192,44966,1,0,0:0:0:0:
448,192,44966,1,0,0:0:0:0:
320,192,45041,1,0,0:0:0:0:
448,192,45116,1,0,0:0:0:0:
192,192,45191,1,0,0:0:0:0:
320,192,45191,1,0,0:0:0:0:
64,192,45266,1,0,0:0:0:0:
320,192,45341,1,0,0:0:0:0:
448,192,45341,1,0,0:0:0:0:
192,192,45416,1,0,0:0:0:0:
64,192,45491,1,0,0:0:0:0:
192,192,45566,1,0,0:0:0:0:
320,192,45641,1,0,0:0:0:0:
64,192,45716,1,0,0:0:0:0:
192,192,45791,1,0,0:0:0:0:
320,192,45866,1,0,0:0:0:0:
64,192,45941,1,0,0:0:0:0:
448,192,45941,1,0,0:0:0:0:
192,192,46016,1,0,0:0:0:0:
448,192,46091,1,0,0:0:0:0:
320,192,46166,1,0,0:0:0:0:
192,192,46241,1,0,0:0:0:0:
64,192,46316,1,0,0:0:0:0:
192,192,46391,1,0,0:0:0:0:
320,192,46466,1,0,0:0:0:0:
64,192,46541,1,0,0:0:0:0:
448,192,46541,1,0,0:0:0:0:
192,192,46616,1,0,0:0:0:0:
64,192,46691,1,0,0:0:0:0:
320,192,46691,1,0,0:0:0:0:
448,192,46766,1,0,0:0:0:0:
64,192,46841,1,0,0:0:0:0:
192,192,46841,1,0,0:0:0:0:
448,192,46916,1,0,0:0:0:0:
320,192,46991,1,0,0:0:0:0:
192,192,47066,1,0,0:0:0:0:
64,192,47141,1,0,0:0:0:0:
448,192,47141,1,0,0:0:0:0:
192,192,47216,1,0,0:0:0:0:
320,192,47291,1,0,0:0:0:0:
64,192,47366,1,0,0:0:0:0:
448,192,47366,1,0,0:0:0:0:
192,192,47441,1,0,0:0:0:0:
320,192,47516,1,0,0:0:0:0:
192,192,47591,1,0,0:0:0:0:
448,192,47591,1,0,0:0:0:0:
64,192,47666,1,0,0:0:0:0:
320,192,47741,1,0,0:0:0:0:
448,192,47741,1,0,0:0:0:0:
64,192,47816,1,0,0:0:0:0:
320,192,47891,1,0,0:0:0:0:
448,192,47891,1,0,0:0:0:0:
192,192,47966,1,0,0:0:0:0:
64,192,48041,1,0,0:0:0:0:
448,192,48041,1,0,0:0:0:0:
320,192,48116,1,0,0:0:0:0:
192,192,48191,1,0,0:0:0:0:
64,192,48266,1,0,0:0:0:0:
320,192,48341,1,0,0:0:0:0:
448,192,48341,1,0,0:0:0:0:
192,192,48416,1,0,0:0:0:0:
320,192,48491,1,0,0:0:0:0:
192,192,48566,1,0,0:0:0:0:
448,192,48641,1,0,0:0:0:0:
64,0,48641,128,0,48716:1:0:0:0:
320,192,48716,1,0,0:0:0:0:
192,192,48791,1,0,0:0:0:0:
64,192,48866,1,0,0:0:0:0:
320,192,48941,1,0,0:0:0:0:
448,0,48941,128,0,49016:1:0:0:0:
64,192,49016,1,0,0:0:0:0:
192,192,49091,1,0,0:0:0:0:
320,192,49091,1,0,0:0:0:0:
64,192,49166,1,0,0:0:0:0:
192,192,49241,1,0,0:0:0:0:
448,192,49241,1,0,0:0:0:0:
320,192,49316,1,0,0:0:0:0:
64,192,49391,1,0,0:0:0:0:
192,192,49466,1,0,0:0:0:0:
320,192,49541,1,0,0:0:0:0:
448,192,49541,1,0,0:0:0:0:
192,192,49616,1,0,0:0:0:0:
448,192,49691,1,0,0:0:0:0:
192,192,49766,1,0,0:0:0:0:
320,192,49766,1,0,0:0:0:0:
64,192,49841,1,0,0:0:0:0:
448,192,49916,1,0,0:0:0:0:
64,192,49991,1,0,0:0:0:0:
192,192,49991,1,0,0:0:0:0:
320,192,50066,1,0,0:0:0:0:
192,192,50141,1,0,0:0:0:0:
448,192,50141,1,0,0:0:0:0:
320,192,50216,1,0,0:0:0:0:
64,192,50291,1,0,0:0:0:0:
192,192,50291,1,0,0:0:0:0:
448,192,50366,1,0,0:0:0:0:
320,192,50441,1,0,0:0:0:0:
192,192,50516,1,0,0:0:0:0:
64,192,50591,1,0,0:0:0:0:
192,192,50666,1,0,0:0:0:0:
320,192,50741,1,0,0:0:0:0:
448,192,50741,1,0,0:0:0:0:
64,192,50816,1,0,0:0:0:0:
192,192,50891,1,0,0:0:0:0:
320,192,50891,1,0,0:0:0:0:
448,192,50966,1,0,0:0:0:0:
320,192,51041,1,0,0:0:0:0:
192,192,51116,1,0,0:0:0:0:
64,192,51191,1,0,0:0:0:0:
448,192,51191,1,0,0:0:0:0:
192,192,51266,1,0,0:0:0:0:
320,192,51341,1,0,0:0:0:0:
448,192,51341,1,0,0:0:0:0:
64,192,51416,1,0,0:0:0:0:
192,192,51491,1,0,0:0:0:0:
320,192,51491,1,0,0:0:0:0:
448,192,51566,1,0,0:0:0:0:
64,192,51641,1,0,0:0:0:0:
192,192,51641,1,0,0:0:0:0:
448,192,51716,1,0,0:0:0:0:
320,192,51791,1,0,0:0:0:0:
192,192,51866,1,0,0:0:0:0:
64,192,51941,1,0,0:0:0:0:
448,192,51941,1,0,0:0:0:0:
192,192,52016,1,0,0:0:0:0:
320,192,52091,1,0,0:0:0:0:
64,192,52166,1,0,0:0:0:0:
448,192,52166,1,0,0:0:0:0:
192,192,52241,1,0,0:0:0:0:
320,192,52316,1,0,0:0:0:0:
192,192,52391,1,0,0:0:0:0:
448,192,52391,1,0,0:0:0:0:
64,192,52466,1,0,0:0:0:0:
320,192,52541,1,0,0:0:0:0:
448,192,52541,1,0,0:0:0:0:
192,192,52616,1,0,0:0:0:0:
64,192,52691,1,0,0:0:0:0:
448,192,52691,1,0,0:0:0:0:
192,192,52766,1,0,0:0:0:0:
64,192,52841,1,0,0:0:0:0:
320,192,52841,1,0,0:0:0:0:
192,192,52916,1,0,0:0:0:0:
448,192,52916,1,0,0:0:0:0:
320,192,52991,1,0,0:0:0:0:
64,192,53066,1,0,0:0:0:0:
192,192,53066,1,0,0:0:0:0:
320,192,53141,1,0,0:0:0:0:
448,192,53141,1,0,0:0:0:0:
64,192,53216,1,0,0:0:0:0:
192,192,53291,1,0,0:0:0:0:
320,192,53291,1,0,0:0:0:0:
448,192,53366,1,0,0:0:0:0:
192,192,53441,1,0,0:0:0:0:
320,192,53441,1,0,0:0:0:0:
64,192,53516,1,0,0:0:0:0:
320,192,53591,1,0,0:0:0:0:
448,192,53591,1,0,0:0:0:0:
192,192,53666,1,0,0:0:0:0:
64,192,53741,1,0,0:0:0:0:
448,192,53741,1,0,0:0:0:0:
192,192,53816,1,0,0:0:0:0:
320,192,53891,1,0,0:0:0:0:
448,192,53891,1,0,0:0:0:0:
192,192,53966,1,0,0:0:0:0:
64,192,54041,1,0,0:0:0:0:
320,192,54041,1,0,0:0:0:0:
448,192,54116,1,0,0:0:0:0:
320,192,54191,1,0,0:0:0:0:
192,192,54266,1,0,0:0:0:0:
64,192,54341,1,0,0:0:0:0:
448,192,54341,1,0,0:0:0:0:
192,192,54416,1,0,0:0:0:0:
448,192,54491,1,0,0:0:0:0:
64,192,54566,1,0,0:0:0:0:
448,192,54641,1,0,0:0:0:0:
320,192,54716,1,0,0:0:0:0:
192,192,54791,1,0,0:0:0:0:
64,192,54866,1,0,0:0:0:0:
320,192,54941,1,0,0:0:0:0:
448,192,54941,1,0,0:0:0:0:
64,192,55016,1,0,0:0:0:0:
448,192,55091,1,0,0:0:0:0:
64,192,55166,1,0,0:0:0:0:
192,192,55241,1,0,0:0:0:0:
320,192,55316,1,0,0:0:0:0:
448,192,55391,1,0,0:0:0:0:
192,192,55466,1,0,0:0:0:0:
64,192,55541,1,0,0:0:0:0:
448,192,55541,1,0,0:0:0:0:
320,192,55616,1,0,0:0:0:0:
64,192,55691,1,0,0:0:0:0:
192,192,55691,1,0,0:0:0:0:
320,192,55766,1,0,0:0:0:0:
448,192,55841,1,0,0:0:0:0:
64,192,55916,1,0,0:0:0:0:
192,192,55991,1,0,0:0:0:0:
320,192,55991,1,0,0:0:0:0:
64,192,56066,1,0,0:0:0:0:
320,192,56141,1,0,0:0:0:0:
448,192,56141,1,0,0:0:0:0:
64,192,56216,1,0,0:0:0:0:
192,192,56291,1,0,0:0:0:0:
320,192,56291,1,0,0:0:0:0:
448,192,56366,1,0,0:0:0:0:
64,192,56441,1,0,0:0:0:0:
192,192,56441,1,0,0:0:0:0:
320,192,56516,1,0,0:0:0:0:
448,192,56591,1,0,0:0:0:0:
64,192,56666,1,0,0:0:0:0:
192,192,56666,1,0,0:0:0:0:
320,192,56741,1,0,0:0:0:0:
448,192,56741,1,0,0:0:0:0:
64,192,56816,1,0,0:0:0:0:
192,192,56891,1,0,0:0:0:0:
320,192,56891,1,0,0:0:0:0:
64,192,56966,1,0,0:0:0:0:
448,192,56966,1,0,0:0:0:0:
320,192,57041,1,0,0:0:0:0:
192,192,57116,1,0,0:0:0:0:
64,192,57191,1,0,0:0:0:0:
448,192,57191,1,0,0:0:0:0:
320,192,57266,1,0,0:0:0:0:
192,192,57341,1,0,0:0:0:0:
448,192,57341,1,0,0:0:0:0:
64,192,57416,1,0,0:0:0:0:
192,192,57491,1,0,0:0:0:0:
320,192,57491,1,0,0:0:0:0:
448,192,57566,1,0,0:0:0:0:
64,192,57641,1,0,0:0:0:0:
192,192,57641,1,0,0:0:0:0:
320,192,57716,1,0,0:0:0:0:
448,192,57716,1,0,0:0:0:0:
64,192,57791,1,0,0:0:0:0:
192,192,57791,1,0,0:0:0:0:
320,192,57866,1,0,0:0:0:0:
448,192,57866,1,0,0:0:0:0:
64,192,57941,1,0,0:0:0:0:
192,192,57941,1,0,0:0:0:0:
320,192,58016,1,0,0:0:0:0:
448,192,58016,1,0,0:0:0:0:
64,192,58091,1,0,0:0:0:0:
192,192,58091,1,0,0:0:0:0:
320,192,58166,1,0,0:0:0:0:
448,192,58166,1,0,0:0:0:0:
64,192,58241,1,0,0:0:0:0:
192,192,58241,1,0,0:0:0:0:
320,192,58316,1,0,0:0:0:0:
448,192,58316,1,0,0:0:0:0:
64,192,58391,1,0,0:0:0:0:
192,192,58391,1,0,0:0:0:0:
320,192,58466,1,0,0:0:0:0:
448,192,58466,1,0,0:0:0:0:
64,192,58541,1,0,0:0:0:0:
192,192,58541,1,0,0:0:0:0:
320,192,58616,1,0,0:0:0:0:
448,192,58616,1,0,0:0:0:0:
64,192,58691,1,0,0:0:0:0:
192,192,58691,1,0,0:0:0:0:
320,192,58766,1,0,0:0:0:0:
448,192,58766,1,0,0:0:0:0:
64,192,58841,1,0,0:0:0:0:
192,192,58841,1,0,0:0:0:0:
320,0,60791,128,0,60866:1:0:0:0:
192,192,61016,1,0,0:0:0:0:
64,0,61241,128,0,61541:1:0:0:0:
448,0,61391,128,0,61541:1:0:0:0:
448,0,62066,128,0,62141:1:0:0:0:
64,0,62441,128,0,62516:1:0:0:0:
192,0,62741,128,0,62816:1:0:0:0:
320,192,63041,1,0,0:0:0:0:
448,192,63341,1,0,0:0:0:0:
64,192,63641,1,0,0:0:0:0:
448,192,63641,1,0,0:0:0:0:
192,192,63941,1,0,0:0:0:0:
192,192,64091,1,0,0:0:0:0:
448,192,64541,1,0,0:0:0:0:
448,192,64691,1,0,0:0:0:0:
320,192,66042,1,0,0:0:0:0:
448,192,66079,1,0,0:0:0:0:
320,192,67242,1,0,0:0:0:0:
192,192,67842,1,0,0:0:0:0:
64,192,68442,1,0,0:0:0:0:
320,192,68479,1,0,0:0:0:0:
192,192,68742,1,0,0:0:0:0:
448,192,68892,1,0,0:0:0:0:
320,192,69342,1,0,0:0:0:0:
320,192,69492,1,0,0:0:0:0:
64,192,70842,1,0,0:0:0:0:
192,192,71442,1,0,0:0:0:0:
320,192,72042,1,0,0:0:0:0:
448,192,72642,1,0,0:0:0:0:
192,192,73242,1,0,0:0:0:0:
448,192,73242,1,0,0:0:0:0:
64,192,73392,1,0,0:0:0:0:
192,192,73542,1,0,0:0:0:0:
320,192,73692,1,0,0:0:0:0:
192,192,74142,1,0,0:0:0:0:
192,192,74292,1,0,0:0:0:0:
64,192,75642,1,0,0:0:0:0:
192,192,76242,1,0,0:0:0:0:
64,192,76842,1,0,0:0:0:0:
448,192,76842,1,0,0:0:0:0:
192,192,77442,1,0,0:0:0:0:
320,192,78042,1,0,0:0:0:0:
448,192,78042,1,0,0:0:0:0:
64,192,78192,1,0,0:0:0:0:
192,192,78342,1,0,0:0:0:0:
320,192,78492,1,0,0:0:0:0:
64,192,79242,1,0,0:0:0:0:
192,192,80442,1,0,0:0:0:0:
448,192,80442,1,0,0:0:0:0:
448,192,81642,1,0,0:0:0:0:
64,0,81642,128,0,81942:1:0:0:0:
192,0,81942,128,0,82242:1:0:0:0:
320,0,82242,128,0,82542:1:0:0:0:
448,0,82542,128,0,82842:1:0:0:0:
64,192,82842,1,0,0:0:0:0:
192,0,82842,128,0,83442:1:0:0:0:
320,192,83142,1,0,0:0:0:0:
448,192,83292,1,0,0:0:0:0:
64,192,83742,1,0,0:0:0:0:
64,0,83892,128,0,85242:1:0:0:0:
192,192,85242,1,0,0:0:0:0:
448,0,85242,128,0,86442:1:0:0:0:
320,0,86442,128,0,87042:1:0:0:0:
192,0,87042,128,0,87642:1:0:0:0:
448,192,87642,1,0,0:0:0:0:
64,0,87642,128,0,88842:1:0:0:0:
192,192,88242,1,0,0:0:0:0:
448,192,88842,1,0,0:0:0:0:
192,0,88842,128,0,89742:1:0:0:0:
320,192,89292,1,0,0:0:0:0:
320,0,89742,128,0,90042:1:0:0:0:
64,192,90042,1,0,0:0:0:0:
448,0,90042,128,0,91242:1:0:0:0:
320,192,90192,1,0,0:0:0:0:
64,192,90342,1,0,0:0:0:0:
192,192,90492,1,0,0:0:0:0:
64,192,91242,1,0,0:0:0:0:
192,0,91242,128,0,92442:1:0:0:0:
448,0,91992,128,0,92067:1:0:0:0:
64,192,92442,1,0,0:0:0:0:
320,0,92442,128,0,94692:1:0:0:0:
448,192,92592,1,0,0:0:0:0:
64,192,92742,1,0,0:0:0:0:
192,192,92892,1,0,0:0:0:0:
64,192,94842,1,0,0:0:0:0:
320,0,94842,128,0,97242:1:0:0:0:
192,192,94992,1,0,0:0:0:0:
64,192,95142,1,0,0:0:0:0:
448,192,95292,1,0,0:0:0:0:
448,192,96042,1,0,0:0:0:0:
192,0,96342,128,0,96417:1:0:0:0:
192,192,96642,1,0,0:0:0:0:
64,0,96942,128,0,97017:1:0:0:0:
64,192,97242,1,0,0:0:0:0:
448,192,97242,1,0,0:0:0:0:
320,192,97317,1,0,0:0:0:0:
64,192,97392,1,0,0:0:0:0:
192,192,97467,1,0,0:0:0:0:
320,192,97542,1,0,0:0:0:0:
448,192,97542,1,0,0:0:0:0:
192,192,97992,1,0,0:0:0:0:
448,192,97992,1,0,0:0:0:0:
320,192,98067,1,0,0:0:0:0:
64,192,98142,1,0,0:0:0:0:
448,192,98142,1,0,0:0:0:0:
320,192,98217,1,0,0:0:0:0:
64,192,98292,1,0,0:0:0:0:
192,192,98292,1,0,0:0:0:0:
320,192,98367,1,0,0:0:0:0:
192,192,98442,1,0,0:0:0:0:
448,192,98442,1,0,0:0:0:0:
64,192,98517,1,0,0:0:0:0:
320,192,98517,1,0,0:0:0:0:
192,192,98592,1,0,0:0:0:0:
320,192,98667,1,0,0:0:0:0:
64,192,98742,1,0,0:0:0:0:
448,192,98742,1,0,0:0:0:0:
320,192,99042,1,0,0:0:0:0:
64,192,99117,1,0,0:0:0:0:
192,192,99192,1,0,0:0:0:0:
448,192,99192,1,0,0:0:0:0:
320,192,99342,1,0,0:0:0:0:
448,192,99342,1,0,0:0:0:0:
64,192,99492,1,0,0:0:0:0:
320,192,99567,1,0,0:0:0:0:
64,192,99642,1,0,0:0:0:0:
192,192,99642,1,0,0:0:0:0:
448,192,99642,1,0,0:0:0:0:
192,192,99867,1,0,0:0:0:0:
320,192,99867,1,0,0:0:0:0:
448,192,99867,1,0,0:0:0:0:
192,192,100092,1,0,0:0:0:0:
320,192,100092,1,0,0:0:0:0:
448,192,100092,1,0,0:0:0:0:
192,192,100242,1,0,0:0:0:0:
320,192,100242,1,0,0:0:0:0:
448,192,100242,1,0,0:0:0:0:
192,192,100467,1,0,0:0:0:0:
320,192,100467,1,0,0:0:0:0:
448,192,100467,1,0,0:0:0:0:
192,192,100692,1,0,0:0:0:0:
320,192,100692,1,0,0:0:0:0:
448,192,100692,1,0,0:0:0:0:
192,192,100842,1,0,0:0:0:0:
320,192,100842,1,0,0:0:0:0:
448,192,100842,1,0,0:0:0:0:
64,192,100917,1,0,0:0:0:0:
192,192,100992,1,0,0:0:0:0:
320,192,101067,1,0,0:0:0:0:
192,192,101142,1,0,0:0:0:0:
320,192,101217,1,0,0:0:0:0:
448,192,101292,1,0,0:0:0:0:
192,192,101367,1,0,0:0:0:0:
448,192,101442,1,0,0:0:0:0:
64,192,101517,1,0,0:0:0:0:
192,192,101592,1,0,0:0:0:0:
320,192,101667,1,0,0:0:0:0:
448,192,101742,1,0,0:0:0:0:
64,0,101742,128,0,101892:1:0:0:0:
192,0,101892,128,0,102042:1:0:0:0:
320,0,102042,128,0,102117:1:0:0:0:
448,0,102042,128,0,102117:1:0:0:0:
192,192,102117,1,0,0:0:0:0:
64,192,102192,1,0,0:0:0:0:
192,192,102267,1,0,0:0:0:0:
320,192,102342,1,0,0:0:0:0:
448,192,102342,1,0,0:0:0:0:
64,192,102417,1,0,0:0:0:0:
192,192,102492,1,0,0:0:0:0:
64,192,102567,1,0,0:0:0:0:
320,192,102567,1,0,0:0:0:0:
448,192,102642,1,0,0:0:0:0:
320,192,102717,1,0,0:0:0:0:
64,192,102792,1,0,0:0:0:0:
192,192,102792,1,0,0:0:0:0:
320,192,102867,1,0,0:0:0:0:
64,0,102942,128,0,102979:1:0:0:0:
192,192,103017,1,0,0:0:0:0:
320,192,103092,1,0,0:0:0:0:
64,0,103092,128,0,103129:1:0:0:0:
192,192,103167,1,0,0:0:0:0:
448,192,103242,1,0,0:0:0:0:
320,192,103317,1,0,0:0:0:0:
192,192,103392,1,0,0:0:0:0:
64,192,103467,1,0,0:0:0:0:
192,192,103542,1,0,0:0:0:0:
448,192,103542,1,0,0:0:0:0:
320,192,103617,1,0,0:0:0:0:
64,192,103692,1,0,0:0:0:0:
192,192,103767,1,0,0:0:0:0:
320,192,103767,1,0,0:0:0:0:
448,192,103842,1,0,0:0:0:0:
320,192,103917,1,0,0:0:0:0:
192,192,103992,1,0,0:0:0:0:
320,192,104067,1,0,0:0:0:0:
64,192,104142,1,0,0:0:0:0:
192,192,104142,1,0,0:0:0:0:
448,192,104217,1,0,0:0:0:0:
192,192,104292,1,0,0:0:0:0:
320,192,104292,1,0,0:0:0:0:
64,192,104367,1,0,0:0:0:0:
320,192,104442,1,0,0:0:0:0:
448,0,104442,128,0,104479:1:0:0:0:
192,192,104517,1,0,0:0:0:0:
320,192,104592,1,0,0:0:0:0:
192,192,104667,1,0,0:0:0:0:
64,192,104742,1,0,0:0:0:0:
448,192,104742,1,0,0:0:0:0:
192,192,104817,1,0,0:0:0:0:
320,192,104892,1,0,0:0:0:0:
64,192,104967,1,0,0:0:0:0:
448,192,104967,1,0,0:0:0:0:
320,192,105042,1,0,0:0:0:0:
192,192,105117,1,0,0:0:0:0:
64,192,105192,1,0,0:0:0:0:
448,192,105192,1,0,0:0:0:0:
320,192,105267,1,0,0:0:0:0:
192,192,105342,1,0,0:0:0:0:
448,192,105342,1,0,0:0:0:0:
320,192,105417,1,0,0:0:0:0:
64,192,105492,1,0,0:0:0:0:
192,192,105492,1,0,0:0:0:0:
320,192,105567,1,0,0:0:0:0:
64,192,105642,1,0,0:0:0:0:
448,0,105642,128,0,105679:1:0:0:0:
320,192,105717,1,0,0:0:0:0:
192,192,105792,1,0,0:0:0:0:
64,192,105867,1,0,0:0:0:0:
320,192,105942,1,0,0:0:0:0:
448,192,105942,1,0,0:0:0:0:
192,192,106017,1,0,0:0:0:0:
64,192,106092,1,0,0:0:0:0:
320,192,106167,1,0,0:0:0:0:
448,0,106242,128,0,106279:1:0:0:0:
320,192,106317,1,0,0:0:0:0:
192,192,106392,1,0,0:0:0:0:
64,192,106467,1,0,0:0:0:0:
192,192,106542,1,0,0:0:0:0:
448,192,106542,1,0,0:0:0:0:
64,192,106617,1,0,0:0:0:0:
320,192,106692,1,0,0:0:0:0:
448,192,106692,1,0,0:0:0:0:
192,192,106767,1,0,0:0:0:0:
64,192,106842,1,0,0:0:0:0:
448,0,106842,128,0,106879:1:0:0:0:
320,192,106917,1,0,0:0:0:0:
192,192,106992,1,0,0:0:0:0:
320,192,107067,1,0,0:0:0:0:
64,192,107142,1,0,0:0:0:0:
448,192,107142,1,0,0:0:0:0:
192,192,107217,1,0,0:0:0:0:
320,192,107292,1,0,0:0:0:0:
192,192,107367,1,0,0:0:0:0:
448,192,107367,1,0,0:0:0:0:
64,192,107442,1,0,0:0:0:0:
320,192,107517,1,0,0:0:0:0:
64,192,107592,1,0,0:0:0:0:
192,192,107592,1,0,0:0:0:0:
320,192,107667,1,0,0:0:0:0:
448,192,107742,1,0,0:0:0:0:
64,0,107742,128,0,107779:1:0:0:0:
192,192,107817,1,0,0:0:0:0:
448,192,107892,1,0,0:0:0:0:
320,0,107892,128,0,107929:1:0:0:0:
192,192,107967,1,0,0:0:0:0:
64,192,108042,1,0,0:0:0:0:
192,192,108117,1,0,0:0:0:0:
320,192,108192,1,0,0:0:0:0:
448,192,108267,1,0,0:0:0:0:
64,192,108342,1,0,0:0:0:0:
192,192,108342,1,0,0:0:0:0:
320,192,108417,1,0,0:0:0:0:
448,192,108492,1,0,0:0:0:0:
192,192,108567,1,0,0:0:0:0:
320,192,108642,1,0,0:0:0:0:
448,192,108642,1,0,0:0:0:0:
64,192,108717,1,0,0:0:0:0:
192,192,108792,1,0,0:0:0:0:
320,192,108867,1,0,0:0:0:0:
192,192,108942,1,0,0:0:0:0:
448,192,108942,1,0,0:0:0:0:
64,192,109017,1,0,0:0:0:0:
320,192,109092,1,0,0:0:0:0:
448,192,109092,1,0,0:0:0:0:
64,192,109167,1,0,0:0:0:0:
192,192,109242,1,0,0:0:0:0:
448,192,109242,1,0,0:0:0:0:
320,192,109317,1,0,0:0:0:0:
192,192,109392,1,0,0:0:0:0:
64,192,109467,1,0,0:0:0:0:
320,192,109542,1,0,0:0:0:0:
448,192,109542,1,0,0:0:0:0:
192,192,109617,1,0,0:0:0:0:
64,192,109692,1,0,0:0:0:0:
320,192,109767,1,0,0:0:0:0:
448,192,109767,1,0,0:0:0:0:
192,0,109842,128,0,109879:1:0:0:0:
64,192,109917,1,0,0:0:0:0:
192,192,109992,1,0,0:0:0:0:
320,192,109992,1,0,0:0:0:0:
448,192,110067,1,0,0:0:0:0:
192,192,110142,1,0,0:0:0:0:
320,192,110142,1,0,0:0:0:0:
64,192,110217,1,0,0:0:0:0:
320,192,110292,1,0,0:0:0:0:
448,192,110292,1,0,0:0:0:0:
192,192,110367,1,0,0:0:0:0:
448,192,110442,1,0,0:0:0:0:
64,0,110442,128,0,110479:1:0:0:0:
320,192,110517,1,0,0:0:0:0:
192,192,110592,1,0,0:0:0:0:
320,192,110667,1,0,0:0:0:0:
64,192,110742,1,0,0:0:0:0:
448,192,110742,1,0,0:0:0:0:
192,192,110817,1,0,0:0:0:0:
320,192,110892,1,0,0:0:0:0:
448,192,110967,1,0,0:0:0:0:
64,192,111042,1,0,0:0:0:0:
320,0,111042,128,0,111079:1:0:0:0:
192,192,111117,1,0,0:0:0:0:
320,192,111192,1,0,0:0:0:0:
448,192,111267,1,0,0:0:0:0:
64,192,111342,1,0,0:0:0:0:
192,192,111342,1,0,0:0:0:0:
320,192,111417,1,0,0:0:0:0:
192,192,111492,1,0,0:0:0:0:
320,192,111567,1,0,0:0:0:0:
64,192,111642,1,0,0:0:0:0:
448,0,111642,128,0,111679:1:0:0:0:
320,192,111717,1,0,0:0:0:0:
192,192,111792,1,0,0:0:0:0:
64,192,111867,1,0,0:0:0:0:
192,192,111942,1,0,0:0:0:0:
320,192,111942,1,0,0:0:0:0:
448,192,112017,1,0,0:0:0:0:
64,192,112092,1,0,0:0:0:0:
320,192,112167,1,0,0:0:0:0:
448,192,112167,1,0,0:0:0:0:
192,192,112242,1,0,0:0:0:0:
64,192,112317,1,0,0:0:0:0:
320,192,112392,1,0,0:0:0:0:
448,192,112392,1,0,0:0:0:0:
192,192,112467,1,0,0:0:0:0:
448,192,112542,1,0,0:0:0:0:
64,0,112542,128,0,112579:1:0:0:0:
320,192,112617,1,0,0:0:0:0:
192,192,112692,1,0,0:0:0:0:
64,0,112692,128,0,112729:1:0:0:0:
320,192,112767,1,0,0:0:0:0:
448,192,112842,1,0,0:0:0:0:
192,192,112917,1,0,0:0:0:0:
320,192,112992,1,0,0:0:0:0:
192,192,113067,1,0,0:0:0:0:
64,192,113142,1,0,0:0:0:0:
448,192,113142,1,0,0:0:0:0:
320,192,113217,1,0,0:0:0:0:
64,192,113292,1,0,0:0:0:0:
192,192,113292,1,0,0:0:0:0:
320,192,113367,1,0,0:0:0:0:
448,192,113442,1,0,0:0:0:0:
320,192,113517,1,0,0:0:0:0:
192,192,113592,1,0,0:0:0:0:
448,192,113592,1,0,0:0:0:0:
64,192,113667,1,0,0:0:0:0:
192,192,113742,1,0,0:0:0:0:
320,192,113742,1,0,0:0:0:0:
448,192,113817,1,0,0:0:0:0:
64,192,113892,1,0,0:0:0:0:
192,192,113892,1,0,0:0:0:0:
320,192,113967,1,0,0:0:0:0:
64,192,114042,1,0,0:0:0:0:
448,192,114042,1,0,0:0:0:0:
320,192,114117,1,0,0:0:0:0:
192,192,114192,1,0,0:0:0:0:
64,192,114267,1,0,0:0:0:0:
192,192,114342,1,0,0:0:0:0:
448,192,114342,1,0,0:0:0:0:
320,192,114417,1,0,0:0:0:0:
192,192,114492,1,0,0:0:0:0:
64,192,114567,1,0,0:0:0:0:
448,192,114567,1,0,0:0:0:0:
192,192,114642,1,0,0:0:0:0:
320,0,114642,128,0,114679:1:0:0:0:
448,192,114717,1,0,0:0:0:0:
192,192,114792,1,0,0:0:0:0:
320,192,114792,1,0,0:0:0:0:
64,192,114867,1,0,0:0:0:0:
192,192,114942,1,0,0:0:0:0:
448,192,114942,1,0,0:0:0:0:
320,192,115017,1,0,0:0:0:0:
64,192,115092,1,0,0:0:0:0:
448,192,115092,1,0,0:0:0:0:
192,192,115167,1,0,0:0:0:0:
320,192,115242,1,0,0:0:0:0:
448,0,115242,128,0,115279:1:0:0:0:
64,192,115317,1,0,0:0:0:0:
192,192,115317,1,0,0:0:0:0:
448,192,115392,1,0,0:0:0:0:
64,192,115467,1,0,0:0:0:0:
192,192,115467,1,0,0:0:0:0:
320,192,115542,1,0,0:0:0:0:
448,192,115542,1,0,0:0:0:0:
64,192,115617,1,0,0:0:0:0:
192,192,115692,1,0,0:0:0:0:
320,192,115692,1,0,0:0:0:0:
64,192,115767,1,0,0:0:0:0:
448,192,115842,1,0,0:0:0:0:
320,0,115842,128,0,115879:1:0:0:0:
192,192,115917,1,0,0:0:0:0:
64,192,115992,1,0,0:0:0:0:
320,192,115992,1,0,0:0:0:0:
192,192,116067,1,0,0:0:0:0:
64,192,116142,1,0,0:0:0:0:
448,192,116142,1,0,0:0:0:0:
192,192,116217,1,0,0:0:0:0:
320,192,116292,1,0,0:0:0:0:
448,192,116292,1,0,0:0:0:0:
192,192,116367,1,0,0:0:0:0:
64,192,116442,1,0,0:0:0:0:
448,0,116442,128,0,116479:1:0:0:0:
320,192,116517,1,0,0:0:0:0:
192,192,116592,1,0,0:0:0:0:
64,192,116667,1,0,0:0:0:0:
320,192,116742,1,0,0:0:0:0:
448,192,116742,1,0,0:0:0:0:
192,192,116817,1,0,0:0:0:0:
64,192,116892,1,0,0:0:0:0:
320,192,116892,1,0,0:0:0:0:
192,192,116967,1,0,0:0:0:0:
448,192,116967,1,0,0:0:0:0:
320,192,117042,1,0,0:0:0:0:
64,192,117117,1,0,0:0:0:0:
192,192,117192,1,0,0:0:0:0:
320,192,117192,1,0,0:0:0:0:
448,192,117267,1,0,0:0:0:0:
64,192,117342,1,0,0:0:0:0:
192,192,117342,1,0,0:0:0:0:
320,192,117417,1,0,0:0:0:0:
192,192,117492,1,0,0:0:0:0:
448,192,117492,1,0,0:0:0:0:
64,192,117567,1,0,0:0:0:0:
192,192,117642,1,0,0:0:0:0:
320,192,117717,1,0,0:0:0:0:
448,192,117792,1,0,0:0:0:0:
192,192,117867,1,0,0:0:0:0:
320,192,117942,1,0,0:0:0:0:
448,192,117942,1,0,0:0:0:0:
64,192,118017,1,0,0:0:0:0:
192,192,118092,1,0,0:0:0:0:
320,192,118092,1,0,0:0:0:0:
448,192,118167,1,0,0:0:0:0:
192,192,118242,1,0,0:0:0:0:
64,192,118317,1,0,0:0:0:0:
192,192,118392,1,0,0:0:0:0:
448,192,118392,1,0,0:0:0:0:
320,192,118467,1,0,0:0:0:0:
64,192,118542,1,0,0:0:0:0:
448,192,118542,1,0,0:0:0:0:
192,192,118617,1,0,0:0:0:0:
64,192,118692,1,0,0:0:0:0:
320,192,118692,1,0,0:0:0:0:
192,192,118767,1,0,0:0:0:0:
320,192,118842,1,0,0:0:0:0:
448,0,118842,128,0,118879:1:0:0:0:
192,192,118917,1,0,0:0:0:0:
64,192,118992,1,0,0:0:0:0:
320,192,119067,1,0,0:0:0:0:
448,192,119067,1,0,0:0:0:0:
64,192,119142,1,0,0:0:0:0:
192,192,119142,1,0,0:0:0:0:
448,192,119217,1,0,0:0:0:0:
320,192,119292,1,0,0:0:0:0:
64,192,119367,1,0,0:0:0:0:
192,192,119367,1,0,0:0:0:0:
448,192,119442,1,0,0:0:0:0:
320,192,119517,1,0,0:0:0:0:
64,192,119592,1,0,0:0:0:0:
192,192,119592,1,0,0:0:0:0:
448,192,119667,1,0,0:0:0:0:
192,192,119742,1,0,0:0:0:0:
320,192,119742,1,0,0:0:0:0:
64,192,119817,1,0,0:0:0:0:
320,192,119892,1,0,0:0:0:0:
192,192,119967,1,0,0:0:0:0:
448,192,120042,1,0,0:0:0:0:
64,0,120042,128,0,120079:1:0:0:0:
320,192,120117,1,0,0:0:0:0:
192,192,120192,1,0,0:0:0:0:
64,192,120267,1,0,0:0:0:0:
192,192,120342,1,0,0:0:0:0:
448,192,120342,1,0,0:0:0:0:
320,192,120417,1,0,0:0:0:0:
192,192,120492,1,0,0:0:0:0:
64,192,120567,1,0,0:0:0:0:
320,192,120642,1,0,0:0:0:0:
448,192,120642,1,0,0:0:0:0:
192,192,120717,1,0,0:0:0:0:
320,192,120792,1,0,0:0:0:0:
64,192,120867,1,0,0:0:0:0:
192,192,120942,1,0,0:0:0:0:
448,192,120942,1,0,0:0:0:0:
64,192,121017,1,0,0:0:0:0:
320,192,121092,1,0,0:0:0:0:
448,192,121092,1,0,0:0:0:0:
192,192,121167,1,0,0:0:0:0:
64,192,121242,1,0,0:0:0:0:
320,192,121242,1,0,0:0:0:0:
448,192,121242,1,0,0:0:0:0:
192,192,121317,1,0,0:0:0:0:
64,192,121392,1,0,0:0:0:0:
320,192,121392,1,0,0:0:0:0:
192,192,121467,1,0,0:0:0:0:
64,192,121542,1,0,0:0:0:0:
448,192,121542,1,0,0:0:0:0:
320,192,121617,1,0,0:0:0:0:
192,192,121692,1,0,0:0:0:0:
64,192,121767,1,0,0:0:0:0:
320,192,121767,1,0,0:0:0:0:
192,192,121842,1,0,0:0:0:0:
448,192,121842,1,0,0:0:0:0:
320,192,121917,1,0,0:0:0:0:
64,192,121992,1,0,0:0:0:0:
192,192,121992,1,0,0:0:0:0:
448,192,122067,1,0,0:0:0:0:
64,192,122142,1,0,0:0:0:0:
192,192,122142,1,0,0:0:0:0:
320,192,122217,1,0,0:0:0:0:
64,192,122292,1,0,0:0:0:0:
448,192,122292,1,0,0:0:0:0:
192,192,122367,1,0,0:0:0:0:
320,192,122367,1,0,0:0:0:0:
64,192,122442,1,0,0:0:0:0:
448,192,122442,1,0,0:0:0:0:
320,192,122517,1,0,0:0:0:0:
64,192,122592,1,0,0:0:0:0:
192,192,122592,1,0,0:0:0:0:
320,192,122667,1,0,0:0:0:0:
64,192,122742,1,0,0:0:0:0:
448,192,122742,1,0,0:0:0:0:
192,192,122817,1,0,0:0:0:0:
64,192,122892,1,0,0:0:0:0:
448,192,122892,1,0,0:0:0:0:
192,192,122967,1,0,0:0:0:0:
64,192,123042,1,0,0:0:0:0:
448,192,123042,1,0,0:0:0:0:
320,192,123117,1,0,0:0:0:0:
64,192,123192,1,0,0:0:0:0:
192,192,123192,1,0,0:0:0:0:
320,192,123267,1,0,0:0:0:0:
64,192,123342,1,0,0:0:0:0:
448,192,123342,1,0,0:0:0:0:
192,192,123417,1,0,0:0:0:0:
320,192,123492,1,0,0:0:0:0:
448,192,123492,1,0,0:0:0:0:
64,192,123567,1,0,0:0:0:0:
192,192,123642,1,0,0:0:0:0:
320,192,123642,1,0,0:0:0:0:
448,192,123642,1,0,0:0:0:0:
64,192,123717,1,0,0:0:0:0:
192,192,123792,1,0,0:0:0:0:
448,192,123792,1,0,0:0:0:0:
320,192,123867,1,0,0:0:0:0:
64,192,123942,1,0,0:0:0:0:
192,192,123942,1,0,0:0:0:0:
448,192,124017,1,0,0:0:0:0:
64,192,124092,1,0,0:0:0:0:
320,192,124092,1,0,0:0:0:0:
192,192,124167,1,0,0:0:0:0:
448,192,124167,1,0,0:0:0:0:
64,192,124242,1,0,0:0:0:0:
448,192,124317,1,0,0:0:0:0:
192,192,124392,1,0,0:0:0:0:
320,192,124392,1,0,0:0:0:0:
64,192,124467,1,0,0:0:0:0:
320,192,124542,1,0,0:0:0:0:
448,192,124542,1,0,0:0:0:0:
192,192,124617,1,0,0:0:0:0:
64,192,124692,1,0,0:0:0:0:
448,192,124692,1,0,0:0:0:0:
192,192,124767,1,0,0:0:0:0:
64,192,124842,1,0,0:0:0:0:
320,192,124842,1,0,0:0:0:0:
448,192,124842,1,0,0:0:0:0:
192,192,124917,1,0,0:0:0:0:
320,192,124992,1,0,0:0:0:0:
64,192,125067,1,0,0:0:0:0:
320,192,125142,1,0,0:0:0:0:
448,192,125142,1,0,0:0:0:0:
192,192,125217,1,0,0:0:0:0:
64,192,125292,1,0,0:0:0:0:
320,192,125367,1,0,0:0:0:0:
64,192,125442,1,0,0:0:0:0:
192,192,125442,1,0,0:0:0:0:
448,192,125442,1,0,0:0:0:0:
320,192,125517,1,0,0:0:0:0:
192,192,125592,1,0,0:0:0:0:
320,192,125667,1,0,0:0:0:0:
64,192,125742,1,0,0:0:0:0:
448,192,125742,1,0,0:0:0:0:
192,192,125817,1,0,0:0:0:0:
320,192,125892,1,0,0:0:0:0:
448,192,125892,1,0,0:0:0:0:
64,192,125967,1,0,0:0:0:0:
192,192,126042,1,0,0:0:0:0:
320,192,126042,1,0,0:0:0:0:
448,192,126042,1,0,0:0:0:0:
64,192,126117,1,0,0:0:0:0:
320,192,126192,1,0,0:0:0:0:
192,192,126267,1,0,0:0:0:0:
320,192,126342,1,0,0:0:0:0:
448,192,126342,1,0,0:0:0:0:
64,192,126417,1,0,0:0:0:0:
192,192,126492,1,0,0:0:0:0:
320,192,126567,1,0,0:0:0:0:
64,192,126642,1,0,0:0:0:0:
192,192,126642,1,0,0:0:0:0:
448,192,126642,1,0,0:0:0:0:
320,192,126717,1,0,0:0:0:0:
64,192,126792,1,0,0:0:0:0:
448,192,126792,1,0,0:0:0:0:
192,192,126867,1,0,0:0:0:0:
320,192,126942,1,0,0:0:0:0:
448,192,126942,1,0,0:0:0:0:
64,192,127017,1,0,0:0:0:0:
192,192,127092,1,0,0:0:0:0:
320,192,127167,1,0,0:0:0:0:
64,192,127242,1,0,0:0:0:0:
192,192,127242,1,0,0:0:0:0:
448,192,127242,1,0,0:0:0:0:
320,192,127317,1,0,0:0:0:0:
192,192,127392,1,0,0:0:0:0:
64,192,127467,1,0,0:0:0:0:
320,192,127542,1,0,0:0:0:0:
448,192,127542,1,0,0:0:0:0:
64,192,127617,1,0,0:0:0:0:
192,192,127692,1,0,0:0:0:0:
320,192,127692,1,0,0:0:0:0:
448,192,127767,1,0,0:0:0:0:
64,192,127842,1,0,0:0:0:0:
192,192,127842,1,0,0:0:0:0:
320,192,127917,1,0,0:0:0:0:
64,192,127992,1,0,0:0:0:0:
448,192,127992,1,0,0:0:0:0:
192,192,128067,1,0,0:0:0:0:
320,192,128142,1,0,0:0:0:0:
448,192,128142,1,0,0:0:0:0:
64,192,128217,1,0,0:0:0:0:
320,192,128292,1,0,0:0:0:0:
192,192,128367,1,0,0:0:0:0:
64,192,128442,1,0,0:0:0:0:
320,192,128442,1,0,0:0:0:0:
448,192,128442,1,0,0:0:0:0:
192,192,128517,1,0,0:0:0:0:
448,192,128592,1,0,0:0:0:0:
320,192,128667,1,0,0:0:0:0:
64,192,128742,1,0,0:0:0:0:
192,192,128742,1,0,0:0:0:0:
448,192,128817,1,0,0:0:0:0:
192,192,128892,1,0,0:0:0:0:
320,192,128892,1,0,0:0:0:0:
64,192,128967,1,0,0:0:0:0:
448,192,128967,1,0,0:0:0:0:
192,192,129042,1,0,0:0:0:0:
320,192,129042,1,0,0:0:0:0:
64,192,129117,1,0,0:0:0:0:
192,192,129192,1,0,0:0:0:0:
448,192,129192,1,0,0:0:0:0:
320,192,129267,1,0,0:0:0:0:
64,192,129342,1,0,0:0:0:0:
192,192,129342,1,0,0:0:0:0:
448,192,129417,1,0,0:0:0:0:
192,192,129492,1,0,0:0:0:0:
320,192,129492,1,0,0:0:0:0:
64,192,129567,1,0,0:0:0:0:
192,192,129642,1,0,0:0:0:0:
320,192,129642,1,0,0:0:0:0:
448,192,129642,1,0,0:0:0:0:
64,192,129717,1,0,0:0:0:0:
320,192,129792,1,0,0:0:0:0:
448,192,129792,1,0,0:0:0:0:
192,192,129867,1,0,0:0:0:0:
320,192,129942,1,0,0:0:0:0:
448,192,129942,1,0,0:0:0:0:
64,192,130017,1,0,0:0:0:0:
192,192,130092,1,0,0:0:0:0:
320,192,130167,1,0,0:0:0:0:
64,192,130242,1,0,0:0:0:0:
192,192,130242,1,0,0:0:0:0:
448,192,130242,1,0,0:0:0:0:
320,192,130317,1,0,0:0:0:0:
64,192,130392,1,0,0:0:0:0:
192,192,130467,1,0,0:0:0:0:
320,192,130542,1,0,0:0:0:0:
448,192,130542,1,0,0:0:0:0:
64,192,130617,1,0,0:0:0:0:
192,192,130692,1,0,0:0:0:0:
448,192,130692,1,0,0:0:0:0:
320,192,130767,1,0,0:0:0:0:
64,192,130842,1,0,0:0:0:0:
192,192,130842,1,0,0:0:0:0:
448,192,130842,1,0,0:0:0:0:
320,192,130917,1,0,0:0:0:0:
64,192,130992,1,0,0:0:0:0:
192,192,130992,1,0,0:0:0:0:
320,192,131067,1,0,0:0:0:0:
64,192,131142,1,0,0:0:0:0:
448,192,131142,1,0,0:0:0:0:
192,192,131217,1,0,0:0:0:0:
64,192,131292,1,0,0:0:0:0:
192,192,131367,1,0,0:0:0:0:
448,192,131367,1,0,0:0:0:0:
320,192,131442,1,0,0:0:0:0:
448,192,131517,1,0,0:0:0:0:
64,192,131592,1,0,0:0:0:0:
320,192,131592,1,0,0:0:0:0:
192,192,131667,1,0,0:0:0:0:
64,192,131742,1,0,0:0:0:0:
320,192,131742,1,0,0:0:0:0:
192,192,131817,1,0,0:0:0:0:
320,192,131892,1,0,0:0:0:0:
448,192,131892,1,0,0:0:0:0:
192,192,131967,1,0,0:0:0:0:
64,192,132042,1,0,0:0:0:0:
448,192,132042,1,0,0:0:0:0:
320,192,132117,1,0,0:0:0:0:
192,192,132192,1,0,0:0:0:0:
320,192,132267,1,0,0:0:0:0:
64,192,132342,1,0,0:0:0:0:
192,192,132342,1,0,0:0:0:0:
448,192,132417,1,0,0:0:0:0:
192,192,132492,1,0,0:0:0:0:
320,192,132492,1,0,0:0:0:0:
64,192,132567,1,0,0:0:0:0:
320,192,132642,1,0,0:0:0:0:
448,192,132642,1,0,0:0:0:0:
64,192,132717,1,0,0:0:0:0:
192,192,132792,1,0,0:0:0:0:
320,192,132792,1,0,0:0:0:0:
448,192,132867,1,0,0:0:0:0:
64,192,132942,1,0,0:0:0:0:
192,192,132942,1,0,0:0:0:0:
448,192,133017,1,0,0:0:0:0:
64,192,133092,1,0,0:0:0:0:
320,192,133092,1,0,0:0:0:0:
192,192,133167,1,0,0:0:0:0:
64,192,133242,1,0,0:0:0:0:
320,192,133242,1,0,0:0:0:0:
448,192,133242,1,0,0:0:0:0:
192,192,133317,1,0,0:0:0:0:
320,192,133392,1,0,0:0:0:0:
64,192,133467,1,0,0:0:0:0:
320,192,133542,1,0,0:0:0:0:
448,192,133542,1,0,0:0:0:0:
192,192,133617,1,0,0:0:0:0:
64,192,133692,1,0,0:0:0:0:
192,192,133767,1,0,0:0:0:0:
320,192,133767,1,0,0:0:0:0:
64,192,133842,1,0,0:0:0:0:
448,192,133842,1,0,0:0:0:0:
320,192,133917,1,0,0:0:0:0:
64,192,133992,1,0,0:0:0:0:
192,192,133992,1,0,0:0:0:0:
448,192,134067,1,0,0:0:0:0:
192,192,134142,1,0,0:0:0:0:
320,192,134142,1,0,0:0:0:0:
448,192,134217,1,0,0:0:0:0:
64,192,134292,1,0,0:0:0:0:
192,192,134292,1,0,0:0:0:0:
320,192,134367,1,0,0:0:0:0:
192,192,134442,1,0,0:0:0:0:
448,192,134442,1,0,0:0:0:0:
64,192,134517,1,0,0:0:0:0:
320,192,134517,1,0,0:0:0:0:
192,192,134592,1,0,0:0:0:0:
64,192,134667,1,0,0:0:0:0:
320,192,134667,1,0,0:0:0:0:
192,192,134742,1,0,0:0:0:0:
448,192,134742,1,0,0:0:0:0:
320,192,134817,1,0,0:0:0:0:
64,192,134892,1,0,0:0:0:0:
448,192,134892,1,0,0:0:0:0:
320,192,134967,1,0,0:0:0:0:
64,192,135042,1,0,0:0:0:0:
192,192,135042,1,0,0:0:0:0:
448,192,135117,1,0,0:0:0:0:
192,192,135192,1,0,0:0:0:0:
320,192,135192,1,0,0:0:0:0:
64,192,135267,1,0,0:0:0:0:
320,192,135342,1,0,0:0:0:0:
448,192,135342,1,0,0:0:0:0:
192,192,135417,1,0,0:0:0:0:
64,192,135492,1,0,0:0:0:0:
320,192,135492,1,0,0:0:0:0:
192,192,135567,1,0,0:0:0:0:
64,192,135642,1,0,0:0:0:0:
320,192,135642,1,0,0:0:0:0:
448,192,135642,1,0,0:0:0:0:
192,192,135717,1,0,0:0:0:0:
320,192,135792,1,0,0:0:0:0:
448,192,135867,1,0,0:0:0:0:
64,192,135942,1,0,0:0:0:0:
192,192,135942,1,0,0:0:0:0:
320,192,136017,1,0,0:0:0:0:
64,192,136092,1,0,0:0:0:0:
192,192,136092,1,0,0:0:0:0:
320,192,136167,1,0,0:0:0:0:
192,192,136242,1,0,0:0:0:0:
448,192,136242,1,0,0:0:0:0:
320,192,136317,1,0,0:0:0:0:
64,192,136392,1,0,0:0:0:0:
192,192,136392,1,0,0:0:0:0:
320,192,136467,1,0,0:0:0:0:
64,192,136542,1,0,0:0:0:0:
448,192,136542,1,0,0:0:0:0:
192,192,136617,1,0,0:0:0:0:
64,192,136692,1,0,0:0:0:0:
320,192,136692,1,0,0:0:0:0:
192,192,136767,1,0,0:0:0:0:
64,192,136842,1,0,0:0:0:0:
320,192,136842,1,0,0:0:0:0:
448,192,136842,1,0,0:0:0:0:
192,192,136917,1,0,0:0:0:0:
320,192,136992,1,0,0:0:0:0:
64,192,137067,1,0,0:0:0:0:
320,192,137142,1,0,0:0:0:0:
448,192,137142,1,0,0:0:0:0:
64,192,137217,1,0,0:0:0:0:
192,192,137292,1,0,0:0:0:0:
448,192,137292,1,0,0:0:0:0:
320,192,137367,1,0,0:0:0:0:
64,192,137442,1,0,0:0:0:0:
448,192,137442,1,0,0:0:0:0:
320,192,137517,1,0,0:0:0:0:
64,192,137592,1,0,0:0:0:0:
192,192,137592,1,0,0:0:0:0:
320,192,137667,1,0,0:0:0:0:
192,192,137742,1,0,0:0:0:0:
448,192,137742,1,0,0:0:0:0:
64,192,137817,1,0,0:0:0:0:
320,192,137892,1,0,0:0:0:0:
448,192,137892,1,0,0:0:0:0:
64,192,137967,1,0,0:0:0:0:
192,192,138042,1,0,0:0:0:0:
320,192,138042,1,0,0:0:0:0:
448,192,138042,1,0,0:0:0:0:
64,192,138117,1,0,0:0:0:0:
192,192,138192,1,0,0:0:0:0:
64,192,138267,1,0,0:0:0:0:
320,192,138267,1,0,0:0:0:0:
192,192,138342,1,0,0:0:0:0:
448,192,138342,1,0,0:0:0:0:
320,192,138417,1,0,0:0:0:0:
448,192,138492,1,0,0:0:0:0:
64,192,138567,1,0,0:0:0:0:
192,192,138567,1,0,0:0:0:0:
320,192,138642,1,0,0:0:0:0:
448,192,138717,1,0,0:0:0:0:
192,192,138792,1,0,0:0:0:0:
320,192,138792,1,0,0:0:0:0:
64,192,138867,1,0,0:0:0:0:
320,192,138942,1,0,0:0:0:0:
448,192,138942,1,0,0:0:0:0:
192,192,139017,1,0,0:0:0:0:
64,192,139092,1,0,0:0:0:0:
320,192,139092,1,0,0:0:0:0:
448,192,139167,1,0,0:0:0:0:
64,192,139242,1,0,0:0:0:0:
192,192,139242,1,0,0:0:0:0:
320,192,139242,1,0,0:0:0:0:
448,192,139317,1,0,0:0:0:0:
192,192,139392,1,0,0:0:0:0:
448,192,139467,1,0,0:0:0:0:
64,192,139542,1,0,0:0:0:0:
192,192,139542,1,0,0:0:0:0:
320,192,139617,1,0,0:0:0:0:
64,192,139692,1,0,0:0:0:0:
192,192,139692,1,0,0:0:0:0:
448,192,139767,1,0,0:0:0:0:
64,192,139842,1,0,0:0:0:0:
192,192,139842,1,0,0:0:0:0:
320,192,139917,1,0,0:0:0:0:
448,192,139917,1,0,0:0:0:0:
64,192,139992,1,0,0:0:0:0:
192,192,139992,1,0,0:0:0:0:
320,192,140067,1,0,0:0:0:0:
192,192,140142,1,0,0:0:0:0:
448,192,140142,1,0,0:0:0:0:
64,192,140217,1,0,0:0:0:0:
320,192,140292,1,0,0:0:0:0:
448,192,140292,1,0,0:0:0:0:
192,192,140367,1,0,0:0:0:0:
64,0,140442,128,0,145092:1:0:0:0:
320,0,140442,128,0,145092:1:0:0:0:
448,0,140442,128,0,145092:1:0:0:0:
192,0,142842,128,0,143442:1:0:0:0:
448,192,145242,1,0,0:0:0:0:
320,0,145242,128,0,145542:1:0:0:0:
192,0,146442,128,0,146592:1:0:0:0:
64,192,147642,1,0,0:0:0:0:
448,0,147642,128,0,147942:1:0:0:0:
64,192,148842,1,0,0:0:0:0:
192,192,149142,1,0,0:0:0:0:
