osu file format v12

[General]
AudioFilename: Ascension to Heaven.mp3
AudioLeadIn: 2
PreviewTime: 121240
Countdown: 0
SampleSet: None
StackLeniency: 0.7
Mode: 3
LetterboxInBreaks: 0
SpecialStyle: 0
WidescreenStoryboard: 0

[Editor]
DistanceSpacing: 0.8
BeatDivisor: 4
GridSize: 8
TimelineZoom: 1

[Metadata]
Title:Ascension to Heaven
TitleUnicode:Ascension to Heaven
Artist:xi
ArtistUnicode:xi
Creator:MasterSonic10
Version:4k HD
Source:Stepmania
Tags:Stepmania
BeatmapID:411677
BeatmapSetID:170023

[Difficulty]
HPDrainRate:5
CircleSize:4
OverallDifficulty:7
ApproachRate:10
SliderMultiplier:1.4
SliderTickRate:1

[Events]
//Background and Video events
0,0,"background.jpg",0,0
//Break Periods
//Storyboard Layer 0 (Background)
//Storyboard Layer 1 (Fail)
//Storyboard Layer 2 (Pass)
//Storyboard Layer 3 (Foreground)
//Storyboard Sound Samples
//Background Colour Transformations
3,100,163,162,255

[TimingPoints]
1300,300,4,2,0,15,1,0

[HitObjects]
64,192,1300,5,0,0:0:0:0:
192,192,1300,1,0,0:0:0:0:
64,192,3700,1,0,0:0:0:0:
192,192,3700,1,0,0:0:0:0:
64,192,4900,1,0,0:0:0:0:
448,192,4900,1,0,0:0:0:0:
64,192,6100,1,0,0:0:0:0:
192,192,6100,1,0,0:0:0:0:
64,192,8500,1,0,0:0:0:0:
192,192,8500,1,0,0:0:0:0:
64,192,9700,1,0,0:0:0:0:
448,192,9700,1,0,0:0:0:0:
320,0,10000,128,0,10600:1:0:0:0:
192,192,10600,1,0,0:0:0:0:
448,192,10675,1,0,0:0:0:0:
192,192,10750,1,0,0:0:0:0:
448,192,10825,1,0,0:0:0:0:
64,192,10900,1,0,0:0:0:0:
64,192,11050,1,0,0:0:0:0:
320,192,11200,1,0,0:0:0:0:
64,192,11350,1,0,0:0:0:0:
320,192,11425,1,0,0:0:0:0:
64,192,11500,1,0,0:0:0:0:
320,192,11575,1,0,0:0:0:0:
64,192,11650,1,0,0:0:0:0:
320,192,11725,1,0,0:0:0:0:
448,192,11800,1,0,0:0:0:0:
320,192,11950,1,0,0:0:0:0:
64,192,12025,1,0,0:0:0:0:
448,192,12100,1,0,0:0:0:0:
448,192,12250,1,0,0:0:0:0:
320,192,12400,1,0,0:0:0:0:
64,192,12475,1,0,0:0:0:0:
320,192,12550,1,0,0:0:0:0:
64,192,12625,1,0,0:0:0:0:
448,192,12700,1,0,0:0:0:0:
192,192,12775,1,0,0:0:0:0:
448,192,12850,1,0,0:0:0:0:
192,192,12925,1,0,0:0:0:0:
448,192,13000,1,0,0:0:0:0:
192,192,13075,1,0,0:0:0:0:
448,192,13150,1,0,0:0:0:0:
192,192,13225,1,0,0:0:0:0:
320,192,13300,1,0,0:0:0:0:
320,192,13450,1,0,0:0:0:0:
64,192,13600,1,0,0:0:0:0:
320,192,13750,1,0,0:0:0:0:
64,192,13825,1,0,0:0:0:0:
320,192,13900,1,0,0:0:0:0:
64,192,14050,1,0,0:0:0:0:
320,192,14200,1,0,0:0:0:0:
64,192,14275,1,0,0:0:0:0:
320,192,14350,1,0,0:0:0:0:
64,192,14425,1,0,0:0:0:0:
448,192,14500,1,0,0:0:0:0:
448,192,14650,1,0,0:0:0:0:
320,192,14800,1,0,0:0:0:0:
64,192,14875,1,0,0:0:0:0:
320,192,14950,1,0,0:0:0:0:
64,192,15025,1,0,0:0:0:0:
448,192,15100,1,0,0:0:0:0:
192,192,15175,1,0,0:0:0:0:
448,192,15250,1,0,0:0:0:0:
64,192,15325,1,0,0:0:0:0:
320,192,15400,1,0,0:0:0:0:
64,192,15475,1,0,0:0:0:0:
320,192,15550,1,0,0:0:0:0:
192,192,15625,1,0,0:0:0:0:
64,192,15700,1,0,0:0:0:0:
64,192,15850,1,0,0:0:0:0:
320,192,16000,1,0,0:0:0:0:
64,192,16150,1,0,0:0:0:0:
320,192,16225,1,0,0:0:0:0:
64,192,16300,1,0,0:0:0:0:
320,192,16450,1,0,0:0:0:0:
320,192,16600,1,0,0:0:0:0:
64,192,16675,1,0,0:0:0:0:
320,192,16750,1,0,0:0:0:0:
448,192,16900,1,0,0:0:0:0:
448,192,17050,1,0,0:0:0:0:
320,192,17200,1,0,0:0:0:0:
64,192,17275,1,0,0:0:0:0:
320,192,17350,1,0,0:0:0:0:
64,192,17425,1,0,0:0:0:0:
448,192,17500,1,0,0:0:0:0:
192,192,17575,1,0,0:0:0:0:
448,192,17650,1,0,0:0:0:0:
192,192,17725,1,0,0:0:0:0:
448,192,17800,1,0,0:0:0:0:
192,192,17875,1,0,0:0:0:0:
448,192,17950,1,0,0:0:0:0:
192,192,18025,1,0,0:0:0:0:
320,192,18100,1,0,0:0:0:0:
320,192,18250,1,0,0:0:0:0:
64,192,18400,1,0,0:0:0:0:
320,192,18550,1,0,0:0:0:0:
64,192,18625,1,0,0:0:0:0:
320,192,18700,1,0,0:0:0:0:
64,192,18775,1,0,0:0:0:0:
320,192,18850,1,0,0:0:0:0:
192,192,19000,1,0,0:0:0:0:
320,192,19075,1,0,0:0:0:0:
192,192,19150,1,0,0:0:0:0:
320,192,19225,1,0,0:0:0:0:
448,0,19300,128,0,20200:1:0:0:0:
64,192,20200,1,0,0:0:0:0:
320,192,20500,1,0,0:0:0:0:
64,192,20800,1,0,0:0:0:0:
320,192,20800,1,0,0:0:0:0:
448,192,21025,1,0,0:0:0:0:
64,192,21100,1,0,0:0:0:0:
320,192,21250,1,0,0:0:0:0:
64,192,21400,1,0,0:0:0:0:
64,192,21550,1,0,0:0:0:0:
320,192,21850,1,0,0:0:0:0:
64,192,22000,1,0,0:0:0:0:
320,192,22000,1,0,0:0:0:0:
448,192,22150,1,0,0:0:0:0:
320,192,22225,1,0,0:0:0:0:
192,192,22300,1,0,0:0:0:0:
448,192,22450,1,0,0:0:0:0:
192,192,22600,1,0,0:0:0:0:
64,192,22750,1,0,0:0:0:0:
320,192,22900,1,0,0:0:0:0:
64,192,23200,1,0,0:0:0:0:
320,192,23200,1,0,0:0:0:0:
448,192,23425,1,0,0:0:0:0:
64,192,23500,1,0,0:0:0:0:
320,192,23650,1,0,0:0:0:0:
192,192,23800,1,0,0:0:0:0:
192,192,23950,1,0,0:0:0:0:
320,192,24100,1,0,0:0:0:0:
448,192,24250,1,0,0:0:0:0:
320,192,24325,1,0,0:0:0:0:
192,192,24400,1,0,0:0:0:0:
320,192,24550,1,0,0:0:0:0:
192,192,24625,1,0,0:0:0:0:
64,192,24700,1,0,0:0:0:0:
448,192,24850,1,0,0:0:0:0:
320,192,24925,1,0,0:0:0:0:
192,192,25000,1,0,0:0:0:0:
448,192,25150,1,0,0:0:0:0:
320,192,25225,1,0,0:0:0:0:
64,192,25300,1,0,0:0:0:0:
64,192,25600,1,0,0:0:0:0:
320,192,25600,1,0,0:0:0:0:
320,192,25825,1,0,0:0:0:0:
64,192,25900,1,0,0:0:0:0:
64,192,26050,1,0,0:0:0:0:
448,192,26200,1,0,0:0:0:0:
64,192,26350,1,0,0:0:0:0:
320,192,26650,1,0,0:0:0:0:
64,192,26800,1,0,0:0:0:0:
192,192,26800,1,0,0:0:0:0:
448,192,26950,1,0,0:0:0:0:
320,192,27025,1,0,0:0:0:0:
192,192,27100,1,0,0:0:0:0:
448,192,27250,1,0,0:0:0:0:
64,192,27400,1,0,0:0:0:0:
64,192,27550,1,0,0:0:0:0:
320,192,27700,1,0,0:0:0:0:
64,192,28000,1,0,0:0:0:0:
320,192,28000,1,0,0:0:0:0:
320,192,28225,1,0,0:0:0:0:
64,192,28300,1,0,0:0:0:0:
448,192,28450,1,0,0:0:0:0:
192,192,28600,1,0,0:0:0:0:
320,192,28750,1,0,0:0:0:0:
448,192,28900,1,0,0:0:0:0:
320,192,28975,1,0,0:0:0:0:
192,192,29050,1,0,0:0:0:0:
448,192,29200,1,0,0:0:0:0:
320,192,29275,1,0,0:0:0:0:
64,192,29350,1,0,0:0:0:0:
320,192,29500,1,0,0:0:0:0:
192,192,29575,1,0,0:0:0:0:
64,192,29650,1,0,0:0:0:0:
448,192,29800,1,0,0:0:0:0:
192,192,29875,1,0,0:0:0:0:
64,192,29950,1,0,0:0:0:0:
320,192,30100,1,0,0:0:0:0:
64,192,30400,1,0,0:0:0:0:
320,192,30400,1,0,0:0:0:0:
192,192,30625,1,0,0:0:0:0:
64,192,30700,1,0,0:0:0:0:
320,192,30850,1,0,0:0:0:0:
192,192,31000,1,0,0:0:0:0:
448,192,31150,1,0,0:0:0:0:
320,192,31450,1,0,0:0:0:0:
64,192,31600,1,0,0:0:0:0:
320,192,31600,1,0,0:0:0:0:
448,192,31750,1,0,0:0:0:0:
320,192,31825,1,0,0:0:0:0:
64,192,31900,1,0,0:0:0:0:
320,192,32050,1,0,0:0:0:0:
448,192,32200,1,0,0:0:0:0:
192,192,32350,1,0,0:0:0:0:
320,192,32500,1,0,0:0:0:0:
64,192,32800,1,0,0:0:0:0:
320,192,32800,1,0,0:0:0:0:
448,192,33025,1,0,0:0:0:0:
64,192,33100,1,0,0:0:0:0:
320,192,33250,1,0,0:0:0:0:
192,192,33400,1,0,0:0:0:0:
448,192,33550,1,0,0:0:0:0:
64,192,33700,1,0,0:0:0:0:
192,192,33700,1,0,0:0:0:0:
64,192,34000,1,0,0:0:0:0:
192,192,34300,1,0,0:0:0:0:
320,192,34300,1,0,0:0:0:0:
320,192,34600,1,0,0:0:0:0:
448,192,34750,1,0,0:0:0:0:
64,192,34900,1,0,0:0:0:0:
448,192,34900,1,0,0:0:0:0:
64,192,35200,1,0,0:0:0:0:
320,192,35200,1,0,0:0:0:0:
320,192,35425,1,0,0:0:0:0:
64,192,35500,1,0,0:0:0:0:
448,192,35650,1,0,0:0:0:0:
192,192,35800,1,0,0:0:0:0:
320,192,35950,1,0,0:0:0:0:
64,192,36100,1,0,0:0:0:0:
320,192,36400,1,0,0:0:0:0:
64,192,36550,1,0,0:0:0:0:
320,192,36550,1,0,0:0:0:0:
64,192,36700,1,0,0:0:0:0:
320,192,37000,1,0,0:0:0:0:
192,192,37150,1,0,0:0:0:0:
64,192,37300,1,0,0:0:0:0:
64,192,37600,1,0,0:0:0:0:
320,192,37600,1,0,0:0:0:0:
448,192,37825,1,0,0:0:0:0:
192,192,37900,1,0,0:0:0:0:
320,192,38050,1,0,0:0:0:0:
64,192,38200,1,0,0:0:0:0:
448,192,38350,1,0,0:0:0:0:
320,192,38500,1,0,0:0:0:0:
448,192,38800,1,0,0:0:0:0:
320,192,38875,1,0,0:0:0:0:
192,192,38950,1,0,0:0:0:0:
320,192,39025,1,0,0:0:0:0:
448,192,39100,1,0,0:0:0:0:
192,192,39175,1,0,0:0:0:0:
64,192,39250,1,0,0:0:0:0:
192,192,39325,1,0,0:0:0:0:
320,192,39400,1,0,0:0:0:0:
448,192,39475,1,0,0:0:0:0:
320,192,39550,1,0,0:0:0:0:
192,192,39625,1,0,0:0:0:0:
448,192,39700,1,0,0:0:0:0:
192,192,40000,1,0,0:0:0:0:
448,192,40000,1,0,0:0:0:0:
448,192,40300,1,0,0:0:0:0:
448,192,40450,1,0,0:0:0:0:
64,192,40600,1,0,0:0:0:0:
192,192,40600,1,0,0:0:0:0:
448,192,40750,1,0,0:0:0:0:
448,192,41050,1,0,0:0:0:0:
192,192,41200,1,0,0:0:0:0:
320,192,41200,1,0,0:0:0:0:
448,192,41350,1,0,0:0:0:0:
320,192,41425,1,0,0:0:0:0:
192,192,41500,1,0,0:0:0:0:
448,192,41650,1,0,0:0:0:0:
192,192,41800,1,0,0:0:0:0:
448,192,41800,1,0,0:0:0:0:
320,192,41950,1,0,0:0:0:0:
448,192,42100,1,0,0:0:0:0:
64,192,42400,1,0,0:0:0:0:
448,192,42400,1,0,0:0:0:0:
448,192,42700,1,0,0:0:0:0:
448,192,42850,1,0,0:0:0:0:
64,192,43000,1,0,0:0:0:0:
320,192,43000,1,0,0:0:0:0:
448,192,43150,1,0,0:0:0:0:
192,192,43450,1,0,0:0:0:0:
320,192,43600,1,0,0:0:0:0:
448,192,43600,1,0,0:0:0:0:
320,192,43750,1,0,0:0:0:0:
192,192,43825,1,0,0:0:0:0:
64,192,43900,1,0,0:0:0:0:
448,192,44050,1,0,0:0:0:0:
192,192,44200,1,0,0:0:0:0:
320,192,44200,1,0,0:0:0:0:
448,192,44350,1,0,0:0:0:0:
448,192,44500,1,0,0:0:0:0:
64,192,44800,1,0,0:0:0:0:
448,192,44800,1,0,0:0:0:0:
448,192,45100,1,0,0:0:0:0:
448,192,45250,1,0,0:0:0:0:
64,192,45400,1,0,0:0:0:0:
192,192,45400,1,0,0:0:0:0:
320,192,45550,1,0,0:0:0:0:
320,192,45850,1,0,0:0:0:0:
192,192,46000,1,0,0:0:0:0:
448,192,46000,1,0,0:0:0:0:
448,192,46150,1,0,0:0:0:0:
320,192,46225,1,0,0:0:0:0:
64,192,46300,1,0,0:0:0:0:
448,192,46450,1,0,0:0:0:0:
192,192,46600,1,0,0:0:0:0:
320,192,46600,1,0,0:0:0:0:
448,192,46750,1,0,0:0:0:0:
64,192,46900,1,0,0:0:0:0:
192,192,47200,1,0,0:0:0:0:
448,192,47200,1,0,0:0:0:0:
448,192,47500,1,0,0:0:0:0:
448,192,47650,1,0,0:0:0:0:
192,192,47800,1,0,0:0:0:0:
320,192,47800,1,0,0:0:0:0:
448,192,47950,1,0,0:0:0:0:
448,192,48100,1,0,0:0:0:0:
320,192,48175,1,0,0:0:0:0:
192,192,48250,1,0,0:0:0:0:
320,192,48325,1,0,0:0:0:0:
448,192,48400,1,0,0:0:0:0:
192,192,48475,1,0,0:0:0:0:
64,192,48550,1,0,0:0:0:0:
192,192,48625,1,0,0:0:0:0:
448,192,48700,1,0,0:0:0:0:
320,192,48775,1,0,0:0:0:0:
192,192,48850,1,0,0:0:0:0:
64,192,48925,1,0,0:0:0:0:
192,192,49000,1,0,0:0:0:0:
320,192,49075,1,0,0:0:0:0:
448,192,49150,1,0,0:0:0:0:
320,192,49225,1,0,0:0:0:0:
64,192,49300,1,0,0:0:0:0:
64,192,49600,1,0,0:0:0:0:
320,192,49600,1,0,0:0:0:0:
64,192,49900,1,0,0:0:0:0:
64,192,50050,1,0,0:0:0:0:
192,192,50200,1,0,0:0:0:0:
448,192,50200,1,0,0:0:0:0:
64,192,50350,1,0,0:0:0:0:
64,192,50650,1,0,0:0:0:0:
64,192,50800,1,0,0:0:0:0:
320,192,50800,1,0,0:0:0:0:
320,192,50950,1,0,0:0:0:0:
192,192,51025,1,0,0:0:0:0:
64,192,51100,1,0,0:0:0:0:
320,192,51250,1,0,0:0:0:0:
64,192,51400,1,0,0:0:0:0:
320,192,51400,1,0,0:0:0:0:
448,192,51550,1,0,0:0:0:0:
64,192,51700,1,0,0:0:0:0:
64,192,52000,1,0,0:0:0:0:
192,192,52000,1,0,0:0:0:0:
64,192,52300,1,0,0:0:0:0:
64,192,52450,1,0,0:0:0:0:
192,192,52600,1,0,0:0:0:0:
320,192,52600,1,0,0:0:0:0:
64,192,52750,1,0,0:0:0:0:
320,192,52900,1,0,0:0:0:0:
64,192,53050,1,0,0:0:0:0:
192,192,53200,1,0,0:0:0:0:
448,192,53200,1,0,0:0:0:0:
64,192,53350,1,0,0:0:0:0:
448,192,53350,1,0,0:0:0:0:
320,192,53425,1,0,0:0:0:0:
64,192,53500,1,0,0:0:0:0:
192,192,53650,1,0,0:0:0:0:
192,192,53800,1,0,0:0:0:0:
320,192,53800,1,0,0:0:0:0:
320,192,53950,1,0,0:0:0:0:
64,192,54100,1,0,0:0:0:0:
320,192,54100,1,0,0:0:0:0:
64,192,54400,1,0,0:0:0:0:
320,192,54400,1,0,0:0:0:0:
64,192,54700,1,0,0:0:0:0:
64,192,54850,1,0,0:0:0:0:
320,192,55000,1,0,0:0:0:0:
448,192,55000,1,0,0:0:0:0:
64,192,55150,1,0,0:0:0:0:
64,192,55450,1,0,0:0:0:0:
192,192,55600,1,0,0:0:0:0:
448,192,55600,1,0,0:0:0:0:
192,192,55750,1,0,0:0:0:0:
320,192,55825,1,0,0:0:0:0:
448,192,55900,1,0,0:0:0:0:
64,192,56050,1,0,0:0:0:0:
64,192,56200,1,0,0:0:0:0:
320,192,56200,1,0,0:0:0:0:
320,192,56350,1,0,0:0:0:0:
64,192,56500,1,0,0:0:0:0:
320,192,56800,1,0,0:0:0:0:
448,192,56800,1,0,0:0:0:0:
64,192,57100,1,0,0:0:0:0:
64,192,57250,1,0,0:0:0:0:
320,192,57400,1,0,0:0:0:0:
448,192,57400,1,0,0:0:0:0:
64,192,57550,1,0,0:0:0:0:
448,192,57700,1,0,0:0:0:0:
192,192,57775,1,0,0:0:0:0:
448,192,57850,1,0,0:0:0:0:
192,192,57925,1,0,0:0:0:0:
448,192,58000,1,0,0:0:0:0:
192,192,58075,1,0,0:0:0:0:
448,192,58150,1,0,0:0:0:0:
192,192,58225,1,0,0:0:0:0:
448,192,58300,1,0,0:0:0:0:
320,192,58375,1,0,0:0:0:0:
192,192,58450,1,0,0:0:0:0:
320,192,58525,1,0,0:0:0:0:
448,192,58600,1,0,0:0:0:0:
192,192,58675,1,0,0:0:0:0:
64,192,58750,1,0,0:0:0:0:
192,192,58825,1,0,0:0:0:0:
320,192,58900,1,0,0:0:0:0:
448,192,58900,1,0,0:0:0:0:
320,192,61300,1,0,0:0:0:0:
448,192,62500,1,0,0:0:0:0:
320,192,62800,1,0,0:0:0:0:
192,192,63100,1,0,0:0:0:0:
64,192,63400,1,0,0:0:0:0:
64,192,63700,1,0,0:0:0:0:
448,192,63700,1,0,0:0:0:0:
320,192,63850,1,0,0:0:0:0:
192,192,64000,1,0,0:0:0:0:
64,192,64150,1,0,0:0:0:0:
192,192,64600,1,0,0:0:0:0:
192,192,64750,1,0,0:0:0:0:
192,192,66100,1,0,0:0:0:0:
448,192,66100,1,0,0:0:0:0:
448,192,67300,1,0,0:0:0:0:
320,192,67900,1,0,0:0:0:0:
64,192,68500,1,0,0:0:0:0:
192,192,68500,1,0,0:0:0:0:
192,192,68650,1,0,0:0:0:0:
320,192,68800,1,0,0:0:0:0:
448,192,68950,1,0,0:0:0:0:
192,192,69400,1,0,0:0:0:0:
192,192,69550,1,0,0:0:0:0:
320,192,70900,1,0,0:0:0:0:
64,192,71500,1,0,0:0:0:0:
192,192,72100,1,0,0:0:0:0:
448,192,72700,1,0,0:0:0:0:
64,192,73300,1,0,0:0:0:0:
448,192,73300,1,0,0:0:0:0:
320,192,73450,1,0,0:0:0:0:
192,192,73600,1,0,0:0:0:0:
192,192,73750,1,0,0:0:0:0:
448,192,74200,1,0,0:0:0:0:
448,192,74350,1,0,0:0:0:0:
320,192,75700,1,0,0:0:0:0:
64,192,76300,1,0,0:0:0:0:
192,192,76900,1,0,0:0:0:0:
448,192,76900,1,0,0:0:0:0:
320,192,77500,1,0,0:0:0:0:
64,192,78100,1,0,0:0:0:0:
448,192,78100,1,0,0:0:0:0:
320,192,78250,1,0,0:0:0:0:
64,192,78400,1,0,0:0:0:0:
64,192,78550,1,0,0:0:0:0:
320,192,79300,1,0,0:0:0:0:
64,192,80500,1,0,0:0:0:0:
320,192,80500,1,0,0:0:0:0:
192,192,81700,1,0,0:0:0:0:
448,192,81700,1,0,0:0:0:0:
448,192,82000,1,0,0:0:0:0:
320,192,82300,1,0,0:0:0:0:
192,192,82600,1,0,0:0:0:0:
64,192,82900,1,0,0:0:0:0:
448,192,82900,1,0,0:0:0:0:
448,192,83050,1,0,0:0:0:0:
320,192,83200,1,0,0:0:0:0:
64,0,83350,128,0,83800:1:0:0:0:
320,192,83800,1,0,0:0:0:0:
320,0,83950,128,0,85150:1:0:0:0:
64,192,85300,1,0,0:0:0:0:
448,0,85300,128,0,86350:1:0:0:0:
64,192,86500,1,0,0:0:0:0:
320,0,86500,128,0,87550:1:0:0:0:
192,192,87100,1,0,0:0:0:0:
448,192,87700,1,0,0:0:0:0:
192,0,87700,128,0,88750:1:0:0:0:
320,192,88300,1,0,0:0:0:0:
320,192,88900,1,0,0:0:0:0:
448,192,88900,1,0,0:0:0:0:
192,192,89350,1,0,0:0:0:0:
320,192,89350,1,0,0:0:0:0:
64,192,89800,1,0,0:0:0:0:
192,192,89800,1,0,0:0:0:0:
448,192,90100,1,0,0:0:0:0:
64,0,90100,128,0,92350:1:0:0:0:
320,192,91300,1,0,0:0:0:0:
192,192,91900,1,0,0:0:0:0:
192,192,92500,1,0,0:0:0:0:
448,192,92500,1,0,0:0:0:0:
448,192,92650,1,0,0:0:0:0:
320,192,92800,1,0,0:0:0:0:
64,0,92950,128,0,94750:1:0:0:0:
64,192,94900,1,0,0:0:0:0:
320,192,94900,1,0,0:0:0:0:
64,192,95050,1,0,0:0:0:0:
320,192,95200,1,0,0:0:0:0:
448,0,95350,128,0,97150:1:0:0:0:
64,192,96100,1,0,0:0:0:0:
320,192,97300,1,0,0:0:0:0:
64,192,97375,1,0,0:0:0:0:
320,192,97450,1,0,0:0:0:0:
64,192,97525,1,0,0:0:0:0:
448,192,97600,1,0,0:0:0:0:
320,192,98050,1,0,0:0:0:0:
192,192,98200,1,0,0:0:0:0:
448,192,98350,1,0,0:0:0:0:
320,192,98500,1,0,0:0:0:0:
64,192,98575,1,0,0:0:0:0:
320,192,98650,1,0,0:0:0:0:
64,192,98725,1,0,0:0:0:0:
448,192,98800,1,0,0:0:0:0:
320,192,99100,1,0,0:0:0:0:
64,192,99250,1,0,0:0:0:0:
320,192,99400,1,0,0:0:0:0:
64,192,99550,1,0,0:0:0:0:
320,192,99700,1,0,0:0:0:0:
64,192,99775,1,0,0:0:0:0:
320,192,99925,1,0,0:0:0:0:
64,192,100000,1,0,0:0:0:0:
448,192,100150,1,0,0:0:0:0:
320,192,100300,1,0,0:0:0:0:
64,192,100375,1,0,0:0:0:0:
320,192,100525,1,0,0:0:0:0:
64,192,100600,1,0,0:0:0:0:
448,192,100750,1,0,0:0:0:0:
320,0,100900,128,0,101800:1:0:0:0:
64,192,101800,1,0,0:0:0:0:
448,192,102100,1,0,0:0:0:0:
320,192,102175,1,0,0:0:0:0:
192,192,102250,1,0,0:0:0:0:
448,192,102400,1,0,0:0:0:0:
448,192,102700,1,0,0:0:0:0:
320,192,102775,1,0,0:0:0:0:
64,192,102850,1,0,0:0:0:0:
320,192,103000,1,0,0:0:0:0:
448,192,103150,1,0,0:0:0:0:
320,192,103225,1,0,0:0:0:0:
192,192,103300,1,0,0:0:0:0:
448,192,103450,1,0,0:0:0:0:
320,192,103525,1,0,0:0:0:0:
64,192,103600,1,0,0:0:0:0:
320,192,103750,1,0,0:0:0:0:
192,192,103825,1,0,0:0:0:0:
64,192,103900,1,0,0:0:0:0:
448,192,104050,1,0,0:0:0:0:
320,192,104125,1,0,0:0:0:0:
192,192,104200,1,0,0:0:0:0:
448,192,104350,1,0,0:0:0:0:
320,192,104425,1,0,0:0:0:0:
64,192,104500,1,0,0:0:0:0:
320,192,104650,1,0,0:0:0:0:
64,192,104800,1,0,0:0:0:0:
320,192,104950,1,0,0:0:0:0:
192,192,105100,1,0,0:0:0:0:
448,192,105250,1,0,0:0:0:0:
192,192,105400,1,0,0:0:0:0:
448,192,105550,1,0,0:0:0:0:
320,192,105700,1,0,0:0:0:0:
192,192,105850,1,0,0:0:0:0:
64,192,106000,1,0,0:0:0:0:
192,192,106150,1,0,0:0:0:0:
448,192,106300,1,0,0:0:0:0:
320,192,106450,1,0,0:0:0:0:
192,192,106600,1,0,0:0:0:0:
320,192,106750,1,0,0:0:0:0:
64,192,106900,1,0,0:0:0:0:
192,192,106975,1,0,0:0:0:0:
320,192,107050,1,0,0:0:0:0:
192,192,107200,1,0,0:0:0:0:
320,192,107275,1,0,0:0:0:0:
448,192,107350,1,0,0:0:0:0:
64,192,107500,1,0,0:0:0:0:
320,192,107575,1,0,0:0:0:0:
448,192,107650,1,0,0:0:0:0:
192,192,107800,1,0,0:0:0:0:
320,192,107875,1,0,0:0:0:0:
448,192,107950,1,0,0:0:0:0:
64,192,108100,1,0,0:0:0:0:
192,192,108175,1,0,0:0:0:0:
448,192,108250,1,0,0:0:0:0:
192,192,108400,1,0,0:0:0:0:
320,192,108475,1,0,0:0:0:0:
448,192,108550,1,0,0:0:0:0:
64,192,108700,1,0,0:0:0:0:
192,192,108775,1,0,0:0:0:0:
320,192,108850,1,0,0:0:0:0:
448,192,109000,1,0,0:0:0:0:
320,192,109075,1,0,0:0:0:0:
192,192,109150,1,0,0:0:0:0:
320,192,109225,1,0,0:0:0:0:
64,192,109300,1,0,0:0:0:0:
192,192,109375,1,0,0:0:0:0:
64,192,109450,1,0,0:0:0:0:
192,192,109525,1,0,0:0:0:0:
320,192,109600,1,0,0:0:0:0:
448,192,109675,1,0,0:0:0:0:
320,192,109750,1,0,0:0:0:0:
192,192,109825,1,0,0:0:0:0:
448,192,109900,1,0,0:0:0:0:
448,192,110200,1,0,0:0:0:0:
192,192,110500,1,0,0:0:0:0:
448,192,110500,1,0,0:0:0:0:
192,192,110800,1,0,0:0:0:0:
192,192,111100,1,0,0:0:0:0:
320,192,111100,1,0,0:0:0:0:
64,192,111400,1,0,0:0:0:0:
448,192,111550,1,0,0:0:0:0:
320,192,111625,1,0,0:0:0:0:
64,192,111700,1,0,0:0:0:0:
192,192,111700,1,0,0:0:0:0:
448,192,111775,1,0,0:0:0:0:
320,192,111850,1,0,0:0:0:0:
192,192,112000,1,0,0:0:0:0:
320,192,112150,1,0,0:0:0:0:
448,192,112300,1,0,0:0:0:0:
320,192,112375,1,0,0:0:0:0:
192,192,112450,1,0,0:0:0:0:
448,192,112600,1,0,0:0:0:0:
320,192,112750,1,0,0:0:0:0:
192,192,112825,1,0,0:0:0:0:
64,192,112900,1,0,0:0:0:0:
448,192,113050,1,0,0:0:0:0:
320,192,113125,1,0,0:0:0:0:
192,192,113200,1,0,0:0:0:0:
448,192,113350,1,0,0:0:0:0:
192,192,113425,1,0,0:0:0:0:
64,192,113500,1,0,0:0:0:0:
320,192,113650,1,0,0:0:0:0:
192,192,113725,1,0,0:0:0:0:
64,192,113800,1,0,0:0:0:0:
448,192,113950,1,0,0:0:0:0:
320,192,114025,1,0,0:0:0:0:
192,192,114100,1,0,0:0:0:0:
192,192,114400,1,0,0:0:0:0:
64,192,114700,1,0,0:0:0:0:
192,192,114700,1,0,0:0:0:0:
64,192,115000,1,0,0:0:0:0:
64,192,115300,1,0,0:0:0:0:
448,192,115300,1,0,0:0:0:0:
448,192,115600,1,0,0:0:0:0:
192,192,115900,1,0,0:0:0:0:
448,192,115900,1,0,0:0:0:0:
320,192,116200,1,0,0:0:0:0:
192,192,116350,1,0,0:0:0:0:
320,192,116350,1,0,0:0:0:0:
448,192,116500,1,0,0:0:0:0:
320,192,116575,1,0,0:0:0:0:
192,192,116650,1,0,0:0:0:0:
448,192,116800,1,0,0:0:0:0:
320,192,116875,1,0,0:0:0:0:
192,192,116950,1,0,0:0:0:0:
448,192,117100,1,0,0:0:0:0:
192,192,117175,1,0,0:0:0:0:
64,192,117250,1,0,0:0:0:0:
320,192,117400,1,0,0:0:0:0:
192,192,117475,1,0,0:0:0:0:
64,192,117550,1,0,0:0:0:0:
448,192,117700,1,0,0:0:0:0:
192,192,117775,1,0,0:0:0:0:
64,192,117850,1,0,0:0:0:0:
448,192,118000,1,0,0:0:0:0:
320,192,118075,1,0,0:0:0:0:
64,192,118150,1,0,0:0:0:0:
448,192,118300,1,0,0:0:0:0:
320,192,118375,1,0,0:0:0:0:
192,192,118450,1,0,0:0:0:0:
320,192,118600,1,0,0:0:0:0:
192,192,118675,1,0,0:0:0:0:
64,192,118750,1,0,0:0:0:0:
448,192,118900,1,0,0:0:0:0:
320,192,118975,1,0,0:0:0:0:
448,192,119050,1,0,0:0:0:0:
320,192,119125,1,0,0:0:0:0:
192,192,119200,1,0,0:0:0:0:
64,192,119275,1,0,0:0:0:0:
448,192,119350,1,0,0:0:0:0:
192,192,119425,1,0,0:0:0:0:
448,192,119500,1,0,0:0:0:0:
192,192,119575,1,0,0:0:0:0:
320,192,119650,1,0,0:0:0:0:
64,192,119725,1,0,0:0:0:0:
448,192,119800,1,0,0:0:0:0:
320,192,119875,1,0,0:0:0:0:
448,192,119950,1,0,0:0:0:0:
320,192,120025,1,0,0:0:0:0:
64,192,120100,1,0,0:0:0:0:
192,192,120175,1,0,0:0:0:0:
320,192,120250,1,0,0:0:0:0:
64,192,120325,1,0,0:0:0:0:
320,192,120400,1,0,0:0:0:0:
64,192,120475,1,0,0:0:0:0:
448,192,120550,1,0,0:0:0:0:
320,192,120625,1,0,0:0:0:0:
192,192,120700,1,0,0:0:0:0:
64,192,120775,1,0,0:0:0:0:
192,192,120850,1,0,0:0:0:0:
64,192,120925,1,0,0:0:0:0:
320,192,121000,1,0,0:0:0:0:
448,192,121075,1,0,0:0:0:0:
320,192,121150,1,0,0:0:0:0:
192,192,121225,1,0,0:0:0:0:
64,192,121300,1,0,0:0:0:0:
64,192,121600,1,0,0:0:0:0:
320,192,121600,1,0,0:0:0:0:
448,192,121825,1,0,0:0:0:0:
64,192,121900,1,0,0:0:0:0:
64,192,122050,1,0,0:0:0:0:
448,192,122050,1,0,0:0:0:0:
64,192,122200,1,0,0:0:0:0:
320,192,122200,1,0,0:0:0:0:
64,192,122500,1,0,0:0:0:0:
192,192,122500,1,0,0:0:0:0:
64,192,122800,1,0,0:0:0:0:
320,192,122800,1,0,0:0:0:0:
64,192,123100,1,0,0:0:0:0:
64,192,123250,1,0,0:0:0:0:
320,192,123250,1,0,0:0:0:0:
64,192,123400,1,0,0:0:0:0:
320,192,123400,1,0,0:0:0:0:
64,192,123700,1,0,0:0:0:0:
448,192,123700,1,0,0:0:0:0:
64,192,124000,1,0,0:0:0:0:
320,192,124000,1,0,0:0:0:0:
320,192,124225,1,0,0:0:0:0:
64,192,124300,1,0,0:0:0:0:
64,192,124450,1,0,0:0:0:0:
448,192,124450,1,0,0:0:0:0:
64,192,124600,1,0,0:0:0:0:
320,192,124600,1,0,0:0:0:0:
64,192,124900,1,0,0:0:0:0:
192,192,124900,1,0,0:0:0:0:
64,192,125200,1,0,0:0:0:0:
448,192,125200,1,0,0:0:0:0:
64,192,125500,1,0,0:0:0:0:
64,192,125650,1,0,0:0:0:0:
320,192,125650,1,0,0:0:0:0:
64,192,125800,1,0,0:0:0:0:
320,192,125800,1,0,0:0:0:0:
64,192,126100,1,0,0:0:0:0:
320,192,126100,1,0,0:0:0:0:
64,192,126400,1,0,0:0:0:0:
320,192,126625,1,0,0:0:0:0:
64,192,126700,1,0,0:0:0:0:
64,192,126850,1,0,0:0:0:0:
448,192,126850,1,0,0:0:0:0:
64,192,127000,1,0,0:0:0:0:
448,192,127000,1,0,0:0:0:0:
64,192,127300,1,0,0:0:0:0:
320,192,127300,1,0,0:0:0:0:
64,192,127600,1,0,0:0:0:0:
320,192,127750,1,0,0:0:0:0:
448,192,127750,1,0,0:0:0:0:
64,192,127900,1,0,0:0:0:0:
64,192,128050,1,0,0:0:0:0:
64,192,128200,1,0,0:0:0:0:
320,192,128200,1,0,0:0:0:0:
448,192,128500,1,0,0:0:0:0:
320,192,128575,1,0,0:0:0:0:
192,192,128650,1,0,0:0:0:0:
320,192,128725,1,0,0:0:0:0:
448,192,128800,1,0,0:0:0:0:
192,192,128875,1,0,0:0:0:0:
64,192,128950,1,0,0:0:0:0:
192,192,129025,1,0,0:0:0:0:
448,192,129100,1,0,0:0:0:0:
320,192,129175,1,0,0:0:0:0:
192,192,129250,1,0,0:0:0:0:
320,192,129325,1,0,0:0:0:0:
448,192,129400,1,0,0:0:0:0:
320,192,129475,1,0,0:0:0:0:
192,192,129550,1,0,0:0:0:0:
64,192,129625,1,0,0:0:0:0:
448,192,129700,1,0,0:0:0:0:
320,192,129775,1,0,0:0:0:0:
192,192,129850,1,0,0:0:0:0:
448,192,129925,1,0,0:0:0:0:
320,192,130000,1,0,0:0:0:0:
192,192,130075,1,0,0:0:0:0:
448,192,130150,1,0,0:0:0:0:
192,192,130225,1,0,0:0:0:0:
64,192,130300,1,0,0:0:0:0:
320,192,130375,1,0,0:0:0:0:
192,192,130450,1,0,0:0:0:0:
64,192,130525,1,0,0:0:0:0:
448,192,130600,1,0,0:0:0:0:
320,192,130675,1,0,0:0:0:0:
192,192,130750,1,0,0:0:0:0:
64,192,130825,1,0,0:0:0:0:
448,192,130900,1,0,0:0:0:0:
320,192,130975,1,0,0:0:0:0:
192,192,131050,1,0,0:0:0:0:
448,192,131200,1,0,0:0:0:0:
320,192,131350,1,0,0:0:0:0:
448,192,131500,1,0,0:0:0:0:
192,192,131575,1,0,0:0:0:0:
64,192,131650,1,0,0:0:0:0:
192,192,131800,1,0,0:0:0:0:
320,192,131950,1,0,0:0:0:0:
192,192,132025,1,0,0:0:0:0:
64,192,132100,1,0,0:0:0:0:
448,192,132250,1,0,0:0:0:0:
320,192,132325,1,0,0:0:0:0:
192,192,132400,1,0,0:0:0:0:
448,192,132550,1,0,0:0:0:0:
192,192,132625,1,0,0:0:0:0:
64,192,132700,1,0,0:0:0:0:
320,192,132850,1,0,0:0:0:0:
192,192,132925,1,0,0:0:0:0:
64,192,133000,1,0,0:0:0:0:
448,192,133150,1,0,0:0:0:0:
320,192,133225,1,0,0:0:0:0:
64,192,133300,1,0,0:0:0:0:
320,192,133450,1,0,0:0:0:0:
64,192,133600,1,0,0:0:0:0:
320,192,133750,1,0,0:0:0:0:
192,192,133900,1,0,0:0:0:0:
448,192,134050,1,0,0:0:0:0:
192,192,134200,1,0,0:0:0:0:
448,192,134350,1,0,0:0:0:0:
320,192,134500,1,0,0:0:0:0:
192,192,134650,1,0,0:0:0:0:
64,192,134800,1,0,0:0:0:0:
192,192,134950,1,0,0:0:0:0:
320,192,135100,1,0,0:0:0:0:
448,192,135250,1,0,0:0:0:0:
320,192,135400,1,0,0:0:0:0:
64,192,135550,1,0,0:0:0:0:
448,192,135700,1,0,0:0:0:0:
320,192,135775,1,0,0:0:0:0:
192,192,135850,1,0,0:0:0:0:
448,192,136000,1,0,0:0:0:0:
320,192,136075,1,0,0:0:0:0:
192,192,136150,1,0,0:0:0:0:
320,192,136300,1,0,0:0:0:0:
192,192,136375,1,0,0:0:0:0:
64,192,136450,1,0,0:0:0:0:
448,192,136600,1,0,0:0:0:0:
192,192,136675,1,0,0:0:0:0:
64,192,136750,1,0,0:0:0:0:
320,192,136900,1,0,0:0:0:0:
192,192,136975,1,0,0:0:0:0:
64,192,137050,1,0,0:0:0:0:
448,192,137200,1,0,0:0:0:0:
192,192,137275,1,0,0:0:0:0:
64,192,137350,1,0,0:0:0:0:
320,192,137500,1,0,0:0:0:0:
192,192,137575,1,0,0:0:0:0:
64,192,137650,1,0,0:0:0:0:
448,192,137800,1,0,0:0:0:0:
320,192,137875,1,0,0:0:0:0:
192,192,137950,1,0,0:0:0:0:
448,192,138100,1,0,0:0:0:0:
320,192,138175,1,0,0:0:0:0:
192,192,138250,1,0,0:0:0:0:
320,192,138325,1,0,0:0:0:0:
448,192,138400,1,0,0:0:0:0:
192,192,138475,1,0,0:0:0:0:
64,192,138550,1,0,0:0:0:0:
192,192,138625,1,0,0:0:0:0:
448,192,138700,1,0,0:0:0:0:
320,192,138775,1,0,0:0:0:0:
64,192,138850,1,0,0:0:0:0:
320,192,138925,1,0,0:0:0:0:
448,192,139000,1,0,0:0:0:0:
192,192,139075,1,0,0:0:0:0:
64,192,139150,1,0,0:0:0:0:
320,192,139225,1,0,0:0:0:0:
448,192,139300,1,0,0:0:0:0:
192,192,139375,1,0,0:0:0:0:
448,192,139450,1,0,0:0:0:0:
192,192,139525,1,0,0:0:0:0:
448,192,139600,1,0,0:0:0:0:
192,192,139675,1,0,0:0:0:0:
448,192,139750,1,0,0:0:0:0:
192,192,139825,1,0,0:0:0:0:
448,192,139900,1,0,0:0:0:0:
320,192,139975,1,0,0:0:0:0:
192,192,140050,1,0,0:0:0:0:
320,192,140125,1,0,0:0:0:0:
448,192,140200,1,0,0:0:0:0:
192,192,140275,1,0,0:0:0:0:
64,192,140350,1,0,0:0:0:0:
192,192,140425,1,0,0:0:0:0:
448,0,140500,128,0,145300:1:0:0:0:
