osu file format v12

[General]
AudioFilename: ascension_to_heaven.mp3
AudioLeadIn: 1000
PreviewTime: 100754
Countdown: 0
SampleSet: Soft
StackLeniency: 0.3
Mode: 0
LetterboxInBreaks: 0

[Editor]
DistanceSpacing: 1
BeatDivisor: 4
GridSize: 8

[Metadata]
Title:Ascension to Heaven
TitleUnicode:Ascension to Heaven
Artist:xi
ArtistUnicode:xi
Creator:Kirino Kousaka
Version:Normal
Source:BMS
Tags:artcore bms of fighters 2009 copter-kun Ra-s Bobo love firce777
BeatmapID:164609
BeatmapSetID:54084

[Difficulty]
HPDrainRate:3
CircleSize:3
OverallDifficulty:3
ApproachRate:4
SliderMultiplier:0.6
SliderTickRate:1

[Events]
//Background and Video events
0,0,"uwp5%20(16)-27705.jpg",0,0
//Break Periods
2,59029,59909
//Storyboard Layer 0 (Background)
//Storyboard Layer 1 (Fail)
//Storyboard Layer 2 (Pass)
//Storyboard Layer 3 (Foreground)
//Storyboard Sound Samples
//Background Colour Transformations
3,100,163,162,255

[TimingPoints]
1229,300,4,2,0,30,1,0
1229,-133.333333333333,4,2,0,30,0,0
3929,-133.333333333333,4,1,1,30,0,0
4829,-133.333333333333,4,2,0,30,0,0
8729,-133.333333333333,4,1,1,30,0,0
9629,-133.333333333333,4,2,0,30,0,0
9929,-100,4,2,0,30,0,1
10829,-66.6666666666667,4,1,0,100,0,0
10904,-66.6666666666667,4,2,0,30,0,0
71129,-66.6666666666667,4,1,1,30,0,0
71429,-66.6666666666667,4,2,0,30,0,0
72329,-66.6666666666667,4,1,1,30,0,0
72629,-66.6666666666667,4,2,0,30,0,0
77129,-66.6666666666667,4,1,1,30,0,0
77429,-66.6666666666667,4,2,0,30,0,0
89129,-66.6666666666667,4,1,1,30,0,0
89279,-66.6666666666667,4,2,0,30,0,0
89429,-66.6666666666667,4,1,1,30,0,0
89729,-66.6666666666667,4,2,0,30,0,0
97229,-66.6666666666667,4,2,0,40,0,0
97979,-66.6666666666667,4,2,0,45,0,0
98429,-66.6666666666667,4,2,0,50,0,0
99179,-66.6666666666667,4,2,0,55,0,0
99629,-66.6666666666667,4,2,0,60,0,0
100229,-66.6666666666667,4,2,0,65,0,0
102029,-66.6666666666667,4,2,0,70,0,1
106829,-66.6666666666667,4,2,0,80,0,1
121191,-66.6666666666667,4,1,0,80,0,0
121229,-66.6666666666667,4,2,0,90,0,1
140391,-66.6666666666667,4,2,0,80,0,0
140429,-66.6666666666667,4,2,0,80,0,1
140466,-66.6666666666667,4,2,0,80,0,0
142829,-133.333333333333,4,2,0,80,0,0
145529,-133.333333333333,4,1,1,80,0,0
146429,-133.333333333333,4,2,0,80,0,0
147929,-133.333333333333,4,1,1,80,0,0
148829,-133.333333333333,4,2,0,80,0,0
152429,315.789473684211,4,2,0,50,1,0
152429,-133.333333333333,4,2,0,50,0,0
154955,-133.333333333333,4,1,0,50,0,0

[Colours]
Combo1 : 255,251,176
Combo2 : 74,192,202
Combo3 : 239,239,239

[HitObjects]
48,56,1229,1,0,0:0:0:0:
264,344,3629,2,0,B|296:256|248:256|280:168,1,179.99999642372,0|2,0:0|0:0,0:0:0:0:
112,96,6029,5,0,0:0:0:0:
472,40,8429,2,0,B|439:128|487:128|455:216,1,179.99999642372,0|2,0:0|0:0,0:0:0:0:
208,56,10829,6,0,B|160:64|112:104,1,89.99999821186,4|0,0:0|0:0,0:0:0:0:
128,184,11429,2,0,B|184:184|224:136,1,89.99999821186,0|0,0:0|0:0,0:0:0:0:
288,112,12029,1,0,0:0:0:0:
368,152,12329,1,0,0:0:0:0:
408,232,12629,1,0,0:0:0:0:
352,304,12929,1,0,0:0:0:0:
288,240,13229,6,0,B|264:280|208:296,1,89.99999821186
184,208,13829,2,0,B|136:232|80:200,1,89.99999821186
96,120,14429,2,0,B|144:112|176:80,1,89.99999821186,2|0,0:0|0:0,0:0:0:0:
240,136,15029,2,0,B|288:120|344:144,1,89.99999821186
416,168,15629,5,4,0:0:0:0:
344,216,15929,1,0,0:0:0:0:
416,264,16229,1,0,0:0:0:0:
344,320,16529,1,0,0:0:0:0:
256,320,16829,6,0,B|170:345,1,89.99999821186
177,257,17429,2,0,B|87:259,1,89.99999821186
125,183,18029,2,0,B|38:162,1,89.99999821186
108,98,18629,2,0,B|29:55,1,89.99999821186
120,40,19229,6,0,B|248:40|248:104|384:104,1,270.000010299683
400,192,20429,6,0,B|336:280,1,89.99999821186,0|8,0:0|0:0,0:0:0:0:
256,256,21029,2,0,B|224:296,2,44.99999910593,0|0|8,0:0|0:0|0:0,0:0:0:0:
304,176,21629,5,0,0:0:0:0:
304,176,21929,1,8,0:0:0:0:
248,104,22229,2,0,B|200:136,2,44.99999910593,0|0|8,0:0|0:0|0:0,0:0:0:0:
312,40,22829,6,0,B|368:40|408:64,1,89.99999821186,0|8,0:0|0:0,0:0:0:0:
456,128,23429,2,0,B|488:168,2,44.99999910593,0|0|8,0:0|0:0|0:0,0:0:0:0:
408,208,24029,1,0,0:0:0:0:
376,240,24179,1,0,0:0:0:0:
336,256,24329,1,8,0:0:0:0:
248,248,24629,2,0,B|280:192,2,44.99999910593,0|0|8,0:0|0:0|0:0,0:0:0:0:
176,304,25229,5,0,0:0:0:0:
176,304,25529,1,8,0:0:0:0:
104,248,25829,2,0,B|56:224,2,44.99999910593,0|0|8,0:0|0:0|0:0,0:0:0:0:
120,160,26429,2,0,B|160:128|216:120,1,89.99999821186,0|8,0:0|0:0,0:0:0:0:
232,152,26879,2,0,B|288:112|296:32,1,134.99999731779,0|8,0:0|0:0,0:0:0:0:
384,40,27629,5,0,0:0:0:0:
424,120,27929,1,8,0:0:0:0:
352,176,28229,2,0,B|336:216,2,44.99999910593,0|0|8,0:0|0:0|0:0,0:0:0:0:
416,240,28829,1,0,0:0:0:0:
408,288,28979,1,0,0:0:0:0:
376,320,29129,1,8,0:0:0:0:
288,328,29429,2,0,B|240:336,2,44.99999910593,0|0|8,0:0|0:0|0:0,0:0:0:0:
240,248,30029,5,0,0:0:0:0:
240,248,30329,1,8,0:0:0:0:
160,280,30629,1,0,0:0:0:0:
160,280,30929,1,8,0:0:0:0:
104,216,31229,1,0,0:0:0:0:
104,216,31529,1,8,0:0:0:0:
80,128,31829,2,0,B|128:128|176:152,1,89.99999821186,0|8,0:0|0:0,0:0:0:0:
224,80,32429,5,0,0:0:0:0:
288,144,32729,1,8,0:0:0:0:
360,96,33029,1,0,0:0:0:0:
424,152,33329,1,8,0:0:0:0:
424,240,33629,2,0,B|384:280|336:296,1,89.99999821186,0|8,0:0|0:0,0:0:0:0:
264,312,34229,1,0,0:0:0:0:
264,312,34529,1,8,0:0:0:0:
232,232,34829,6,0,B|168:232|128:176|56:176,1,179.99999642372,0|0,0:0|0:0,0:0:0:0:
32,88,35729,1,8,0:0:0:0:
120,104,36029,2,0,B|184:104|224:160|296:160,1,179.99999642372,0|0,0:0|0:0,0:0:0:0:
376,168,36929,1,8,0:0:0:0:
368,80,37229,6,0,B|440:80|480:128|472:200|448:216,1,179.99999642372
376,168,38129,1,8,0:0:0:0:
288,144,38429,2,0,B|275:144|267:216|307:264|379:264,1,179.99999642372
440,328,39329,1,8,0:0:0:0:
352,344,39629,6,0,B|208:368,2,134.99999731779,4|0|8,0:0|0:0|0:0,0:0:0:0:
272,296,40829,2,0,B|136:264,2,134.99999731779,0|0|8,0:0|0:0|0:0,0:0:0:0:
216,224,42029,2,0,B|128:120,2,134.99999731779,0|0|8,0:0|0:0|0:0,0:0:0:0:
304,224,43229,2,0,B|392:120,2,134.99999731779,0|0|8,0:0|0:0|0:0,0:0:0:0:
288,312,44429,6,0,B|376:272,1,89.99999821186,0|8,0:0|0:0,0:0:0:0:
360,184,45029,2,0,B|448:144,1,89.99999821186,0|8,0:0|0:0,0:0:0:0:
376,88,45629,1,0,0:0:0:0:
376,88,45929,1,8,0:0:0:0:
296,48,46229,1,0,0:0:0:0:
296,48,46529,1,8,0:0:0:0:
208,48,46829,6,0,B|120:88,1,89.99999821186,0|8,0:0|0:0,0:0:0:0:
136,176,47429,2,0,B|48:216,1,89.99999821186,0|8,0:0|0:0,0:0:0:0:
120,272,48029,1,0,0:0:0:0:
120,272,48329,1,8,0:0:0:0:
200,312,48629,1,0,0:0:0:0:
200,312,48929,1,8,0:0:0:0:
272,264,49229,6,0,B|336:296|368:368,2,134.99999731779,0|0|8,0:0|0:0|0:0,0:0:0:0:
256,176,50429,2,0,B|280:120,1,44.99999910593
352,176,50879,2,0,B|384:136,1,44.99999910593
336,64,51329,1,0,0:0:0:0:
336,64,51629,6,0,B|264:48|184:48,2,134.99999731779
272,128,52829,2,0,B|232:168,1,44.99999910593
152,160,53279,2,0,B|120:208,1,44.99999910593
64,264,53729,1,8,0:0:0:0:
64,264,54029,6,0,B|128:312|240:304,1,179.99999642372
232,216,54929,1,8,0:0:0:0:
232,128,55229,2,0,B|339:120|403:168,1,179.99999642372
368,248,56129,1,8,0:0:0:0:
256,192,56429,12,4,58829,0:0:0:0:
208,136,61229,5,0,0:0:0:0:
464,192,62429,6,0,B|480:240|432:280,1,89.99999821186,0|0,0:0|0:0,0:0:0:0:
376,216,63029,2,0,B|335:246|351:306,1,89.99999821186,2|0,0:0|0:0,0:0:0:0:
424,344,63629,1,4,0:0:0:0:
224,160,64529,2,0,B|168:136,1,44.99999910593,0|0,0:0|0:0,0:0:0:0:
104,328,66029,5,0,0:0:0:0:
464,328,67229,5,0,0:0:0:0:
400,160,67829,1,2,0:0:0:0:
256,264,68429,1,0,0:0:0:0:
88,48,69329,2,0,B|128:80,1,44.99999910593,2|0,0:0|0:0,0:0:0:0:
424,352,70829,6,0,B|328:336|264:272,1,179.99999642372,0|2,0:0|0:0,0:0:0:0:
216,96,72029,2,0,B|312:112|376:176,1,179.99999642372,0|2,0:0|0:0,0:0:0:0:
192,192,73229,1,0,0:0:0:0:
432,72,74129,2,0,B|400:112,1,44.99999910593,0|0,0:0|0:0,0:0:0:0:
64,328,75629,5,0,0:0:0:0:
152,168,76229,1,2,0:0:0:0:
264,304,76829,2,0,B|344:344|456:336,1,179.99999642372,0|2,0:0|0:0,0:0:0:0:
392,160,78029,5,0,0:0:0:0:
48,40,79229,1,0,0:0:0:0:
232,344,80429,1,0,0:0:0:0:
456,64,81629,5,0,0:0:0:0:
440,152,81929,1,0,0:0:0:0:
352,160,82229,1,0,0:0:0:0:
360,248,82529,1,0,0:0:0:0:
272,272,82829,1,4,0:0:0:0:
40,128,83729,2,0,B|80:80,1,44.99999910593,0|0,0:0|0:0,0:0:0:0:
408,312,85229,5,0,0:0:0:0:
56,240,86429,5,0,0:0:0:0:
216,160,87029,1,2,0:0:0:0:
288,320,87629,1,0,0:0:0:0:
464,264,88229,5,0,0:0:0:0:
464,264,88829,2,0,B|456:184|416:128,2,134.99999731779
424,344,90029,1,0,0:0:0:0:
176,80,91229,2,0,B|128:176|240:248,1,179.99999642372
400,192,92429,5,0,0:0:0:0:
400,192,92729,1,0,0:0:0:0:
384,104,93029,2,0,B|352:72,1,44.99999910593
328,160,93479,2,0,B|284:148,1,44.99999910593
304,240,93929,2,0,B|260:251,1,44.99999910593
304,328,94379,1,0,0:0:0:0:
304,328,94529,1,0,0:0:0:0:
216,336,94829,6,0,B|160:336|128:296,1,89.99999821186
56,264,95429,2,0,B|24:232,1,44.99999910593
72,152,95879,2,0,B|104:200,1,44.9999986588955
184,184,96329,1,0,0:0:0:0:
232,176,96479,1,0,0:0:0:0:
272,160,96629,2,0,B|280:96,2,44.99999910593
344,216,97229,5,0,0:0:0:0:
344,216,97529,1,0,0:0:0:0:
424,328,97979,2,0,B|368:352,1,44.99999910593
296,320,98429,1,0,0:0:0:0:
248,328,98579,1,0,0:0:0:0:
200,320,98729,1,0,0:0:0:0:
72,272,99179,2,0,B|96:232,1,44.99999910593
136,216,99479,1,0,0:0:0:0:
168,184,99629,6,0,B|152:112,2,67.499998658895,4|0|0,0:0|0:0|0:0,0:0:0:0:
216,184,100229,2,0,B|272:136,2,67.499998658895,4|0|0,0:0|0:0|0:0,0:0:0:0:
384,264,102029,6,0,B|416:176,1,89.99999821186,4|8,0:0|0:0,0:0:0:0:
328,200,102629,2,0,B|344:107,1,89.99999821186,2|8,0:0|0:0,0:0:0:0:
256,144,103229,1,2,0:0:0:0:
256,144,103529,2,0,B|255:50,2,89.99999821186,8|2|8,0:0|0:0|0:0,0:0:0:0:
168,112,104429,6,0,B|183:200,1,89.99999821186,2|8,0:0|0:0,0:0:0:0:
96,176,105029,2,0,B|126:260,1,89.99999821186,2|8,0:0|0:0,0:0:0:0:
208,296,105629,1,2,0:0:0:0:
208,296,105929,1,8,0:0:0:0:
296,296,106229,1,2,0:0:0:0:
296,296,106529,1,8,0:0:0:0:
368,344,106829,6,0,B|424:248|384:184|456:72,1,269.99999463558,2|8,0:0|0:0,0:0:0:0:
272,48,108329,1,8,0:0:0:0:
232,224,108929,1,8,0:0:0:0:
184,152,109229,6,0,B|136:136|96:104,1,89.99999821186,2|8,0:0|0:0,0:0:0:0:
32,160,109829,2,0,B|32:200|72:240,1,89.99999821186,2|8,0:0|0:0,0:0:0:0:
160,232,110429,2,0,B|144:280|160:336,1,89.99999821186,2|8,0:0|0:0,0:0:0:0:
224,264,111029,2,0,B|248:216|312:224,1,89.99999821186,2|8,0:0|0:0,0:0:0:0:
288,312,111629,6,0,B|384:280|432:192,1,179.99999642372,2|0,0:0|0:0,0:0:0:0:
384,120,112529,2,2,B|352:160,1,44.99999910593,8|0,0:0|0:0,0:0:0:0:
376,24,113129,2,0,B|280:56|232:144,1,179.99999642372,8|8,0:0|0:0,0:0:0:0:
168,184,114029,5,2,0:0:0:0:
80,200,114329,2,0,B|104:304|216:320,1,179.99999642372,8|8,0:0|0:0,0:0:0:0:
240,240,115229,2,0,B|288:248|320:288,1,89.99999821186,2|8,0:0|0:0,0:0:0:0:
392,336,115829,2,2,B|432:320|456:272,1,89.99999821186,0|8,0:0|0:0,0:0:0:0:
456,184,116429,5,2,0:0:0:0:
448,96,116729,2,0,B|392:80,1,44.99999910593,8|0,0:0|0:0,0:0:0:0:
312,88,117179,2,0,B|264:112,1,44.99999910593,0|8,0:0|0:0,0:0:0:0:
184,104,117629,2,0,B|136:120|120:168,1,89.99999821186,2|8,0:0|0:0,0:0:0:0:
104,208,118079,2,0,B|72:248|112:304,1,89.99999821186
136,328,118529,2,0,B|176:352|240:336,1,89.99999821186,8|2,0:0|0:0,0:0:0:0:
256,256,119129,5,8,0:0:0:0:
328,312,119429,1,2,0:0:0:0:
392,248,119729,1,8,0:0:0:0:
424,168,120029,2,0,B|352:112,1,89.99999821186,2|8,0:0|0:0,0:0:0:0:
312,104,120479,2,0,B|224:128,1,89.99999821186
184,152,120929,2,0,B|128:224,1,89.99999821186,8|6,0:0|0:0,0:0:0:0:
104,312,121529,5,8,0:0:0:0:
104,312,121829,1,2,0:0:0:0:
184,344,122129,1,8,0:0:0:0:
184,344,122429,1,2,0:0:0:0:
256,296,122729,1,8,0:0:0:0:
256,296,123029,1,2,0:0:0:0:
336,344,123329,1,8,0:0:0:0:
336,344,123629,6,0,B|392:336|424:296,1,89.99999821186,2|8,0:0|0:0,0:0:0:0:
344,256,124229,2,0,B|384:208,2,44.99999910593,2|0|8,0:0|0:0|0:0,0:0:0:0:
304,176,124829,2,0,B|280:136|224:136,1,89.99999821186,2|8,0:0|0:0,0:0:0:0:
232,224,125429,2,0,B|248:272,2,44.99999910593,2|0|8,0:0|0:0|0:0,0:0:0:0:
152,184,126029,6,0,B|88:208|32:256,2,134.99999731779,2|0|8,0:0|0:0|0:0,0:0:0:0:
184,96,127229,1,2,0:0:0:0:
304,32,127679,1,0,0:0:0:0:
360,152,128129,1,8,0:0:0:0:
448,176,128429,6,0,B|424:248|344:272|264:232|272:136,1,269.999991953373,2|8,0:0|0:0,0:0:0:0:
224,72,129629,2,0,B|152:72|112:144|128:240|216:256,1,269.99999463558,2|8,0:0|0:0,0:0:0:0:
288,304,130829,5,2,0:0:0:0:
320,328,130979,1,0,0:0:0:0:
360,336,131129,1,8,0:0:0:0:
360,248,131429,2,0,B|392:208|440:192,1,89.99999821186,2|8,0:0|0:0,0:0:0:0:
424,104,132029,2,0,B|376:128,2,44.99999910593,2|0|8,0:0|0:0|0:0,0:0:0:0:
352,56,132629,1,2,0:0:0:0:
352,56,132929,1,8,0:0:0:0:
264,64,133229,6,0,B|176:112|192:208|96:280,1,269.99999463558,2|8,0:0|0:0,0:0:0:0:
160,344,134429,2,0,B|248:296|232:200|328:128,1,269.99999463558,2|8,0:0|0:0,0:0:0:0:
392,80,135629,5,4,0:0:0:0:
456,144,135929,1,8,0:0:0:0:
384,192,136229,2,0,B|384:240|424:280,1,89.99999821186,0|8,0:0|0:0,0:0:0:0:
384,352,136829,2,0,B|336:344|304:304,1,89.99999821186,4|8,0:0|0:0,0:0:0:0:
272,224,137429,2,0,B|232:248|176:240,1,89.99999821186,0|8,0:0|0:0,0:0:0:0:
104,208,138029,5,4,0:0:0:0:
40,144,138329,1,8,0:0:0:0:
72,56,138629,1,0,0:0:0:0:
160,24,138929,1,8,0:0:0:0:
256,192,139229,12,4,140429,0:0:0:0:
192,104,142829,5,0,0:0:0:0:
456,344,145229,2,0,B|392:352|336:344|280:304,1,179.99999642372
176,168,147629,2,0,B|240:160|296:168|352:208,1,179.99999642372
384,232,149129,5,0,0:0:0:0:
432,240,149429,1,2,0:0:0:0:
472,216,149729,1,0,0:0:0:0:
480,168,150029,1,0,0:0:0:0:
152,64,152429,5,0,0:0:0:0:
72,224,153692,1,0,0:0:0:0:
232,144,154955,1,4,0:0:0:0:
