osu file format v9

[General]
AudioFilename: ascension_to_heaven.mp3
AudioLeadIn: 0
PreviewTime: 100754
Countdown: 0
SampleSet: Soft
StackLeniency: 0.3
Mode: 0
LetterboxInBreaks: 0

[Editor]
DistanceSpacing: 1.4
BeatDivisor: 8
GridSize: 4

[Metadata]
Title:Ascension to Heaven
Artist:xi
Creator:Bobo
Version:The Stairway
Source:BMS
Tags:artcore bms of fighters 2009 copter-kun Ra-s Kirino Kousaka love firce777

[Difficulty]
HPDrainRate:6
CircleSize:4
OverallDifficulty:7
ApproachRate:9
SliderMultiplier:1.6
SliderTickRate:1

[Events]
//Background and Video events
0,0,"uwp5%20(16)-27705.jpg"
//Break Periods
//Storyboard Layer 0 (Background)
//Storyboard Layer 1 (Fail)
//Storyboard Layer 2 (Pass)
//Storyboard Layer 3 (Foreground)
//Storyboard Sound Samples
//Background Colour Transformations
3,100,163,162,255

[TimingPoints]
1229,300,4,2,0,20,1,0
9929,-100,4,2,0,20,0,1
10829,-66.6666666666667,4,2,0,100,0,0
10904,-66.6666666666667,4,2,1,60,0,0
12629,-50,4,2,1,60,0,0
12854,-66.6666666666667,4,2,1,60,0,0
16979,-50,4,2,1,60,0,0
17279,-66.6666666666667,4,2,1,60,0,0
20129,-66.6666666666667,4,2,1,100,0,0
20429,-66.6666666666667,4,2,2,60,0,0
23279,-50,4,2,2,60,0,0
23579,-66.6666666666667,4,2,2,60,0,0
28079,-50,4,2,2,60,0,0
28529,-66.6666666666667,4,2,2,60,0,0
41279,-50,4,2,2,60,0,0
41429,-66.6666666666667,4,2,2,60,0,0
50879,-50,4,2,2,60,0,0
51329,-66.6666666666667,4,2,2,60,0,0
52829,-66.6666666666667,4,2,2,60,0,0
62429,-66.6666666666667,4,2,0,60,0,0
63629,-200,4,2,0,60,0,0
70829,-166.666666666667,4,2,0,60,0,0
74129,-66.6666666666667,4,2,0,60,0,0
75629,-200,4,2,0,60,0,0
87779,-66.6666666666667,4,2,0,60,0,0
90029,-200,4,2,0,60,0,0
97229,-66.6666666666667,4,2,0,20,0,0
97304,-66.6666666666667,4,2,0,25,0,0
97379,-66.6666666666667,4,2,0,30,0,0
97454,-66.6666666666667,4,2,0,35,0,0
97979,-66.6666666666667,4,2,0,40,0,0
98129,-66.6666666666667,4,2,0,50,0,0
98279,-66.6666666666667,4,2,0,60,0,0
98429,-66.6666666666667,4,2,0,65,0,0
98504,-66.6666666666667,4,2,0,70,0,0
98654,-66.6666666666667,4,2,0,75,0,0
98729,-66.6666666666667,4,2,0,80,0,0
99029,-66.6666666666667,4,2,0,85,0,0
99329,-66.6666666666667,4,2,0,90,0,0
100829,-66.6666666666667,4,2,0,75,0,0
100979,-66.6666666666667,4,2,0,60,0,0
101129,-66.6666666666667,4,2,0,45,0,0
101279,-66.6666666666667,4,2,0,30,0,0
101429,-66.6666666666667,4,1,0,100,0,0
102029,-66.6666666666667,4,2,0,100,0,1
102104,-66.6666666666667,4,2,0,80,0,1
106829,-66.6666666666667,4,2,0,100,0,1
106904,-66.6666666666667,4,2,0,80,0,1
120029,-57.1428571428571,4,2,0,80,0,1
121191,-66.6666666666667,4,1,0,80,0,0
121229,-66.6666666666667,4,2,0,90,0,1
139229,-50,4,2,0,90,0,1
139529,-60.2409638554217,4,2,0,90,0,1
139829,-75.187969924812,4,2,0,90,0,1
140129,-100,4,2,0,90,0,1
140391,-66.6666666666667,4,2,0,80,0,0
140429,-200,4,2,0,80,0,1
140466,-66.6666666666667,4,2,0,80,0,0
148829,-200,4,2,0,80,0,0
152429,315.789473684211,4,2,0,50,1,0
152429,-200,4,2,0,50,0,0
154955,-200,4,1,0,50,0,0

[Colours]
Combo1 : 255,251,176
Combo2 : 74,192,202
Combo3 : 239,239,239

[HitObjects]
440,192,1229,1,0
440,192,3629,1,0
300,236,4829,1,2
168,292,6029,1,0
64,64,8429,5,0
64,64,9629,2,0,B|134:100|134:100|161:155|222:152,1,160,2|0
208,156,10004,1,0
224,160,10079,1,0
240,164,10154,1,0
256,168,10229,2,2,B|312:184,3,40
312,180,10529,2,2,B|360:176,3,40
368,172,10829,6,0,B|408:116|380:44,1,119.999996423721,4|0
168,224,11129,2,0,B|128:280|156:352,1,119.999996423721,2|0
164,356,11354,2,0,B|292:368,1,119.999996423721,2|0
456,280,11654,2,0,B|328:268,1,119.999996423721,0|2
316,280,11879,6,0,B|364:212|312:132,1,119.999996423721,2|0
120,40,12179,2,0,B|72:108|124:188,1,119.999996423721,2|0
188,104,12479,1,2
44,16,12629,2,0,B|0:96|44:204,1,160,2|0
44,192,12854,2,0,B|208:216,1,119.999996423721,2|0
184,220,13079,2,0,B|156:284|192:344,1,119.999996423721,2|0
264,280,13379,1,2
308,160,13529,6,0,B|432:136,1,119.999996423721,2|0
448,132,13754,2,0,B|420:212|460:268,1,119.999996423721,2|0
340,356,14054,2,0,B|368:288|336:228,1,119.999996423721,2|0
252,92,14429,6,0,B|284:152|366:158,2,119.999996423721,2|0|2
240,72,14804,1,2
224,56,14879,1,2
204,44,14954,1,2
180,36,15029,1,2
156,40,15104,1,2
136,52,15179,1,0
116,64,15254,1,2
104,84,15329,2,2,B|88:148,3,59.9999982118607
104,164,15629,6,0,B|128:224|128:224|116:280,1,119.999996423721,6|0
112,300,15854,2,0,B|232:328,1,119.999996423721,2|0
228,327,16079,1,2
348,172,16229,2,0,B|276:164|232:220,1,119.999996423721,2|0
324,280,16529,2,0,B|392:288|440:228,1,119.999996423721,2|0
348,172,16829,5,2
328,356,16979,2,0,B|436:356|496:272,1,160,2|0
244,92,17279,2,0,B|228:152|228:152|240:212,1,119.999996423721,2|0
236,232,17504,2,0,B|104:264,1,119.999996423721,2|0
119,260,17729,5,2
260,72,17879,2,0,B|396:44,1,119.999996423721,2|0
120,132,18179,2,0,B|52:116|36:52,1,119.999996423721,2|0
392,252,18479,2,0,B|460:268|476:332,1,119.999996423721,2|0
236,232,18779,1,0
236,232,18929,2,2,B|188:256,8,29.9999991059304
256,192,19304,12,4,20129
420,104,20429,6,0,B|380:156,3,59.9999982118607
368,172,20729,2,0,B|296:192,3,59.9999982118607,2|0|2|0
292,204,21029,2,0,B|264:264|292:320,1,119.999996423721,0|2
168,232,21329,2,0,B|180:172|180:172|172:108,1,119.999996423721,2|0
128,28,21629,6,0,B|72:80,3,59.9999982118607
72,88,21929,2,0,B|56:160,3,59.9999982118607,2|0|0|0
76,164,22229,2,0,B|36:288,1,119.999996423721
152,216,22529,2,0,B|132:352,1,119.999996423721,2|0
240,204,22829,2,0,B|272:144|252:80,1,119.999996423721
172,136,23129,1,2
320,232,23279,1,2
320,232,23354,2,0,B|360:152|332:64,1,160,2|0
320,60,23579,6,0,B|464:72,1,119.999996423721,0|2
348,328,23879,2,0,B|216:340,1,119.999996423721
8,148,24179,6,0,B|48:200|112:204,1,119.999996423721,0|2
120,224,24404,2,0,B|132:292|132:292|116:344,1,119.999996423721,2|0
184,156,24704,1,0
184,156,24779,2,0,B|144:100|172:32,1,119.999996423721,0|2
252,92,25079,1,0
252,92,25154,1,0
252,92,25229,6,0,B|316:112|364:56,1,119.999996423721
376,44,25454,1,0
384,20,25529,6,0,B|352:88|396:164,1,119.999996423721,0|2
396,156,25754,2,0,B|360:288,1,119.999996423721,2|2
380,292,25979,2,0,B|308:276|244:328,1,119.999996423721,2|2
68,256,26279,6,0,B|136:280|196:228,1,119.999996423721,2|0
200,220,26504,1,0
216,200,26579,1,0
228,180,26654,1,0
232,156,26729,1,0
236,132,26804,1,0
232,108,26879,2,0,B|192:48,6,59.9999982118607,2|0|2|0|2|0|2
256,116,27404,1,0
280,116,27479,1,0
304,112,27554,1,0
328,104,27629,6,0,B|368:156|436:152,1,119.999996423721,2|0
416,56,27929,1,2
308,228,28079,1,2
308,228,28154,2,0,B|380:272|472:244,1,160,2|0
152,272,28529,2,0,B|96:304|96:304|49:374,1,119.999996423721,2|0
232,344,28829,5,2
240,320,28904,1,2
244,296,28979,1,2
244,272,29054,1,0
240,248,29129,1,0
232,228,29204,1,0
220,208,29279,1,0
204,192,29354,1,0
184,180,29429,1,0
160,172,29504,1,0
136,168,29579,1,0
112,168,29654,1,0
92,156,29729,2,2,B|48:100,3,59.9999982118607
52,84,30029,6,0,B|124:104|172:48,1,119.999996423721,2|0
256,80,30329,1,2
352,68,30479,1,2
352,68,30554,2,0,B|340:132|340:132|372:200,1,119.999996423721,2|0
363,181,30779,1,2
416,360,30929,2,0,B|460:308|416:232,1,119.999996423721,2|0
224,276,31229,6,0,B|279:325|338:296,1,119.999996423721,2|0
217,179,31529,2,0,B|247:111|213:59,1,119.999996423721,2|2
196,48,31754,2,0,B|56:72,1,119.999996423721,2|0
68,92,31979,1,2
135,228,32129,2,0,B|61:231|30:285,1,119.999996423721,2|0
136,352,32429,5,2
324,320,32729,2,0,B|388:292,3,59.9999982118607,2|0|2|0
388,288,33029,2,0,B|440:216,3,59.9999982118607,2|0|2|0
436,220,33329,1,0
444,196,33404,1,0
448,172,33479,1,0
448,148,33554,1,0
444,124,33629,1,2
328,152,33929,5,0
322,127,34004,1,0
314,104,34079,1,0
303,84,34154,1,0
287,63,34229,1,2
188,132,34529,5,0
174,110,34604,1,0
159,91,34679,1,0
141,76,34754,1,0
120,64,34829,2,0,B|100:132|32:148,1,119.999996423721,2|0
24,52,35129,1,2
116,208,35279,1,2
116,208,35354,1,0
116,208,35429,2,0,B|180:248|248:204,1,119.999996423721,2|0
396,232,35729,2,0,B|322:234|285:312,1,119.999996423721,2|2
284,312,35954,2,0,B|156:332,1,119.999996423721,2|0
304,144,36254,2,0,B|432:124,1,119.999996423721,0|2
448,120,36479,6,0,B|412:64|444:4,1,119.999996423721,2|0
480,220,36779,2,0,B|504:288|464:344,1,119.999996423721,0|2
400,188,37079,1,0
400,188,37154,2,0,B|344:228|264:208,1,119.999996423721,2|0
232,160,37454,5,2
232,160,37529,2,0,B|276:228|216:316,1,119.999996423721,2|0
228,296,37754,2,0,B|104:316,1,119.999996423721,2|0
20,248,38054,2,0,B|144:228,1,119.999996423721,0|2
152,208,38279,2,0,B|128:140|172:80,1,119.999996423721,2|0
240,36,38579,1,2
248,128,38729,5,2
256,136,38804,1,0
264,144,38879,1,0
272,152,38954,1,2
280,160,39029,1,0
288,168,39104,1,0
296,176,39179,1,0
304,184,39254,1,0
312,192,39329,1,2
320,200,39404,1,0
328,208,39479,1,0
336,216,39554,1,0
344,224,39629,2,0,B|392:268|460:252,1,119.999996423721,2|0
424,136,39929,5,2
292,300,40079,1,2
292,300,40154,2,0,B|204:256|116:328,1,179.999994635582,2|0
116,344,40454,2,0,B|140:276|96:220,1,119.999996423721
102,229,40679,1,0
232,44,40829,2,0,B|208:112|252:168,1,119.999996423721
316,92,41129,5,2
156,36,41279,2,0,B|136:120|180:196,1,160,2|0
148,284,41579,2,2,B|264:268|264:268|384:328,2,239.999992847443
252,376,42329,5,2
248,352,42404,1,0
248,328,42479,1,0
248,304,42554,1,2
252,280,42629,1,0
256,256,42704,1,0
264,232,42779,1,0
272,208,42854,1,0
284,188,42929,1,2
300,168,43004,1,0
316,148,43079,1,0
336,132,43154,1,0
360,124,43229,6,0,B|420:92|492:136|504:208|432:264,1,239.999992847443,2|2
416,264,43604,1,0
392,272,43679,1,0
368,276,43754,1,2
344,280,43829,1,0
321,277,43904,1,0
296,272,43979,1,0
272,264,44054,1,0
252,252,44129,1,2
232,240,44204,1,0
216,224,44279,1,0
200,204,44354,1,0
188,184,44429,6,0,B|144:116|188:36,1,119.999996423721,2|0
56,216,44729,2,0,B|88:284|44:348,1,119.999996423721,2|2
44,352,44954,2,0,B|180:332,1,119.999996423721,2|0
452,96,45329,5,0
452,96,45479,2,0,B|388:112,2,59.9999982118607
368,288,45779,1,0
368,288,45929,2,0,B|288:264,2,59.9999982118607
140,340,46229,1,0
140,340,46379,2,0,B|88:300,5,59.9999982118607
72,292,46829,6,2,B|181:251|181:251|242:141,2,239.999992847443
56,272,47504,2,0,B|48:209|89:155,1,119.999996423721,2|0
104,140,47729,2,0,B|161:103|218:127,1,119.999996423721,2|0
148,204,48029,5,2
164,220,48104,1,2
180,236,48179,1,2
200,252,48254,1,2
220,268,48329,2,0,B|292:288,3,59.9999982118607,2|0|0|2
300,280,48629,2,0,B|368:268,3,59.9999982118607,0|0|2|0
380,256,48929,1,0
396,240,49004,1,0
408,220,49079,1,2
416,196,49154,1,0
420,172,49229,6,0,B|412:104|456:56,1,119.999996423721,2|0
472,48,49454,2,0,B|416:96|332:64,1,119.999996423721,0|2
344,56,49679,2,0,B|220:68,1,119.999996423721,2|0
40,148,49979,2,0,B|164:160,1,119.999996423721,0|2
340,260,50279,1,0
236,240,50429,6,0,B|184:288|100:260,1,119.999996423721,2|0
160,160,50729,1,2
272,304,50879,2,2,B|204:360|104:336,2,160
312,200,51329,2,0,B|324:280|416:304,1,119.999996423721,2|0
436,160,51629,2,2,B|312:168|312:168|204:92,2,239.999992847443
448,140,52304,6,0,B|404:212|468:280,1,119.999996423721,2|0
432,272,52529,2,0,B|284:280,1,119.999996423721,2|2
92,152,52829,6,0,B|128:92|128:92|120:-8,2,119.999996423721,2|0|2
264,92,53279,2,2,B|200:200|200:200|228:320,1,239.999992847443,2|0
224,312,53729,2,0,B|96:336,1,119.999996423721,2|0
284,220,54029,6,0,B|416:208,1,119.999996423721,2|2
420,192,54254,2,0,B|444:136|404:72,1,119.999996423721,2|2
392,60,54479,2,0,B|256:72,1,119.999996423721,2|0
104,136,54779,1,0
172,64,54929,6,0,B|200:120|200:120|184:216,1,119.999996423721,2|0
104,344,55229,2,0,B|76:288|76:288|92:192,1,119.999996423721,0|0
184,284,55529,5,2
208,292,55604,1,0
232,292,55679,1,0
256,284,55754,1,0
276,272,55829,1,2
300,268,55904,1,2
324,268,55979,1,2
348,268,56054,1,0
368,272,56129,2,2,B|440:260,3,59.9999982118607
444,244,56429,2,0,B|472:192|448:128,1,119.999996423721,2|0
272,52,56729,2,0,B|228:112|280:180,1,119.999996423721,2|0
268,164,57029,2,0,B|104:164,1,119.999996423721,2|0
72,280,57329,2,0,B|196:280,1,119.999996423721,2|0
284,308,57629,6,2,B|356:324,3,59.9999982118607
368,316,57929,2,2,B|440:300,3,59.9999982118607
448,292,58229,2,2,B|480:232,3,59.9999982118607
480,216,58529,2,0,B|472:140,3,59.9999982118607
468,132,58829,1,4
256,192,58904,12,0,61229
188,84,62429,5,0
212,124,62729,1,0
236,164,63029,1,2
260,204,63329,1,2
368,228,63629,5,2
368,228,63779,1,2
368,228,63929,1,0
368,228,64079,2,0,B|332:292|376:348,1,119.999996423721,2|0
260,204,64679,2,0,B|332:112|260:16,1,200,2|0
480,36,66029,5,2
36,352,67229,1,0
36,352,67829,1,0
256,128,68429,5,2
336,192,68579,1,0
256,256,68729,1,0
176,192,68879,1,0
388,104,69329,5,0
388,104,69479,2,0,B|436:192|436:192|388:288,1,200
112,280,70829,2,0,B|75:190|75:190|119:102,2,192.000004577637
256,40,72629,1,0
256,344,73229,5,2
216,232,73379,1,0
292,156,73529,1,0
256,40,73679,1,0
312,248,74129,6,0,B|448:264,1,119.999996423721,0|0
204,96,75629,6,0,B|36:72,1,160
204,288,76829,2,0,B|36:312,1,160
408,192,78029,6,0,B|304:208|304:208|212:184|212:184|88:208,2,320
40,192,81629,5,2
124,280,81929,1,0
200,128,82229,1,0
256,336,82529,1,2
344,76,82829,1,2
344,76,82979,1,0
344,76,83129,1,0
344,76,83279,6,0,B|296:140|356:232,1,119.999996423721
400,336,83879,2,0,B|460:240|404:144,1,200
88,44,85229,6,0,B|60:200|60:200|144:348,2,320
180,16,88229,5,0
336,68,88829,1,0
468,192,89279,1,0
340,316,89729,1,0
304,192,90029,6,0,B|188:168|188:168|108:76,1,240
232,328,91229,2,0,B|152:236|152:236|36:212,1,240
92,328,92429,6,0,B|260:88,1,280
252,100,93629,1,0
404,52,93929,1,0
404,52,94079,1,0
368,208,94379,1,0
368,208,94529,1,0
256,192,94829,12,0,96929
152,88,97229,6,0,B|68:104,4,59.9999982118607,0|0|0|0|8
336,188,97979,1,0
336,188,98129,1,0
336,188,98279,1,0
336,188,98429,2,0,B|428:216,4,59.9999982118607,0|0|0|0|8
200,324,99029,1,0
200,324,99179,1,0
200,324,99329,1,0
200,324,99479,1,0
200,324,99629,6,0,B|116:344,3,59.9999982118607,4|0|0|4
88,244,99929,2,0,B|24:252,3,59.9999982118607,0|0|4|0
28,132,100229,2,0,B|88:140,3,59.9999982118607,4|0|0|4
136,52,100529,2,0,B|195:41,3,59.9999982118607,0|0|4|0
256,36,100829,5,6
424,60,100979,1,2
468,216,101129,1,2
347,344,101279,1,2
183,316,101429,1,0
160,148,101579,1,0
336,76,101729,1,0
468,216,101879,1,0
347,344,102029,5,12
328,356,102104,1,0
304,364,102179,1,0
280,368,102254,1,0
256,368,102329,1,12
232,364,102404,1,0
212,356,102479,1,0
192,344,102554,1,0
176,324,102629,1,0
168,300,102704,1,0
164,276,102779,1,0
168,252,102854,1,0
176,228,102929,1,12
188,208,103004,1,0
200,188,103079,1,0
184,168,103154,1,0
176,144,103229,5,0
172,120,103304,1,0
176,96,103379,1,0
184,72,103454,1,0
196,52,103529,1,12
212,36,103604,1,0
232,24,103679,1,0
256,16,103754,1,0
280,16,103829,1,0
304,20,103904,1,0
328,32,103979,1,0
348,48,104054,1,0
360,68,104129,1,12
368,92,104204,1,0
368,116,104279,1,12
360,140,104354,1,0
352,164,104429,6,0,B|340:208|264:212,3,59.9999982118607,12|0|0|0
276,212,104729,1,12
240,212,104804,1,0
204,200,104879,1,0
176,176,104954,1,0
160,144,105029,2,0,B|132:80,3,59.9999982118607
108,68,105329,1,12
72,64,105404,1,0
40,80,105479,1,0
20,108,105554,1,0
16,144,105629,2,0,B|20:184|48:196,3,59.9999982118607
72,216,105929,1,12
100,240,106004,1,0
116,272,106079,1,0
124,308,106154,1,0
112,340,106229,2,0,B|100:368|52:364,3,59.9999982118607,0|0|0|0
24,356,106529,1,12
4,328,106604,1,0
4,292,106679,1,12
16,260,106754,1,0
144,188,106829,5,12
164,200,106904,1,0
180,216,106979,1,0
192,236,107054,1,0
200,256,107129,1,12
204,280,107204,1,0
200,304,107279,1,0
200,328,107354,1,0
196,352,107429,1,0
216,340,107504,1,0
232,324,107579,1,0
252,312,107654,1,0
276,304,107729,1,12
300,304,107804,1,0
324,308,107879,1,0
348,312,107954,1,0
372,316,108029,1,0
356,300,108104,1,0
340,280,108179,1,0
328,260,108254,1,0
320,236,108329,1,12
320,212,108404,1,0
324,188,108479,1,0
332,164,108554,1,0
344,144,108629,1,0
364,132,108704,1,0
388,124,108779,1,0
412,120,108854,1,0
436,124,108929,1,12
456,136,109004,1,0
472,152,109079,1,12
484,172,109154,1,0
488,196,109229,6,0,B|484:236|452:252,3,59.9999982118607,12|0|0|0
428,264,109529,1,12
392,272,109604,1,0
360,260,109679,1,0
332,232,109754,1,0
328,196,109829,2,0,B|324:160|360:128,3,59.9999982118607
368,112,110129,1,12
384,80,110204,1,0
380,44,110279,1,0
356,16,110354,1,0
324,0,110429,2,0,B|288:-8|252:48,3,59.9999982118607
244,48,110729,1,12
216,72,110804,1,0
180,76,110879,1,0
148,60,110954,1,0
116,40,111029,2,0,B|84:24|28:60,3,59.9999982118607
36,72,111329,1,12
16,104,111404,1,0
16,140,111479,1,12
36,172,111554,1,0
36,248,111629,5,12
24,268,111704,1,0
20,292,111779,1,0
24,316,111854,1,0
36,336,111929,1,12
60,344,112004,1,0
84,348,112079,1,0
108,344,112154,1,0
128,332,112229,6,0,B|156:300|136:264,3,59.9999982118607,0|0|0|0
128,244,112529,1,12
112,212,112604,1,0
112,176,112679,1,0
124,140,112754,1,0
148,116,112829,2,0,B|176:100|216:112,3,59.9999982118607
240,124,113129,1,12
256,156,113204,1,0
256,192,113279,1,0
240,224,113354,1,0
224,256,113429,2,0,B|208:288|228:324,3,59.9999982118607
244,344,113729,1,12
276,360,113804,1,0
312,364,113879,1,12
344,348,113954,1,0
368,320,114029,2,0,B|380:288|368:244,3,59.9999982118607,12|0|0|0
348,232,114329,1,12
328,204,114404,1,0
316,168,114479,1,0
320,132,114554,1,0
332,100,114629,5,0
360,80,114704,1,0
396,72,114779,1,0
432,80,114854,1,0
460,104,114929,1,12
472,136,115004,1,0
468,172,115079,1,0
448,204,115154,1,0
416,220,115229,2,0,B|380:236|348:220,3,59.9999982118607
328,208,115529,1,12
308,176,115604,1,0
304,140,115679,1,0
316,104,115754,1,0
328,72,115829,2,0,B|306:38|268:29,3,59.9999982118607
248,36,116129,1,12
216,48,116204,1,0
192,76,116279,1,12
184,112,116354,1,0
96,44,116429,5,12
76,56,116504,1,0
60,76,116579,1,0
52,100,116654,1,0
52,124,116729,1,12
60,148,116804,1,0
76,164,116879,1,0
96,176,116954,1,0
96,200,117029,1,0
76,212,117104,1,0
60,232,117179,1,0
52,256,117254,1,0
52,280,117329,1,12
60,304,117404,1,0
76,320,117479,1,0
96,332,117554,1,0
120,336,117629,1,0
144,336,117704,1,0
164,324,117779,1,0
180,308,117854,1,0
192,288,117929,1,12
196,264,118004,1,0
192,240,118079,1,0
180,220,118154,1,0
164,204,118229,6,0,B|136:180|96:192,3,59.9999982118607
404,189,118529,2,0,B|376:180|348:204,3,59.9999982118607,12|0|12|0
328,232,118829,1,12
316,264,118904,1,0
316,300,118979,1,0
332,332,119054,1,0
360,352,119129,2,0,B|396:364|424:348,3,59.9999982118607,12|0|0|0
452,332,119429,1,0
472,304,119504,1,0
476,268,119579,1,0
464,232,119654,1,0
440,204,119729,2,0,B|416:176|432:136,3,59.9999982118607,12|0|0|0
352,84,120029,6,0,B|376:20,3,69.9999968707563
308,176,120329,2,0,B|332:244,3,69.9999968707563,12|0|0|0
160,84,120629,6,0,B|136:20,3,69.9999968707563,12|0|0|0
204,176,120929,2,12,B|180:232,5,46.6666645805042,12|12|12|12|12|12
172,240,121229,5,0
144,260,121304,1,0
108,268,121379,1,0
72,260,121454,1,0
44,236,121529,1,12
28,204,121604,1,0
28,168,121679,1,0
40,136,121754,1,0
64,112,121829,2,0,B|96:92|136:104,3,59.9999982118607
156,104,122129,1,12
180,128,122204,1,0
212,144,122279,1,0
248,136,122354,1,0
276,116,122429,2,0,B|313:108|333:78,3,59.9999982118607
356,64,122729,1,12
388,52,122804,1,0
424,64,122879,1,0
448,88,122954,1,0
456,124,123029,2,0,B|465:154|443:179,3,59.9999982118607
420,208,123329,2,0,B|396:236|408:284,3,59.9999982118607,12|0|12|0
464,336,123629,5,12
433,354,123704,1,0
397,357,123779,1,0
362,345,123854,1,0
337,318,123929,1,12
325,283,124004,1,0
312,252,124079,1,0
288,224,124154,1,0
256,212,124229,1,0
220,220,124304,1,0
196,244,124379,1,0
184,280,124454,1,0
175,318,124529,1,12
150,345,124604,1,0
115,357,124679,1,0
79,354,124754,1,0
48,336,124829,6,0,B|16:312|28:264,3,59.9999982118607
28,248,125129,1,12
48,220,125204,1,0
76,200,125279,1,0
112,192,125354,1,0
136,164,125429,2,0,B|152:136|144:96,3,59.9999982118607
128,72,125729,1,12
96,60,125804,1,0
64,76,125879,1,12
56,112,125954,1,0
208,44,126029,6,0,B|240:52|264:100,3,59.9999982118607,12|0|0|0
264,116,126329,1,12
268,152,126404,1,0
256,184,126479,1,0
236,212,126554,1,0
208,236,126629,2,0,B|184:272|196:308,3,59.9999982118607
204,328,126929,1,12
232,352,127004,1,0
268,356,127079,1,0
304,344,127154,1,0
332,320,127229,6,0,B|368:288|352:248,5,59.9999982118607,0|0|0|0|12|0
456,220,127679,2,0,B|420:188|436:148,5,59.9999982118607
391,32,128129,2,0,B|368:88,3,59.9999982118607,12|0|12|0
344,124,128429,5,12
304,140,128504,1,0
264,128,128579,1,0
232,100,128654,1,0
216,60,128729,1,12
180,36,128804,1,0
140,32,128879,1,0
100,44,128954,1,0
72,76,129029,1,0
64,116,129104,1,0
76,156,129179,1,0
108,184,129254,1,0
148,192,129329,1,12
188,204,129404,1,0
220,232,129479,1,0
232,272,129554,1,0
224,312,129629,1,0
196,344,129704,1,0
156,356,129779,1,0
116,352,129854,1,0
80,332,129929,1,12
60,296,130004,1,0
60,256,130079,1,0
80,220,130154,1,0
112,192,130229,1,0
152,192,130304,1,0
192,204,130379,1,0
224,232,130454,1,0
232,272,130529,6,0,B|242:304|277:312,3,59.9999982118607,12|0|12|0
312,312,130829,1,12
348,304,130904,1,0
376,280,130979,1,0
404,256,131054,1,0
416,224,131129,1,12
416,184,131204,1,0
404,152,131279,1,0
380,124,131354,1,0
352,104,131429,2,0,B|328:92|276:104,3,59.9999982118607
256,108,131729,1,12
220,120,131804,1,0
196,148,131879,1,0
184,184,131954,1,0
188,220,132029,2,0,B|172:264|136:264,3,59.9999982118607
112,268,132329,1,12
76,264,132404,1,0
48,240,132479,1,0
36,204,132554,1,0
36,168,132629,2,0,B|36:128|92:108,3,59.9999982118607
100,104,132929,2,0,B|128:104|152:64,3,59.9999982118607,12|0|12|0
172,36,133229,5,12
208,16,133304,1,0
248,16,133379,1,0
288,28,133454,1,0
324,52,133529,1,12
344,88,133604,1,0
344,128,133679,1,0
324,164,133754,1,0
292,192,133829,1,0
272,228,133904,1,0
268,268,133979,1,0
284,308,134054,1,0
312,340,134129,1,12
352,356,134204,1,0
392,356,134279,1,0
432,348,134354,1,0
464,320,134429,6,0,B|488:288|480:256,3,59.9999982118607
480,220,134729,2,0,B|480:184|436:152,3,59.9999982118607,12|0|0|0
420,144,135029,2,0,B|384:128|344:152,3,59.9999982118607,12|0|0|0
324,160,135329,2,0,B|292:176|284:216,3,59.9999982118607,12|0|12|12
220,296,135629,5,12
199,331,135704,1,0
167,357,135779,1,0
126,363,135854,1,0
89,348,135929,1,12
57,319,136004,1,0
43,279,136079,1,0
53,240,136154,1,0
75,207,136229,1,0
115,191,136304,1,0
155,179,136379,1,0
191,159,136454,1,0
215,123,136529,1,12
223,83,136604,1,0
207,43,136679,1,12
171,19,136754,1,0
128,12,136829,5,12
88,28,136904,1,0
56,56,136979,1,0
48,96,137054,1,0
64,136,137129,1,12
96,164,137204,1,0
132,184,137279,1,0
172,192,137354,1,0
212,192,137429,1,0
252,180,137504,1,0
300,192,137579,1,0
340,192,137654,1,0
380,184,137729,1,12
416,164,137804,1,0
448,136,137879,1,12
464,96,137954,1,12
456,56,138029,5,12
424,28,138104,1,0
384,12,138179,1,0
341,19,138254,1,0
305,43,138329,1,12
289,83,138404,1,0
297,123,138479,1,0
321,159,138554,1,0
356,184,138629,1,0
380,216,138704,1,0
384,256,138779,1,12
372,296,138854,1,0
340,324,138929,2,0,B|307:346|273:336,3,59.9999982118607,12|0|12|0
176,304,139229,6,0,B|160:268,7,40,12|0|0|0|0|0|0|0
156,220,139529,2,0,B|168:168,7,33.199998773098,12|0|0|0|0|0|0|0
164,148,139829,2,0,B|152:104,7,26.6000002536774,12|0|0|0|0|0|0|0
160,96,140129,2,0,B|168:68,8,20,0|0|0|0|0|0|0|0|12
256,352,142829,5,0
476,128,145229,5,0
256,32,146429,1,0
36,128,147629,1,0
304,352,148829,5,0
352,256,149129,1,0
256,192,149429,1,0
160,256,149729,1,0
208,352,150029,1,0
256,56,152429,5,0
256,88,153692,1,0
256,120,154955,1,4
