osu file format v14

[General]
AudioFilename: Aragami.mp3
AudioLeadIn: 0
PreviewTime: 83193
Countdown: 0
SampleSet: Soft
StackLeniency: 0.7
Mode: 3
LetterboxInBreaks: 0
SpecialStyle: 0
WidescreenStoryboard: 1

[Editor]
Bookmarks: 26560
DistanceSpacing: 1.3
BeatDivisor: 6
GridSize: 8
TimelineZoom: 2.699999

[Metadata]
Title:Aragami
TitleUnicode:Aragami
Artist:xi
ArtistUnicode:xi
Creator:snover
Version:Another
Source:BMS
Tags:g2r2014
BeatmapID:756829
BeatmapSetID:342316

[Difficulty]
HPDrainRate:8.6
CircleSize:4
OverallDifficulty:8.6
ApproachRate:5
SliderMultiplier:1.4
SliderTickRate:1

[Events]
//Background and Video events
0,0,"qqq.jpg",0,0
//Break Periods
//Storyboard Layer 0 (Background)
//Storyboard Layer 1 (Fail)
//Storyboard Layer 2 (Pass)
//Storyboard Layer 3 (Foreground)
//Storyboard Sound Samples

[TimingPoints]
1832,612.244897959184,4,2,0,20,1,0
1832,-66.6666666666667,4,2,0,20,0,0
11627,681.818181818182,4,2,0,20,1,0
11627,-59.8802395209581,4,2,0,20,0,0
12308,769.230769230769,4,2,0,20,1,0
12308,-53.1914893617021,4,2,0,20,0,0
13077,882.352941176471,4,2,0,20,1,0
13077,-46.2962962962963,4,2,0,20,0,0
13959,1034.48275862069,4,2,0,20,1,0
13959,-39.5256916996047,4,2,0,20,0,0
14993,1132.07547169811,4,2,0,20,1,0
14993,-36.101083032491,4,2,0,20,0,0
16125,1250,4,2,0,20,1,0
16125,-25,4,2,0,20,0,0
17383,306.122448979592,3,2,0,20,1,0
17383,-100,3,1,1,35,0,1
24729,-125,3,1,1,35,0,0
39423,-100,3,1,1,35,0,1
41260,-111.111111111111,3,1,1,35,0,0
46770,-107.52688172043,3,1,1,35,0,0
47689,-104.166666666667,3,1,1,35,0,0
48607,-100,3,1,1,35,0,0
55954,-111.111111111111,3,1,1,35,0,0
59321,-108.695652173913,3,1,1,35,0,0
59474,-104.166666666667,3,1,1,35,0,0
59627,-100,3,1,1,35,0,0
63301,-111.111111111111,3,1,1,35,0,0
63760,-117.647058823529,3,1,1,35,0,0
64219,-125,3,1,1,35,0,0
64678,-133.333333333333,3,1,1,35,0,0
65138,-142.857142857143,3,1,1,35,0,0
65597,-149.253731343284,3,1,1,35,0,0
66056,-156.25,3,1,1,35,0,0
66515,-111.111111111111,3,1,1,35,0,0
67893,-100,3,1,1,35,0,0
84423,-100,3,1,1,35,0,1
91751,-100,3,1,1,35,0,0
91770,-100,3,1,1,35,0,1
99117,-100,3,1,1,35,0,0
106464,-100,3,1,1,35,0,1
113811,-100,3,2,0,20,0,0
115648,315.789473684211,3,2,0,20,1,0
116595,326.086956521739,3,2,0,20,1,0
117084,337.078651685393,3,2,0,20,1,0
117252,348.837209302326,3,2,0,20,1,0
117426,361.44578313253,3,2,0,20,1,0
117606,337.078651685393,3,2,0,20,1,0

[HitObjects]
64,192,3362,5,2,0:0:0:0:
192,192,3668,1,2,0:0:0:0:
320,192,3974,1,2,0:0:0:0:
64,192,4229,1,2,0:0:0:0:
192,192,4280,1,2,0:0:0:0:
448,192,4332,1,2,0:0:0:0:
320,192,4587,1,2,0:0:0:0:
192,192,4893,1,2,0:0:0:0:
64,192,5199,1,2,0:0:0:0:
192,192,5505,1,2,0:0:0:0:
320,192,6678,1,2,0:0:0:0:
448,192,6729,1,2,0:0:0:0:
320,192,7036,1,2,0:0:0:0:
192,192,7342,1,2,0:0:0:0:
64,192,7648,1,2,0:0:0:0:
320,192,7954,1,2,0:0:0:0:
64,192,9178,1,2,0:0:0:0:
192,192,9791,1,2,0:0:0:0:
320,192,10403,1,2,0:0:0:0:
448,192,11015,1,2,0:0:0:0:
64,192,11627,1,2,0:0:0:0:
192,192,12308,1,2,0:0:0:0:
320,192,13077,1,2,0:0:0:0:
448,192,13959,1,2,0:0:0:0:
448,192,17375,1,0,0:0:0:0:
64,192,17375,1,0,0:0:0:0:
192,192,17459,1,0,0:0:0:0:
320,192,17536,1,0,0:0:0:0:
448,192,17612,1,0,0:0:0:0:
64,192,17689,1,2,0:0:0:0:
192,192,17689,1,0,0:0:0:0:
320,192,17765,1,0,0:0:0:0:
448,192,17842,1,8,0:0:0:0:
64,192,17842,1,0,0:0:0:0:
192,192,17918,1,0,0:0:0:0:
320,192,17995,1,0,0:0:0:0:
448,192,18071,1,0,0:0:0:0:
192,192,18148,1,2,0:0:0:0:
64,192,18148,1,0,0:0:0:0:
320,192,18224,1,0,0:0:0:0:
448,192,18301,1,2,0:0:0:0:
64,192,18301,1,0,0:0:0:0:
192,192,18377,1,0,0:0:0:0:
320,192,18454,1,0,0:0:0:0:
448,192,18530,1,0,0:0:0:0:
192,192,18607,1,2,0:0:0:0:
64,192,18607,1,0,0:0:0:0:
320,192,18684,1,0,0:0:0:0:
192,192,18760,1,8,0:0:0:0:
448,192,18760,1,0,0:0:0:0:
64,192,18837,1,0,0:0:0:0:
320,192,18913,1,0,0:0:0:0:
448,192,18990,1,0,0:0:0:0:
192,192,19066,1,2,0:0:0:0:
64,192,19066,1,0,0:0:0:0:
320,192,19143,1,0,0:0:0:0:
448,192,19219,1,2,0:0:0:0:
64,192,19219,1,0,0:0:0:0:
192,192,19296,1,0,0:0:0:0:
320,192,19372,1,0,0:0:0:0:
448,192,19449,1,0,0:0:0:0:
192,192,19525,1,2,0:0:0:0:
64,192,19525,1,0,0:0:0:0:
448,192,19602,1,0,0:0:0:0:
320,192,19678,1,8,0:0:0:0:
192,192,19678,1,0,0:0:0:0:
64,192,19755,1,0,0:0:0:0:
320,192,19831,1,0,0:0:0:0:
448,192,19908,1,0,0:0:0:0:
192,192,19985,1,0,0:0:0:0:
64,192,19985,1,0,0:0:0:0:
320,192,20061,1,0,0:0:0:0:
64,192,20138,1,2,0:0:0:0:
448,192,20138,1,0,0:0:0:0:
320,192,20189,1,0,0:0:0:0:
192,192,20240,1,0,0:0:0:0:
64,192,20291,1,0,0:0:0:0:
448,192,20342,1,0,0:0:0:0:
320,192,20393,1,0,0:0:0:0:
192,192,20444,1,2,0:0:0:0:
64,192,20444,1,0,0:0:0:0:
448,192,20520,1,0,0:0:0:0:
320,192,20597,1,0,0:0:0:0:
64,192,20673,1,0,0:0:0:0:
192,192,20750,1,2,0:0:0:0:
320,192,20750,1,0,0:0:0:0:
448,192,20826,1,0,0:0:0:0:
64,192,20903,1,0,0:0:0:0:
320,192,20979,1,0,0:0:0:0:
192,192,21056,1,4,0:0:0:0:
448,192,21056,1,0,0:0:0:0:
64,192,21133,1,0,0:0:0:0:
320,192,21209,1,0,0:0:0:0:
448,192,21286,1,0,0:0:0:0:
192,192,21362,1,2,0:0:0:0:
64,192,21362,1,0,0:0:0:0:
320,192,21439,1,0,0:0:0:0:
64,192,21515,1,8,0:0:0:0:
448,192,21515,1,0,0:0:0:0:
192,192,21592,1,0,0:0:0:0:
320,192,21668,1,0,0:0:0:0:
448,192,21745,1,0,0:0:0:0:
320,192,21821,1,2,0:0:0:0:
192,192,21821,1,0,0:0:0:0:
64,192,21898,1,0,0:0:0:0:
448,192,21974,1,2,0:0:0:0:
320,192,21974,1,0,0:0:0:0:
192,192,22051,1,0,0:0:0:0:
64,192,22127,1,0,0:0:0:0:
448,192,22204,1,0,0:0:0:0:
192,192,22280,1,2,0:0:0:0:
320,192,22280,1,0,0:0:0:0:
64,192,22357,1,0,0:0:0:0:
320,192,22434,1,8,0:0:0:0:
448,192,22434,1,0,0:0:0:0:
192,192,22510,1,0,0:0:0:0:
64,192,22587,1,0,0:0:0:0:
320,192,22663,1,0,0:0:0:0:
448,192,22740,1,0,0:0:0:0:
192,192,22740,1,0,0:0:0:0:
64,192,22816,1,0,0:0:0:0:
320,192,22893,1,2,0:0:0:0:
448,192,22893,1,0,0:0:0:0:
64,192,22969,1,0,0:0:0:0:
192,192,23046,1,0,0:0:0:0:
320,192,23122,1,0,0:0:0:0:
448,192,23199,1,2,0:0:0:0:
64,192,23199,1,0,0:0:0:0:
192,192,23275,1,0,0:0:0:0:
320,192,23352,1,0,0:0:0:0:
448,192,23428,1,0,0:0:0:0:
64,192,23505,1,0,0:0:0:0:
192,192,23505,1,0,0:0:0:0:
448,192,23556,1,2,2:0:0:0:
320,192,23607,1,2,2:0:0:0:
192,192,23658,1,2,2:0:0:0:
64,192,23709,1,2,2:0:0:0:
448,192,23760,1,2,2:0:0:0:
192,192,23811,1,2,2:0:0:0:
64,192,23862,1,2,2:0:0:0:
448,192,23913,1,2,2:0:0:0:
320,192,23964,1,2,2:0:0:0:
64,192,24015,1,2,2:0:0:0:
192,192,24066,1,2,2:0:0:0:
320,192,24117,1,2,2:0:0:0:
448,192,24168,1,2,2:0:0:0:
64,192,24219,1,2,2:0:0:0:
192,192,24270,1,2,2:0:0:0:
320,192,24321,1,2,2:0:0:0:
64,192,24372,1,2,2:0:0:0:
448,192,24423,1,2,2:0:0:0:
320,192,24474,1,2,2:0:0:0:
192,192,24525,1,2,2:0:0:0:
64,192,24576,1,2,2:0:0:0:
320,192,24627,1,2,2:0:0:0:
192,192,24678,1,2,2:0:0:0:
64,192,24729,128,4,26566:0:0:0:0:
448,192,24729,128,2,26566:2:0:0:0:
192,192,26566,1,4,0:0:0:0:
320,192,26719,1,2,0:0:0:0:
192,192,26872,1,2,2:0:0:0:
448,192,27025,128,2,27485:2:0:0:0:
320,192,27485,128,2,28097:2:0:0:0:
64,192,28097,1,2,2:0:0:0:
448,192,28250,1,2,2:0:0:0:
64,192,28403,1,2,2:0:0:0:
192,192,28709,128,2,29321:2:0:0:0:
320,192,29168,1,2,2:0:0:0:
448,192,29321,1,2,2:0:0:0:
192,192,29627,128,2,29934:2:0:0:0:
448,192,29934,128,2,30240:2:0:0:0:
320,192,30240,128,2,32076:0:0:0:0:
64,192,30699,1,2,2:0:0:0:
192,192,30699,1,2,2:0:0:0:
64,192,31158,1,2,2:0:0:0:
448,192,31158,1,2,2:0:0:0:
64,192,31770,1,2,2:0:0:0:
192,192,31923,1,2,2:0:0:0:
448,192,32000,1,2,2:0:0:0:
64,192,32076,1,2,2:0:0:0:
320,192,32229,1,2,2:0:0:0:
64,192,32383,1,2,2:0:0:0:
192,192,32434,1,2,2:0:0:0:
64,192,32485,1,2,2:0:0:0:
320,192,32536,1,2,2:0:0:0:
448,192,32689,1,2,2:0:0:0:
64,192,32842,1,2,2:0:0:0:
192,192,32918,1,2,2:0:0:0:
448,192,32995,1,2,2:0:0:0:
64,192,33148,1,2,2:0:0:0:
448,192,33199,1,2,2:0:0:0:
192,192,33250,1,2,2:0:0:0:
320,192,33301,1,2,2:0:0:0:
192,192,33454,1,2,2:0:0:0:
320,192,33607,1,2,0:0:0:0:
64,192,33760,1,2,0:0:0:0:
192,192,33913,1,2,0:0:0:0:
320,192,34066,1,2,2:0:0:0:
448,192,34219,1,2,2:0:0:0:
64,192,34372,1,2,2:0:0:0:
192,192,34525,1,2,2:0:0:0:
448,192,34678,1,2,2:0:0:0:
64,192,34831,1,2,2:0:0:0:
320,192,34985,1,2,2:0:0:0:
448,192,35138,1,2,2:0:0:0:
64,192,35291,1,2,2:0:0:0:
192,192,35444,1,2,2:0:0:0:
448,192,35597,1,2,2:0:0:0:
64,192,35750,1,2,2:0:0:0:
320,192,35903,1,2,2:0:0:0:
448,192,36056,1,2,2:0:0:0:
64,192,36209,1,2,2:0:0:0:
192,192,36362,1,2,2:0:0:0:
448,192,36515,1,2,2:0:0:0:
64,192,36668,1,2,2:0:0:0:
320,192,36821,1,2,2:0:0:0:
192,192,36898,1,2,2:0:0:0:
448,192,36974,1,2,2:0:0:0:
64,192,37127,1,2,2:0:0:0:
192,192,37280,1,2,2:0:0:0:
320,192,37280,1,2,0:0:0:0:
320,192,37434,1,2,2:0:0:0:
448,192,37434,1,2,0:0:0:0:
192,192,37587,1,2,0:0:0:0:
64,192,37740,1,2,2:0:0:0:
320,192,37893,1,2,2:0:0:0:
448,192,38046,1,2,2:0:0:0:
192,192,38199,1,2,2:0:0:0:
448,192,38352,1,2,2:0:0:0:
448,192,38428,1,2,2:0:0:0:
64,192,38505,1,2,0:0:0:0:
192,192,38658,1,2,0:0:0:0:
320,192,38811,1,2,0:0:0:0:
448,192,38964,1,2,0:0:0:0:
192,192,39117,1,2,0:0:0:0:
320,192,39270,1,2,0:0:0:0:
64,192,39423,1,4,2:0:0:0:
192,192,39423,1,2,0:0:0:0:
448,192,39423,1,8,0:0:0:0:
64,192,39576,1,4,2:0:0:0:
192,192,39576,1,2,0:0:0:0:
448,192,39576,1,8,0:0:0:0:
320,192,39729,1,2,0:0:0:0:
192,192,39806,1,2,0:0:0:0:
64,192,39883,1,2,0:0:0:0:
320,192,39883,1,8,0:0:0:0:
448,192,39883,1,0,0:0:0:0:
192,192,39959,1,0,0:0:0:0:
320,192,40036,1,0,0:0:0:0:
448,192,40036,1,0,0:0:0:0:
64,192,40087,1,0,0:0:0:0:
192,192,40138,1,0,0:0:0:0:
320,192,40189,1,2,0:0:0:0:
448,192,40189,1,0,0:0:0:0:
64,192,40189,1,0,0:0:0:0:
64,192,40342,1,8,0:0:0:0:
192,192,40342,1,2,0:0:0:0:
448,192,40342,1,0,0:0:0:0:
64,192,40648,1,8,0:0:0:0:
192,192,40648,1,2,0:0:0:0:
448,192,40648,1,0,0:0:0:0:
64,192,40954,1,8,0:0:0:0:
192,192,40954,1,2,0:0:0:0:
448,192,40954,1,0,0:0:0:0:
64,192,41260,1,2,0:0:0:0:
320,192,41260,1,4,0:0:0:0:
448,192,41260,1,0,0:0:0:0:
320,192,41413,1,2,0:0:0:0:
64,192,41413,1,0,0:0:0:0:
448,192,41566,1,0,0:0:0:0:
320,192,41719,1,2,0:0:0:0:
192,192,41719,1,0,0:0:0:0:
192,192,41872,1,2,0:0:0:0:
320,192,41872,1,0,0:0:0:0:
64,192,42025,1,0,0:0:0:0:
320,192,42178,1,2,0:0:0:0:
448,192,42178,1,8,0:0:0:0:
64,192,42485,1,0,0:0:0:0:
448,192,42485,1,0,0:0:0:0:
64,192,42791,1,0,0:0:0:0:
448,192,42791,1,0,0:0:0:0:
192,192,43097,1,4,0:0:0:0:
64,192,43097,1,2,0:0:0:0:
448,192,43097,1,0,0:0:0:0:
192,192,43250,1,2,0:0:0:0:
448,192,43250,1,0,0:0:0:0:
64,192,43403,1,0,0:0:0:0:
320,192,43556,1,2,0:0:0:0:
448,192,43556,1,0,0:0:0:0:
320,192,43709,1,2,0:0:0:0:
448,192,43709,1,0,0:0:0:0:
192,192,43862,1,0,0:0:0:0:
64,192,44015,1,8,0:0:0:0:
448,192,44015,1,2,0:0:0:0:
192,192,44321,1,0,0:0:0:0:
448,192,44321,1,0,0:0:0:0:
320,192,44474,1,0,0:0:0:0:
192,192,44551,1,0,0:0:0:0:
64,192,44627,1,0,0:0:0:0:
320,192,44627,1,0,0:0:0:0:
448,192,44704,1,0,0:0:0:0:
192,192,44780,1,2,0:0:0:0:
320,192,44857,1,2,0:0:0:0:
64,192,44934,1,2,0:0:0:0:
448,192,44934,1,4,0:0:0:0:
192,192,44934,1,0,0:0:0:0:
64,192,45087,1,2,0:0:0:0:
448,192,45087,1,0,0:0:0:0:
192,192,45240,1,0,0:0:0:0:
320,192,45393,1,2,0:0:0:0:
448,192,45393,1,0,0:0:0:0:
320,192,45546,1,2,0:0:0:0:
448,192,45546,1,0,0:0:0:0:
64,192,45699,1,0,0:0:0:0:
192,192,45852,1,2,0:0:0:0:
320,192,45852,1,8,0:0:0:0:
64,192,46005,1,0,0:0:0:0:
192,192,46081,1,0,0:0:0:0:
320,192,46158,1,2,0:0:0:0:
448,192,46158,1,0,0:0:0:0:
64,192,46311,1,2,0:0:0:0:
448,192,46311,1,0,0:0:0:0:
192,192,46388,1,2,0:0:0:0:
320,192,46464,1,2,0:0:0:0:
448,192,46464,1,0,0:0:0:0:
64,192,46515,1,0,0:0:0:0:
192,192,46566,1,0,0:0:0:0:
448,192,46617,1,0,0:0:0:0:
64,192,46617,1,0,0:0:0:0:
320,192,46694,1,2,0:0:0:0:
64,192,46770,1,2,0:0:0:0:
192,192,46770,1,4,0:0:0:0:
448,192,46770,1,0,0:0:0:0:
64,192,46923,1,2,0:0:0:0:
192,192,46923,1,0,0:0:0:0:
320,192,47000,1,2,0:0:0:0:
64,192,47076,1,2,0:0:0:0:
448,192,47076,1,0,0:0:0:0:
320,192,47229,1,2,0:0:0:0:
192,192,47229,1,0,0:0:0:0:
64,192,47383,1,2,0:0:0:0:
448,192,47383,1,0,0:0:0:0:
192,192,47459,1,0,0:0:0:0:
320,192,47536,1,2,0:0:0:0:
448,192,47536,1,0,0:0:0:0:
64,192,47612,1,2,0:0:0:0:
192,192,47689,1,2,0:0:0:0:
320,192,47689,1,0,0:0:0:0:
448,192,47842,1,2,0:0:0:0:
320,192,47918,1,2,0:0:0:0:
192,192,47995,1,2,0:0:0:0:
64,192,47995,1,0,0:0:0:0:
320,192,48071,1,0,0:0:0:0:
64,192,48148,1,2,0:0:0:0:
448,192,48148,1,0,0:0:0:0:
192,192,48186,1,0,0:0:0:0:
320,192,48224,1,0,0:0:0:0:
448,192,48263,1,0,0:0:0:0:
192,192,48301,1,2,0:0:0:0:
64,192,48301,1,0,0:0:0:0:
448,192,48377,1,2,0:0:0:0:
192,192,48454,1,2,0:0:0:0:
320,192,48454,1,0,0:0:0:0:
64,192,48530,1,2,0:0:0:0:
320,192,48607,1,2,0:0:0:0:
448,192,48607,1,0,0:0:0:0:
192,192,48684,1,0,0:0:0:0:
320,192,48760,1,0,0:0:0:0:
448,192,48837,1,0,0:0:0:0:
64,192,48913,1,2,0:0:0:0:
192,192,48913,1,0,0:0:0:0:
448,192,49066,1,0,0:0:0:0:
320,192,49143,1,0,0:0:0:0:
192,192,49219,1,2,0:0:0:0:
64,192,49219,1,0,0:0:0:0:
192,192,49372,1,0,0:0:0:0:
320,192,49449,1,0,0:0:0:0:
448,192,49525,1,2,0:0:0:0:
64,192,49525,1,0,0:0:0:0:
320,192,49602,1,0,0:0:0:0:
192,192,49678,1,0,0:0:0:0:
64,192,49755,1,0,0:0:0:0:
320,192,49831,1,2,0:0:0:0:
448,192,49831,1,0,0:0:0:0:
192,192,49908,1,0,0:0:0:0:
64,192,49985,1,0,0:0:0:0:
192,192,50061,1,0,0:0:0:0:
320,192,50138,1,2,0:0:0:0:
64,192,50138,1,0,0:0:0:0:
448,192,50214,1,0,0:0:0:0:
192,192,50291,1,0,0:0:0:0:
320,192,50367,1,0,0:0:0:0:
64,192,50444,1,2,0:0:0:0:
448,192,50444,1,0,0:0:0:0:
320,192,50597,1,0,0:0:0:0:
64,192,50673,1,0,0:0:0:0:
192,192,50750,1,2,0:0:0:0:
448,192,50750,1,0,0:0:0:0:
320,192,50903,1,0,0:0:0:0:
192,192,50979,1,0,0:0:0:0:
64,192,51056,1,2,0:0:0:0:
448,192,51056,1,0,0:0:0:0:
320,192,51133,1,0,0:0:0:0:
64,192,51209,1,0,0:0:0:0:
192,192,51286,1,0,0:0:0:0:
448,192,51362,1,2,0:0:0:0:
320,192,51362,1,0,0:0:0:0:
192,192,51439,1,0,0:0:0:0:
64,192,51515,1,0,0:0:0:0:
320,192,51592,1,0,0:0:0:0:
64,192,51668,1,2,0:0:0:0:
448,192,51668,1,0,0:0:0:0:
192,192,51745,1,0,0:0:0:0:
320,192,51821,1,0,0:0:0:0:
448,192,51898,1,0,0:0:0:0:
192,192,51974,1,2,0:0:0:0:
64,192,51974,1,0,0:0:0:0:
320,192,52051,1,0,0:0:0:0:
448,192,52127,1,0,0:0:0:0:
192,192,52204,1,0,0:0:0:0:
64,192,52280,1,2,0:0:0:0:
320,192,52280,1,8,0:0:0:0:
448,192,52280,1,0,0:0:0:0:
192,192,52357,1,0,0:0:0:0:
64,192,52434,1,2,0:0:0:0:
320,192,52434,1,8,0:0:0:0:
448,192,52434,1,0,0:0:0:0:
64,192,52587,1,2,0:0:0:0:
448,192,52587,1,0,0:0:0:0:
192,192,52740,1,2,0:0:0:0:
320,192,52740,1,0,0:0:0:0:
64,192,52893,1,2,0:0:0:0:
320,192,52893,1,0,0:0:0:0:
448,192,52893,1,0,0:0:0:0:
448,192,53046,1,2,0:0:0:0:
320,192,53046,1,0,0:0:0:0:
64,192,53046,1,0,0:0:0:0:
192,192,53199,1,2,0:0:0:0:
320,192,53199,1,0,0:0:0:0:
448,192,53352,1,2,0:0:0:0:
192,192,53352,1,0,0:0:0:0:
64,192,53352,1,0,0:0:0:0:
64,192,53505,1,2,0:0:0:0:
320,192,53505,1,0,0:0:0:0:
192,192,53658,1,2,0:0:0:0:
320,192,53658,1,0,0:0:0:0:
448,192,53658,1,0,0:0:0:0:
64,192,53811,1,0,0:0:0:0:
448,192,53811,1,0,0:0:0:0:
192,192,53964,1,2,0:0:0:0:
320,192,53964,1,0,0:0:0:0:
64,192,53964,1,0,0:0:0:0:
64,192,54117,1,2,0:0:0:0:
320,192,54117,1,8,0:0:0:0:
448,192,54117,1,0,0:0:0:0:
64,192,54270,1,2,0:0:0:0:
448,192,54270,1,8,0:0:0:0:
320,192,54270,1,0,0:0:0:0:
192,192,54423,1,2,0:0:0:0:
320,192,54500,1,2,0:0:0:0:
64,192,54576,1,2,0:0:0:0:
192,192,54576,1,8,0:0:0:0:
448,192,54576,1,0,0:0:0:0:
320,192,54729,1,2,0:0:0:0:
192,192,54729,1,0,0:0:0:0:
64,192,54883,1,2,0:0:0:0:
320,192,54883,1,8,0:0:0:0:
448,192,54883,1,0,0:0:0:0:
448,192,55036,1,2,0:0:0:0:
320,192,55036,1,8,0:0:0:0:
64,192,55036,1,0,0:0:0:0:
448,192,55189,1,0,0:0:0:0:
320,192,55265,1,0,0:0:0:0:
192,192,55342,1,8,0:0:0:0:
64,192,55418,1,0,0:0:0:0:
320,192,55495,1,0,0:0:0:0:
192,192,55571,1,0,0:0:0:0:
64,192,55648,1,2,2:0:0:0:
448,192,55648,1,0,0:0:0:0:
192,192,55724,1,0,0:0:0:0:
320,192,55801,1,0,0:0:0:0:
448,192,55877,1,0,0:0:0:0:
192,192,55954,1,2,0:0:0:0:
64,192,55954,1,2,2:0:0:0:
64,192,56413,1,2,0:0:0:0:
192,192,56413,1,0,0:0:0:0:
448,192,56566,1,2,2:0:0:0:
320,192,56719,1,2,2:0:0:0:
448,192,56872,1,2,0:0:0:0:
64,192,56872,1,2,2:0:0:0:
320,192,57485,1,2,2:0:0:0:
192,192,57791,1,2,0:0:0:0:
64,192,57791,1,2,2:0:0:0:
64,192,58250,1,2,0:0:0:0:
192,192,58250,1,2,2:0:0:0:
320,192,58403,1,2,2:0:0:0:
64,192,58709,1,2,0:0:0:0:
64,192,59321,1,0,0:0:0:0:
192,192,59398,1,0,0:0:0:0:
320,192,59474,1,0,0:0:0:0:
64,192,59551,1,2,0:0:0:0:
448,192,59627,128,2,60240:0:0:0:0:
320,192,60240,1,2,2:0:0:0:
64,192,60393,1,2,2:0:0:0:
320,192,60546,128,2,61158:2:0:0:0:
192,192,61158,128,2,61464:0:0:0:0:
64,192,61464,128,0,62076:0:0:0:0:
448,192,62076,128,0,62383:0:0:0:0:
192,192,62383,128,0,62995:0:0:0:0:
320,192,62995,1,2,0:0:0:0:
448,192,63071,1,0,0:0:0:0:
64,192,63148,1,2,0:0:0:0:
192,192,63224,1,2,0:0:0:0:
320,192,63301,1,2,0:0:0:0:
448,192,63301,1,4,0:0:0:0:
192,192,63760,1,2,2:0:0:0:
320,192,64219,1,2,2:0:0:0:
448,192,64678,1,2,2:0:0:0:
64,192,65138,1,2,2:0:0:0:
192,192,65597,1,2,2:0:0:0:
320,192,66056,1,2,2:0:0:0:
448,192,66515,1,2,2:0:0:0:
448,192,66974,1,0,0:0:0:0:
320,192,67051,1,0,0:0:0:0:
192,192,67127,1,0,0:0:0:0:
64,192,67204,1,0,0:0:0:0:
448,192,67280,1,0,0:0:0:0:
320,192,67357,1,0,0:0:0:0:
192,192,67434,1,0,0:0:0:0:
64,192,67510,1,0,0:0:0:0:
320,192,67587,1,0,0:0:0:0:
192,192,67663,1,0,0:0:0:0:
448,192,67740,1,2,0:0:0:0:
320,192,67740,1,0,0:0:0:0:
64,192,67816,1,2,0:0:0:0:
192,192,67816,1,0,0:0:0:0:
320,192,67893,1,2,0:0:0:0:
448,192,67893,1,4,0:0:0:0:
64,192,67969,1,0,0:0:0:0:
320,192,68046,1,0,0:0:0:0:
192,192,68122,1,0,0:0:0:0:
64,192,68199,1,0,0:0:0:0:
320,192,68275,1,0,0:0:0:0:
192,192,68352,1,0,0:0:0:0:
448,192,68428,1,0,0:0:0:0:
320,192,68505,1,0,0:0:0:0:
192,192,68581,1,0,0:0:0:0:
64,192,68658,1,0,0:0:0:0:
448,192,68658,1,0,0:0:0:0:
192,192,68735,1,0,0:0:0:0:
320,192,68811,1,0,0:0:0:0:
448,192,68888,1,0,0:0:0:0:
192,192,68964,1,0,0:0:0:0:
64,192,68964,1,0,0:0:0:0:
320,192,69041,1,0,0:0:0:0:
192,192,69117,1,0,0:0:0:0:
448,192,69194,1,0,0:0:0:0:
320,192,69270,1,0,0:0:0:0:
64,192,69270,1,0,0:0:0:0:
192,192,69347,1,0,0:0:0:0:
320,192,69423,1,0,0:0:0:0:
448,192,69500,1,0,0:0:0:0:
64,192,69576,1,0,0:0:0:0:
192,192,69576,1,0,0:0:0:0:
320,192,69653,1,0,0:0:0:0:
448,192,69729,1,0,0:0:0:0:
192,192,69806,1,0,0:0:0:0:
320,192,69883,1,0,0:0:0:0:
64,192,69883,1,0,0:0:0:0:
448,192,69959,1,0,0:0:0:0:
320,192,70036,1,0,0:0:0:0:
192,192,70112,1,0,0:0:0:0:
64,192,70189,1,0,0:0:0:0:
448,192,70189,1,0,0:0:0:0:
320,192,70265,1,0,0:0:0:0:
192,192,70342,1,0,0:0:0:0:
448,192,70418,1,0,0:0:0:0:
192,192,70495,1,0,0:0:0:0:
64,192,70495,1,0,0:0:0:0:
320,192,70571,1,0,0:0:0:0:
448,192,70648,1,0,0:0:0:0:
192,192,70724,1,0,0:0:0:0:
64,192,70801,1,0,0:0:0:0:
448,192,70801,1,0,0:0:0:0:
320,192,70877,1,0,0:0:0:0:
192,192,70954,1,0,0:0:0:0:
64,192,71030,1,0,0:0:0:0:
320,192,71107,1,0,0:0:0:0:
448,192,71107,1,0,0:0:0:0:
192,192,71184,1,0,0:0:0:0:
64,192,71260,1,2,0:0:0:0:
320,192,71337,1,0,0:0:0:0:
192,192,71413,1,0,0:0:0:0:
64,192,71413,1,0,0:0:0:0:
448,192,71490,1,0,0:0:0:0:
320,192,71566,1,2,0:0:0:0:
192,192,71643,1,0,0:0:0:0:
64,192,71719,1,0,0:0:0:0:
448,192,71719,1,0,0:0:0:0:
192,192,71796,1,0,0:0:0:0:
320,192,71872,1,4,0:0:0:0:
448,192,71872,1,0,0:0:0:0:
64,192,71872,1,0,0:0:0:0:
192,192,71949,1,0,0:0:0:0:
320,192,72025,1,0,0:0:0:0:
448,192,72102,1,0,0:0:0:0:
192,192,72178,1,0,0:0:0:0:
320,192,72255,1,0,0:0:0:0:
64,192,72331,1,0,0:0:0:0:
448,192,72331,1,0,0:0:0:0:
192,192,72408,1,0,0:0:0:0:
320,192,72485,1,2,0:0:0:0:
448,192,72561,1,0,0:0:0:0:
192,192,72638,1,0,0:0:0:0:
64,192,72638,1,0,0:0:0:0:
320,192,72714,1,0,0:0:0:0:
192,192,72791,1,2,0:0:0:0:
64,192,72867,1,0,0:0:0:0:
320,192,72944,1,0,0:0:0:0:
448,192,72944,1,0,0:0:0:0:
192,192,73020,1,0,0:0:0:0:
320,192,73097,1,0,0:0:0:0:
192,192,73173,1,0,0:0:0:0:
64,192,73250,1,0,0:0:0:0:
448,192,73250,1,0,0:0:0:0:
320,192,73326,1,0,0:0:0:0:
192,192,73403,1,0,0:0:0:0:
64,192,73479,1,0,0:0:0:0:
320,192,73556,1,0,0:0:0:0:
448,192,73556,1,0,0:0:0:0:
64,192,73633,1,0,0:0:0:0:
192,192,73709,1,2,0:0:0:0:
320,192,73786,1,0,0:0:0:0:
448,192,73862,1,2,0:0:0:0:
64,192,73862,1,0,0:0:0:0:
192,192,73939,1,0,0:0:0:0:
320,192,74015,1,2,0:0:0:0:
448,192,74092,1,0,0:0:0:0:
192,192,74168,1,0,0:0:0:0:
64,192,74168,1,0,0:0:0:0:
320,192,74245,1,0,0:0:0:0:
192,192,74321,1,0,0:0:0:0:
448,192,74398,1,0,0:0:0:0:
320,192,74474,1,0,0:0:0:0:
64,192,74474,1,0,0:0:0:0:
448,192,74551,1,0,0:0:0:0:
192,192,74627,1,0,0:0:0:0:
320,192,74704,1,0,0:0:0:0:
64,192,74780,1,0,0:0:0:0:
448,192,74780,1,0,0:0:0:0:
192,192,74857,1,0,0:0:0:0:
320,192,74934,1,2,0:0:0:0:
448,192,75010,1,0,0:0:0:0:
192,192,75087,1,2,0:0:0:0:
64,192,75087,1,0,0:0:0:0:
320,192,75163,1,0,0:0:0:0:
448,192,75240,1,2,0:0:0:0:
64,192,75240,1,0,0:0:0:0:
192,192,75393,1,2,0:0:0:0:
320,192,75469,1,0,0:0:0:0:
64,192,75546,1,4,0:0:0:0:
192,192,75546,1,2,0:0:0:0:
448,192,75546,1,0,0:0:0:0:
320,192,75622,1,0,0:0:0:0:
64,192,75699,1,0,0:0:0:0:
192,192,75775,1,0,0:0:0:0:
448,192,75852,1,2,0:0:0:0:
320,192,75928,1,0,0:0:0:0:
64,192,76005,1,0,0:0:0:0:
448,192,76005,1,0,0:0:0:0:
192,192,76081,1,0,0:0:0:0:
320,192,76158,1,2,0:0:0:0:
192,192,76235,1,0,0:0:0:0:
64,192,76311,1,0,0:0:0:0:
320,192,76311,1,0,0:0:0:0:
448,192,76388,1,0,0:0:0:0:
192,192,76464,1,2,0:0:0:0:
320,192,76541,1,0,0:0:0:0:
448,192,76617,1,0,0:0:0:0:
64,192,76617,1,0,0:0:0:0:
192,192,76694,1,0,0:0:0:0:
320,192,76770,1,2,0:0:0:0:
448,192,76847,1,0,0:0:0:0:
192,192,76923,1,2,0:0:0:0:
64,192,76923,1,0,0:0:0:0:
320,192,77000,1,2,0:0:0:0:
192,192,77076,1,2,0:0:0:0:
64,192,77153,1,0,0:0:0:0:
320,192,77229,1,2,0:0:0:0:
448,192,77229,1,0,0:0:0:0:
192,192,77306,1,2,0:0:0:0:
448,192,77383,1,2,0:0:0:0:
64,192,77459,1,0,0:0:0:0:
192,192,77536,1,2,0:0:0:0:
448,192,77536,1,0,0:0:0:0:
320,192,77612,1,2,0:0:0:0:
64,192,77689,1,2,0:0:0:0:
192,192,77765,1,0,0:0:0:0:
448,192,77842,1,2,0:0:0:0:
320,192,77842,1,0,0:0:0:0:
192,192,77918,1,2,0:0:0:0:
64,192,77995,1,2,0:0:0:0:
320,192,78071,1,0,0:0:0:0:
192,192,78148,1,2,0:0:0:0:
64,192,78148,1,0,0:0:0:0:
320,192,78224,1,2,0:0:0:0:
448,192,78301,1,2,0:0:0:0:
64,192,78377,1,0,0:0:0:0:
192,192,78454,1,2,0:0:0:0:
320,192,78454,1,0,0:0:0:0:
448,192,78530,1,2,0:0:0:0:
64,192,78607,1,2,0:0:0:0:
320,192,78684,1,2,0:0:0:0:
192,192,78760,1,2,0:0:0:0:
448,192,78760,1,0,0:0:0:0:
320,192,78837,1,2,0:0:0:0:
192,192,78913,1,2,0:0:0:0:
64,192,78990,1,0,0:0:0:0:
320,192,79066,1,2,0:0:0:0:
448,192,79066,1,0,0:0:0:0:
192,192,79143,1,0,0:0:0:0:
64,192,79219,1,2,0:0:0:0:
320,192,79219,1,0,0:0:0:0:
448,192,79219,1,0,0:0:0:0:
192,192,79296,1,0,0:0:0:0:
320,192,79372,1,2,0:0:0:0:
448,192,79449,1,0,0:0:0:0:
192,192,79525,1,2,0:0:0:0:
320,192,79602,1,0,0:0:0:0:
64,192,79678,1,2,0:0:0:0:
448,192,79678,1,0,0:0:0:0:
192,192,79755,1,0,0:0:0:0:
320,192,79831,1,2,0:0:0:0:
192,192,79908,1,0,0:0:0:0:
64,192,79985,1,2,0:0:0:0:
448,192,79985,1,0,0:0:0:0:
320,192,80061,1,0,0:0:0:0:
192,192,80138,1,2,0:0:0:0:
64,192,80138,1,0,0:0:0:0:
448,192,80138,1,0,0:0:0:0:
320,192,80214,1,0,0:0:0:0:
192,192,80291,1,2,0:0:0:0:
64,192,80367,1,0,0:0:0:0:
320,192,80444,1,2,0:0:0:0:
448,192,80520,1,0,0:0:0:0:
192,192,80597,1,0,0:0:0:0:
320,192,80597,1,0,0:0:0:0:
64,192,80673,1,0,0:0:0:0:
192,192,80750,1,2,0:0:0:0:
320,192,80750,1,0,0:0:0:0:
448,192,80750,1,0,0:0:0:0:
64,192,80826,1,0,0:0:0:0:
192,192,80903,1,0,0:0:0:0:
320,192,80979,1,0,0:0:0:0:
448,192,81056,1,2,0:0:0:0:
192,192,81133,1,0,0:0:0:0:
64,192,81209,1,0,0:0:0:0:
448,192,81209,1,0,0:0:0:0:
320,192,81286,1,0,0:0:0:0:
192,192,81362,1,2,0:0:0:0:
64,192,81439,1,0,0:0:0:0:
320,192,81515,1,0,0:0:0:0:
448,192,81515,1,0,0:0:0:0:
192,192,81592,1,0,0:0:0:0:
448,192,81668,1,2,0:0:0:0:
192,192,81745,1,0,0:0:0:0:
320,192,81770,1,0,0:0:0:0:
64,192,81821,1,0,0:0:0:0:
448,192,81872,1,0,0:0:0:0:
320,192,81898,1,0,0:0:0:0:
192,192,81974,1,2,0:0:0:0:
64,192,82051,1,0,0:0:0:0:
320,192,82076,1,0,0:0:0:0:
448,192,82127,1,0,0:0:0:0:
192,192,82178,1,0,0:0:0:0:
320,192,82204,1,0,0:0:0:0:
64,192,82280,1,2,0:0:0:0:
448,192,82280,1,0,0:0:0:0:
192,192,82357,1,2,0:0:0:0:
320,192,82434,1,2,0:0:0:0:
448,192,82510,1,2,0:0:0:0:
192,192,82587,1,4,0:0:0:0:
64,192,82587,1,2,0:0:0:0:
192,192,83199,128,0,84423:0:0:0:0:
320,192,83199,128,0,84423:0:0:0:0:
64,192,84423,1,2,0:0:0:0:
448,192,84423,1,4,0:0:0:0:
320,192,84500,1,0,0:0:0:0:
192,192,84576,1,0,0:0:0:0:
64,192,84653,1,0,0:0:0:0:
320,192,84729,1,2,0:0:0:0:
448,192,84729,1,0,0:0:0:0:
192,192,84806,1,0,0:0:0:0:
64,192,84883,1,8,0:0:0:0:
448,192,84883,1,2,0:0:0:0:
192,192,84959,1,0,0:0:0:0:
320,192,85036,1,0,0:0:0:0:
448,192,85112,1,0,0:0:0:0:
64,192,85189,1,2,0:0:0:0:
192,192,85189,1,0,0:0:0:0:
320,192,85265,1,0,0:0:0:0:
64,192,85342,1,2,0:0:0:0:
448,192,85342,1,0,0:0:0:0:
320,192,85418,1,0,0:0:0:0:
192,192,85495,1,0,0:0:0:0:
64,192,85571,1,0,0:0:0:0:
320,192,85648,1,2,0:0:0:0:
448,192,85648,1,0,0:0:0:0:
192,192,85724,1,0,0:0:0:0:
64,192,85801,1,8,0:0:0:0:
448,192,85801,1,2,0:0:0:0:
192,192,85877,1,0,0:0:0:0:
320,192,85954,1,0,0:0:0:0:
448,192,86030,1,0,0:0:0:0:
192,192,86107,1,2,0:0:0:0:
64,192,86107,1,0,0:0:0:0:
320,192,86184,1,0,0:0:0:0:
64,192,86260,1,2,0:0:0:0:
448,192,86260,1,0,0:0:0:0:
320,192,86337,1,0,0:0:0:0:
192,192,86413,1,0,0:0:0:0:
64,192,86490,1,0,0:0:0:0:
320,192,86566,1,2,0:0:0:0:
448,192,86566,1,0,0:0:0:0:
192,192,86643,1,0,0:0:0:0:
64,192,86719,1,8,0:0:0:0:
448,192,86719,1,2,0:0:0:0:
192,192,86796,1,0,0:0:0:0:
320,192,86872,1,0,0:0:0:0:
448,192,86949,1,0,0:0:0:0:
192,192,87025,1,2,0:0:0:0:
64,192,87025,1,0,0:0:0:0:
320,192,87102,1,0,0:0:0:0:
64,192,87178,1,2,0:0:0:0:
448,192,87178,1,0,0:0:0:0:
320,192,87280,1,0,0:0:0:0:
64,192,87331,1,0,0:0:0:0:
192,192,87383,1,0,0:0:0:0:
448,192,87434,1,0,0:0:0:0:
320,192,87485,1,2,0:0:0:0:
64,192,87485,1,0,0:0:0:0:
448,192,87561,1,0,0:0:0:0:
320,192,87638,1,0,0:0:0:0:
192,192,87714,1,0,0:0:0:0:
448,192,87791,1,2,0:0:0:0:
64,192,87791,1,0,0:0:0:0:
320,192,87867,1,0,0:0:0:0:
192,192,87944,1,0,0:0:0:0:
64,192,87944,1,0,0:0:0:0:
320,192,88020,1,0,0:0:0:0:
64,192,88097,1,2,0:0:0:0:
448,192,88097,1,4,0:0:0:0:
192,192,88097,1,0,0:0:0:0:
320,192,88173,1,0,0:0:0:0:
448,192,88250,1,0,0:0:0:0:
64,192,88326,1,0,0:0:0:0:
192,192,88403,1,2,0:0:0:0:
320,192,88403,1,0,0:0:0:0:
448,192,88479,1,0,0:0:0:0:
64,192,88556,1,8,0:0:0:0:
320,192,88556,1,2,0:0:0:0:
192,192,88633,1,0,0:0:0:0:
448,192,88709,1,0,0:0:0:0:
64,192,88786,1,0,0:0:0:0:
192,192,88862,1,2,0:0:0:0:
320,192,88862,1,0,0:0:0:0:
448,192,88939,1,0,0:0:0:0:
64,192,89015,1,2,0:0:0:0:
192,192,89015,1,0,0:0:0:0:
320,192,89092,1,0,0:0:0:0:
448,192,89168,1,0,0:0:0:0:
320,192,89245,1,0,0:0:0:0:
64,192,89321,1,2,0:0:0:0:
448,192,89321,1,0,0:0:0:0:
192,192,89398,1,0,0:0:0:0:
64,192,89474,1,2,0:0:0:0:
320,192,89474,1,8,0:0:0:0:
448,192,89551,1,0,0:0:0:0:
192,192,89627,1,0,0:0:0:0:
64,192,89704,1,0,0:0:0:0:
320,192,89780,1,2,0:0:0:0:
448,192,89780,1,0,0:0:0:0:
192,192,89857,1,0,0:0:0:0:
64,192,89934,1,2,0:0:0:0:
448,192,89934,1,0,0:0:0:0:
320,192,90010,1,0,0:0:0:0:
192,192,90087,1,0,0:0:0:0:
64,192,90163,1,0,0:0:0:0:
320,192,90240,1,2,0:0:0:0:
448,192,90240,1,0,0:0:0:0:
64,192,90316,1,0,0:0:0:0:
192,192,90393,1,2,0:0:0:0:
320,192,90393,1,8,0:0:0:0:
448,192,90469,1,0,0:0:0:0:
64,192,90546,1,0,0:0:0:0:
320,192,90622,1,0,0:0:0:0:
192,192,90699,1,2,0:0:0:0:
448,192,90699,1,0,0:0:0:0:
64,192,90775,1,0,0:0:0:0:
192,192,90852,1,2,0:0:0:0:
320,192,90852,1,0,0:0:0:0:
448,192,90903,1,0,0:0:0:0:
64,192,90954,1,0,0:0:0:0:
192,192,91005,1,0,0:0:0:0:
320,192,91056,1,0,0:0:0:0:
192,192,91107,1,0,0:0:0:0:
320,192,91158,1,2,0:0:0:0:
448,192,91209,1,0,0:0:0:0:
192,192,91260,1,0,0:0:0:0:
64,192,91311,1,0,0:0:0:0:
320,192,91311,1,0,0:0:0:0:
448,192,91388,1,0,0:0:0:0:
64,192,91464,1,2,0:0:0:0:
192,192,91464,1,0,0:0:0:0:
320,192,91541,1,0,0:0:0:0:
448,192,91617,1,0,0:0:0:0:
64,192,91694,1,0,0:0:0:0:
192,192,91770,1,8,0:0:0:0:
320,192,91770,1,2,0:0:0:0:
448,192,91770,1,4,0:0:0:0:
64,192,91847,1,0,0:0:0:0:
192,192,91923,1,0,0:0:0:0:
320,192,92000,1,0,0:0:0:0:
448,192,92076,1,2,0:0:0:0:
64,192,92076,1,0,0:0:0:0:
320,192,92153,1,0,0:0:0:0:
192,192,92229,1,0,0:0:0:0:
64,192,92306,1,0,0:0:0:0:
320,192,92383,1,2,0:0:0:0:
448,192,92383,1,0,0:0:0:0:
64,192,92459,1,0,0:0:0:0:
192,192,92536,1,0,0:0:0:0:
320,192,92612,1,0,0:0:0:0:
448,192,92689,1,2,0:0:0:0:
64,192,92689,1,0,0:0:0:0:
192,192,92765,1,0,0:0:0:0:
320,192,92842,1,0,0:0:0:0:
192,192,92918,1,0,0:0:0:0:
64,192,92995,1,2,0:0:0:0:
320,192,92995,1,0,0:0:0:0:
448,192,93071,1,0,0:0:0:0:
192,192,93148,1,0,0:0:0:0:
320,192,93224,1,0,0:0:0:0:
64,192,93301,1,2,0:0:0:0:
192,192,93301,1,0,0:0:0:0:
448,192,93377,1,0,0:0:0:0:
320,192,93454,1,0,0:0:0:0:
192,192,93530,1,0,0:0:0:0:
64,192,93607,1,2,0:0:0:0:
448,192,93607,1,0,0:0:0:0:
192,192,93684,1,0,0:0:0:0:
320,192,93760,1,0,0:0:0:0:
192,192,93837,1,0,0:0:0:0:
448,192,93913,1,2,0:0:0:0:
320,192,93913,1,0,0:0:0:0:
64,192,93990,1,0,0:0:0:0:
192,192,94066,1,0,0:0:0:0:
320,192,94143,1,0,0:0:0:0:
448,192,94219,1,2,0:0:0:0:
64,192,94219,1,0,0:0:0:0:
192,192,94296,1,0,0:0:0:0:
320,192,94372,1,0,0:0:0:0:
448,192,94449,1,0,0:0:0:0:
192,192,94525,1,2,0:0:0:0:
64,192,94525,1,0,0:0:0:0:
320,192,94602,1,0,0:0:0:0:
448,192,94678,1,2,0:0:0:0:
64,192,94678,1,0,0:0:0:0:
192,192,94729,1,2,0:0:0:0:
320,192,94780,1,2,0:0:0:0:
448,192,94831,1,2,0:0:0:0:
64,192,94831,1,0,0:0:0:0:
320,192,94908,1,0,0:0:0:0:
192,192,94985,1,2,0:0:0:0:
64,192,95061,1,0,0:0:0:0:
320,192,95138,1,2,0:0:0:0:
448,192,95138,1,0,0:0:0:0:
192,192,95214,1,0,0:0:0:0:
64,192,95291,1,2,0:0:0:0:
448,192,95367,1,0,0:0:0:0:
320,192,95444,1,2,0:0:0:0:
192,192,95444,1,0,0:0:0:0:
64,192,95444,1,0,0:0:0:0:
448,192,95520,1,0,0:0:0:0:
192,192,95597,1,2,0:0:0:0:
64,192,95597,1,0,0:0:0:0:
320,192,95673,1,0,0:0:0:0:
64,192,95750,1,2,0:0:0:0:
448,192,95750,1,0,0:0:0:0:
192,192,95826,1,0,0:0:0:0:
320,192,95903,1,2,0:0:0:0:
448,192,95903,1,0,0:0:0:0:
64,192,95979,1,0,0:0:0:0:
192,192,96056,1,2,0:0:0:0:
320,192,96056,1,0,0:0:0:0:
448,192,96133,1,0,0:0:0:0:
64,192,96209,1,2,0:0:0:0:
320,192,96209,1,0,0:0:0:0:
192,192,96286,1,0,0:0:0:0:
64,192,96362,1,2,0:0:0:0:
448,192,96362,1,0,0:0:0:0:
320,192,96439,1,0,0:0:0:0:
192,192,96515,1,2,0:0:0:0:
448,192,96515,1,0,0:0:0:0:
64,192,96592,1,0,0:0:0:0:
192,192,96668,1,2,0:0:0:0:
320,192,96668,1,0,0:0:0:0:
448,192,96745,1,0,0:0:0:0:
64,192,96821,1,2,0:0:0:0:
192,192,96821,1,0,0:0:0:0:
320,192,96898,1,0,0:0:0:0:
64,192,96974,1,2,0:0:0:0:
448,192,96974,1,0,0:0:0:0:
192,192,97051,1,0,0:0:0:0:
320,192,97127,1,0,0:0:0:0:
448,192,97127,1,0,0:0:0:0:
64,192,97204,1,0,0:0:0:0:
320,192,97280,1,2,0:0:0:0:
448,192,97280,1,0,0:0:0:0:
192,192,97280,1,0,0:0:0:0:
64,192,97357,1,0,0:0:0:0:
192,192,97434,1,0,0:0:0:0:
448,192,97510,1,0,0:0:0:0:
320,192,97587,1,0,0:0:0:0:
192,192,97663,1,0,0:0:0:0:
64,192,97740,1,2,0:0:0:0:
448,192,97816,1,0,0:0:0:0:
192,192,97893,1,2,0:0:0:0:
320,192,97969,1,0,0:0:0:0:
448,192,98046,1,2,0:0:0:0:
64,192,98122,1,0,0:0:0:0:
320,192,98199,1,2,0:0:0:0:
448,192,98199,1,0,0:0:0:0:
64,192,98250,1,0,0:0:0:0:
192,192,98301,1,0,0:0:0:0:
320,192,98352,1,2,0:0:0:0:
192,192,98403,1,0,0:0:0:0:
320,192,98454,1,0,0:0:0:0:
448,192,98505,1,2,0:0:0:0:
64,192,98505,1,0,0:0:0:0:
192,192,98556,1,0,0:0:0:0:
320,192,98607,1,0,0:0:0:0:
64,192,98658,1,2,0:0:0:0:
448,192,98709,1,0,0:0:0:0:
320,192,98760,1,0,0:0:0:0:
64,192,98811,1,2,0:0:0:0:
192,192,98811,1,0,0:0:0:0:
448,192,98862,1,0,0:0:0:0:
320,192,98913,1,0,0:0:0:0:
192,192,98964,1,2,0:0:0:0:
448,192,99015,1,0,0:0:0:0:
64,192,99066,1,0,0:0:0:0:
192,192,99117,1,4,0:0:0:0:
320,192,99117,1,8,0:0:0:0:
448,192,99194,1,0,0:0:0:0:
192,192,99270,1,2,0:0:0:0:
64,192,99270,1,0,0:0:0:0:
320,192,99347,1,0,0:0:0:0:
448,192,99423,1,0,0:0:0:0:
64,192,99500,1,0,0:0:0:0:
192,192,99576,1,2,0:0:0:0:
320,192,99576,1,0,0:0:0:0:
448,192,99653,1,0,0:0:0:0:
64,192,99729,1,2,0:0:0:0:
192,192,99729,1,0,0:0:0:0:
320,192,99806,1,0,0:0:0:0:
448,192,99883,1,0,0:0:0:0:
320,192,99959,1,0,0:0:0:0:
64,192,100036,1,2,0:0:0:0:
448,192,100036,1,0,0:0:0:0:
192,192,100112,1,0,0:0:0:0:
320,192,100189,1,0,0:0:0:0:
448,192,100265,1,0,0:0:0:0:
64,192,100342,1,0,0:0:0:0:
320,192,100418,1,0,0:0:0:0:
192,192,100495,1,0,0:0:0:0:
448,192,100571,1,0,0:0:0:0:
320,192,100648,1,0,0:0:0:0:
192,192,100724,1,0,0:0:0:0:
64,192,100801,1,0,0:0:0:0:
192,192,100877,1,0,0:0:0:0:
320,192,100954,1,2,0:0:0:0:
448,192,100954,1,0,0:0:0:0:
64,192,101030,1,0,0:0:0:0:
320,192,101107,1,2,0:0:0:0:
448,192,101107,1,0,0:0:0:0:
192,192,101184,1,0,0:0:0:0:
64,192,101260,1,0,0:0:0:0:
192,192,101337,1,0,0:0:0:0:
448,192,101413,1,2,0:0:0:0:
320,192,101413,1,0,0:0:0:0:
64,192,101490,1,0,0:0:0:0:
320,192,101566,1,2,0:0:0:0:
448,192,101566,1,0,0:0:0:0:
64,192,101643,1,0,0:0:0:0:
192,192,101719,1,0,0:0:0:0:
320,192,101796,1,0,0:0:0:0:
448,192,101872,1,2,0:0:0:0:
64,192,101872,1,0,0:0:0:0:
192,192,101949,1,0,0:0:0:0:
320,192,102025,1,0,0:0:0:0:
448,192,102102,1,0,0:0:0:0:
192,192,102178,1,0,0:0:0:0:
64,192,102255,1,0,0:0:0:0:
448,192,102331,1,0,0:0:0:0:
192,192,102408,1,0,0:0:0:0:
320,192,102485,1,8,0:0:0:0:
448,192,102561,1,0,0:0:0:0:
192,192,102638,1,2,0:0:0:0:
64,192,102638,1,0,0:0:0:0:
320,192,102714,1,2,0:0:0:0:
448,192,102714,1,0,0:0:0:0:
192,192,102791,1,2,0:0:0:0:
64,192,102791,1,4,0:0:0:0:
320,192,102867,1,0,0:0:0:0:
448,192,102944,1,2,0:0:0:0:
64,192,102944,1,0,0:0:0:0:
192,192,103020,1,0,0:0:0:0:
320,192,103097,1,0,0:0:0:0:
448,192,103173,1,0,0:0:0:0:
64,192,103250,1,2,0:0:0:0:
192,192,103250,1,0,0:0:0:0:
320,192,103326,1,0,0:0:0:0:
448,192,103403,1,8,0:0:0:0:
64,192,103403,1,2,0:0:0:0:
320,192,103479,1,0,0:0:0:0:
192,192,103556,1,0,0:0:0:0:
64,192,103633,1,0,0:0:0:0:
448,192,103709,1,2,0:0:0:0:
320,192,103709,1,0,0:0:0:0:
192,192,103786,1,0,0:0:0:0:
320,192,103862,1,2,0:0:0:0:
448,192,103939,1,0,0:0:0:0:
320,192,104015,1,0,0:0:0:0:
192,192,104092,1,0,0:0:0:0:
64,192,104168,1,0,0:0:0:0:
448,192,104245,1,0,0:0:0:0:
192,192,104321,1,0,0:0:0:0:
320,192,104398,1,0,0:0:0:0:
448,192,104474,1,0,0:0:0:0:
64,192,104551,1,0,0:0:0:0:
192,192,104627,1,2,0:0:0:0:
320,192,104627,1,0,0:0:0:0:
448,192,104704,1,0,0:0:0:0:
192,192,104780,1,2,0:0:0:0:
64,192,104780,1,0,0:0:0:0:
448,192,104857,1,0,0:0:0:0:
320,192,104934,1,0,0:0:0:0:
64,192,105010,1,0,0:0:0:0:
192,192,105087,1,2,0:0:0:0:
320,192,105087,1,0,0:0:0:0:
448,192,105163,1,0,0:0:0:0:
64,192,105240,1,8,0:0:0:0:
192,192,105240,1,2,0:0:0:0:
448,192,105316,1,0,0:0:0:0:
192,192,105393,1,0,0:0:0:0:
320,192,105469,1,0,0:0:0:0:
192,192,105546,1,2,0:0:0:0:
64,192,105546,1,0,0:0:0:0:
320,192,105622,1,0,0:0:0:0:
192,192,105699,1,2,0:0:0:0:
64,192,105699,1,0,0:0:0:0:
320,192,105775,1,2,0:0:0:0:
448,192,105775,1,0,0:0:0:0:
192,192,105852,1,2,0:0:0:0:
64,192,105852,1,0,0:0:0:0:
448,192,105928,1,2,0:0:0:0:
64,192,106005,1,2,0:0:0:0:
192,192,106043,1,2,0:0:0:0:
320,192,106081,1,2,0:0:0:0:
448,192,106120,1,2,0:0:0:0:
64,192,106158,1,0,0:0:0:0:
192,192,106158,1,0,0:0:0:0:
320,192,106235,1,0,0:0:0:0:
448,192,106235,1,0,0:0:0:0:
192,192,106311,1,0,0:0:0:0:
64,192,106311,1,0,0:0:0:0:
320,192,106388,1,0,0:0:0:0:
448,192,106388,1,0,0:0:0:0:
64,192,106464,1,8,0:0:0:0:
192,192,106464,1,0,0:0:0:0:
448,192,106541,1,0,0:0:0:0:
320,192,106617,1,0,0:0:0:0:
192,192,106694,1,0,0:0:0:0:
64,192,106770,1,2,0:0:0:0:
448,192,106770,1,0,0:0:0:0:
192,192,106847,1,0,0:0:0:0:
320,192,106923,1,0,0:0:0:0:
448,192,107000,1,0,0:0:0:0:
192,192,107076,1,2,0:0:0:0:
64,192,107076,1,0,0:0:0:0:
320,192,107153,1,0,0:0:0:0:
192,192,107229,1,0,0:0:0:0:
320,192,107306,1,0,0:0:0:0:
64,192,107383,1,2,0:0:0:0:
448,192,107383,1,0,0:0:0:0:
192,192,107459,1,0,0:0:0:0:
320,192,107536,1,0,0:0:0:0:
448,192,107612,1,0,0:0:0:0:
192,192,107689,1,2,0:0:0:0:
64,192,107689,1,0,0:0:0:0:
448,192,107765,1,0,0:0:0:0:
320,192,107842,1,0,0:0:0:0:
192,192,107918,1,0,0:0:0:0:
64,192,107995,1,2,0:0:0:0:
448,192,107995,1,0,0:0:0:0:
320,192,108071,1,0,0:0:0:0:
192,192,108148,1,0,0:0:0:0:
320,192,108224,1,0,0:0:0:0:
64,192,108301,1,2,0:0:0:0:
192,192,108301,1,0,0:0:0:0:
448,192,108377,1,0,0:0:0:0:
320,192,108454,1,0,0:0:0:0:
64,192,108530,1,0,0:0:0:0:
192,192,108607,1,2,0:0:0:0:
448,192,108607,1,0,0:0:0:0:
320,192,108684,1,0,0:0:0:0:
64,192,108760,1,0,0:0:0:0:
448,192,108837,1,0,0:0:0:0:
320,192,108913,1,2,0:0:0:0:
192,192,108913,1,0,0:0:0:0:
64,192,108990,1,0,0:0:0:0:
192,192,109066,1,0,0:0:0:0:
320,192,109143,1,0,0:0:0:0:
448,192,109219,1,2,0:0:0:0:
64,192,109219,1,0,0:0:0:0:
192,192,109296,1,0,0:0:0:0:
320,192,109372,1,0,0:0:0:0:
192,192,109449,1,0,0:0:0:0:
320,192,109525,1,2,0:0:0:0:
448,192,109525,1,0,0:0:0:0:
64,192,109602,1,0,0:0:0:0:
192,192,109678,1,0,0:0:0:0:
448,192,109755,1,0,0:0:0:0:
320,192,109831,1,2,0:0:0:0:
64,192,109831,1,0,0:0:0:0:
192,192,109908,1,0,0:0:0:0:
320,192,109985,1,0,0:0:0:0:
448,192,110061,1,0,0:0:0:0:
192,192,110138,1,2,0:0:0:0:
64,192,110138,1,0,0:0:0:0:
320,192,110138,1,0,0:0:0:0:
448,192,110214,1,0,0:0:0:0:
320,192,110291,1,0,0:0:0:0:
192,192,110367,1,0,0:0:0:0:
64,192,110444,1,2,0:0:0:0:
448,192,110520,1,0,0:0:0:0:
192,192,110597,1,0,0:0:0:0:
320,192,110673,1,0,0:0:0:0:
448,192,110750,1,2,0:0:0:0:
64,192,110826,1,0,0:0:0:0:
192,192,110903,1,0,0:0:0:0:
320,192,110979,1,0,0:0:0:0:
448,192,111056,1,2,0:0:0:0:
192,192,111056,1,0,0:0:0:0:
64,192,111056,1,0,0:0:0:0:
320,192,111107,1,0,0:0:0:0:
448,192,111158,1,0,0:0:0:0:
320,192,111209,1,0,0:0:0:0:
192,192,111260,1,0,0:0:0:0:
64,192,111311,1,0,0:0:0:0:
448,192,111362,1,2,0:0:0:0:
192,192,111413,1,0,0:0:0:0:
320,192,111464,1,0,0:0:0:0:
64,192,111515,1,0,0:0:0:0:
192,192,111566,1,0,0:0:0:0:
320,192,111617,1,0,0:0:0:0:
448,192,111668,1,2,0:0:0:0:
64,192,111719,1,0,0:0:0:0:
192,192,111770,1,0,0:0:0:0:
448,192,111821,1,0,0:0:0:0:
64,192,111872,1,0,0:0:0:0:
320,192,111923,1,0,0:0:0:0:
192,192,111974,1,2,0:0:0:0:
64,192,111974,1,0,0:0:0:0:
448,192,111974,1,0,0:0:0:0:
320,192,112051,1,0,0:0:0:0:
64,192,112127,1,0,0:0:0:0:
448,192,112127,1,0,0:0:0:0:
192,192,112204,1,0,0:0:0:0:
320,192,112204,1,0,0:0:0:0:
64,192,112280,1,2,0:0:0:0:
448,192,112280,1,0,0:0:0:0:
192,192,112357,1,0,0:0:0:0:
320,192,112434,1,0,0:0:0:0:
448,192,112434,1,0,0:0:0:0:
192,192,112510,1,0,0:0:0:0:
64,192,112510,1,0,0:0:0:0:
320,192,112587,1,2,0:0:0:0:
448,192,112587,1,0,0:0:0:0:
64,192,112638,1,0,0:0:0:0:
192,192,112689,1,0,0:0:0:0:
320,192,112740,1,0,0:0:0:0:
448,192,112740,1,0,0:0:0:0:
64,192,112791,1,0,0:0:0:0:
448,192,112842,1,0,0:0:0:0:
320,192,112893,1,2,0:0:0:0:
192,192,112893,1,0,0:0:0:0:
64,192,112944,1,0,0:0:0:0:
448,192,112995,1,0,0:0:0:0:
192,192,113046,1,0,0:0:0:0:
64,192,113097,1,0,0:0:0:0:
320,192,113148,1,0,0:0:0:0:
192,192,113199,1,2,0:0:0:0:
448,192,113199,1,0,0:0:0:0:
64,192,113250,1,0,0:0:0:0:
320,192,113301,1,0,0:0:0:0:
448,192,113352,1,0,0:0:0:0:
64,192,113403,1,0,0:0:0:0:
192,192,113454,1,0,0:0:0:0:
320,192,113505,1,2,0:0:0:0:
448,192,113505,1,0,0:0:0:0:
64,192,113556,1,0,0:0:0:0:
448,192,113607,1,0,0:0:0:0:
192,192,113658,1,0,0:0:0:0:
320,192,113709,1,0,0:0:0:0:
64,192,113760,1,0,0:0:0:0:
192,192,113811,1,4,0:0:0:0:
320,192,113811,1,2,0:0:0:0:
448,192,113811,1,0,0:0:0:0:
64,192,113964,1,2,2:0:0:0:
192,192,114117,1,2,2:0:0:0:
320,192,114270,1,2,2:0:0:0:
448,192,114423,1,2,2:0:0:0:
320,192,114576,1,2,2:0:0:0:
64,192,114729,1,2,2:0:0:0:
192,192,114883,1,2,2:0:0:0:
320,192,115036,1,2,2:0:0:0:
448,192,115189,1,2,2:0:0:0:
320,192,115342,1,2,2:0:0:0:
448,192,115495,1,2,2:0:0:0:
64,192,115648,1,2,2:0:0:0:
192,192,115805,1,2,2:0:0:0:
320,192,115963,1,2,2:0:0:0:
448,192,116121,1,2,2:0:0:0:
320,192,116279,1,2,2:0:0:0:
448,192,116437,1,2,2:0:0:0:
64,192,116595,1,2,2:0:0:0:
192,192,116758,1,2,2:0:0:0:
320,192,116921,1,2,2:0:0:0:
448,192,117084,1,2,2:0:0:0:
192,192,117252,1,2,2:0:0:0:
320,192,117426,1,2,2:0:0:0:
64,192,117576,1,2,2:0:0:0:
192,192,117606,1,2,2:0:0:0:
448,192,117634,1,2,2:0:0:0:
