osu file format v14

[General]
AudioFilename: 1-10 Aragami.mp3
AudioLeadIn: 0
PreviewTime: 158464
Countdown: 0
SampleSet: None
StackLeniency: 0.7
Mode: 0
LetterboxInBreaks: 1
WidescreenStoryboard: 1

[Editor]
DistanceSpacing: 0.8
BeatDivisor: 4
GridSize: 4
TimelineZoom: 1

[Metadata]
Title:Aragami
TitleUnicode:Aragami
Artist:xi
ArtistUnicode:xi
Creator:lahphnya
Version:AR9.5
Source:
Tags:
BeatmapID:829778
BeatmapSetID:379050

[Difficulty]
HPDrainRate:4
CircleSize:4
OverallDifficulty:7.5
ApproachRate:9.5
SliderMultiplier:2.4
SliderTickRate:1

[Events]
//Background and Video events
0,0,"Konachan.com - 209781 sample.jpg",0,0
//Break Periods
2,139072,141103
//Storyboard Layer 0 (Background)
//Storyboard Layer 1 (Fail)
//Storyboard Layer 2 (Pass)
//Storyboard Layer 3 (Foreground)
//Storyboard Sound Samples

[TimingPoints]
2422,612.244897959184,4,1,0,100,1,0
19564,731.707317073171,4,1,0,100,1,0
21027,1000,4,1,0,100,1,0
46424,306.122448979592,3,1,0,100,1,0
46424,-100,3,1,0,50,0,0
55607,-133.333333333333,3,1,0,50,0,0
68158,-90.9090909090909,3,1,0,50,0,0
92342,-133.333333333333,3,1,0,50,0,0
116832,-90.9090909090909,3,1,0,50,0,0
141628,-83.3333333333333,3,1,0,50,0,0
156092,-76.9230769230769,3,1,0,50,0,0
157240,-133.333333333333,3,1,0,50,0,0
157852,-66.6666666666667,3,1,0,50,0,0
173770,-62.5,3,1,0,50,0,0

[HitObjects]
280,60,46424,5,0,0:0:0:0:
152,284,46577,1,0,0:0:0:0:
152,284,46653,1,0,0:0:0:0:
152,284,46730,2,0,P|136:204|160:152,1,120
336,224,47036,2,0,P|344:304|332:352,1,120
268,64,47342,1,0,0:0:0:0:
312,48,47418,1,0,0:0:0:0:
360,48,47495,1,0,0:0:0:0:
404,64,47571,1,0,0:0:0:0:
444,92,47648,1,0,0:0:0:0:
464,136,47725,1,0,0:0:0:0:
468,184,47801,1,0,0:0:0:0:
456,232,47878,1,0,0:0:0:0:
428,272,47954,5,0,0:0:0:0:
344,156,48107,1,0,0:0:0:0:
224,336,48260,1,0,0:0:0:0:
144,128,48413,1,0,0:0:0:0:
288,232,48566,2,0,P|360:248|448:176,1,180
408,80,48872,6,0,P|348:60|268:88,1,120
136,128,49179,6,0,P|148:212|152:276,1,120
148,296,49408,1,0,0:0:0:0:
104,312,49485,1,0,0:0:0:0:
56,308,49561,1,0,0:0:0:0:
24,272,49638,1,0,0:0:0:0:
136,112,49791,5,0,0:0:0:0:
160,320,49944,1,0,0:0:0:0:
136,112,50097,1,0,0:0:0:0:
276,260,50250,1,0,0:0:0:0:
276,260,50327,1,0,0:0:0:0:
276,260,50403,2,0,P|324:260|352:252,1,60
428,212,50556,2,0,P|416:148|404:128,1,60
352,80,50709,2,0,P|284:60|220:92,1,120
160,132,50939,1,0,0:0:0:0:
160,132,51015,6,0,P|168:200|168:260,1,120
60,196,51321,1,0,0:0:0:0:
292,156,51475,1,0,0:0:0:0:
32,192,51628,1,0,0:0:0:0:
292,156,51781,1,0,0:0:0:0:
148,44,51934,5,0,0:0:0:0:
136,92,52010,1,0,0:0:0:0:
144,140,52087,1,0,0:0:0:0:
172,180,52163,1,0,0:0:0:0:
216,204,52240,1,0,0:0:0:0:
264,204,52316,1,0,0:0:0:0:
308,180,52393,1,0,0:0:0:0:
356,172,52469,1,0,0:0:0:0:
400,196,52546,1,0,0:0:0:0:
420,240,52622,1,0,0:0:0:0:
408,288,52699,1,0,0:0:0:0:
368,316,52776,1,0,0:0:0:0:
320,312,52852,2,0,B|308:280|308:280|304:232,3,60
212,188,53158,2,0,B|188:200|188:200|128:204,3,60
60,156,53464,2,0,B|56:112|56:112|72:72,3,60
148,44,53770,5,0,0:0:0:0:
148,44,55607,6,0,P|144:104|164:160,1,90.0000034332277
240,256,55913,1,0,0:0:0:0:
256,136,56066,1,0,0:0:0:0:
148,200,56219,1,0,0:0:0:0:
348,180,56372,1,0,0:0:0:0:
132,180,56526,6,0,P|104:244|160:376,1,180.000006866455
24,208,56985,2,0,P|104:216|184:124,1,180.000006866455
116,72,57444,5,0,0:0:0:0:
268,264,57597,1,0,0:0:0:0:
344,164,57750,2,0,P|412:164|448:180,1,90.0000034332277
264,220,58056,2,0,P|248:136|264:96,1,90.0000034332277
264,96,58286,1,0,0:0:0:0:
264,96,58362,5,0,0:0:0:0:
264,312,58515,1,0,0:0:0:0:
356,180,58668,2,0,P|360:104|360:72,1,90.0000034332277
228,228,58975,1,0,0:0:0:0:
472,184,59128,1,0,0:0:0:0:
428,288,59281,6,0,P|368:288|328:272,1,90.0000034332277
276,160,59587,1,0,0:0:0:0:
148,256,59740,2,0,P|132:204|140:136,1,90.0000034332277
188,56,60046,1,0,0:0:0:0:
308,160,60199,6,0,P|328:244|304:368,2,180.000006866455
148,256,60964,1,0,0:0:0:0:
148,256,61041,1,0,0:0:0:0:
148,256,61117,5,0,0:0:0:0:
316,144,61270,1,0,0:0:0:0:
224,320,61424,1,0,0:0:0:0:
192,164,61577,1,0,0:0:0:0:
232,336,61730,1,0,0:0:0:0:
316,144,61883,1,0,0:0:0:0:
240,232,62036,6,0,P|164:232|144:224,1,90.0000034332277
48,128,62342,2,0,P|48:192|68:304,1,135.000005149842
56,292,62648,2,0,P|112:288|152:260,1,90.0000034332277
240,220,62954,6,0,P|320:216|364:240,1,90.0000034332277
424,344,63260,1,0,0:0:0:0:
480,232,63413,2,0,P|480:164|472:116,1,90.0000034332277
220,216,63719,1,0,0:0:0:0:
220,216,63796,1,0,0:0:0:0:
220,216,63872,6,0,P|220:280|232:324,1,90.0000034332277
312,120,64179,1,0,0:0:0:0:
116,60,64332,2,0,P|116:124|120:188,1,90.0000034332277
236,60,64638,1,0,0:0:0:0:
92,188,64791,5,0,0:0:0:0:
224,168,64944,1,0,0:0:0:0:
96,56,65097,1,0,0:0:0:0:
260,252,65250,2,0,P|320:256|372:240,1,90.0000034332277
484,132,65556,1,0,0:0:0:0:
384,220,65709,6,0,P|384:284|400:340,1,90.0000034332277
232,152,66015,1,0,0:0:0:0:
204,316,66168,1,0,0:0:0:0:
320,112,66321,1,0,0:0:0:0:
140,220,66475,1,0,0:0:0:0:
328,328,66628,2,0,P|380:336|440:308,1,90.0000034332277
224,140,66934,1,0,0:0:0:0:
432,160,67087,1,0,0:0:0:0:
124,232,67240,1,0,0:0:0:0:
320,96,67393,1,0,0:0:0:0:
312,328,67546,6,0,P|264:328|208:316,1,90.0000034332277
208,288,67776,1,0,0:0:0:0:
176,276,67852,1,0,0:0:0:0:
140,288,67929,1,0,0:0:0:0:
120,316,68005,1,0,0:0:0:0:
224,140,68158,1,0,0:0:0:0:
272,164,68235,1,0,0:0:0:0:
324,164,68311,1,0,0:0:0:0:
368,136,68388,1,0,0:0:0:0:
388,88,68464,6,0,P|416:84|464:96,1,66.0000020141602
280,72,68617,2,0,P|304:24|328:8,1,66.0000020141602
196,124,68770,2,0,P|180:56|184:32,1,66.0000020141602
152,224,68924,2,0,P|104:196|84:168,1,66.0000020141602
296,352,69077,1,0,0:0:0:0:
312,300,69153,1,0,0:0:0:0:
328,248,69230,1,0,0:0:0:0:
344,200,69306,1,0,0:0:0:0:
396,184,69383,5,0,0:0:0:0:
152,224,69536,5,0,0:0:0:0:
396,184,69689,1,0,0:0:0:0:
204,316,69842,1,0,0:0:0:0:
396,184,69995,1,0,0:0:0:0:
396,184,70301,5,0,0:0:0:0:
200,328,70454,2,0,B|184:276|184:276|200:224|200:224|168:180|160:92|188:56,1,264.000008056641
324,96,70913,1,0,0:0:0:0:
56,168,71066,1,0,0:0:0:0:
96,312,71219,5,0,0:0:0:0:
296,200,71372,1,0,0:0:0:0:
296,200,71449,1,0,0:0:0:0:
296,200,71526,2,0,P|296:124|264:64,1,132.00000402832
464,312,71832,2,0,P|388:324|344:268,1,132.00000402832
80,320,72138,5,0,0:0:0:0:
208,220,72291,2,0,B|212:152|212:152|180:80,1,132.00000402832
352,96,72597,1,0,0:0:0:0:
108,192,72750,1,0,0:0:0:0:
296,340,72903,1,0,0:0:0:0:
108,192,73056,2,0,P|28:208|4:276,1,132.00000402832
300,352,73362,1,0,0:0:0:0:
304,300,73439,1,0,0:0:0:0:
300,248,73515,1,0,0:0:0:0:
284,196,73592,1,0,0:0:0:0:
260,148,73668,1,0,0:0:0:0:
256,96,73745,1,0,0:0:0:0:
284,52,73821,1,0,0:0:0:0:
336,36,73898,1,0,0:0:0:0:
388,48,73975,5,0,0:0:0:0:
268,208,74128,2,0,P|176:216|104:184,1,132.00000402832
28,60,74434,1,0,0:0:0:0:
200,192,74587,2,0,P|208:276|204:348,1,132.00000402832
300,352,74816,1,0,0:0:0:0:
300,352,74893,6,0,P|348:348|412:324,1,66.0000020141602
472,284,75046,2,0,P|488:228|488:200,1,66.0000020141602
344,132,75199,2,0,P|308:124|256:124,1,66.0000020141602
96,248,75352,2,0,P|140:256|192:256,1,66.0000020141602
296,372,75505,2,0,P|300:312|296:268,1,66.0000020141602
192,136,75658,2,0,P|184:108|184:48,1,66.0000020141602
256,16,75811,6,0,L|416:0,1,132.00000402832
468,144,76117,1,0,0:0:0:0:
340,352,76270,1,0,0:0:0:0:
328,300,76347,1,0,0:0:0:0:
312,248,76424,1,0,0:0:0:0:
128,56,76577,1,0,0:0:0:0:
80,80,76653,1,0,0:0:0:0:
60,128,76730,6,0,P|64:220|80:308,1,132.00000402832
256,192,77036,2,0,P|164:184|124:224,1,132.00000402832
428,364,77342,1,0,0:0:0:0:
440,312,77418,1,0,0:0:0:0:
444,260,77495,1,0,0:0:0:0:
440,208,77571,1,0,0:0:0:0:
420,160,77648,6,0,B|368:144|368:144|320:160|256:148,1,132.00000402832
92,216,77954,1,0,0:0:0:0:
260,28,78107,1,0,0:0:0:0:
144,320,78260,2,0,P|60:320|16:292,1,132.00000402832
36,132,78566,6,0,P|116:124|184:168,1,132.00000402832
296,240,78872,2,0,P|384:252|456:212,1,132.00000402832
420,52,79179,1,0,0:0:0:0:
372,36,79255,1,0,0:0:0:0:
320,40,79332,1,0,0:0:0:0:
272,60,79408,1,0,0:0:0:0:
236,100,79485,5,0,0:0:0:0:
264,344,79638,1,0,0:0:0:0:
360,140,79791,1,0,0:0:0:0:
72,260,79944,1,0,0:0:0:0:
360,140,80097,1,0,0:0:0:0:
284,340,80250,1,0,0:0:0:0:
168,76,80403,2,0,P|80:68|32:112,1,132.00000402832
40,176,80633,1,0,0:0:0:0:
72,216,80709,1,0,0:0:0:0:
124,216,80786,1,0,0:0:0:0:
168,192,80862,1,0,0:0:0:0:
180,140,80939,1,0,0:0:0:0:
208,96,81015,1,0,0:0:0:0:
260,92,81092,1,0,0:0:0:0:
304,120,81168,1,0,0:0:0:0:
324,168,81245,1,0,0:0:0:0:
308,220,81321,5,0,0:0:0:0:
464,344,81475,1,0,0:0:0:0:
464,292,81551,1,0,0:0:0:0:
460,240,81628,1,0,0:0:0:0:
328,20,81781,1,0,0:0:0:0:
220,252,81934,1,0,0:0:0:0:
168,264,82010,1,0,0:0:0:0:
116,276,82087,1,0,0:0:0:0:
12,108,82240,5,0,0:0:0:0:
208,160,82393,1,0,0:0:0:0:
260,164,82469,1,0,0:0:0:0:
312,152,82546,1,0,0:0:0:0:
360,128,82622,1,0,0:0:0:0:
400,92,82699,1,0,0:0:0:0:
132,88,82852,1,0,0:0:0:0:
168,264,83005,1,0,0:0:0:0:
264,52,83158,5,0,0:0:0:0:
288,324,83311,1,0,0:0:0:0:
336,344,83388,1,0,0:0:0:0:
388,340,83464,1,0,0:0:0:0:
156,364,83617,1,0,0:0:0:0:
124,72,83770,1,0,0:0:0:0:
256,244,83924,1,0,0:0:0:0:
332,140,84077,5,0,0:0:0:0:
348,132,84153,1,0,0:0:0:0:
368,124,84230,1,0,0:0:0:0:
388,120,84306,1,0,0:0:0:0:
432,124,84383,1,0,0:0:0:0:
464,164,84459,1,0,0:0:0:0:
468,216,84536,1,0,0:0:0:0:
440,260,84612,1,0,0:0:0:0:
388,272,84689,1,0,0:0:0:0:
340,248,84765,1,0,0:0:0:0:
324,196,84842,1,0,0:0:0:0:
332,144,84918,1,0,0:0:0:0:
352,96,84995,6,0,P|240:52|112:136,1,264.000008056641
272,296,85454,1,0,0:0:0:0:
356,88,85607,2,0,P|432:76|496:108,1,132.00000402832
272,296,85913,2,0,B|224:304|224:304|180:284|180:284|136:312|136:312|80:296|-8:320,1,264.000008056641
272,164,86372,2,0,P|356:152|424:156,1,132.00000402832
104,108,86679,1,0,0:0:0:0:
384,24,86832,6,0,P|380:104|360:176,1,132.00000402832
168,224,87138,1,0,0:0:0:0:
168,224,87214,1,0,0:0:0:0:
168,224,87291,1,0,0:0:0:0:
280,352,87444,1,0,0:0:0:0:
360,152,87597,1,0,0:0:0:0:
168,224,87750,6,0,P|84:224|12:220,1,132.00000402832
336,276,88056,2,0,P|412:268|460:228,1,132.00000402832
468,196,88286,1,0,0:0:0:0:
468,196,88362,2,0,P|464:300|472:368,1,132.00000402832
320,288,88668,6,0,P|312:196|308:68,1,198.000006042481
296,72,88975,2,0,P|212:84|132:76,1,132.00000402832
60,204,89281,1,0,0:0:0:0:
104,360,89434,1,0,0:0:0:0:
240,284,89587,6,0,P|240:196|236:120,1,132.00000402832
400,28,89893,1,0,0:0:0:0:
432,216,90046,1,0,0:0:0:0:
432,216,90122,1,0,0:0:0:0:
432,216,90199,2,0,P|336:228|264:220,1,132.00000402832
144,168,90505,6,0,P|79:157|16:172,1,132.00000402832
260,368,90811,2,0,P|268:280|256:216,1,132.00000402832
136,40,91117,2,0,P|128:136|156:200,1,132.00000402832
240,108,91424,5,0,0:0:0:0:
48,232,91577,1,0,0:0:0:0:
136,40,91730,1,0,0:0:0:0:
164,296,91883,1,0,0:0:0:0:
144,168,92036,1,0,0:0:0:0:
196,156,92112,1,0,0:0:0:0:
248,140,92189,1,0,0:0:0:0:
296,124,92265,1,0,0:0:0:0:
348,108,92342,6,0,P|352:188|348:228,1,90.0000034332277
184,304,92648,1,0,0:0:0:0:
392,368,92801,2,0,P|460:368|488:352,1,90.0000034332277
248,120,93107,1,0,0:0:0:0:
244,236,93260,5,0,0:0:0:0:
408,184,93413,1,0,0:0:0:0:
352,96,93566,1,0,0:0:0:0:
244,236,93719,2,0,P|244:312|256:348,1,90.0000034332277
336,256,94026,1,0,0:0:0:0:
144,176,94179,6,0,P|88:176|56:208,1,90.0000034332277
88,296,94485,2,0,P|152:288|180:252,1,90.0000034332277
324,160,94791,1,0,0:0:0:0:
400,324,94944,1,0,0:0:0:0:
236,344,95097,6,0,P|232:264|244:220,1,90.0000034332277
380,228,95403,2,0,P|332:264|280:256,1,90.0000034332277
72,216,95709,1,0,0:0:0:0:
340,152,95862,1,0,0:0:0:0:
168,316,96015,5,0,0:0:0:0:
160,280,96092,1,0,0:0:0:0:
156,244,96168,1,0,0:0:0:0:
148,208,96245,1,0,0:0:0:0:
144,172,96321,1,0,0:0:0:0:
136,136,96398,1,0,0:0:0:0:
128,100,96475,1,0,0:0:0:0:
120,64,96551,1,0,0:0:0:0:
160,88,96628,1,0,0:0:0:0:
204,92,96704,1,0,0:0:0:0:
248,84,96781,1,0,0:0:0:0:
288,64,96857,1,0,0:0:0:0:
312,24,96934,6,0,P|392:16|488:108,1,180.000006866455
380,160,97393,2,0,P|376:208|388:256,1,90.0000034332277
468,196,97699,1,0,0:0:0:0:
230,172,97852,2,0,P|150:168|122:188,1,90.0000034332277
60,248,98158,2,0,P|64:316|68:360,1,90.0000034332277
184,244,98464,2,0,P|180:160|168:128,1,90.0000034332277
100,180,98770,6,0,P|180:192|276:124,1,180.000006866455
352,240,99230,1,0,0:0:0:0:
456,144,99383,2,0,P|452:84|448:40,1,90.0000034332277
376,232,99689,6,0,P|424:236|504:220,1,90.0000034332277
304,108,99995,1,0,0:0:0:0:
224,188,100148,2,0,P|220:252|232:296,1,90.0000034332277
332,240,100454,1,0,0:0:0:0:
284,336,100607,5,0,0:0:0:0:
196,264,100760,1,0,0:0:0:0:
352,240,100913,1,0,0:0:0:0:
272,352,101066,1,0,0:0:0:0:
84,308,101219,2,0,P|72:248|72:200,1,90.0000034332277
100,116,101526,2,0,P|160:108|200:120,1,90.0000034332277
240,232,101832,2,0,P|300:220|432:280,1,180.000006866455
432,360,102291,2,0,P|420:284|460:156,1,180.000006866455
392,84,102750,6,0,P|328:72|280:76,1,90.0000034332277
168,136,103056,1,0,0:0:0:0:
184,272,103209,1,0,0:0:0:0:
336,164,103362,5,0,0:0:0:0:
336,32,103515,1,0,0:0:0:0:
148,144,103668,2,0,P|180:212|200:344,1,180.000006866455
52,200,104128,2,0,P|44:128|52:84,2,90.0000034332277
192,104,104587,2,0,P|200:164|192:200,1,90.0000034332277
124,152,104893,1,0,0:0:0:0:
296,308,105046,2,0,P|360:316|440:228,1,180.000006866455
448,120,105505,6,0,P|392:104|324:104,1,90.0000034332277
256,140,105811,1,0,0:0:0:0:
252,304,105964,2,0,P|320:304|360:272,1,90.0000034332277
256,140,106270,1,0,0:0:0:0:
108,168,106424,5,0,0:0:0:0:
84,224,106526,1,0,0:0:0:0:
100,284,106628,1,0,0:0:0:0:
148,320,106730,1,0,0:0:0:0:
208,320,106832,1,0,0:0:0:0:
256,284,106934,1,0,0:0:0:0:
264,224,107036,2,0,B|316:208|316:208|304:240|316:296,1,135.000005149841
392,336,107342,2,0,P|396:236|424:116,1,180.000006866455
296,112,107801,2,0,P|228:108|176:124,1,90.0000034332277
364,36,108107,5,0,0:0:0:0:
244,224,108260,2,0,P|248:296|264:348,1,90.0000034332277
96,132,108566,1,0,0:0:0:0:
88,280,108719,1,0,0:0:0:0:
180,140,108872,1,0,0:0:0:0:
16,208,109026,1,0,0:0:0:0:
188,308,109179,1,0,0:0:0:0:
184,112,109332,1,0,0:0:0:0:
148,224,109485,2,0,P|200:220|264:204,1,90.0000034332277
392,56,109791,5,0,0:0:0:0:
420,108,109893,1,0,0:0:0:0:
420,168,109995,1,0,0:0:0:0:
380,216,110097,1,0,0:0:0:0:
376,276,110199,1,0,0:0:0:0:
404,328,110301,1,0,0:0:0:0:
448,368,110403,6,0,P|364:344|248:360,1,180.000006866455
140,364,110862,2,0,P|152:308|152:232,1,90.0000034332277
240,56,111168,1,0,0:0:0:0:
240,56,111321,1,0,0:0:0:0:
264,252,111628,6,0,P|320:232|476:260,1,180.000006866455
312,132,112087,1,0,0:0:0:0:
176,252,112240,2,0,P|184:316|192:368,1,90.0000034332277
324,128,112546,5,0,0:0:0:0:
128,152,112699,1,0,0:0:0:0:
328,232,112852,1,0,0:0:0:0:
248,40,113005,1,0,0:0:0:0:
244,272,113158,1,0,0:0:0:0:
336,124,113311,1,0,0:0:0:0:
112,180,113464,6,0,P|80:104|84:76,1,90.0000034332277
204,112,113770,2,0,L|204:200|204:280,1,135.000005149841
200,272,114077,2,0,P|256:264|320:264,1,90.0000034332277
432,336,114383,6,0,P|440:252|424:164,1,135.000005149841
420,172,114689,1,0,0:0:0:0:
260,360,114995,1,0,0:0:0:0:
200,144,115301,6,0,P|144:136|112:152,1,90.0000034332277
36,244,115607,2,0,P|96:260|152:232,1,90.0000034332277
264,208,115913,2,0,P|272:244|268:272,1,45.0000017166138
184,360,116066,2,0,P|160:336|148:316,1,45.0000017166138
192,244,116219,5,0,0:0:0:0:
216,240,116296,1,0,0:0:0:0:
236,236,116372,1,0,0:0:0:0:
260,232,116449,1,0,0:0:0:0:
284,228,116526,1,0,0:0:0:0:
304,224,116602,1,0,0:0:0:0:
328,220,116679,1,0,0:0:0:0:
348,216,116755,1,0,0:0:0:0:
372,212,116832,6,0,P|368:128|336:44,1,132.00000402832
284,332,117138,1,0,0:0:0:0:
208,124,117291,1,0,0:0:0:0:
172,364,117444,2,0,B|104:356|104:356|32:316,1,132.00000402832
112,56,117750,1,0,0:0:0:0:
144,268,117903,1,0,0:0:0:0:
144,268,117980,1,0,0:0:0:0:
144,268,118056,1,0,0:0:0:0:
40,132,118209,1,0,0:0:0:0:
244,84,118362,1,0,0:0:0:0:
156,344,118515,1,0,0:0:0:0:
96,40,118668,1,0,0:0:0:0:
264,248,118821,2,0,P|344:240|408:204,1,132.00000402832
476,88,119128,2,0,P|476:184|480:264,1,132.00000402832
428,348,119434,1,0,0:0:0:0:
248,248,119587,6,0,P|232:180|260:88,1,132.00000402832
224,72,119816,1,0,0:0:0:0:
176,48,119893,1,0,0:0:0:0:
124,56,119969,1,0,0:0:0:0:
88,96,120046,1,0,0:0:0:0:
308,12,120199,1,0,0:0:0:0:
244,356,120352,1,0,0:0:0:0:
244,356,120429,1,0,0:0:0:0:
244,356,120505,2,0,P|232:300|232:276,1,66.0000020141602
232,220,120658,2,0,P|152:208|80:248,1,132.00000402832
384,120,120964,1,0,0:0:0:0:
160,304,121117,1,0,0:0:0:0:
160,36,121270,1,0,0:0:0:0:
344,264,121424,2,0,P|416:272|480:248,1,132.00000402832
384,120,121730,5,0,0:0:0:0:
256,351,121883,2,0,P|249:285|248:220,1,132.00000402832
52,256,122189,1,0,0:0:0:0:
32,72,122342,1,0,0:0:0:0:
208,52,122495,1,0,0:0:0:0:
228,240,122648,5,0,0:0:0:0:
0,160,122801,1,0,0:0:0:0:
244,136,122954,2,0,P|316:152|384:232,1,132.00000402832
460,356,123260,1,0,0:0:0:0:
476,304,123337,1,0,0:0:0:0:
476,252,123413,1,0,0:0:0:0:
456,204,123490,1,0,0:0:0:0:
428,160,123566,1,0,0:0:0:0:
424,108,123643,1,0,0:0:0:0:
440,60,123719,1,0,0:0:0:0:
264,332,123872,1,0,0:0:0:0:
220,300,123949,1,0,0:0:0:0:
168,288,124025,1,0,0:0:0:0:
116,296,124102,1,0,0:0:0:0:
72,324,124179,6,0,P|52:248|76:176,1,132.00000402832
244,36,124485,2,0,P|256:116|240:208,1,132.00000402832
344,284,124791,2,0,P|444:272|496:288,1,132.00000402832
420,356,125097,1,0,0:0:0:0:
120,268,125250,1,0,0:0:0:0:
288,144,125403,5,0,0:0:0:0:
248,372,125556,1,0,0:0:0:0:
188,116,125709,1,0,0:0:0:0:
344,284,125862,1,0,0:0:0:0:
344,284,125939,1,0,0:0:0:0:
344,284,126015,2,0,P|416:272|464:220,1,132.00000402832
220,216,126321,1,0,0:0:0:0:
216,368,126475,2,0,B|144:376|144:376|72:368,1,132.00000402832
424,192,126781,1,0,0:0:0:0:
92,148,126934,1,0,0:0:0:0:
232,368,127087,1,0,0:0:0:0:
280,56,127240,5,0,0:0:0:0:
448,200,127393,1,0,0:0:0:0:
404,228,127469,1,0,0:0:0:0:
352,236,127546,1,0,0:0:0:0:
304,220,127622,1,0,0:0:0:0:
264,184,127699,1,0,0:0:0:0:
212,176,127776,1,0,0:0:0:0:
160,188,127852,1,0,0:0:0:0:
100,360,128005,1,0,0:0:0:0:
268,168,128158,5,0,0:0:0:0:
32,120,128311,1,0,0:0:0:0:
260,312,128464,1,0,0:0:0:0:
280,20,128617,1,0,0:0:0:0:
168,176,128770,2,0,P|152:104|160:24,1,132.00000402832
92,364,129077,5,0,0:0:0:0:
364,256,129230,1,0,0:0:0:0:
24,236,129383,1,0,0:0:0:0:
276,312,129536,1,0,0:0:0:0:
8,328,129689,2,0,P|-12:244|20:184,1,132.00000402832
216,76,129995,1,0,0:0:0:0:
192,360,130148,1,0,0:0:0:0:
216,76,130301,1,0,0:0:0:0:
268,60,130378,1,0,0:0:0:0:
320,68,130454,1,0,0:0:0:0:
368,96,130531,1,0,0:0:0:0:
396,140,130607,2,0,P|400:216|384:296,1,132.00000402832
176,360,130913,6,0,P|160:304|164:276,1,66.0000020141602
176,208,131066,1,0,0:0:0:0:
436,244,131219,1,0,0:0:0:0:
400,24,131372,1,0,0:0:0:0:
276,360,131526,2,0,B|256:308|256:308|252:232|252:232|220:176|204:80,1,264.000008056641
88,240,131985,1,0,0:0:0:0:
360,148,132138,1,0,0:0:0:0:
116,140,132291,1,0,0:0:0:0:
392,240,132444,2,0,P|408:148|384:64,1,132.00000402832
452,352,132750,2,0,P|360:336|292:360,1,132.00000402832
256,76,133056,1,0,0:0:0:0:
132,344,133209,1,0,0:0:0:0:
356,336,133362,1,0,0:0:0:0:
256,56,133515,1,0,0:0:0:0:
256,56,133592,1,0,0:0:0:0:
256,56,133668,1,0,0:0:0:0:
232,368,133821,1,0,0:0:0:0:
404,204,133975,2,0,P|412:124|384:52,1,132.00000402832
80,264,134281,5,0,0:0:0:0:
128,284,134357,1,0,0:0:0:0:
180,288,134434,1,0,0:0:0:0:
232,272,134510,1,0,0:0:0:0:
280,244,134587,1,0,0:0:0:0:
332,236,134663,1,0,0:0:0:0:
380,256,134740,1,0,0:0:0:0:
420,288,134816,1,0,0:0:0:0:
432,340,134893,2,0,P|472:360|504:372,1,66.0000020141602
408,244,135046,2,0,P|456:236|496:224,1,66.0000020141602
324,176,135199,2,0,B|340:108|340:108|332:0,1,132.00000402832
248,360,135505,5,0,0:0:0:0:
120,324,135658,1,0,0:0:0:0:
280,244,135811,5,0,0:0:0:0:
348,232,135913,1,0,0:0:0:0:
416,216,136015,1,0,0:0:0:0:
500,248,136117,1,0,0:0:0:0:
492,180,136219,1,0,0:0:0:0:
480,112,136321,1,0,0:0:0:0:
488,24,136424,1,0,0:0:0:0:
420,44,136526,1,0,0:0:0:0:
352,64,136628,1,0,0:0:0:0:
256,64,136730,1,0,0:0:0:0:
268,132,136832,1,0,0:0:0:0:
284,200,136934,1,0,0:0:0:0:
256,288,137036,5,0,0:0:0:0:
324,276,137138,1,0,0:0:0:0:
392,260,137240,1,0,0:0:0:0:
480,296,137342,1,0,0:0:0:0:
468,228,137444,1,0,0:0:0:0:
452,160,137546,1,0,0:0:0:0:
464,72,137648,1,0,0:0:0:0:
396,88,137750,1,0,0:0:0:0:
328,104,137852,1,0,0:0:0:0:
240,76,137954,1,0,0:0:0:0:
252,144,138056,1,0,0:0:0:0:
264,212,138158,1,0,0:0:0:0:
236,300,138260,5,0,0:0:0:0:
304,288,138362,1,0,0:0:0:0:
372,280,138464,1,0,0:0:0:0:
456,312,138566,1,0,0:0:0:0:
440,244,138668,1,0,0:0:0:0:
424,176,138770,1,0,0:0:0:0:
444,80,138872,1,0,0:0:0:0:
444,80,141628,5,0,0:0:0:0:
388,76,141704,1,0,0:0:0:0:
332,96,141781,1,0,0:0:0:0:
288,132,141857,1,0,0:0:0:0:
264,184,141934,1,0,0:0:0:0:
208,164,142010,1,0,0:0:0:0:
152,168,142087,1,0,0:0:0:0:
104,200,142163,1,0,0:0:0:0:
72,248,142240,2,0,B|80:172|80:172|48:16,1,215.999993408203
196,304,142546,6,0,P|280:288|344:328,1,143.999995605469
364,340,142776,1,0,0:0:0:0:
420,336,142852,1,0,0:0:0:0:
460,296,142929,1,0,0:0:0:0:
464,240,143005,1,0,0:0:0:0:
260,104,143158,2,0,P|272:184|248:264,1,143.999995605469
64,352,143464,5,0,0:0:0:0:
44,296,143541,1,0,0:0:0:0:
68,244,143617,1,0,0:0:0:0:
124,236,143694,1,0,0:0:0:0:
172,264,143770,1,0,0:0:0:0:
184,320,143847,1,0,0:0:0:0:
232,348,143924,1,0,0:0:0:0:
288,336,144000,1,0,0:0:0:0:
324,292,144077,1,0,0:0:0:0:
320,236,144153,1,0,0:0:0:0:
280,196,144230,1,0,0:0:0:0:
224,184,144306,1,0,0:0:0:0:
176,216,144383,1,0,0:0:0:0:
48,132,144536,1,0,0:0:0:0:
40,112,144612,1,0,0:0:0:0:
32,92,144689,5,0,0:0:0:0:
88,100,144765,1,0,0:0:0:0:
144,84,144842,1,0,0:0:0:0:
188,48,144918,1,0,0:0:0:0:
244,36,144995,1,0,0:0:0:0:
300,44,145071,1,0,0:0:0:0:
352,68,145148,1,0,0:0:0:0:
388,112,145225,1,0,0:0:0:0:
404,168,145301,2,0,B|408:200|408:200|404:260,3,71.9999978027344
344,332,145607,6,0,B|296:340|296:340|256:332,3,71.9999978027344
168,288,145913,2,0,P|160:216|168:188,1,71.9999978027344
344,96,146066,2,0,P|352:168|344:196,1,71.9999978027344
160,104,146219,2,0,P|232:96|260:104,1,71.9999978027344
352,280,146372,2,0,P|280:288|252:280,1,71.9999978027344
176,336,146526,6,0,P|164:244|172:168,1,143.999995605469
56,80,146832,1,0,0:0:0:0:
112,60,146909,1,0,0:0:0:0:
168,56,146985,1,0,0:0:0:0:
224,68,147062,1,0,0:0:0:0:
276,92,147138,2,0,P|284:128|288:180,1,71.9999978027344
340,296,147291,2,0,P|396:256|432:236,1,71.9999978027344
488,136,147444,6,0,P|436:152|400:152,1,71.9999978027344
288,96,147597,2,0,P|212:100|184:108,1,71.9999978027344
84,160,147750,1,0,0:0:0:0:
80,176,147827,1,0,0:0:0:0:
80,196,147903,1,0,0:0:0:0:
84,216,147980,1,0,0:0:0:0:
92,232,148056,2,0,P|104:272|100:308,3,71.9999978027344
204,228,148362,6,0,P|200:188|208:140,1,71.9999978027344
336,92,148515,2,0,B|380:80|380:80|424:88,3,71.9999978027344
468,192,148821,2,0,P|468:248|460:280,1,71.9999978027344
360,352,148975,1,0,0:0:0:0:
340,300,149051,1,0,0:0:0:0:
340,244,149128,1,0,0:0:0:0:
364,192,149204,1,0,0:0:0:0:
368,136,149281,1,0,0:0:0:0:
340,88,149357,1,0,0:0:0:0:
284,72,149434,1,0,0:0:0:0:
236,100,149510,1,0,0:0:0:0:
224,156,149587,2,0,P|208:160|168:160,5,47.9999985351563
52,128,149893,2,0,P|52:164|60:216,1,71.9999978027344
192,324,150046,1,0,0:0:0:0:
200,300,150122,1,0,0:0:0:0:
204,276,150199,6,0,P|208:232|220:200,1,71.9999978027344
380,272,150352,2,0,P|376:316|360:368,1,71.9999978027344
288,200,150505,1,0,0:0:0:0:
344,184,150582,1,0,0:0:0:0:
400,168,150658,1,0,0:0:0:0:
456,152,150735,1,0,0:0:0:0:
492,196,150811,2,0,P|504:232|496:280,3,71.9999978027344
392,364,151117,6,0,P|336:352|308:332,3,71.9999978027344
204,276,151424,1,0,0:0:0:0:
148,292,151500,1,0,0:0:0:0:
92,276,151577,1,0,0:0:0:0:
56,232,151653,1,0,0:0:0:0:
52,176,151730,2,0,P|52:124|64:84,1,71.9999978027344
192,188,151883,2,0,P|236:180|272:184,1,71.9999978027344
460,300,152036,2,0,P|392:312|356:312,1,71.9999978027344
276,360,152189,2,0,P|276:300|280:264,1,71.9999978027344
384,184,152342,1,0,0:0:0:0:
384,164,152418,1,0,0:0:0:0:
380,144,152495,1,0,0:0:0:0:
372,128,152571,1,0,0:0:0:0:
336,100,152648,1,0,0:0:0:0:
284,120,152725,1,0,0:0:0:0:
228,128,152801,1,0,0:0:0:0:
172,116,152878,1,0,0:0:0:0:
120,88,152954,5,0,0:0:0:0:
132,144,153031,1,0,0:0:0:0:
136,200,153107,1,0,0:0:0:0:
124,256,153184,1,0,0:0:0:0:
132,312,153260,1,0,0:0:0:0:
176,348,153337,1,0,0:0:0:0:
232,340,153413,1,0,0:0:0:0:
268,292,153490,1,0,0:0:0:0:
244,240,153566,2,0,P|308:240|348:220,1,71.9999978027344
464,220,153719,2,0,P|464:156|448:120,1,71.9999978027344
324,48,153872,6,0,L|324:228,1,143.999995605469
276,280,154102,1,0,0:0:0:0:
220,260,154179,1,0,0:0:0:0:
164,256,154255,1,0,0:0:0:0:
108,276,154332,1,0,0:0:0:0:
52,272,154408,1,0,0:0:0:0:
20,224,154485,2,0,P|16:184|20:140,1,71.9999978027344
136,88,154638,5,0,0:0:0:0:
136,88,154714,1,0,0:0:0:0:
136,88,154791,2,0,P|188:88|248:112,1,71.9999978027344
332,219,154944,2,0,P|368:219|404:216,1,71.9999978027344
488,32,155097,2,0,P|480:88|480:140,1,71.9999978027344
368,276,155250,2,0,P|380:320|384:356,1,71.9999978027344
488,192,155403,6,0,P|384:192|324:144,1,143.999995605469
248,80,155633,2,0,P|256:200|264:280,1,143.999995605469
240,356,155862,2,0,P|160:336|64:336,1,143.999995605469
36,192,156092,2,0,P|24:100|64:32,1,155.999992858887
160,40,156321,5,0,0:0:0:0:
216,68,156398,1,0,0:0:0:0:
276,84,156475,1,0,0:0:0:0:
336,76,156551,1,0,0:0:0:0:
396,56,156628,1,0,0:0:0:0:
376,116,156704,1,0,0:0:0:0:
384,180,156781,1,0,0:0:0:0:
416,232,156857,1,0,0:0:0:0:
412,296,156934,2,0,P|404:348|384:388,1,77.9999964294435
100,88,157087,2,0,P|108:36|128:-4,1,77.9999964294435
256,152,157240,2,0,B|248:204|248:204|264:248|264:248|256:348,1,180.000006866455
256,344,157852,6,0,B|240:256|240:256|272:200|272:200|232:164|232:116|232:116|288:88|280:20|252:0,1,360.000013732911
256,20,158464,6,0,P|240:120|316:280,1,270.000010299683
324,356,158770,2,0,P|220:340|124:360,1,180.000006866455
310,154,159077,2,0,P|393:186|480:168,1,180.000006866455
240,100,159306,1,0,0:0:0:0:
180,144,159383,1,0,0:0:0:0:
168,216,159459,1,0,0:0:0:0:
204,280,159536,1,0,0:0:0:0:
320,256,159689,1,0,0:0:0:0:
176,24,159842,1,0,0:0:0:0:
216,352,159995,1,0,0:0:0:0:
264,84,160148,1,0,0:0:0:0:
108,292,160301,5,0,0:0:0:0:
100,40,160454,1,0,0:0:0:0:
184,364,160607,1,0,0:0:0:0:
24,152,160760,2,0,P|12:260|36:340,1,180.000006866455
148,120,161066,1,0,0:0:0:0:
244,320,161219,5,0,0:0:0:0:
316,304,161296,1,0,0:0:0:0:
388,312,161372,1,0,0:0:0:0:
460,308,161449,1,0,0:0:0:0:
492,244,161526,1,0,0:0:0:0:
476,176,161602,1,0,0:0:0:0:
408,148,161679,1,0,0:0:0:0:
348,184,161755,1,0,0:0:0:0:
336,256,161832,6,0,L|344:324,6,45.0000017166138
208,232,162138,2,0,B|184:184|184:184|184:124,3,90.0000034332277
252,40,162444,1,0,0:0:0:0:
320,24,162520,1,0,0:0:0:0:
392,40,162597,1,0,0:0:0:0:
448,84,162674,1,0,0:0:0:0:
472,152,162750,5,0,0:0:0:0:
232,36,162903,1,0,0:0:0:0:
248,336,163056,1,0,0:0:0:0:
56,88,163209,1,0,0:0:0:0:
128,104,163286,1,0,0:0:0:0:
200,116,163362,1,0,0:0:0:0:
272,132,163439,1,0,0:0:0:0:
340,152,163515,1,0,0:0:0:0:
444,336,163668,1,0,0:0:0:0:
376,60,163821,1,0,0:0:0:0:
308,264,163975,5,0,0:0:0:0:
104,248,164128,2,0,P|116:152|96:48,1,180.000006866455
184,352,164434,1,0,0:0:0:0:
380,336,164587,1,0,0:0:0:0:
412,272,164663,1,0,0:0:0:0:
388,204,164740,1,0,0:0:0:0:
320,180,164816,1,0,0:0:0:0:
260,220,164893,1,0,0:0:0:0:
256,292,164969,1,0,0:0:0:0:
200,340,165046,1,0,0:0:0:0:
132,324,165122,1,0,0:0:0:0:
96,260,165199,1,0,0:0:0:0:
132,196,165276,1,0,0:0:0:0:
204,188,165352,1,0,0:0:0:0:
276,204,165429,1,0,0:0:0:0:
328,156,165505,6,0,P|348:88|348:44,1,90.0000034332277
492,20,165658,2,0,P|488:80|496:148,1,90.0000034332277
368,344,165811,2,0,P|364:292|352:244,1,90.0000034332277
208,24,165964,2,0,P|200:88|204:148,1,90.0000034332277
200,340,166117,1,0,0:0:0:0:
184,352,166194,1,0,0:0:0:0:
164,356,166270,1,0,0:0:0:0:
140,356,166347,1,0,0:0:0:0:
112,352,166424,6,0,P|96:292|100:224,1,90.0000034332277
200,160,166577,2,0,P|268:160|324:176,1,90.0000034332277
448,308,166730,6,0,P|380:324|332:320,1,90.0000034332277
188,148,166883,2,0,P|252:136|312:144,1,90.0000034332277
460,328,167036,1,0,0:0:0:0:
428,264,167112,1,0,0:0:0:0:
420,192,167189,1,0,0:0:0:0:
428,120,167265,1,0,0:0:0:0:
452,52,167342,6,0,P|384:32|328:32,1,90.0000034332277
256,76,167495,2,0,P|248:136|256:192,1,90.0000034332277
444,264,167648,2,0,P|456:184|452:152,1,90.0000034332277
232,64,167801,2,0,P|224:144|228:208,1,90.0000034332277
464,276,167954,1,0,0:0:0:0:
392,260,168031,1,0,0:0:0:0:
320,264,168107,1,0,0:0:0:0:
252,288,168184,1,0,0:0:0:0:
196,332,168260,6,0,P|112:336|80:328,1,90.0000034332277
40,264,168413,2,0,P|28:196|32:148,1,90.0000034332277
200,120,168566,2,0,P|216:196|216:240,1,90.0000034332277
24,276,168719,2,0,P|12:196|12:156,1,90.0000034332277
224,104,168872,1,0,0:0:0:0:
260,168,168949,1,0,0:0:0:0:
272,240,169026,1,0,0:0:0:0:
260,312,169102,1,0,0:0:0:0:
232,376,169179,6,0,P|160:348|140:312,1,90.0000034332277
120,212,169332,2,0,P|116:128|120:96,1,90.0000034332277
348,172,169485,2,0,P|352:232|348:288,1,90.0000034332277
104,212,169638,2,0,B|92:148|96:144|100:104,1,90.0000034332277
372,168,169791,1,0,0:0:0:0:
308,196,169867,1,0,0:0:0:0:
236,180,169944,1,0,0:0:0:0:
192,124,170020,1,0,0:0:0:0:
184,52,170097,6,0,P|120:44|76:64,1,90.0000034332277
44,144,170250,2,0,P|52:200|56:268,1,90.0000034332277
184,352,170403,2,0,P|188:276|184:220,1,90.0000034332277
304,112,170556,2,0,P|320:188|332:244,1,90.0000034332277
424,296,170709,2,0,P|492:276|516:240,1,90.0000034332277
420,40,170862,2,0,P|368:40|316:72,1,90.0000034332277
300,200,171015,5,0,0:0:0:0:
232,228,171092,1,0,0:0:0:0:
168,196,171168,1,0,0:0:0:0:
156,124,171245,1,0,0:0:0:0:
212,80,171321,1,0,0:0:0:0:
284,92,171398,1,0,0:0:0:0:
324,152,171475,1,0,0:0:0:0:
304,220,171551,1,0,0:0:0:0:
336,284,171628,1,0,0:0:0:0:
404,300,171704,1,0,0:0:0:0:
460,252,171781,1,0,0:0:0:0:
452,180,171857,1,0,0:0:0:0:
400,128,171934,2,0,P|332:136|268:156,1,90.0000034332277
176,280,172087,2,0,P|116:272|52:264,1,90.0000034332277
16,172,172240,5,0,0:0:0:0:
80,140,172316,1,0,0:0:0:0:
152,148,172393,1,0,0:0:0:0:
216,184,172469,1,0,0:0:0:0:
264,240,172546,1,0,0:0:0:0:
332,260,172622,1,0,0:0:0:0:
404,248,172699,1,0,0:0:0:0:
460,204,172776,1,0,0:0:0:0:
492,140,172852,6,0,B|472:56|472:56|384:24|384:24|320:60|244:68,1,270.000010299683
216,104,173158,2,0,B|200:172|200:172|224:240|224:240|268:276|268:276|264:392,1,270.000010299683
364,364,173464,2,0,B|376:272|376:272|444:232|464:196|460:116,1,270.000010299683
332,88,173770,6,0,P|276:80|208:96,1,96
164,200,173924,2,0,P|100:204|32:184,1,96
8,60,174077,2,0,P|80:64|148:96,1,96
256,228,174230,2,0,P|256:320|252:352,1,96
132,312,174383,1,0,0:0:0:0:
208,296,174459,1,0,0:0:0:0:
284,296,174536,1,0,0:0:0:0:
360,308,174612,1,0,0:0:0:0:
432,336,174689,6,0,P|468:284|472:236,3,96
400,180,174995,1,0,0:0:0:0:
328,204,175071,1,0,0:0:0:0:
312,280,175148,1,0,0:0:0:0:
360,340,175225,1,0,0:0:0:0:
436,328,175301,1,0,0:0:0:0:
468,256,175378,1,0,0:0:0:0:
428,192,175454,1,0,0:0:0:0:
352,176,175531,1,0,0:0:0:0:
296,228,175607,1,0,0:0:0:0:
292,304,175684,1,0,0:0:0:0:
228,344,175760,1,0,0:0:0:0:
152,328,175837,1,0,0:0:0:0:
120,260,175913,6,0,B|112:216|112:216|112:152,3,96
184,72,176219,2,0,B|228:60|228:60|300:64,3,96
388,100,176526,1,0,0:0:0:0:
384,136,176602,1,0,0:0:0:0:
380,176,176679,1,0,0:0:0:0:
376,212,176755,1,0,0:0:0:0:
340,232,176832,1,0,0:0:0:0:
344,268,176908,1,0,0:0:0:0:
352,304,176985,1,0,0:0:0:0:
360,340,177061,1,0,0:0:0:0:
400,372,177138,2,0,P|448:360|496:316,1,96
484,204,177291,2,0,P|480:120|468:72,1,96
336,36,177444,5,0,0:0:0:0:
276,84,177520,1,0,0:0:0:0:
276,160,177597,1,0,0:0:0:0:
344,196,177674,1,0,0:0:0:0:
416,168,177750,1,0,0:0:0:0:
468,224,177827,1,0,0:0:0:0:
460,300,177903,1,0,0:0:0:0:
388,332,177980,1,0,0:0:0:0:
316,304,178056,1,0,0:0:0:0:
296,228,178133,1,0,0:0:0:0:
224,208,178209,1,0,0:0:0:0:
164,256,178286,1,0,0:0:0:0:
188,328,178362,2,0,P|236:328|308:296,1,96
380,212,178515,2,0,P|380:128|372:96,1,96
172,32,178668,2,0,P|172:104|180:160,1,96
264,368,178821,2,0,P|272:296|268:248,1,96
32,124,178975,2,0,P|80:144|160:148,1,96
352,40,179128,2,0,P|288:56|224:84,1,96
156,144,179281,5,0,0:0:0:0:
180,184,179357,1,0,0:0:0:0:
192,232,179434,1,0,0:0:0:0:
196,280,179510,1,0,0:0:0:0:
192,328,179587,1,0,0:0:0:0:
240,340,179663,1,0,0:0:0:0:
288,336,179740,1,0,0:0:0:0:
332,316,179816,1,0,0:0:0:0:
368,284,179893,2,0,P|420:252|504:264,1,96
432,64,180046,2,0,P|368:64|296:40,1,96
224,36,180199,1,0,0:0:0:0:
152,68,180276,1,0,0:0:0:0:
148,144,180352,1,0,0:0:0:0:
212,188,180429,1,0,0:0:0:0:
284,164,180505,1,0,0:0:0:0:
308,92,180582,1,0,0:0:0:0:
384,80,180658,1,0,0:0:0:0:
440,136,180735,1,0,0:0:0:0:
428,212,180811,1,0,0:0:0:0:
360,252,180888,1,0,0:0:0:0:
288,220,180964,1,0,0:0:0:0:
216,252,181041,1,0,0:0:0:0:
212,328,181117,6,0,P|112:348|52:320,1,96
48,224,181270,2,0,P|32:136|48:92,1,96
244,176,181424,2,0,P|260:256|264:316,1,96
452,352,181577,2,0,P|464:260|460:228,1,96
416,68,181730,2,0,P|364:96|316:128,1,96
88,256,181883,2,0,P|180:268|228:268,1,96
348,380,182036,6,0,P|336:288|328:252,1,96
216,172,182189,2,0,P|212:88|232:40,1,96
308,24,182342,2,0,P|356:12|416:24,1,96
364,304,182495,2,0,P|284:304|244:288,1,96
164,256,182648,2,0,P|120:180|120:140,1,96
296,24,182801,2,0,P|352:80|376:124,1,96
344,312,182954,6,0,P|288:308|208:288,1,96
48,360,183107,2,0,P|48:300|44:248,1,96
164,64,183260,2,0,P|172:132|176:200,1,96
320,264,183413,2,0,P|332:192|336:132,1,96
452,36,183566,2,0,P|464:112|468:180,1,96
456,324,183719,2,0,P|400:332|340:316,1,96
216,172,183872,1,0,0:0:0:0:
140,156,183949,1,0,0:0:0:0:
104,224,184026,1,0,0:0:0:0:
140,292,184102,1,0,0:0:0:0:
216,292,184179,1,0,0:0:0:0:
252,224,184255,1,0,0:0:0:0:
328,212,184332,1,0,0:0:0:0:
376,272,184408,1,0,0:0:0:0:
360,348,184485,2,0,P|436:368|496:332,1,96
152,36,184638,2,0,P|76:16|16:52,1,96
36,176,184791,5,0,0:0:0:0:
88,232,184867,1,0,0:0:0:0:
164,216,184944,1,0,0:0:0:0:
208,152,185020,1,0,0:0:0:0:
284,136,185097,1,0,0:0:0:0:
348,180,185174,1,0,0:0:0:0:
360,256,185250,1,0,0:0:0:0:
328,324,185327,1,0,0:0:0:0:
384,376,185403,1,0,0:0:0:0:
460,368,185480,1,0,0:0:0:0:
492,300,185556,1,0,0:0:0:0:
460,232,185633,1,0,0:0:0:0:
384,216,185709,1,0,0:0:0:0:
364,140,185786,5,0,0:0:0:0:
416,84,185862,1,0,0:0:0:0:
492,100,185939,1,0,0:0:0:0:
500,176,186015,1,0,0:0:0:0:
448,232,186092,1,0,0:0:0:0:
372,232,186168,1,0,0:0:0:0:
332,164,186245,1,0,0:0:0:0:
256,152,186321,1,0,0:0:0:0:
192,192,186398,1,0,0:0:0:0:
200,268,186475,1,0,0:0:0:0:
272,292,186551,1,0,0:0:0:0:
336,248,186628,2,0,P|336:160|324:104,1,96
268,56,186781,2,0,P|216:40|132:56,1,96
88,328,186934,2,0,P|156:344|220:320,1,96
308,368,187087,2,0,P|312:284|304:224,1,96
112,84,187240,2,0,P|160:144|196:176,1,96
420,56,187393,2,0,P|352:72|304:96,1,96
268,220,187546,5,0,0:0:0:0:
192,240,187622,1,0,0:0:0:0:
136,188,187699,1,0,0:0:0:0:
140,112,187776,1,0,0:0:0:0:
200,68,187852,1,0,0:0:0:0:
272,100,187929,1,0,0:0:0:0:
300,172,188005,1,0,0:0:0:0:
264,240,188082,1,0,0:0:0:0:
188,256,188158,1,0,0:0:0:0:
128,208,188235,1,0,0:0:0:0:
120,132,188311,1,0,0:0:0:0:
172,76,188388,1,0,0:0:0:0:
248,76,188464,6,0,P|324:80|372:64,1,96
428,16,188617,2,0,B|428:88|428:88|408:160|412:208|412:208|420:252|420:320,1,288
308,368,188924,1,0,0:0:0:0:
176,288,189077,2,0,P|160:168|188:96,1,192
476,176,189383,2,0,P|352:200|292:164,1,192
8,192,189689,2,0,P|116:172|192:232,1,192
320,352,189995,1,0,0:0:0:0:
300,160,190148,1,0,0:0:0:0:
496,156,190301,6,0,P|492:228|484:288,1,96
460,364,190454,2,0,B|388:336|296:348|296:348|224:376|160:356,1,288
88,328,190760,1,0,0:0:0:0:
336,188,190913,1,0,0:0:0:0:
124,164,191066,1,0,0:0:0:0:
456,112,191219,2,0,P|468:212|448:300,1,192
256,360,191526,2,0,P|244:244|252:152,1,192
144,36,191832,2,0,B|56:92|56:92|84:192|72:248|72:248|124:204,1,288
188,220,192138,6,0,B|248:204|248:204|312:220|312:220|352:276|416:260|416:260|456:216|456:224,1,288
472,144,192444,2,0,P|448:60|336:40,1,192
264,88,192674,1,0,0:0:0:0:
204,176,192750,2,0,P|208:280|228:380,1,192
320,160,193056,1,0,0:0:0:0:
344,364,193209,1,0,0:0:0:0:
100,72,193362,5,0,0:0:0:0:
128,312,193515,1,0,0:0:0:0:
328,188,193668,2,0,P|324:64|276:-8,1,192
120,324,193975,5,0,0:0:0:0:
436,76,194128,1,0,0:0:0:0:
460,148,194205,1,0,0:0:0:0:
452,224,194281,1,0,0:0:0:0:
284,368,194434,1,0,0:0:0:0:
172,108,194587,1,0,0:0:0:0:
96,100,194663,1,0,0:0:0:0:
28,132,194740,1,0,0:0:0:0:
100,344,194893,2,0,P|216:336|288:272,1,192
332,40,195199,6,0,P|440:40|516:104,1,192
460,260,195505,1,0,0:0:0:0:
384,272,195582,1,0,0:0:0:0:
316,236,195658,1,0,0:0:0:0:
276,172,195735,1,0,0:0:0:0:
280,96,195811,6,0,P|280:24|304:-24,1,96
164,64,195964,2,0,P|88:60|40:40,1,96
56,316,196117,2,0,P|120:304|184:320,1,96
260,368,196270,2,0,P|260:292|256:228,1,96
256,32,196424,2,0,P|344:52|416:88,1,96
484,192,196577,1,0,0:0:0:0:
484,192,196653,1,0,0:0:0:0:
484,192,196730,2,0,P|424:192|360:176,1,96
208,132,196883,2,0,P|200:196|236:272,1,96
384,304,197036,2,0,P|388:228|384:192,1,96
192,116,197189,2,0,P|180:188|192:244,1,96
128,360,197342,5,0,0:0:0:0:
56,336,197418,1,0,0:0:0:0:
24,268,197495,1,0,0:0:0:0:
36,192,197571,1,0,0:0:0:0:
100,148,197648,6,0,P|208:152|256:180,1,96
292,220,197801,2,0,P|296:276|280:344,1,96
184,368,197954,2,0,P|176:292|200:240,1,96
288,104,198107,2,0,P|352:84|416:100,1,96
384,192,198260,2,0,L|384:256,6,48
384,276,198566,2,0,P|320:272|252:240,1,96
188,256,198719,2,0,P|160:200|156:160,1,96
320,64,198872,2,0,P|344:104|360:176,1,96
204,244,199026,2,0,P|180:176|176:124,1,96
336,52,199179,1,0,0:0:0:0:
380,112,199255,1,0,0:0:0:0:
396,188,199332,1,0,0:0:0:0:
392,264,199408,1,0,0:0:0:0:
368,336,199485,5,0,0:0:0:0:
292,320,199561,1,0,0:0:0:0:
216,324,199638,1,0,0:0:0:0:
144,344,199714,1,0,0:0:0:0:
76,380,199791,1,0,0:0:0:0:
32,320,199867,1,0,0:0:0:0:
32,244,199944,1,0,0:0:0:0:
100,208,200020,1,0,0:0:0:0:
172,236,200097,1,0,0:0:0:0:
176,312,200174,1,0,0:0:0:0:
224,372,200250,1,0,0:0:0:0:
300,368,200327,1,0,0:0:0:0:
348,312,200403,1,0,0:0:0:0:
336,236,200480,1,0,0:0:0:0:
268,204,200556,1,0,0:0:0:0:
196,232,200633,1,0,0:0:0:0:
140,180,200709,1,0,0:0:0:0:
140,104,200786,1,0,0:0:0:0:
208,68,200862,1,0,0:0:0:0:
280,92,200939,1,0,0:0:0:0:
288,168,201015,1,0,0:0:0:0:
256,236,201092,1,0,0:0:0:0:
300,296,201168,1,0,0:0:0:0:
376,288,201245,5,0,0:0:0:0:
412,220,201321,1,0,0:0:0:0:
376,152,201398,1,0,0:0:0:0:
300,132,201475,1,0,0:0:0:0:
268,64,201551,1,0,0:0:0:0:
320,8,201628,1,0,0:0:0:0:
396,8,201704,1,0,0:0:0:0:
424,80,201781,1,0,0:0:0:0:
400,152,201857,1,0,0:0:0:0:
324,172,201934,1,0,0:0:0:0:
256,212,202010,1,0,0:0:0:0:
244,288,202087,1,0,0:0:0:0:
292,348,202163,1,0,0:0:0:0:
368,360,202240,6,0,P|388:292|392:232,1,96
444,76,202393,2,0,P|384:76|324:92,1,96
160,212,202546,2,0,P|124:208|48:192,1,96
24,36,202699,2,0,P|80:36|160:60,1,96
256,152,202852,1,0,0:0:0:0:
256,168,202929,1,0,0:0:0:0:
256,184,203005,1,0,0:0:0:0:
256,200,203082,1,0,0:0:0:0:
256,212,203158,1,0,0:0:0:0:
