osu file format v14

[General]
AudioFilename: Aragami.mp3
AudioLeadIn: 0
PreviewTime: 81054
Countdown: 0
SampleSet: Soft
StackLeniency: 0.7
Mode: 0
LetterboxInBreaks: 1
WidescreenStoryboard: 0

[Editor]
Bookmarks: 0
DistanceSpacing: 2
BeatDivisor: 4
GridSize: 4
TimelineZoom: 2

[Metadata]
Title:Aragami
TitleUnicode:Aragami
Artist:xi
ArtistUnicode:xi
Creator:Suzune
Version:Tetsu
Source:
Tags:
BeatmapID:655302
BeatmapSetID:290953

[Difficulty]
HPDrainRate:5
CircleSize:4
OverallDifficulty:9
ApproachRate:10
SliderMultiplier:1.8
SliderTickRate:1

[Events]
//Background and Video events
0,0,"bg.png",0,0
//Break Periods
//Storyboard Layer 0 (Background)
//Storyboard Layer 1 (Fail)
//Storyboard Layer 2 (Pass)
//Storyboard Layer 3 (Foreground)
//Storyboard Sound Samples

[TimingPoints]
0,600,4,2,1,15,1,0
900,612.244897959184,4,2,1,15,1,0
8246,705.882352941176,4,2,1,15,1,0
8951,731.707317073171,4,2,1,15,1,0
9682,909.090909090909,4,2,1,15,1,0
10591,705.882352941176,4,2,1,15,1,0
13414,600,4,2,1,5,1,0
14014,306.122448979592,3,2,1,70,1,0
20442,-100,3,2,1,50,0,0
20595,-100,3,2,1,45,0,0
20748,-100,3,2,1,40,0,0
20901,-100,3,2,1,35,0,0
21054,-100,3,2,1,30,0,0
21207,-100,3,2,1,25,0,0
21360,-100,3,2,1,20,0,0
23121,-100,3,2,1,5,0,0
23197,-133.333333333333,3,2,1,30,0,0
35289,-100,3,2,1,35,0,0
35595,-86.2068965517241,3,2,1,40,0,0
35748,-75.187969924812,3,2,1,45,0,0
35901,-66.6666666666667,3,2,1,50,0,0
36054,-50,3,2,1,55,0,0
37891,-100,3,2,1,40,0,0
38809,-200,3,2,1,40,0,0
39728,-100,3,2,1,40,0,0
40646,-200,3,2,1,40,0,0
41565,-100,3,2,1,50,0,0
45238,-100,3,2,1,60,0,0
48911,-100,3,2,1,80,0,0
52279,-100,3,2,1,40,0,0
55952,-100,3,2,1,60,0,0
59932,-100,3,2,1,50,0,0
60238,-100,3,2,1,40,0,0
60544,-100,3,2,1,30,0,0
62151,-100,3,2,1,5,0,0
62228,-100,3,2,1,30,0,0
62610,-100,3,2,1,5,0,0
62687,-100,3,2,1,30,0,0
63070,-100,3,2,1,5,0,0
63146,-100,3,2,1,30,0,0
63529,-100,3,2,1,5,0,0
63605,-100,3,2,1,60,0,0
68197,-50,3,2,1,60,0,0
68503,-100,3,2,1,60,0,0
68809,-200,3,2,1,60,0,0
69116,-100,3,2,1,60,0,0
70034,-100,3,2,1,65,0,0
71258,-66.6666666666667,3,2,1,65,0,0
71565,-50,3,2,1,65,0,0
71871,-200,3,2,1,65,0,0
72177,-100,3,2,1,75,0,0
77381,-50,3,2,1,75,0,0
78529,-100,3,2,1,75,0,0
79218,-200,3,2,1,75,0,0
79830,-50,3,2,1,100,0,0
80442,-200,3,2,1,75,0,0
80748,-133.333333333333,3,2,1,75,0,0
81054,-100,3,2,1,80,0,1
87789,-66.6666666666667,3,2,1,80,0,1
88095,-50,3,2,1,80,0,1
88401,-100,3,2,1,80,0,1
90238,-200,3,2,1,80,0,1
90544,-100,3,2,1,80,0,1
92075,-100,3,2,1,85,0,1
92993,-80,3,2,1,90,0,1
93911,-66.6666666666667,3,2,1,95,0,1
94830,-50,3,2,1,100,0,1
95748,-200,3,2,1,80,0,1
99116,-50,3,2,1,80,0,1
99422,-200,3,2,1,80,0,1
101871,-100,3,2,1,80,0,1
102177,-200,3,2,1,80,0,1
102330,-133.333333333333,3,2,1,80,0,1
102483,-100,3,2,1,80,0,1
102636,-75.187969924812,3,2,1,80,0,1
102789,-59.8802395209581,3,2,1,80,0,1
102942,-50,3,2,1,80,0,1
103095,-100,3,2,1,100,0,1
109524,-50,3,2,1,100,0,1
110442,-100,3,2,1,50,0,0
111360,-100,3,2,1,40,0,0
112279,-100,3,2,1,30,0,0
113197,342.857142857143,3,2,1,20,1,0
114225,-100,3,2,1,10,0,0

[Colours]
Combo1 : 255,255,128
Combo2 : 130,249,255

[HitObjects]
184,120,0,5,2,0:0:0:0:
296,92,300,1,2,0:0:0:0:
264,204,600,1,2,0:0:0:0:
184,120,900,6,0,P|139:126|98:144,1,90,2|0,0:0|0:0,0:0:0:0:
229,290,1512,2,0,P|257:325|293:352,1,90,2|0,0:0|0:0,0:0:0:0:
354,165,2124,2,0,P|370:123|376:79,1,90,2|0,0:0|0:0,0:0:0:0:
220,264,2583,1,0,0:0:0:0:
230,291,2736,2,0,P|213:332|208:377,2,60,2|2|2,0:0|0:0|0:0,0:0:0:0:
336,280,3348,6,0,L|432:296,1,90,2|0,0:0|0:0,0:0:0:0:
208,232,3961,2,0,L|112:216,1,90,2|0,0:0|0:0,0:0:0:0:
64,156,4420,1,0,0:0:0:0:
144,143,4573,2,0,P|155:100|160:55,1,90,2|0,0:0|0:0,0:0:0:0:
148,64,5032,1,0,0:0:0:0:
284,152,5185,5,2,0:0:0:0:
216,108,5338,1,2,0:0:0:0:
352,196,5491,1,2,0:0:0:0:
284,152,5644,1,2,0:0:0:0:
419,243,5797,6,0,P|333:241|352:312,1,180
132,192,6716,1,0,0:0:0:0:
372,268,7022,6,0,L|380:80,1,180
24,184,8246,6,0,L|31:318,1,135,2|0,0:0|0:0,0:0:0:0:
236,76,8951,2,0,P|172:89|152:150,1,135,2|0,0:0|0:0,0:0:0:0:
300,336,9682,2,0,B|310:287|310:287|287:205,1,135,2|0,0:0|0:0,0:0:0:0:
104,344,10591,1,2,0:0:0:0:
256,192,10767,12,0,13414,0:0:0:0:
40,84,14014,6,0,P|84:91|129:88,1,90,8|0,0:0|0:0,0:0:0:0:
232,28,14320,1,0,0:0:0:0:
252,144,14473,2,0,L|268:244,1,90,8|0,0:0|0:0,0:0:0:0:
288,348,14779,1,0,0:0:0:0:
184,296,14932,2,0,P|155:261|135:221,1,90,8|0,0:0|0:0,0:0:0:0:
382,202,15238,2,0,P|366:244|341:281,1,90,0|8,0:0|0:0,0:0:0:0:
201,77,15544,2,0,P|246:70|291:73,1,90
296,312,15850,5,8,0:0:0:0:
328,100,16003,1,0,0:0:0:0:
128,272,16156,1,0,0:0:0:0:
382,203,16309,2,0,P|387:247|384:292,1,90,8|0,0:0|0:0,0:0:0:0:
128,180,16616,1,0,0:0:0:0:
382,203,16769,6,0,L|408:204,3,22.5,8|0|0|0,0:0|0:0|0:0|0:0,0:0:0:0:
420,192,16922,2,0,L|442:192,3,22.5
460,180,17075,2,0,L|486:181,3,22.5,8|0|0|0,0:0|0:0|0:0|0:0,0:0:0:0:
384,48,17228,5,0,0:0:0:0:
380,92,17304,1,0,0:0:0:0:
376,137,17381,1,8,0:0:0:0:
372,182,17457,1,0,0:0:0:0:
368,227,17534,1,0,0:0:0:0:
364,272,17610,1,0,0:0:0:0:
360,316,17687,6,0,P|328:296|328:332,1,90,8|0,0:0|0:0,0:0:0:0:
472,252,17993,1,8,0:0:0:0:
196,128,18146,2,0,P|188:83|195:39,1,90,0|8,0:0|0:0,0:0:0:0:
488,148,18452,1,0,0:0:0:0:
152,160,18605,2,0,L|62:156,1,90,8|0,0:0|0:0,0:0:0:0:
320,336,18911,2,0,L|409:339,1,90,8|0,0:0|0:0,0:0:0:0:
276,48,19218,2,0,L|186:44,1,90,8|0,0:0|0:0,0:0:0:0:
484,164,19524,5,8,0:0:0:0:
480,180,19600,1,0,0:0:0:0:
476,196,19677,1,0,0:0:0:0:
472,212,19753,1,0,0:0:0:0:
468,227,19830,6,0,L|469:271,1,45,8|0,0:0|0:0,0:0:0:0:
368,136,19983,2,0,L|366:91,1,45
332,288,20136,2,0,L|333:332,1,45,8|0,0:0|0:0,0:0:0:0:
264,112,20289,2,0,L|262:67,1,45
128,228,20442,6,0,L|128:250,3,22.5,10|0|0|0,0:0|0:0|0:0|0:0,0:0:0:0:
108,260,20595,2,0,L|108:282,3,22.5
32,140,20748,6,0,L|31:117,3,22.5,2|0|0|0,0:0|0:0|0:0|0:0,0:0:0:0:
52,108,20901,2,0,L|51:85,3,22.5,0|0|0|0,0:0|0:0|0:0|0:0,0:0:0:0:
200,184,21054,6,0,L|222:183,3,22.5,2|0|0|0,0:0|0:0|0:0|0:0,0:0:0:0:
292,216,21207,2,0,L|314:215,3,22.5,0|0|0|0,0:0|0:0|0:0|0:0,0:0:0:0:
384,248,21360,1,2,0:0:0:0:
256,192,21437,12,0,23121,0:0:0:0:
160,92,23197,5,2,0:0:0:0:
244,120,23350,1,0,0:0:0:0:
332,104,23503,1,0,0:0:0:0:
408,144,23656,2,0,P|408:184|400:216,1,67.5000025749208,2|0,0:0|0:0,0:0:0:0:
324,348,23962,2,0,P|324:308|332:276,1,67.5000025749208,0|2,0:0|0:0,0:0:0:0:
330,281,24422,6,0,L|376:284,1,33.7500012874604
216,232,24575,2,0,L|250:234,1,33.7500012874604
76,180,24728,2,0,L|143:183,1,67.5000025749208,2|0,0:0|0:0,0:0:0:0:
216,232,24957,1,0,0:0:0:0:
216,232,25034,6,0,P|212:272|200:316,1,67.5000025749208,2|0,0:0|0:0,0:0:0:0:
208,96,25340,1,0,0:0:0:0:
232,108,25417,1,0,0:0:0:0:
260,112,25493,1,0,0:0:0:0:
288,108,25570,1,0,0:0:0:0:
312,96,25646,2,0,L|392:108,1,67.5000025749208
472,80,25876,1,0,0:0:0:0:
472,80,25952,6,0,P|468:120|472:152,1,67.5000025749208,2|0,0:0|0:0,0:0:0:0:
448,260,26258,1,2,0:0:0:0:
352,196,26411,1,0,0:0:0:0:
304,300,26565,1,2,0:0:0:0:
216,228,26718,1,0,0:0:0:0:
208,224,26794,1,0,0:0:0:0:
200,220,26871,5,2,0:0:0:0:
184,348,27024,1,0,0:0:0:0:
304,300,27177,1,0,0:0:0:0:
320,171,27330,2,0,P|320:138|317:104,2,67.5000025749208
200,220,27712,1,0,0:0:0:0:
200,220,27789,2,0,L|116:228,1,67.5000025749208,2|0,0:0|0:0,0:0:0:0:
12,180,28095,5,2,0:0:0:0:
104,92,28248,1,2,0:0:0:0:
112,100,28401,1,2,0:0:0:0:
120,108,28554,1,2,0:0:0:0:
128,116,28631,1,2,0:0:0:0:
136,124,28707,5,2,0:0:0:0:
156,316,28860,1,0,0:0:0:0:
260,108,29014,2,2,L|272:80,3,16.8750006437302
284,140,29167,1,2,0:0:0:0:
100,228,29320,1,2,0:0:0:0:
367,283,29473,5,0,0:0:0:0:
363,323,29549,1,0,0:0:0:0:
360,364,29626,1,2,0:0:0:0:
156,316,29779,5,0,0:0:0:0:
97,310,29855,1,0,0:0:0:0:
38,302,29932,1,2,0:0:0:0:
464,300,30085,5,0,0:0:0:0:
472,227,30161,1,0,0:0:0:0:
479,154,30238,2,0,L|483:102,1,33.7500012874604,2|0,0:0|0:0,0:0:0:0:
368,68,30391,2,0,L|358:35,1,33.7500012874604,2|0,0:0|0:0,0:0:0:0:
236,76,30544,6,0,L|196:21,1,67.5000025749208,2|0,0:0|0:0,0:0:0:0:
76,188,30850,2,0,P|108:197|141:200,1,67.5000025749208
208,148,31080,1,0,0:0:0:0:
212,160,31156,1,0,0:0:0:0:
268,224,31309,1,0,0:0:0:0:
292,140,31462,5,2,0:0:0:0:
184,244,31616,1,0,0:0:0:0:
348,204,31769,2,0,L|428:208,1,67.5000025749208
400,344,32075,1,0,0:0:0:0:
240,312,32228,1,0,0:0:0:0:
232,316,32304,1,0,0:0:0:0:
224,319,32381,6,0,P|191:326|157:327,1,67.5000025749208,2|0,0:0|0:0,0:0:0:0:
381,156,32687,2,0,P|404:181|422:209,1,67.5000025749208
162,100,32993,2,0,P|172:68|188:38,1,67.5000025749208
381,156,33299,1,2,0:0:0:0:
204,192,33452,1,2,0:0:0:0:
200,212,33529,1,2,0:0:0:0:
196,232,33605,5,2,0:0:0:0:
248,108,33758,1,2,0:0:0:0:
332,212,33911,1,2,0:0:0:0:
104,144,34064,1,2,0:0:0:0:
100,164,34141,1,2,0:0:0:0:
96,184,34218,5,2,0:0:0:0:
96,337,34371,1,0,0:0:0:0:
186,213,34524,1,0,0:0:0:0:
41,260,34677,1,0,0:0:0:0:
186,308,34830,1,0,0:0:0:0:
332,212,34983,1,2,0:0:0:0:
352,152,35059,1,2,0:0:0:0:
372,92,35136,5,2,0:0:0:0:
384,88,35289,1,0,0:0:0:0:
396,84,35366,1,0,0:0:0:0:
407,80,35442,2,0,P|430:76|452:75,1,45,2|0,0:0|0:0,0:0:0:0:
384,280,35595,2,0,P|357:283|329:285,1,52.2000015930176,2|0,0:0|0:0,0:0:0:0:
268,37,35748,2,0,P|286:60|302:85,1,59.8499975342561,2|0,0:0|0:0,0:0:0:0:
115,258,35901,2,0,P|129:225|145:193,1,67.5000025749208,2|0,0:0|0:0,0:0:0:0:
268,37,36054,6,0,L|320:32,1,45,8|0,0:0|0:0,0:0:0:0:
332,212,36207,2,0,L|376:207,1,45,8|0,0:0|0:0,0:0:0:0:
56,112,36360,1,0,0:0:0:0:
64,140,36437,1,0,0:0:0:0:
72,168,36514,1,0,0:0:0:0:
84,200,36590,1,0,0:0:0:0:
96,232,36667,6,8,L|144:240,3,45
216,212,36820,2,8,L|260:219,3,45
332,188,36973,1,8,0:0:0:0:
398,190,37049,1,0,0:0:0:0:
449,232,37126,1,0,0:0:0:0:
464,297,37202,1,0,0:0:0:0:
437,358,37279,1,8,0:0:0:0:
428,356,37585,5,8,0:0:0:0:
420,356,37891,5,8,0:0:0:0:
300,276,38044,2,0,B|252:288|252:288|148:280,1,135,8|0,0:0|0:0,0:0:0:0:
144,308,38350,1,8,0:0:0:0:
332,187,38503,2,0,P|333:143|324:99,1,90,8|0,0:0|0:0,0:0:0:0:
75,70,38809,6,0,L|120:68,1,45,2|0,0:0|0:0,0:0:0:0:
47,158,39116,2,0,L|92:156,1,45,2|0,0:0|0:0,0:0:0:0:
83,242,39422,2,0,L|128:240,1,45,2|0,0:0|0:0,0:0:0:0:
220,72,39728,5,8,0:0:0:0:
320,324,39881,2,0,B|352:296|352:296|352:296|457:300,1,135,8|0,0:0|0:0,0:0:0:0:
476,264,40187,1,8,0:0:0:0:
388,96,40340,1,8,0:0:0:0:
320,324,40493,1,0,0:0:0:0:
167,158,40646,6,0,P|189:157|212:160,1,45,2|0,0:0|0:0,0:0:0:0:
271,285,40952,2,0,P|259:266|250:246,1,45,2|0,0:0|0:0,0:0:0:0:
240,216,41182,1,0,0:0:0:0:
236,176,41258,1,2,0:0:0:0:
248,128,41335,1,0,0:0:0:0:
284,84,41411,1,0,0:0:0:0:
348,60,41488,1,0,0:0:0:0:
424,64,41565,5,8,0:0:0:0:
248,128,41718,2,0,B|200:140|200:140|114:133,1,135,8|0,0:0|0:0,0:0:0:0:
92,96,42024,1,8,0:0:0:0:
32,216,42177,1,8,0:0:0:0:
108,320,42330,1,0,0:0:0:0:
328,216,42483,6,0,L|380:204,1,45,2|0,0:0|0:0,0:0:0:0:
244,340,42636,1,0,0:0:0:0:
240,332,42713,1,0,0:0:0:0:
236,324,42789,2,0,P|208:304|184:300,1,45,2|0,0:0|0:0,0:0:0:0:
268,76,42942,5,0,0:0:0:0:
272,84,43018,1,0,0:0:0:0:
276,92,43095,2,8,L|272:120,3,22.5
336,160,43248,2,8,L|340:188,3,22.5
272,224,43401,6,0,L|265:268,1,45,8|0,0:0|0:0,0:0:0:0:
76,108,43554,1,0,0:0:0:0:
104,84,43631,1,0,0:0:0:0:
139,75,43707,2,8,L|179:80,3,22.5
232,128,43860,2,8,L|272:133,3,22.5
332,188,44014,2,0,P|335:210|335:232,1,45
180,348,44167,5,0,0:0:0:0:
156,320,44243,1,0,0:0:0:0:
120,312,44320,2,0,L|68:308,1,45,8|0,0:0|0:0,0:0:0:0:
208,184,44473,1,0,0:0:0:0:
220,152,44549,1,0,0:0:0:0:
208,116,44626,2,0,P|208:93|214:71,1,45,8|0,0:0|0:0,0:0:0:0:
464,144,44779,6,0,L|462:101,1,22.5
419,155,44855,2,0,L|409:122,1,22.5
385,183,44932,1,8,0:0:0:0:
367,224,45008,1,0,0:0:0:0:
367,268,45085,1,0,0:0:0:0:
386,309,45161,1,0,0:0:0:0:
419,337,45238,6,0,P|441:331|460:318,3,45,8|0|0|0,0:0|0:0|0:0|0:0,0:0:0:0:
256,332,45544,2,0,P|234:337|215:350,3,45,8|0|0|0,0:0|0:0|0:0|0:0,0:0:0:0:
276,204,45850,1,8,0:0:0:0:
280,148,45927,1,0,0:0:0:0:
260,96,46003,1,0,0:0:0:0:
220,60,46080,1,0,0:0:0:0:
168,40,46156,6,0,L|112:48,3,45,8|0|0|0,0:0|0:0|0:0|0:0,0:0:0:0:
48,168,46462,2,0,L|46:213,1,45,8|0,0:0|0:0,0:0:0:0:
124,344,46616,2,0,L|122:299,1,45,8|0,0:0|0:0,0:0:0:0:
220,60,46769,2,0,L|218:105,1,45,8|0,0:0|0:0,0:0:0:0:
424,320,46922,2,0,L|422:275,1,45,8|0,0:0|0:0,0:0:0:0:
460,48,47075,5,8,0:0:0:0:
408,44,47151,1,0,0:0:0:0:
360,68,47228,1,0,0:0:0:0:
344,120,47304,1,0,0:0:0:0:
368,168,47381,5,8,0:0:0:0:
316,164,47457,1,0,0:0:0:0:
268,192,47534,1,0,0:0:0:0:
244,240,47610,1,0,0:0:0:0:
244,296,47687,5,8,0:0:0:0:
200,268,47763,1,0,0:0:0:0:
144,268,47840,1,0,0:0:0:0:
96,292,47916,1,0,0:0:0:0:
64,336,47993,6,0,L|44:292,1,45,8|0,0:0|0:0,0:0:0:0:
224,112,48146,1,8,0:0:0:0:
276,112,48222,1,8,0:0:0:0:
320,144,48299,2,0,L|311:189,1,45,8|0,0:0|0:0,0:0:0:0:
32,260,48452,5,8,0:0:0:0:
32,204,48529,1,8,0:0:0:0:
64,160,48605,2,0,L|56:108,1,45,8|0,0:0|0:0,0:0:0:0:
368,32,48758,2,0,L|376:84,1,45,8|0,0:0|0:0,0:0:0:0:
164,364,48911,5,8,0:0:0:0:
251,32,49065,2,0,B|223:92|255:132|255:132|276:112,1,135,8|0,0:0|0:0,0:0:0:0:
272,80,49371,5,8,0:0:0:0:
376,304,49524,1,8,0:0:0:0:
131,272,49677,1,8,0:0:0:0:
84,251,49753,1,8,0:0:0:0:
62,205,49830,5,8,0:0:0:0:
68,176,49906,1,0,0:0:0:0:
76,144,49983,1,0,0:0:0:0:
84,116,50059,1,0,0:0:0:0:
176,48,50136,5,8,0:0:0:0:
164,96,50212,1,0,0:0:0:0:
176,144,50289,1,0,0:0:0:0:
216,172,50365,1,0,0:0:0:0:
364,160,50442,5,8,0:0:0:0:
308,188,50519,1,0,0:0:0:0:
272,240,50595,1,0,0:0:0:0:
260,304,50672,1,0,0:0:0:0:
264,368,50748,5,8,0:0:0:0:
248,16,50901,1,8,0:0:0:0:
176,48,51207,5,8,0:0:0:0:
104,80,51514,5,8,0:0:0:0:
420,104,51667,2,0,L|416:208,1,90,8|0,0:0|0:0,0:0:0:0:
375,161,51896,1,0,0:0:0:0:
322,165,51973,5,0,0:0:0:0:
288,205,52049,1,0,0:0:0:0:
291,258,52126,1,0,0:0:0:0:
330,294,52202,1,0,0:0:0:0:
281,266,52279,5,2,0:0:0:0:
226,255,52356,1,2,0:0:0:0:
170,252,52432,1,2,0:0:0:0:
121,225,52509,1,2,0:0:0:0:
67,216,52585,6,0,P|29:151|104:148,1,180,2|0,0:0|0:0,0:0:0:0:
219,362,53044,1,0,0:0:0:0:
227,354,53121,1,0,0:0:0:0:
235,346,53197,2,0,L|227:254,1,90,2|0,0:0|0:0,0:0:0:0:
312,44,53503,5,2,0:0:0:0:
344,48,53579,1,2,0:0:0:0:
376,52,53656,1,2,0:0:0:0:
408,56,53732,1,2,0:0:0:0:
480,96,53809,2,0,L|478:231,1,135,2|0,0:0|0:0,0:0:0:0:
416,324,54116,2,0,P|372:273|367:207,1,135,2|0,0:0|0:0,0:0:0:0:
296,364,54422,6,0,L|156:353,2,135,2|0|0,0:0|0:0|0:0,0:0:0:0:
380,292,54957,1,0,0:0:0:0:
344,256,55034,2,0,P|348:211|345:166,1,90,2|0,0:0|0:0,0:0:0:0:
160,104,55340,5,2,0:0:0:0:
299,60,55493,1,0,0:0:0:0:
131,231,55646,1,0,0:0:0:0:
392,164,55799,1,2,0:0:0:0:
227,319,55952,1,2,0:0:0:0:
227,319,56029,1,2,0:0:0:0:
227,319,56105,1,2,0:0:0:0:
227,319,56182,1,2,0:0:0:0:
227,319,56258,6,0,L|296:328,1,45,2|0,0:0|0:0,0:0:0:0:
484,224,56411,2,0,L|440:233,1,45
48,295,56565,6,0,L|227:319,1,180,2|0,0:0|0:0,0:0:0:0:
364,216,57024,1,2,0:0:0:0:
95,127,57177,2,2,P|44:178|116:184,2,180
144,104,57865,1,2,0:0:0:0:
196,120,57942,1,2,0:0:0:0:
248,100,58018,1,2,0:0:0:0:
300,116,58095,5,2,0:0:0:0:
48,280,58248,1,2,0:0:0:0:
56,288,58554,1,0,0:0:0:0:
64,296,58631,1,0,0:0:0:0:
72,304,58707,2,0,L|136:296,1,45
312,324,58860,2,0,L|248:332,1,45
48,176,59014,6,0,P|108:168|156:172,1,90,2|0,0:0|0:0,0:0:0:0:
328,44,59320,2,0,P|268:52|220:48,1,90,2|0,0:0|0:0,0:0:0:0:
216,88,59549,1,0,0:0:0:0:
240,128,59626,1,2,0:0:0:0:
228,156,59702,1,0,0:0:0:0:
228,188,59779,1,0,0:0:0:0:
236,216,59855,1,0,0:0:0:0:
256,240,59932,6,2,L|252:304,3,45
356,304,60238,2,2,L|368:364,3,45
388,144,60544,2,0,P|431:136|474:148,1,90,2|0,0:0|0:0,0:0:0:0:
492,184,60774,1,0,0:0:0:0:
496,224,60850,2,0,L|492:276,1,45,2|0,0:0|0:0,0:0:0:0:
160,324,61003,5,0,0:0:0:0:
204,320,61079,1,0,0:0:0:0:
248,332,61156,2,0,L|292:356,1,45,2|0,0:0|0:0,0:0:0:0:
396,172,61309,5,0,0:0:0:0:
368,212,61386,1,0,0:0:0:0:
320,216,61462,1,2,0:0:0:0:
280,188,61539,1,0,0:0:0:0:
268,140,61615,1,0,0:0:0:0:
272,92,61691,1,0,0:0:0:0:
256,44,61769,2,0,L|232:0,1,45,2|0,0:0|0:0,0:0:0:0:
32,148,61922,6,0,L|24:308,1,135,2|0,0:0|0:0,0:0:0:0:
92,336,62228,6,0,P|120:280|240:344,1,225,2|0,0:0|0:0,0:0:0:0:
492,276,62687,6,0,B|424:308|424:308|274:297,1,225,2|0,0:0|0:0,0:0:0:0:
244,203,63146,6,0,P|348:219|367:323,1,225,2|0,0:0|0:0,0:0:0:0:
275,297,63605,5,2,0:0:0:0:
320,268,63682,1,2,0:0:0:0:
372,256,63758,2,2,P|395:255|417:259,1,45
224,44,63911,1,2,0:0:0:0:
228,92,63988,1,2,0:0:0:0:
212,139,64065,2,2,P|189:143|167:144,1,45
152,256,64218,2,8,P|131:244|114:230,1,45
52,340,64371,2,8,P|44:318|39:296,1,45
275,297,64524,6,0,P|328:292|372:296,1,90,8|0,0:0|0:0,0:0:0:0:
155,155,64830,2,0,P|133:204|107:240,1,90,8|0,0:0|0:0,0:0:0:0:
337,123,65136,2,0,P|306:79|288:39,1,90,8|0,0:0|0:0,0:0:0:0:
344,52,65366,1,0,0:0:0:0:
396,32,65442,6,0,L|456:28,1,45,8|0,0:0|0:0,0:0:0:0:
472,124,65595,2,0,L|427:126,1,45
388,24,65748,6,0,L|448:20,1,45,8|0,0:0|0:0,0:0:0:0:
396,224,65901,2,0,L|351:226,1,45
380,16,66054,6,0,L|440:12,1,45,8|0,0:0|0:0,0:0:0:0:
324,320,66207,2,0,L|279:322,1,45
204,48,66360,5,8,0:0:0:0:
232,84,66437,1,0,0:0:0:0:
212,124,66514,1,0,0:0:0:0:
228,164,66590,1,0,0:0:0:0:
208,204,66667,6,0,L|276:216,1,45,8|0,0:0|0:0,0:0:0:0:
64,268,66820,2,0,L|-4:256,1,45
16,60,66973,2,0,L|84:72,1,45,8|0,0:0|0:0,0:0:0:0:
268,4,67126,1,0,0:0:0:0:
304,55,67202,1,0,0:0:0:0:
366,73,67279,5,8,0:0:0:0:
414,113,67355,1,0,0:0:0:0:
422,176,67432,1,0,0:0:0:0:
386,228,67508,1,0,0:0:0:0:
325,238,67585,5,8,0:0:0:0:
278,199,67661,1,0,0:0:0:0:
272,140,67738,1,0,0:0:0:0:
224,176,67815,1,0,0:0:0:0:
164,176,67891,6,0,L|166:220,1,45,8|0,0:0|0:0,0:0:0:0:
476,304,68044,2,0,L|478:348,1,45
120,260,68197,6,0,P|64:149|168:83,1,270,8|0,0:0|0:0,0:0:0:0:
240,32,68503,2,0,B|292:40|292:40|400:4,1,135,8|0,0:0|0:0,0:0:0:0:
440,68,68809,2,0,L|444:144,1,67.5,8|0,0:0|0:0,0:0:0:0:
396,220,69116,6,0,L|398:264,3,45,8|0|0|0,0:0|0:0|0:0|0:0,0:0:0:0:
205,295,69422,2,0,L|208:340,3,45,8|0|0|0,0:0|0:0|0:0|0:0,0:0:0:0:
328,156,69728,1,8,0:0:0:0:
336,112,69804,1,0,0:0:0:0:
320,72,69881,1,0,0:0:0:0:
284,48,69957,1,0,0:0:0:0:
240,48,70034,5,8,0:0:0:0:
168,208,70187,1,0,0:0:0:0:
340,304,70340,1,8,0:0:0:0:
72,72,70493,1,0,0:0:0:0:
116,296,70646,1,8,0:0:0:0:
496,208,70799,1,0,0:0:0:0:
308,295,70952,6,0,L|304:340,3,45,8|0|0|0,0:0|0:0|0:0|0:0,0:0:0:0:
201,176,71258,2,0,L|208:244,3,67.5000025749208,8|0|0|0,0:0|0:0|0:0|0:0,0:0:0:0:
44,60,71565,2,8,L|76:144,1,90
408,208,71718,2,8,L|376:292,1,90
47,320,71871,6,0,P|80:312|114:313,1,67.5
364,352,72177,1,8,0:0:0:0:
84,304,72330,1,0,0:0:0:0:
408,248,72483,1,8,0:0:0:0:
40,156,72636,1,0,0:0:0:0:
448,140,72789,6,0,L|492:136,1,45,8|0,0:0|0:0,0:0:0:0:
189,69,72942,1,0,0:0:0:0:
197,57,73019,1,0,0:0:0:0:
204,48,73095,2,0,L|249:45,1,45,8|0,0:0|0:0,0:0:0:0:
108,336,73248,1,0,0:0:0:0:
68,316,73325,1,0,0:0:0:0:
44,280,73401,2,0,P|40:235|42:190,1,90,8|0,0:0|0:0,0:0:0:0:
424,116,73707,5,8,0:0:0:0:
192,308,73860,1,0,0:0:0:0:
192,308,73937,1,0,0:0:0:0:
192,308,74014,1,8,0:0:0:0:
68,64,74167,5,0,0:0:0:0:
68,64,74243,1,0,0:0:0:0:
68,64,74320,1,8,0:0:0:0:
360,316,74473,5,0,0:0:0:0:
360,316,74549,1,0,0:0:0:0:
360,316,74626,6,0,L|432:304,1,45,8|0,0:0|0:0,0:0:0:0:
408,192,74779,2,0,L|455:136,1,45
364,60,74932,6,0,L|364:-12,1,45,8|0,0:0|0:0,0:0:0:0:
164,184,75085,2,0,L|164:139,1,45
448,108,75238,6,0,L|496:128,1,45,8|0,0:0|0:0,0:0:0:0:
104,268,75391,2,0,L|56:248,1,45
284,32,75544,5,8,0:0:0:0:
296,108,75621,1,0,0:0:0:0:
308,184,75697,1,0,0:0:0:0:
320,260,75774,1,0,0:0:0:0:
332,336,75850,2,0,P|344:360|356:376,1,45,8|0,0:0|0:0,0:0:0:0:
136,60,76003,5,0,0:0:0:0:
116,136,76080,1,0,0:0:0:0:
56,184,76156,2,0,L|0:192,1,45,8|0,0:0|0:0,0:0:0:0:
444,288,76309,5,0,0:0:0:0:
368,284,76386,1,0,0:0:0:0:
300,316,76462,2,0,L|280:364,1,45,8|0,0:0|0:0,0:0:0:0:
276,288,76616,2,0,L|268:344,1,45
248,268,76769,2,0,L|252:324,1,45,8|0,0:0|0:0,0:0:0:0:
456,128,76922,6,0,L|452:72,1,45
40,296,77075,2,0,L|100:304,1,45,8|0,0:0|0:0,0:0:0:0:
280,124,77228,2,0,L|340:116,1,45
147,344,77381,6,0,P|72:309|93:229,1,180,8|0,0:0|0:0,0:0:0:0:
248,267,77610,2,0,P|162:270|116:198,1,180,8|0,0:0|0:0,0:0:0:0:
216,8,77840,2,0,L|204:192,1,180,8|0,0:0|0:0,0:0:0:0:
64,132,78070,2,0,P|2:83|64:35,1,180,8|0,0:0|0:0,0:0:0:0:
376,104,78299,6,8,B|392:156|360:248|377:283,1,180,8|2,0:0|0:0,0:0:0:0:
392,300,78529,1,2,0:0:0:0:
412,312,78605,1,2,0:0:0:0:
436,312,78682,1,2,0:0:0:0:
456,304,78758,1,2,0:0:0:0:
468,284,78835,1,2,0:0:0:0:
464,260,78911,6,2,L|468:228,3,22.5
452,164,79065,2,2,L|456:132,3,22.5
431,56,79218,6,0,P|360:84|289:54,1,157.5,2|0,0:0|0:0,0:0:0:0:
376,104,79830,6,0,B|332:113|332:113|324:111|324:111|322:117|322:117|318:111|318:111|314:109|314:109|308:101|308:101|312:101|312:101|304:105|304:105|308:117|308:117|312:124|312:124|316:117|316:117|304:105|304:105|298:109|298:109|308:113|308:113|300:133|300:133|298:141|298:141|296:109|296:109|300:101|300:101|288:93|288:93|283:101|283:101|288:101|288:101|295:100|295:100|304:117|304:117|304:126|304:126|296:129|296:129|292:133|292:133|288:129|288:129|292:121|292:121|292:113|292:113|287:109|287:109|282:111|282:111|284:115|284:115|280:117|280:117|276:111|276:111|278:102|278:102|270:117|270:117|275:117|275:117|278:122|278:122|284:121|284:121|288:118|288:118|286:124|286:124|282:126|282:126|274:128|274:128|272:124|272:124|268:129|268:129|263:126|263:126|172:85|100:105|100:105|140:121,1,630,8|0,0:0|0:0,0:0:0:0:
176,180,80442,6,0,P|176:224|164:260,1,67.5,8|0,0:0|0:0,0:0:0:0:
252,267,80748,6,0,P|262:218|260:168,1,101.250003862381,8|0,0:0|0:0,0:0:0:0:
340,128,81054,6,0,L|456:132,1,90,8|0,0:0|0:0,0:0:0:0:
60,256,81360,1,0,0:0:0:0:
400,220,81514,2,0,L|516:224,1,90,8|0,0:0|0:0,0:0:0:0:
32,344,81820,1,0,0:0:0:0:
216,72,81973,5,8,0:0:0:0:
379,217,82126,1,0,0:0:0:0:
172,286,82279,1,8,0:0:0:0:
204,32,82432,5,0,0:0:0:0:
420,226,82585,1,8,0:0:0:0:
143,317,82738,1,0,0:0:0:0:
64,36,82891,5,8,0:0:0:0:
120,52,82968,1,0,0:0:0:0:
164,88,83044,1,0,0:0:0:0:
188,144,83121,1,0,0:0:0:0:
180,200,83197,1,0,0:0:0:0:
152,252,83274,1,0,0:0:0:0:
272,128,83350,5,8,0:0:0:0:
312,116,83427,1,0,0:0:0:0:
352,112,83503,1,0,0:0:0:0:
392,116,83580,1,0,0:0:0:0:
428,100,83656,1,0,0:0:0:0:
424,140,83733,1,0,0:0:0:0:
464,256,83809,6,0,L|476:288,3,22.5,8|0|0|0,0:0|0:0|0:0|0:0,0:0:0:0:
360,328,83962,2,0,L|348:360,3,22.5
232,352,84116,2,0,L|202:369,3,22.5,8|0|0|0,0:0|0:0|0:0|0:0,0:0:0:0:
128,220,84269,5,0,0:0:0:0:
108,180,84345,1,0,0:0:0:0:
104,140,84422,1,8,0:0:0:0:
108,100,84498,1,0,0:0:0:0:
124,64,84575,1,0,0:0:0:0:
152,36,84651,1,0,0:0:0:0:
192,28,84728,6,0,L|248:32,3,45,8|0|0|0,0:0|0:0|0:0|0:0,0:0:0:0:
376,88,85034,1,0,0:0:0:0:
300,112,85110,1,0,0:0:0:0:
224,136,85187,2,0,L|228:188,3,45,8|0|0|0,0:0|0:0|0:0|0:0,0:0:0:0:
48,336,85493,5,0,0:0:0:0:
40,252,85570,1,0,0:0:0:0:
32,168,85646,2,0,L|40:112,3,45,8|0|0|0,0:0|0:0|0:0|0:0,0:0:0:0:
320,232,85952,5,0,0:0:0:0:
236,248,86029,1,0,0:0:0:0:
216,332,86105,2,0,L|148:312,3,45,8|0|0|0,0:0|0:0|0:0|0:0,0:0:0:0:
236,140,86411,5,0,0:0:0:0:
320,124,86488,1,0,0:0:0:0:
404,140,86564,2,0,L|447:152,3,45,8|0|0|0,0:0|0:0|0:0|0:0,0:0:0:0:
472,232,86871,5,0,0:0:0:0:
452,320,87024,1,8,0:0:0:0:
368,288,87177,1,0,0:0:0:0:
292,340,87330,1,0,0:0:0:0:
244,263,87483,6,0,P|192:291|179:233,1,135,8|0,0:0|0:0,0:0:0:0:
244,304,87789,2,0,P|159:272|211:198,1,202.500007724762,8|0,0:0|0:0,0:0:0:0:
232,332,88095,2,0,P|144:248|247:185,1,270,8|0,0:0|0:0,0:0:0:0:
412,248,88401,6,0,P|455:256|499:246,1,90,8|0,0:0|0:0,0:0:0:0:
280,132,88707,1,0,0:0:0:0:
120,328,88860,1,8,0:0:0:0:
432,152,89014,2,0,P|439:107|438:62,1,90
52,44,89320,5,8,0:0:0:0:
114,64,89396,1,0,0:0:0:0:
149,120,89473,1,0,0:0:0:0:
139,185,89549,1,0,0:0:0:0:
89,228,89626,5,8,0:0:0:0:
155,214,89702,1,0,0:0:0:0:
222,222,89779,1,0,0:0:0:0:
288,231,89855,1,0,0:0:0:0:
355,222,89932,6,0,L|428:232,1,45,8|0,0:0|0:0,0:0:0:0:
120,328,90085,2,0,L|48:318,1,45
204,48,90238,6,0,L|276:57,1,67.5,8|0,0:0|0:0,0:0:0:0:
344,32,90544,2,0,L|388:37,1,45
338,181,90697,2,0,L|355:222,1,45,8|0,0:0|0:0,0:0:0:0:
192,336,90850,2,0,L|175:295,1,45
452,176,91003,2,0,L|469:217,1,45
476,304,91156,5,8,0:0:0:0:
176,96,91309,2,0,L|154:103,1,22.5
200,144,91386,1,0,0:0:0:0:
248,168,91462,2,0,L|240:228,3,45,8|0|0|0,0:0|0:0|0:0|0:0,0:0:0:0:
460,276,91769,2,0,L|465:231,3,45,8|0|0|0,0:0|0:0|0:0|0:0,0:0:0:0:
409,63,92075,6,0,L|416:108,1,45,8|0,0:0|0:0,0:0:0:0:
293,119,92228,2,0,L|300:164,1,45,8|0,0:0|0:0,0:0:0:0:
161,91,92381,2,0,L|168:136,1,45,8|0,0:0|0:0,0:0:0:0:
45,155,92534,2,0,L|52:200,1,45,8|0,0:0|0:0,0:0:0:0:
196,324,92687,1,8,0:0:0:0:
217,298,92763,1,0,0:0:0:0:
250,291,92840,1,8,0:0:0:0:
280,303,92916,1,0,0:0:0:0:
298,332,92993,6,0,L|356:340,1,56.25,8|0,0:0|0:0,0:0:0:0:
104,256,93146,2,0,L|46:248,1,56.25,8|0,0:0|0:0,0:0:0:0:
428,196,93299,2,0,L|485:203,1,56.25,8|0,0:0|0:0,0:0:0:0:
68,56,93452,2,0,L|10:48,1,56.25,8|0,0:0|0:0,0:0:0:0:
380,64,93605,2,0,L|408:68,3,28.125,8|0|0|0,0:0|0:0|0:0|0:0,0:0:0:0:
484,64,93758,2,0,L|511:67,3,28.125,8|0|0|0,0:0|0:0|0:0|0:0,0:0:0:0:
504,136,93911,6,0,P|515:167|512:200,1,67.5000025749208,8|0,0:0|0:0,0:0:0:0:
256,232,94065,2,0,P|234:257|204:271,1,67.5000025749208,8|0,0:0|0:0,0:0:0:0:
80,40,94218,2,0,P|46:34|19:15,1,67.5000025749208,8|0,0:0|0:0,0:0:0:0:
432,40,94371,2,0,P|465:34|492:15,1,67.5000025749208,8|0,0:0|0:0,0:0:0:0:
28,136,94524,2,0,L|40:216,1,67.5000025749208,8|0,0:0|0:0,0:0:0:0:
480,320,94677,2,0,L|492:240,1,67.5000025749208,8|0,0:0|0:0,0:0:0:0:
3,314,94830,6,0,L|48:312,2,45,8|0|0,0:0|0:0|0:0,0:0:0:0:
264,341,94983,6,0,L|220:344,2,45,8|0|0,0:0|0:0|0:0,0:0:0:0:
11,290,95136,6,0,L|56:288,2,45,8|0|0,0:0|0:0|0:0,0:0:0:0:
368,285,95289,6,0,L|324:288,2,45,8|0|0,0:0|0:0|0:0,0:0:0:0:
19,270,95442,6,0,L|64:268,2,45,8|0|0,0:0|0:0|0:0,0:0:0:0:
480,229,95595,6,0,L|436:232,2,45,8|0|0,0:0|0:0|0:0,0:0:0:0:
134,124,95748,5,8,0:0:0:0:
240,56,95901,1,8,0:0:0:0:
358,95,96054,1,0,0:0:0:0:
401,213,96207,1,8,0:0:0:0:
336,320,96360,1,8,0:0:0:0:
211,336,96514,1,0,0:0:0:0:
122,247,96667,6,0,P|21:222|89:143,1,247.5,8|0,0:0|0:0,0:0:0:0:
320,304,97585,1,8,0:0:0:0:
126,191,97738,1,8,0:0:0:0:
320,79,97891,1,0,0:0:0:0:
424,344,98044,1,8,0:0:0:0:
229,231,98197,1,8,0:0:0:0:
424,119,98350,1,0,0:0:0:0:
151,107,98503,6,0,P|105:48|31:62,1,157.5,8|0,0:0|0:0,0:0:0:0:
79,124,99116,2,0,P|211:96|346:105,1,270,8|0,0:0|0:0,0:0:0:0:
416,176,99422,5,8,0:0:0:0:
416,264,99575,1,8,0:0:0:0:
416,352,99728,1,0,0:0:0:0:
64,288,99881,5,8,0:0:0:0:
416,264,100034,1,8,0:0:0:0:
79,124,100187,1,0,0:0:0:0:
424,88,100340,2,0,L|460:88,7,22.5,8|0|0|0|0|0|0|0,0:0|0:0|0:0|0:0|0:0|0:0|0:0|0:0,0:0:0:0:
472,96,100952,1,0,0:0:0:0:
488,112,101029,1,0,0:0:0:0:
496,136,101105,1,0,0:0:0:0:
496,160,101182,1,0,0:0:0:0:
488,184,101258,5,8,0:0:0:0:
416,264,101411,1,8,0:0:0:0:
156,236,101565,1,0,0:0:0:0:
424,88,101718,1,8,0:0:0:0:
48,216,101871,2,0,P|40:260|40:305,1,90,8|0,0:0|0:0,0:0:0:0:
438,266,102177,6,0,L|416:264,1,22.5,8|0,0:0|0:0,0:0:0:0:
368,144,102330,6,0,L|336:152,1,33.7500012874604,8|0,0:0|0:0,0:0:0:0:
265,43,102483,6,0,L|228:68,1,45,8|0,0:0|0:0,0:0:0:0:
108,251,102636,6,0,L|162:278,1,59.8499975342561,8|0,0:0|0:0,0:0:0:0:
382,304,102789,6,0,L|377:229,1,75.1499976492692,8|0,0:0|0:0,0:0:0:0:
26,242,102942,6,0,L|32:332,1,90,8|0,0:0|0:0,0:0:0:0:
148,76,103095,5,8,0:0:0:0:
165,117,103171,1,0,0:0:0:0:
195,150,103248,1,0,0:0:0:0:
235,170,103324,1,0,0:0:0:0:
279,175,103401,5,8,0:0:0:0:
323,165,103477,1,0,0:0:0:0:
360,140,103554,1,0,0:0:0:0:
387,104,103630,1,0,0:0:0:0:
399,61,103707,5,8,0:0:0:0:
396,16,103783,1,0,0:0:0:0:
357,48,103860,1,0,0:0:0:0:
316,64,103937,1,0,0:0:0:0:
271,62,104013,5,8,0:0:0:0:
236,40,104090,1,0,0:0:0:0:
261,77,104166,1,0,0:0:0:0:
280,117,104243,1,0,0:0:0:0:
292,161,104320,5,8,0:0:0:0:
291,205,104396,1,0,0:0:0:0:
276,247,104472,1,0,0:0:0:0:
245,279,104549,1,0,0:0:0:0:
203,296,104626,2,0,L|136:292,3,45,8|0|0|0,0:0|0:0|0:0|0:0,0:0:0:0:
60,204,104932,5,8,0:0:0:0:
114,170,105008,1,0,0:0:0:0:
177,176,105085,1,0,0:0:0:0:
223,220,105161,1,0,0:0:0:0:
233,283,105238,5,8,0:0:0:0:
202,339,105314,1,0,0:0:0:0:
143,364,105391,1,0,0:0:0:0:
82,348,105467,1,0,0:0:0:0:
43,298,105544,5,8,0:0:0:0:
43,234,105620,1,0,0:0:0:0:
60,172,105697,1,0,0:0:0:0:
52,108,105774,1,0,0:0:0:0:
20,52,105850,5,8,0:0:0:0:
80,76,105927,1,0,0:0:0:0:
144,72,106003,1,0,0:0:0:0:
204,96,106080,1,0,0:0:0:0:
264,76,106156,5,8,0:0:0:0:
324,100,106233,1,0,0:0:0:0:
384,80,106309,1,0,0:0:0:0:
444,100,106386,1,0,0:0:0:0:
464,160,106462,2,0,L|456:216,3,45,8|0|0|0,0:0|0:0|0:0|0:0,0:0:0:0:
283,314,106769,5,8,0:0:0:0:
238,266,106845,1,0,0:0:0:0:
185,227,106922,1,8,0:0:0:0:
122,218,106998,1,0,0:0:0:0:
80,264,107075,5,8,0:0:0:0:
112,320,107151,1,0,0:0:0:0:
172,304,107228,1,8,0:0:0:0:
180,244,107304,1,0,0:0:0:0:
148,188,107381,5,8,0:0:0:0:
156,124,107457,1,0,0:0:0:0:
196,76,107534,1,8,0:0:0:0:
256,60,107610,1,0,0:0:0:0:
316,76,107687,6,0,L|352:76,2,22.5,8|0|0,0:0|0:0|0:0,0:0:0:0:
456,288,107840,2,0,L|433:288,2,22.5,8|0|0,0:0|0:0|0:0,0:0:0:0:
178,124,107993,2,0,L|156:124,2,22.5,8|0|0,0:0|0:0|0:0,0:0:0:0:
320,264,108146,5,8,0:0:0:0:
312,280,108223,1,0,0:0:0:0:
304,296,108299,1,8,0:0:0:0:
296,312,108376,1,0,0:0:0:0:
288,328,108452,1,8,0:0:0:0:
280,344,108529,1,0,0:0:0:0:
272,360,108605,5,8,0:0:0:0:
180,364,108682,1,0,0:0:0:0:
96,332,108758,5,8,0:0:0:0:
48,256,108835,1,0,0:0:0:0:
56,168,108911,5,8,0:0:0:0:
116,100,108988,1,0,0:0:0:0:
208,96,109065,5,8,0:0:0:0:
280,152,109141,1,0,0:0:0:0:
292,240,109218,5,8,0:0:0:0:
336,316,109294,1,0,0:0:0:0:
424,328,109371,5,8,0:0:0:0:
504,288,109447,1,0,0:0:0:0:
508,196,109524,6,0,L|500:88,1,90,8|0,0:0|0:0,0:0:0:0:
4,188,109677,6,0,L|12:296,1,90,8|0,0:0|0:0,0:0:0:0:
492,76,109830,6,0,B|471:32|471:32|430:-7,1,90,8|0,0:0|0:0,0:0:0:0:
20,308,109983,6,0,B|40:351|40:351|81:391,1,90,8|0,0:0|0:0,0:0:0:0:
452,120,110136,5,8,0:0:0:0:
380,32,110212,5,8,0:0:0:0:
276,76,110289,5,8,0:0:0:0:
284,184,110366,5,8,0:0:0:0:
392,212,110442,6,2,P|433:231|477:236,2,90,10|0|0,0:0|0:0|0:0,0:0:0:0:
164,316,110901,2,2,P|121:300|86:273,2,90,2|0|0,0:0|0:0|0:0,0:0:0:0:
60,168,111360,5,0,0:0:0:0:
96,76,111514,1,0,0:0:0:0:
192,44,111667,1,0,0:0:0:0:
288,72,111820,5,2,0:0:0:0:
252,164,111973,1,0,0:0:0:0:
212,252,112126,1,0,0:0:0:0:
284,316,112279,6,0,P|336:332|376:328,1,90
448,264,112585,1,0,0:0:0:0:
60,200,112738,6,0,L|48:304,1,90,2|0,0:0|0:0,0:0:0:0:
136,120,113044,1,0,0:0:0:0:
240,104,113197,6,0,L|344:120,2,90
408,200,113711,5,2,0:0:0:0:
260,244,113882,1,0,0:0:0:0:
140,144,114054,1,0,0:0:0:0:
128,344,114225,1,2,0:0:0:0:
128,344,114268,1,2,0:0:0:0:
128,344,114311,1,2,0:0:0:0:
