osu file format v14

[General]
AudioFilename: Aragami.mp3
AudioLeadIn: 0
PreviewTime: 81665
Countdown: 0
SampleSet: Soft
StackLeniency: 0.7
Mode: 0
LetterboxInBreaks: 0
WidescreenStoryboard: 0

[Editor]
Bookmarks: 15543,24726,39420,46767,54114,65440,66053,72175,82583,85032,89930,97277,111971
DistanceSpacing: 1
BeatDivisor: 4
GridSize: 4
TimelineZoom: 1.200001

[Metadata]
Title:Aragami
TitleUnicode:Aragami
Artist:xi
ArtistUnicode:xi
Creator:Sayaka-
Version:Normal
Source:BMS
Tags:g2r2014 g2r go back 2 your roots life stream of fighters bof 2014 dialgadu77 Cherry Blossom
BeatmapID:563742
BeatmapSetID:225377

[Difficulty]
HPDrainRate:3
CircleSize:3
OverallDifficulty:3.5
ApproachRate:5
SliderMultiplier:1
SliderTickRate:1

[Events]
//Background and Video events
0,0,"xi.jpg",0,0
//Break Periods
//Storyboard Layer 0 (Background)
//Storyboard Layer 1 (Fail)
//Storyboard Layer 2 (Pass)
//Storyboard Layer 3 (Foreground)
//Storyboard Sound Samples

[TimingPoints]
7,612.244897959184,4,2,0,30,1,0
9802,681.818181818182,4,2,0,50,1,0
10483,769.230769230769,4,2,0,50,1,0
11252,882.352941176471,4,2,0,50,1,0
12134,1034.48275862069,4,2,0,50,1,0
13168,1132.07547169811,4,2,0,50,1,0
14300,1250,4,2,0,50,1,0
15550,306.122448979592,3,2,2,70,1,1
24733,-111.111111111111,3,2,2,35,0,0
37590,-100,3,2,1,50,0,0
39427,-100,3,2,2,50,0,0
46009,-100,3,2,2,50,0,0
46774,-100,3,2,2,50,0,0
54121,-100,3,2,1,50,0,0
64682,-100,3,2,2,50,0,0
65141,-100,3,2,2,50,0,0
82590,-90.9090909090909,3,2,2,70,0,1
97284,-100,3,2,1,70,0,0
104631,-90.9090909090909,3,2,2,70,0,1
108305,-90.9090909090909,3,2,2,40,0,1
109223,-90.9090909090909,3,2,2,50,0,1
110141,-90.9090909090909,3,2,2,60,0,1
111060,-90.9090909090909,3,2,2,70,0,1
111978,-90.9090909090909,3,2,2,70,0,0
112055,-90.9090909090909,3,2,2,25,0,0
113815,315.789473684211,3,2,1,25,1,0
114762,326.086956521739,3,2,1,25,1,0
115251,337.078651685393,3,2,1,25,1,0
115419,348.837209302326,3,2,1,25,1,0
115593,361.44578313253,3,2,1,25,1,0
115773,337.078651685393,3,2,0,50,1,0

[Colours]
Combo1 : 244,24,0
Combo2 : 14,209,231
Combo3 : 22,113,222
Combo4 : 253,202,0

[HitObjects]
24,308,1537,6,0,P|96:332|168:308,1,150,0|2,0:0|0:0,0:0:0:0:
256,252,3068,2,0,L|256:184,2,50,2|0|2,0:0|0:0|0:0,0:0:0:0:
348,312,4292,1,0,0:0:0:0:
452,276,4904,2,0,L|460:164,2,100,2|2|2,0:0|0:0|0:0,0:0:0:0:
352,80,7353,6,0,P|400:72|452:80,2,100,2|0|2,0:0|0:0|0:0,0:0:0:0:
256,136,9190,1,0,0:0:0:0:
160,192,9802,2,0,P|108:204|56:192,1,100,2|2,0:0|0:0,0:0:0:0:
256,192,11252,12,2,14925,0:0:0:0:
256,40,15550,6,0,P|328:20|400:40,2,150,8|8|8,0:0|0:0|0:0,0:0:0:0:
188,112,16774,2,0,L|196:228,1,100,2|0,0:0|0:0,0:0:0:0:
204,312,17386,2,0,L|44:304,2,150,8|8|8,0:0|0:0|0:0,0:0:0:0:
304,328,18611,1,8,0:0:0:0:
404,316,18917,1,10,0:0:0:0:
484,252,19223,6,0,P|508:184|484:112,2,150,12|8|8,0:0|0:0|0:0,0:0:0:0:
404,316,20447,2,0,L|288:308,1,100,2|0,0:0|0:0,0:0:0:0:
256,192,21060,12,4,22896,0:0:0:0:
256,192,22973,12,4,24733,0:0:0:0:
424,32,25652,6,0,L|420:224,1,179.999994506836,2|2,0:0|0:0,0:0:0:0:
416,300,26570,1,0,0:0:0:0:
496,260,26876,1,2,0:0:0:0:
244,360,27794,2,0,L|140:352,1,89.9999972534181,2|2,0:0|0:0,0:0:0:0:
76,308,28407,6,0,P|40:228|80:148,1,179.999994506836,2|0,0:0|0:0,0:0:0:0:
124,72,29325,2,0,P|80:60|36:72,2,89.9999972534181,2|2|0,0:0|0:0|0:0,0:0:0:0:
172,148,30243,2,0,P|256:176|344:148,1,179.999994506836,2|2,0:0|0:0,0:0:0:0:
424,120,31162,2,0,L|416:304,1,179.999994506836,2|2,0:0|0:0,0:0:0:0:
340,348,32080,6,0,P|296:360|252:348,1,89.9999972534181,2|2,0:0|0:0,0:0:0:0:
188,288,32692,1,2,0:0:0:0:
128,220,32998,2,0,P|84:212|40:220,2,89.9999972534181,2|2|0,0:0|0:0|0:0,0:0:0:0:
216,200,33917,2,0,L|316:196,1,89.9999972534181,2|2,0:0|0:0,0:0:0:0:
392,176,34529,1,0,0:0:0:0:
468,128,34835,2,0,P|476:84|468:40,2,89.9999972534181,2|2|2,0:0|0:0|0:0,0:0:0:0:
392,176,35754,6,0,P|332:216|448:256,1,269.999991760254,0|2,0:0|0:0,0:0:0:0:
256,32,37590,6,0,P|156:20|76:80,1,200,6|0,0:0|0:0,0:0:0:0:
28,164,38509,2,0,L|36:276,1,100,6|6,0:0|0:0,0:0:0:0:
48,364,39121,1,6,0:0:0:0:
128,304,39427,6,0,P|224:280|320:304,1,200,12|8,0:0|0:0,0:0:0:0:
404,360,40345,2,0,L|408:256,1,100,8|2,0:0|0:0,0:0:0:0:
412,160,40958,1,2,0:0:0:0:
324,208,41264,2,0,P|228:232|132:208,1,200,8|8,0:0|0:0,0:0:0:0:
56,140,42182,2,0,L|64:40,2,100,8|2|2,0:0|0:0|0:0,0:0:0:0:
4,224,43101,5,4,0:0:0:0:
164,344,43713,1,10,0:0:0:0:
256,304,44019,2,0,L|360:292,2,100,10|10|0,0:0|0:0|0:0,0:0:0:0:
172,248,44937,2,0,P|132:156|172:68,1,200,4|10,0:0|0:0,0:0:0:0:
256,20,45856,1,8,0:0:0:0:
344,68,46162,2,0,L|448:64,1,100,8|8,0:0|0:0,0:0:0:0:
500,148,46774,6,0,L|288:160,1,200,4|8,0:0|0:0,0:0:0:0:
208,200,47692,2,0,L|204:308,2,100,10|10|10,0:0|0:0|0:0,0:0:0:0:
136,128,48611,2,0,P|88:116|40:128,2,100,8|8|8,0:0|0:0|0:0,0:0:0:0:
208,200,49529,2,0,P|256:212|308:200,1,100,10|10,0:0|0:0,0:0:0:0:
376,128,50141,1,10,0:0:0:0:
460,184,50447,6,0,L|452:344,2,150,12|8|8,0:0|0:0|0:0,0:0:0:0:
468,84,51672,1,8,0:0:0:0:
376,128,51978,1,8,0:0:0:0:
276,124,52284,2,0,L|72:112,1,200,12|0,0:0|0:0,0:0:0:0:
8,184,53203,2,0,P|-4:236|8:288,1,100,10|0,0:0|0:0,0:0:0:0:
76,352,53815,1,0,0:0:0:0:
176,364,54121,6,0,L|392:352,1,200,6|8,0:0|0:0,0:0:0:0:
468,316,55039,2,0,P|476:264|464:216,1,100,2|0,0:0|0:0,0:0:0:0:
404,136,55652,2,0,P|452:116|504:124,2,100,8|2|0,0:0|0:0|0:0,0:0:0:0:
332,204,56570,1,8,0:0:0:0:
256,272,56876,2,0,L|48:264,1,200,2|0,0:0|0:0,0:0:0:0:
104,176,57794,6,0,L|220:180,2,100,6|0|8,0:0|0:0|0:0,0:0:0:0:
160,92,58713,1,0,0:0:0:0:
56,264,59325,1,8,0:0:0:0:
108,348,59631,2,0,P|200:360|256:276,1,200,0|8,0:0|0:0,0:0:0:0:
212,192,60550,2,0,L|92:184,2,100,0|0|8,0:0|0:0|0:0,0:0:0:0:
300,144,61468,5,6,0:0:0:0:
256,192,61544,12,2,65141,0:0:0:0:
164,72,66060,6,0,P|256:40|356:72,1,200,12|2,0:0|0:0,0:0:0:0:
436,124,66978,2,0,L|428:236,1,100,2|2,0:0|0:0,0:0:0:0:
400,320,67590,1,2,0:0:0:0:
304,352,67896,2,0,P|256:364|204:352,1,100,2|2,0:0|0:0,0:0:0:0:
112,320,68509,1,2,0:0:0:0:
160,232,68815,2,0,P|112:220|64:232,2,100,2|2|2,0:0|0:0|0:0,0:0:0:0:
256,264,69733,5,2,0:0:0:0:
352,232,70039,2,0,P|392:144|352:52,1,200,6|10,0:0|0:0,0:0:0:0:
256,32,70958,2,0,L|144:24,1,100,10|10,0:0|0:0,0:0:0:0:
56,16,71570,1,10,0:0:0:0:
96,108,71876,2,0,P|108:160|96:208,1,100,10|10,0:0|0:0,0:0:0:0:
56,296,72488,2,0,L|256:284,1,200,10|0,0:0|0:0,0:0:0:0:
352,308,73407,5,0,0:0:0:0:
444,260,73713,2,0,P|456:308|444:360,2,100,12|2|10,0:0|0:0|0:0,0:0:0:0:
392,176,74631,2,0,L|492:168,1,100,10|10,0:0|0:0,0:0:0:0:
508,68,75243,2,0,L|292:84,1,200,10|10,0:0|0:0,0:0:0:0:
224,136,76162,2,0,P|212:88|224:36,2,100,10|10|10,0:0|0:0|0:0,0:0:0:0:
284,216,77080,5,10,0:0:0:0:
204,276,77386,2,0,L|100:272,2,100,14|10|10,0:0|0:0|0:0,0:0:0:0:
264,356,78305,2,0,L|368:352,1,100,14|10,0:0|0:0,0:0:0:0:
256,192,78917,12,14,80754,0:0:0:0:
152,352,81366,6,0,B|344:336|344:336|252:272,1,300,4|2,0:0|0:0,0:0:0:0:
184,192,82590,6,0,P|156:112|184:40,2,165.000005035401,12|8|8,0:0|0:0|0:0,0:0:0:0:
256,276,83815,2,0,L|372:268,1,110.000003356934,2|2,0:0|0:0,0:0:0:0:
444,192,84427,2,0,P|471:267|443:343,2,165.000005035401,8|8|10,0:0|0:0|0:0,0:0:0:0:
364,116,85652,1,10,0:0:0:0:
256,92,85958,1,10,0:0:0:0:
148,116,86264,6,0,P|80:120|8:56,2,165.000005035401,12|10|8,0:0|0:0|0:0,0:0:0:0:
256,92,87488,2,0,L|256:212,1,110.000003356934,0|0,0:0|0:0,0:0:0:0:
308,300,88101,2,0,P|424:304|460:216,1,220.000006713867,10|2,0:0|0:0,0:0:0:0:
404,124,89019,2,0,P|460:112|516:124,2,110.000003356934,10|10|10,0:0|0:0|0:0,0:0:0:0:
312,184,89937,6,0,P|256:196|200:184,1,110.000003356934,12|8,0:0|0:0,0:0:0:0:
148,92,90550,2,0,P|204:80|260:92,2,110.000003356934,10|10|8,0:0|0:0|0:0,0:0:0:0:
60,156,91468,2,0,L|72:272,2,110.000003356934,8|10|10,0:0|0:0|0:0,0:0:0:0:
48,48,92386,1,10,0:0:0:0:
148,92,92692,1,10,0:0:0:0:
256,68,92998,2,0,P|308:56|368:68,1,110.000003356934,10|10,0:0|0:0,0:0:0:0:
420,160,93611,6,0,P|368:172|308:160,2,110.000003356934,12|8|8,0:0|0:0|0:0,0:0:0:0:
512,100,94529,2,0,L|496:320,1,220.000006713867,12|8,0:0|0:0,0:0:0:0:
392,348,95447,2,0,P|320:364|208:172,1,330.000010070801,6|14,0:0|0:0,0:0:0:0:
308,136,96672,2,0,L|424:128,1,110.000003356934,12|12,0:0|0:0,0:0:0:0:
452,36,97284,6,0,L|240:52,1,200,6|2,0:0|0:0,0:0:0:0:
168,104,98203,2,0,P|128:192|168:284,1,200,2|0,0:0|0:0,0:0:0:0:
256,328,99121,2,0,L|416:320,2,150,2|2|2,0:0|0:0|0:0,0:0:0:0:
56,348,100652,1,0,0:0:0:0:
140,296,100958,6,0,P|176:204|140:112,1,200,6|2,0:0|0:0,0:0:0:0:
76,36,101876,2,0,L|276:24,1,200,2|0,0:0|0:0,0:0:0:0:
344,96,102794,2,0,P|424:104|488:64,2,150,2|2|2,0:0|0:0|0:0,0:0:0:0:
256,144,104019,2,0,P|208:132|156:144,1,100,2|2,0:0|0:0,0:0:0:0:
64,196,104631,6,0,L|76:316,2,110.000003356934,4|10|10,0:0|0:0|0:0,0:0:0:0:
160,144,105550,2,0,L|170:34,2,110.000003356934,10|10|10,0:0|0:0|0:0,0:0:0:0:
204,244,106468,2,0,P|256:256|316:244,1,110.000003356934,10|10,0:0|0:0,0:0:0:0:
384,164,107080,1,10,0:0:0:0:
460,244,107386,2,0,L|452:364,2,110.000003356934,10|10|10,0:0|0:0|0:0,0:0:0:0:
488,136,108305,6,0,P|412:60|308:80,1,220.000006713867,12|8,0:0|0:0,0:0:0:0:
202,78,109223,2,0,P|98:60|24:136,1,220.000006713867,12|12,0:0|0:0,0:0:0:0:
44,244,110141,2,0,L|164:236,1,110.000003356934,8|12,0:0|0:0,0:0:0:0:
252,184,110754,2,0,P|263:237|251:290,2,110.000003356934,8|12|8,0:0|0:0|0:0,0:0:0:0:
204,84,111672,1,12,0:0:0:0:
100,124,111978,5,12,0:0:0:0:
256,192,112055,12,2,115773,0:0:0:0:
