osu file format v14

[General]
AudioFilename: 1. Aragami.mp3
AudioLeadIn: 0
PreviewTime: 16483
Countdown: 0
SampleSet: Normal
StackLeniency: 0.7
Mode: 0
LetterboxInBreaks: 0
WidescreenStoryboard: 0

[Editor]
DistanceSpacing: 0.9
BeatDivisor: 4
GridSize: 4
TimelineZoom: 2.400002

[Metadata]
Title:Aragami
TitleUnicode:Aragami
Artist:xi
ArtistUnicode:xi
Creator:Jemmmmy
Version:Hyper
Source:BMS
Tags:LIFE STREAM G2R2014 GO BACK 2 YOUR ROOTS iimo zweib lightr
BeatmapID:548745
BeatmapSetID:236548

[Difficulty]
HPDrainRate:5
CircleSize:4
OverallDifficulty:7
ApproachRate:8
SliderMultiplier:1.4
SliderTickRate:1

[Events]
//Background and Video events
Video,-2080,"xi-Aragami.avi"
0,0,"Landscape.jpg",0,0
//Break Periods
//Storyboard Layer 0 (Background)
//Storyboard Layer 1 (Fail)
//Storyboard Layer 2 (Pass)
//Storyboard Layer 3 (Foreground)
//Storyboard Sound Samples

[TimingPoints]
3095,612.244897959184,4,2,0,60,1,0
3095,-100,4,2,0,40,0,0
11360,681.818181818182,4,2,0,50,1,0
12041,769.230769230769,4,2,0,50,1,0
12810,882.352941176471,4,2,0,50,1,0
13692,1034.48275862069,4,2,0,50,1,0
14726,1132.07547169811,4,2,0,50,1,0
15858,1250,4,2,0,50,1,0
17108,306.122448979592,3,1,0,60,1,0
17108,-100,3,1,5,70,0,0
24454,-100,3,1,0,60,0,0
26291,-125,3,2,0,50,0,0
39148,-100,3,1,5,60,0,0
55679,-125,3,2,5,50,0,0
67618,-100,3,2,5,60,0,0
82924,-100,3,1,8,60,0,0
84148,-100,3,1,5,70,0,1
113536,-100,3,2,0,50,0,0
115373,315.789473684211,3,2,0,50,1,0
115373,-100,3,2,0,50,0,0
116320,326.086956521739,3,2,0,50,1,0
116320,-100,3,2,0,50,0,0
116809,337.078651685393,3,2,0,50,1,0
116809,-100,3,2,0,50,0,0
116977,348.837209302326,3,2,0,50,1,0
116977,-100,3,2,0,50,0,0
117151,361.44578313253,3,2,0,50,1,0
117151,-100,3,2,0,50,0,0
117331,337.078651685393,3,2,0,50,1,0

[Colours]
Combo1 : 228,142,27
Combo2 : 113,197,84
Combo3 : 63,200,224
Combo4 : 205,41,172

[HitObjects]
176,256,3095,6,0,P|152:216|148:172,2,70,0|0|0,0:0|0:0|0:0,0:0:0:0:
236,196,4013,2,0,P|284:188|328:200,1,70,2|0,0:0|0:0,0:0:0:0:
376,236,4625,2,0,P|388:184|384:156,1,70,2|0,0:0|0:0,0:0:0:0:
368,88,5237,1,2,0:0:0:0:
148,64,6462,6,0,P|136:116|136:144,1,70,2|0,0:0|0:0,0:0:0:0:
60,168,7074,2,0,P|75:219|92:244,1,70,2|0,0:0|0:0,0:0:0:0:
60,312,7686,1,2,0:0:0:0:
340,296,8911,6,0,P|408:300|484:344,1,140,4|0,2:0|0:0,0:0:0:0:
260,240,10135,2,0,P|310:194|396:168,1,140,2|0,0:0|0:0,0:0:0:0:
172,224,11360,6,0,P|176:156|220:76,1,140,2|0,0:0|0:0,0:0:0:0:
84,276,12810,6,0,P|38:225|12:136,1,140,2|2,0:0|0:0,0:0:0:0:
256,192,14381,12,2,16483,0:0:0:0:
312,248,17108,5,4,0:3:0:0:
404,244,17261,2,0,P|452:220|472:192,1,70
376,132,17567,1,4,0:3:0:0:
284,132,17720,2,0,P|248:148|212:184,1,70
192,304,18026,1,4,0:3:0:0:
108,340,18179,2,0,P|104:284|116:248,1,70
64,152,18485,1,4,0:3:0:0:
152,112,18638,2,0,P|156:160|136:208,1,70
200,28,18944,5,4,0:3:0:0:
276,80,19097,1,0,0:0:0:0:
368,84,19250,2,0,L|456:80,1,70,0|4,0:0|0:3,0:0:0:0:
348,176,19556,2,0,L|436:172,1,70
332,268,19863,1,4,0:3:0:0:
312,356,20016,1,0,0:0:0:0:
240,300,20169,1,4,0:3:0:0:
148,296,20322,1,0,0:0:0:0:
72,344,20475,2,0,P|60:292|64:256,1,70,4|0,0:3|0:0,0:0:0:0:
116,184,20781,6,0,L|208:184,2,70,4|0|0,0:3|0:0|0:0,0:0:0:0:
60,112,21240,1,4,0:3:0:0:
108,36,21393,1,0,0:0:0:0:
196,64,21546,1,0,0:0:0:0:
272,16,21699,2,0,L|358:10,2,70,4|0|0,0:3|0:0|0:0,0:0:0:0:
272,108,22159,5,4,0:3:0:0:
324,184,22312,1,0,0:0:0:0:
412,212,22465,1,0,0:0:0:0:
504,208,22618,2,0,L|508:292,1,70,4|0,0:3|0:0,0:0:0:0:
420,296,22924,2,0,L|424:380,1,70,0|0,0:0|0:0,0:0:0:0:
304,352,23230,6,0,L|253:365,3,35,0|0|0|0,0:0|0:0|0:0|0:0,0:0:0:0:
220,324,23536,2,0,L|166:322,3,35,0|0|0|0,0:0|0:0|0:0|0:0,0:0:0:0:
148,276,23842,2,0,L|98:261,3,35,0|0|0|0,0:0|0:0|0:0|0:0,0:0:0:0:
89,209,24148,2,0,L|44:180,3,35,0|0|0|0,0:0|0:0|0:0|0:0,0:0:0:0:
60,132,24454,1,4,2:0:0:0:
256,192,24608,12,4,26291,0:0:0:0:
163,179,26597,5,0,0:0:0:0:
163,179,26750,2,0,P|181:231|236:284,1,112
293,273,27210,2,0,P|330:231|348:179,1,112,2|0,0:0|0:0,0:0:0:0:
332,108,27669,1,0,0:0:0:0:
332,108,27822,2,0,L|308:32,1,56
240,92,28128,2,0,L|216:16,1,56,2|0,0:0|0:0,0:0:0:0:
152,76,28434,6,0,L|40:56,1,112
36,128,28893,1,0,0:0:0:0:
108,144,29046,2,0,L|180:156,1,56,2|0,0:0|0:0,0:0:0:0:
224,196,29352,2,0,P|236:240|232:264,1,56
168,300,29659,2,0,P|156:256|160:232,1,56
232,352,29965,6,0,L|352:368,1,112,2|0,0:0|0:0,0:0:0:0:
412,344,30424,2,0,L|480:328,2,56,0|0|0,0:0|0:0|0:0,0:0:0:0:
356,296,30883,2,0,L|268:196,1,112,2|0,0:0|0:0,0:0:0:0:
244,148,31342,2,0,P|248:88|288:36,1,112
344,16,31801,6,0,L|404:12,1,56,2|0,0:0|0:0,0:0:0:0:
376,84,32108,2,0,L|436:80,1,56
380,156,32414,2,0,L|320:152,1,56
344,224,32721,2,0,L|284:220,2,56,2|0|0,0:0|0:0|0:0,0:0:0:0:
396,272,33179,1,0,0:0:0:0:
440,328,33332,2,0,P|464:296|464:260,1,56
360,340,33638,6,0,L|240:348,1,112,6|0,2:0|0:0,0:0:0:0:
176,352,34097,1,0,0:0:0:0:
104,356,34250,2,0,L|60:300,1,56
104,248,34556,2,0,P|92:192|104:120,1,112,2|0,0:0|0:0,0:0:0:0:
127,71,35016,1,0,0:0:0:0:
188,32,35169,2,0,P|220:27|260:41,1,56
216,100,35475,6,0,L|240:216,1,112,6|0,2:0|0:0,0:0:0:0:
260,280,35934,1,0,0:0:0:0:
288,348,36087,2,0,L|364:348,1,56
404,276,36393,2,0,L|328:276,1,56
292,204,36699,2,0,L|368:204,1,56
408,132,37005,2,0,L|332:132,1,56
276,64,37312,6,0,L|276:8,2,56,6|0|0,2:0|0:0|0:0,0:0:0:0:
230,121,37771,1,0,0:0:0:0:
160,140,37924,2,0,L|96:128,2,56,0|0|2,0:0|0:0|0:0,0:0:0:0:
208,196,38383,1,0,0:0:0:0:
208,268,38536,1,0,0:0:0:0:
176,332,38689,1,0,0:0:0:0:
108,360,38842,2,0,L|40:364,1,56
256,336,39148,6,0,L|332:328,1,70,4|4,0:3|0:3,0:0:0:0:
416,320,39454,1,4,0:3:0:0:
300,252,39608,2,0,L|376:244,1,70,4|4,0:3|0:3,0:0:0:0:
460,236,39914,1,4,0:3:0:0:
404,164,40067,1,4,0:3:0:0:
288,24,40373,1,4,0:3:0:0:
468,12,40679,1,4,0:3:0:0:
248,120,40985,5,4,0:3:0:0:
156,108,41138,1,4,0:3:0:0:
48,256,41444,1,4,0:3:0:0:
140,268,41597,2,0,L|224:284,1,70,4|0,0:3|0:0,0:0:0:0:
268,352,41903,2,0,P|292:308|276:220,2,140,4|0|0,0:3|0:0|0:0,0:0:0:0:
84,340,42822,5,4,0:3:0:0:
48,256,42975,1,4,0:3:0:0:
220,200,43281,1,4,0:3:0:0:
184,116,43434,2,0,L|152:40,1,70,4|0,0:3|0:0,0:0:0:0:
248,64,43740,2,0,P|288:72|327:70,1,70,4|0,0:3|0:0,0:0:0:0:
396,28,44046,2,0,P|408:76|404:104,1,70
392,188,44352,2,0,L|392:236,3,35,0|0|0|0,0:0|0:0|0:0|0:0,0:0:0:0:
428,252,44659,5,4,2:3:0:0:
440,340,44812,1,4,0:3:0:0:
260,316,45118,1,4,0:3:0:0:
172,344,45271,2,0,P|176:288|184:268,1,70,4|0,0:3|0:0,0:0:0:0:
244,212,45577,1,4,0:3:0:0:
280,128,45730,1,0,0:0:0:0:
240,48,45883,1,4,0:3:0:0:
148,36,46036,1,4,0:3:0:0:
88,104,46189,2,0,L|88:192,1,70,4|0,0:3|0:0,0:0:0:0:
24,240,46495,6,0,P|68:260|168:224,1,140,4|0,2:0|0:0,0:0:0:0:
176,328,46954,1,0,0:0:0:0:
248,272,47108,2,0,P|266:314|304:340,1,70
364,372,47414,2,0,P|412:376|444:364,1,70,4|0,0:3|0:0,0:0:0:0:
396,288,47720,2,0,L|392:248,3,35,0|0|0|0,0:0|0:0|0:0|0:0,0:0:0:0:
428,228,48026,6,0,L|432:132,1,70
416,68,48332,2,0,P|336:104|268:104,1,140,4|0,0:3|0:0,0:0:0:0:
208,60,48791,1,0,0:0:0:0:
120,76,48944,2,0,L|96:144,1,70
160,208,49250,2,0,L|180:296,1,70,4|0,0:3|0:0,0:0:0:0:
96,320,49556,2,0,L|80:251,1,70
184,360,49863,1,0,0:0:0:0:
268,324,50016,1,0,0:0:0:0:
360,320,50169,6,0,P|400:332|448:360,1,70,4|0,0:3|0:0,0:0:0:0:
308,240,50475,1,0,0:0:0:0:
308,149,50628,1,0,0:0:0:0:
353,70,50781,2,0,L|436:71,1,70
257,24,51087,2,0,L|187:23,1,70,4|0,0:3|0:0,0:0:0:0:
143,106,51393,5,0,0:0:0:0:
143,106,51470,1,0,0:0:0:0:
143,106,51546,1,0,0:0:0:0:
143,106,51623,1,0,0:0:0:0:
143,106,51699,2,0,P|97:143|88:159,1,70,0|2,0:3|0:3,0:0:0:0:
172,194,52005,5,4,0:3:0:0:
235,259,52158,2,0,L|228:339,1,70,8|0,0:0|0:0,0:0:0:0:
261,172,52465,1,4,0:3:0:0:
324,237,52618,2,0,L|317:317,1,70,8|0,0:0|0:0,0:0:0:0:
348,152,52924,1,4,0:3:0:0:
411,217,53077,2,0,L|404:297,1,70,8|0,0:0|0:0,0:0:0:0:
437,130,53384,1,4,0:3:0:0:
500,195,53537,2,0,L|493:275,1,70,8|0,0:0|0:0,0:0:0:0:
510,77,53842,5,4,0:3:0:0:
454,4,53995,1,4,0:3:0:0:
272,18,54301,1,4,0:3:0:0:
374,169,54608,1,4,0:3:0:0:
387,259,54761,6,0,L|392:300,3,35,0|0|0|0,0:0|0:0|0:0|0:0,0:0:0:0:
314,295,55067,2,0,L|319:336,3,35,0|0|0|0,0:0|0:0|0:0|0:0,0:0:0:0:
240,327,55373,2,0,L|245:368,3,35,0|0|0|0,0:0|0:0|0:0|0:0,0:0:0:0:
169,350,55679,6,0,P|113:359|47:345,1,112,4|0,2:3|0:0,0:0:0:0:
11,294,56138,1,4,0:3:0:0:
56,237,56291,2,0,L|59:165,1,56
109,129,56597,6,0,P|175:138|238:123,1,112,4|0,0:3|0:0,0:0:0:0:
332,38,57210,1,0,0:0:0:0:
311,182,57516,2,0,P|278:241|219:273,1,112,4|0,0:3|0:0,0:0:0:0:
170,278,57975,1,4,0:3:0:0:
99,259,58128,1,0,0:0:0:0:
213,345,58434,6,0,L|346:345,1,112,4|0,0:3|0:0,0:0:0:0:
465,306,59046,2,0,L|484:279,3,28,0|0|0|0,0:0|0:0|0:0|0:0,0:0:0:0:
431,249,59352,6,0,L|441:114,1,112,4|0,0:3|0:0,0:0:0:0:
365,11,59965,1,0,0:0:0:0:
293,22,60118,1,0,0:0:0:0:
221,34,60271,2,0,L|88:53,1,112
28,170,60883,1,2,0:3:0:0:
165,148,61189,2,0,L|275:132,1,112,10|0,0:3|0:0,0:0:0:0:
395,215,61801,1,0,0:0:0:0:
251,242,62108,2,0,L|140:257,1,112
53,363,62720,6,0,L|98:372,3,28,0|0|0|0,0:0|0:0|0:0|0:0,0:0:0:0:
117,367,63026,2,0,P|222:356|299:378,1,168,4|0,2:0|0:0,0:0:0:0:
399,269,63944,2,0,P|294:258|217:280,1,168
112,176,64863,2,0,P|217:165|294:187,1,168
394,78,65781,2,0,P|289:67|212:89,1,168
69,266,66699,6,0,L|61:220,3,28,0|0|0|0,0:0|0:0|0:0|0:0,0:0:0:0:
93,197,67005,2,0,L|101:165,3,28,0|0|0|0,0:0|0:0|0:0|0:0,0:0:0:0:
64,132,67312,2,0,L|56:86,3,28,0|0|0|0,0:0|0:0|0:0|0:0,0:0:0:0:
98,41,67618,6,0,L|178:39,1,70,4|0,2:0|0:0,0:0:0:0:
246,84,67924,2,0,L|326:82,1,70,0|0,0:0|0:0,0:0:0:0:
390,134,68230,2,0,L|470:132,1,70,0|0,0:0|0:0,0:0:0:0:
348,232,68536,1,2,0:3:0:0:
346,322,68689,1,0,0:0:0:0:
266,277,68842,1,0,0:0:0:0:
176,294,68995,1,0,0:0:0:0:
123,368,69148,2,0,P|96:330|89:285,1,70
117,221,69454,6,0,L|165:148,1,70,2|0,0:3|0:0,0:0:0:0:
246,170,69761,2,0,L|294:97,1,70,0|0,0:0|0:0,0:0:0:0:
374,121,70067,2,0,L|422:48,1,70,0|0,0:0|0:0,0:0:0:0:
294,37,70373,1,2,0:3:0:0:
207,66,70526,1,0,0:0:0:0:
159,199,70679,1,0,0:0:0:0:
246,170,70832,1,0,0:0:0:0:
331,200,70985,2,0,L|349:274,1,70
367,356,71291,2,0,L|284:358,1,70,2|0,0:3|0:0,0:0:0:0:
206,359,71597,6,0,P|219:316|237:292,1,70
155,248,71903,2,0,P|187:217|215:205,1,70,0|0,0:0|0:0,0:0:0:0:
331,200,72210,1,2,0:3:0:0:
421,208,72363,1,0,0:0:0:0:
480,139,72516,1,0,0:0:0:0:
457,50,72669,1,0,0:0:0:0:
372,17,72822,6,0,L|293:3,1,70
218,71,73128,2,0,L|286:83,1,70,2|0,0:3|0:0,0:0:0:0:
331,201,73434,2,0,L|252:187,1,70
177,255,73740,2,0,L|245:267,1,70
116,331,74046,6,0,P|91:287|104:186,1,140,2|0,0:3|0:0,0:0:0:0:
164,139,74505,1,0,0:0:0:0:
253,157,74659,2,0,P|251:120|238:86,1,70,0|8,0:0|0:0,0:0:0:0:
317,42,74965,2,0,P|346:64|381:76,1,70,6|0,0:3|0:0,0:0:0:0:
467,61,75271,5,4,2:0:0:0:
434,145,75424,1,0,0:0:0:0:
454,233,75577,2,0,L|470:315,1,70,8|0,0:0|0:0,0:0:0:0:
364,212,75883,1,6,0:3:0:0:
276,236,76036,1,0,0:0:0:0:
224,308,76189,2,0,L|208:380,1,70,8|0,0:0|0:0,0:0:0:0:
120,368,76495,2,0,L|138:295,1,70,8|0,0:0|0:0,0:0:0:0:
184,220,76801,2,0,P|190:178|185:136,1,70,6|0,0:3|0:0,0:0:0:0:
124,88,77108,5,8,0:0:0:0:
208,48,77261,1,0,0:0:0:0:
293,65,77414,2,0,P|347:70|388:63,1,70,8|0,0:0|0:0,0:0:0:0:
446,34,77720,2,0,L|462:119,1,70,6|0,0:3|0:0,0:0:0:0:
400,172,78026,2,0,L|416:257,1,70,8|0,0:0|0:0,0:0:0:0:
355,311,78332,2,0,L|363:354,3,35,0|0|0|0,0:0|0:0|0:0|0:0,0:0:0:0:
313,362,78638,6,0,P|276:372|218:369,1,70,4|0,0:3|0:0,0:0:0:0:
154,354,78944,1,4,2:0:0:0:
264,287,79097,2,0,P|222:276|178:245,1,70
130,200,79403,1,0,0:0:0:0:
258,200,79556,2,0,P|230:172|204:121,1,70,4|0,0:3|0:0,0:0:0:0:
185,58,79862,1,12,2:0:0:0:
304,87,80016,2,0,P|331:114|357:165,1,70
377,229,80322,1,8,0:0:0:0:
378,319,80475,6,0,P|424:305|447:284,1,70,2|0,0:0|0:0,0:0:0:0:
284,305,80781,2,0,P|238:319|215:340,1,70,2|0,0:0|0:0,0:0:0:0:
155,264,81087,2,0,L|137:226,3,35,0|0|0|0,0:0|0:0|0:0|0:0,0:0:0:0:
189,163,81393,2,0,L|203:194,3,35,0|0|0|0,0:0|0:0|0:0|0:0,0:0:0:0:
290,213,81699,2,0,L|272:175,3,35,0|0|0|0,0:0|0:0|0:0|0:0,0:0:0:0:
324,112,82005,2,0,L|338:143,3,35,0|0|0|0,0:0|0:0|0:0|0:0,0:0:0:0:
421,152,82312,1,4,2:0:0:0:
421,152,82924,6,0,B|421:87|396:45|371:23|371:23|255:32,1,245,4|0,0:0|0:0,0:0:0:0:
223,35,83536,2,0,L|114:42,1,105
74,54,83842,2,0,P|61:105|85:183,1,105
92,196,84148,6,0,L|92:284,1,70,4|0,0:3|0:0,0:0:0:0:
51,347,84454,1,0,0:0:0:0:
162,360,84608,2,0,L|254:360,1,70,4|0,0:3|0:0,0:0:0:0:
306,307,84914,1,0,0:0:0:0:
210,265,85067,2,0,L|210:177,1,70,4|0,0:3|0:0,0:0:0:0:
156,121,85373,2,0,P|192:77|228:57,1,70,0|4,0:0|0:3,0:0:0:0:
290,92,85679,1,0,0:0:0:0:
377,66,85832,1,0,0:0:0:0:
440,132,85985,6,0,L|452:208,1,70,4|0,0:3|0:0,0:0:0:0:
424,288,86291,2,0,L|372:232,1,70,0|4,0:0|0:3,0:0:0:0:
285,243,86597,2,0,L|332:294,1,70
240,300,86903,2,0,L|188:244,1,70,4|0,0:3|0:0,0:0:0:0:
104,264,87210,2,0,P|108:224|132:184,1,70,4|0,0:3|0:0,0:0:0:0:
196,132,87516,2,0,L|184:80,3,35,0|0|0|0,0:0|0:0|0:0|0:0,0:0:0:0:
244,72,87822,6,0,L|256:0,1,70,4|0,2:0|0:0,0:0:0:0:
316,128,88128,1,0,0:0:0:0:
396,88,88281,2,0,L|408:16,1,70,4|0,0:3|0:0,0:0:0:0:
468,144,88587,1,0,0:0:0:0:
456,236,88740,2,0,L|444:308,1,70,4|0,0:3|0:0,0:0:0:0:
384,180,89046,1,0,0:0:0:0:
304,220,89199,2,0,L|292:292,1,70,4|0,0:3|0:0,0:0:0:0:
232,164,89505,1,0,0:0:0:0:
148,204,89659,6,0,P|92:208|48:192,1,70,4|0,0:3|0:0,0:0:0:0:
112,120,89965,2,0,L|112:36,1,70,0|4,0:0|0:3,0:0:0:0:
200,72,90271,2,0,L|242:0,1,70
304,68,90577,2,0,P|348:56|424:76,1,105,4|0,0:3|0:0,0:0:0:0:
440,96,90883,2,0,L|440:200,1,105,4|0,0:3|0:0,0:0:0:0:
416,240,91189,2,0,L|416:288,3,35,0|0|0|0,0:0|0:0|0:0|0:0,0:0:0:0:
368,304,91495,6,0,L|288:320,1,70,4|0,0:3|0:0,0:0:0:0:
208,308,91801,1,4,0:3:0:0:
124,276,91954,1,0,0:0:0:0:
196,216,92108,1,4,0:3:0:0:
184,124,92261,1,0,0:0:0:0:
256,64,92414,2,0,P|200:36|168:32,1,70,4|0,0:3|0:0,0:0:0:0:
104,36,92720,1,4,0:3:0:0:
40,100,92873,2,0,L|40:184,1,70,0|4,0:0|0:3,0:0:0:0:
40,260,93179,1,0,0:0:0:0:
112,204,93332,6,0,P|164:188|192:188,1,70,4|0,0:3|0:0,0:0:0:0:
268,204,93638,1,4,0:3:0:0:
340,260,93791,1,0,0:0:0:0:
384,340,93944,1,4,0:3:0:0:
432,264,94097,1,0,0:0:0:0:
508,216,94250,2,0,L|496:128,1,70,4|0,0:3|0:0,0:0:0:0:
408,128,94556,2,0,L|396:40,1,70,4|0,0:3|0:0,0:0:0:0:
308,36,94863,1,4,0:3:0:0:
216,36,95016,1,0,0:0:0:0:
264,112,95169,6,0,P|272:160|268:200,1,70,4|8,0:3|0:3,0:0:0:0:
240,268,95475,1,8,0:3:0:0:
172,208,95628,1,8,0:3:0:0:
132,288,95781,1,8,0:3:0:0:
60,232,95934,1,8,0:3:0:0:
24,316,96087,6,0,P|44:364|68:380,1,70,4|8,0:3|0:3,0:0:0:0:
148,376,96393,2,0,P|187:354|237:349,1,70,8|8,0:3|0:3,0:0:0:0:
304,348,96699,1,8,0:3:0:0:
396,348,96852,1,8,0:3:0:0:
488,348,97005,2,0,P|463:272|460:200,1,140,4|4,0:3|0:3,0:0:0:0:
492,128,97465,1,0,0:0:0:0:
404,148,97618,1,0,0:0:0:0:
316,120,97771,1,0,0:0:0:0:
268,44,97924,6,0,L|176:48,1,70,4|0,0:3|0:0,0:0:0:0:
120,121,98230,2,0,L|189:117,1,70,4|0,0:3|0:0,0:0:0:0:
264,184,98536,2,0,L|172:188,1,70,4|0,0:3|0:0,0:0:0:0:
113,214,98842,5,4,0:3:0:0:
120,121,98995,2,0,L|128:25,1,70,4|0,0:3|0:0,0:0:0:0:
264,184,99301,1,4,0:3:0:0:
269,100,99454,2,0,L|274:30,1,70,4|0,0:3|0:0,0:0:0:0:
409,159,99761,2,0,L|401:315,2,140,4|0|0,0:3|0:0|0:0,0:0:0:0:
294,316,100679,5,4,0:3:0:0:
205,334,100832,2,0,L|129:350,1,70,4|0,0:3|0:0,0:0:0:0:
256,204,101138,1,4,0:3:0:0:
167,222,101291,2,0,L|91:238,1,70,4|0,0:3|0:0,0:0:0:0:
304,87,101597,2,0,P|384:95|464:83,1,140,4|0,0:3|0:0,0:0:0:0:
256,204,102210,2,0,P|268:260|276:280,1,70,0|8,0:0|0:3,0:0:0:0:
280,296,102439,1,8,0:3:0:0:
292,316,102516,5,4,0:3:0:0:
380,332,102669,2,0,L|456:344,1,70,4|0,0:3|0:0,0:0:0:0:
344,220,102975,1,4,0:3:0:0:
432,236,103128,2,0,L|508:248,1,70,4|0,0:3|0:0,0:0:0:0:
408,136,103434,2,0,P|420:64|404:0,2,140,4|0|0,0:3|0:0|0:0,0:0:0:0:
236,72,104352,5,4,0:3:0:0:
148,52,104505,2,0,L|160:128,1,70,4|0,0:3|0:0,0:0:0:0:
192,228,104812,1,4,0:3:0:0:
104,208,104965,2,0,L|116:284,1,70,4|0,0:3|0:0,0:0:0:0:
68,376,105271,6,0,P|136:380|208:340,1,140,4|0,0:3|0:0,0:0:0:0:
260,284,105730,1,0,0:0:0:0:
260,284,105806,1,0,0:0:0:0:
260,284,105883,2,0,L|340:296,1,70
420,304,106189,6,0,P|448:256|448:144,1,140,4|4,0:3|0:3,0:0:0:0:
420,88,106648,1,0,0:0:0:0:
344,36,106801,2,0,L|268:52,1,70,4|0,0:3|0:0,0:0:0:0:
236,144,107108,2,0,L|252:216,1,70,4|0,0:3|0:0,0:0:0:0:
164,232,107414,2,0,L|148:163,1,70,4|0,0:3|0:0,0:0:0:0:
60,188,107720,2,0,L|76:260,1,70,4|0,0:3|0:0,0:0:0:0:
8,100,108026,6,0,L|160:64,1,140,4|4,0:3|0:3,0:0:0:0:
236,60,108485,1,0,0:0:0:0:
324,80,108638,2,0,L|404:56,1,70,4|0,0:3|0:0,0:0:0:0:
468,108,108944,2,0,L|504:196,1,70,4|0,0:3|0:0,0:0:0:0:
420,228,109250,2,0,L|407:322,1,70,4|0,0:3|0:0,0:0:0:0:
320,308,109556,2,0,L|261:383,1,70,4|4,0:3|0:3,0:0:0:0:
249,364,109786,1,4,0:3:0:0:
220,365,109863,6,0,L|138:368,2,70,4|0|4,0:3|0:0|0:3,0:0:0:0:
199,276,110322,2,0,P|218:236|225:197,1,70,4|4,0:3|0:3,0:0:0:0:
206,121,110628,1,4,0:3:0:0:
295,138,110781,2,0,P|379:136|450:100,1,140,4|0,2:0|0:0,0:0:0:0:
302,46,111240,1,0,0:0:0:0:
212,32,111393,6,0,P|178:37|147:56,1,70,4|0,2:0|0:0,0:0:0:0:
95,129,111699,2,0,L|84:176,3,35,0|0|0|0,0:0|0:0|0:0|0:0,0:0:0:0:
144,223,112005,2,0,L|151:188,3,35,0|0|0|0,0:0|0:0|0:0|0:0,0:0:0:0:
227,179,112312,2,0,L|216:226,3,35,0|0|0|0,0:0|0:0|0:0|0:0,0:0:0:0:
276,273,112618,2,0,L|283:238,3,35,0|0|0|0,0:0|0:0|0:0|0:0,0:0:0:0:
358,225,112924,2,0,L|347:272,3,35,0|0|0|0,0:0|0:0|0:0|0:0,0:0:0:0:
407,319,113230,2,0,L|414:284,3,35,0|0|0|0,0:0|0:0|0:0|0:0,0:0:0:0:
491,277,113536,1,4,2:0:0:0:
256,192,113613,12,0,117331,0:0:0:0:
