osu file format v14

[General]
AudioFilename: 1. Aragami.mp3
AudioLeadIn: 0
PreviewTime: 16483
Countdown: 0
SampleSet: Soft
StackLeniency: 0.7
Mode: 0
LetterboxInBreaks: 0
WidescreenStoryboard: 0

[Editor]
DistanceSpacing: 1.2
BeatDivisor: 2
GridSize: 4
TimelineZoom: 2.400002

[Metadata]
Title:Aragami
TitleUnicode:Aragami
Artist:xi
ArtistUnicode:xi
Creator:Jemmmmy
Version:Advanced
Source:BMS
Tags:LIFE STREAM G2R2014 GO BACK 2 YOUR ROOTS iimo zweib lightr
BeatmapID:552226
BeatmapSetID:236548

[Difficulty]
HPDrainRate:4
CircleSize:4
OverallDifficulty:6
ApproachRate:6.5
SliderMultiplier:1.2
SliderTickRate:1

[Events]
//Background and Video events
Video,-2080,"xi-Aragami.avi"
0,0,"Landscape.jpg",0,0
//Break Periods
2,55879,66643
//Storyboard Layer 0 (Background)
//Storyboard Layer 1 (Fail)
//Storyboard Layer 2 (Pass)
//Storyboard Layer 3 (Foreground)
//Storyboard Sound Samples

[TimingPoints]
3095,612.244897959184,4,2,0,60,1,0
3095,-100,4,2,0,40,0,0
11360,681.818181818182,4,2,0,50,1,0
12041,769.230769230769,4,2,0,50,1,0
12810,882.352941176471,4,2,0,50,1,0
13692,1034.48275862069,4,2,0,50,1,0
14726,1132.07547169811,4,2,0,50,1,0
15858,1250,4,2,0,50,1,0
17108,306.122448979592,3,1,0,60,1,0
17108,-100,3,1,5,70,0,0
24454,-100,3,2,4,60,0,0
26291,-125,3,2,0,50,0,0
39148,-100,3,2,5,60,0,0
55679,-125,3,2,4,50,0,0
67618,-100,3,2,5,60,0,0
82924,-100,3,1,8,70,0,0
84148,-100,3,1,5,70,0,1
113536,-100,3,2,0,50,0,0
115373,315.789473684211,3,2,0,50,1,0
115373,-100,3,2,0,50,0,0
116320,326.086956521739,3,2,0,50,1,0
116320,-100,3,2,0,50,0,0
116809,337.078651685393,3,2,0,50,1,0
116809,-100,3,2,0,50,0,0
116977,348.837209302326,3,2,0,50,1,0
116977,-100,3,2,0,50,0,0
117151,361.44578313253,3,2,0,50,1,0
117151,-100,3,2,0,50,0,0
117331,337.078651685393,3,2,0,50,1,0

[Colours]
Combo1 : 228,142,27
Combo2 : 113,197,84
Combo3 : 63,200,224
Combo4 : 205,41,172

[HitObjects]
256,192,13692,12,2,16483,0:0:0:0:
228,88,17108,6,0,P|240:48|252:28,2,60,4|0|0,0:3|0:0|0:0,0:0:0:0:
293,116,17567,2,0,P|323:87|343:76,2,60,4|0|0,0:3|0:0|0:0,0:0:0:0:
335,174,18026,2,0,P|375:164|398:164,2,60,4|0|0,0:3|0:0|0:0,0:0:0:0:
355,243,18485,2,0,L|379:371,1,120,4|0,0:3|0:0,0:0:0:0:
305,367,18944,6,0,L|237:379,1,60,4|0,0:3|0:0,0:0:0:0:
176,359,19250,1,0,0:0:0:0:
119,314,19403,2,0,L|99:238,2,60,4|0|0,0:3|0:0|0:0,0:0:0:0:
186,286,19863,2,0,P|222:274|254:274,1,60,4|0,0:3|0:0,0:0:0:0:
315,279,20169,2,0,P|363:279|395:271,1,60,4|0,0:3|0:0,0:0:0:0:
441,250,20475,2,0,L|457:178,1,60,4|0,0:3|0:0,0:0:0:0:
472,121,20781,6,0,P|428:85|360:77,1,120,4|0,0:3|0:0,0:0:0:0:
295,86,21240,2,0,P|227:98|155:74,1,120,4|0,0:3|0:0,0:0:0:0:
109,64,21699,2,0,P|67:114|53:188,1,120,4|0,0:3|0:0,0:0:0:0:
52,238,22159,1,4,0:3:0:0:
59,309,22312,2,0,L|65:372,1,60
136,358,22618,6,0,P|183:351|217:352,1,60,4|0,0:3|0:0,0:0:0:0:
225,285,22924,2,0,P|263:313|286:338,1,60
318,376,23230,1,4,0:3:0:0:
389,367,23383,1,4,0:3:0:0:
460,358,23536,6,0,B|491:273|491:273|430:308|370:261|358:192|412:142|463:137|510:181,1,360,4|6,0:3|0:0,0:0:0:0:
256,192,24608,12,0,26291,0:0:0:0:
174,273,26750,6,0,P|156:238|147:178,1,96
154,125,27210,2,0,L|259:124,1,96,2|0,0:0|0:0,0:0:0:0:
346,186,27822,1,0,0:0:0:0:
417,95,28128,1,2,0:0:0:0:
465,199,28434,2,0,P|469:244|461:309,1,96
409,313,28893,1,0,0:0:0:0:
354,332,29046,2,0,L|290:357,1,48,2|0,0:0|0:0,0:0:0:0:
268,308,29352,1,0,0:0:0:0:
152,311,29659,2,0,L|88:297,1,48
95,244,29965,6,0,P|86:193|99:135,1,96,2|0,0:0|0:0,0:0:0:0:
126,102,30424,2,0,P|175:111|229:101,1,96
275,87,30883,2,0,P|313:82|376:93,1,96,2|0,0:0|0:0,0:0:0:0:
422,113,31342,1,0,0:0:0:0:
451,224,31648,1,0,0:0:0:0:
425,275,31801,6,0,L|399:335,1,48,2|0,0:0|0:0,0:0:0:0:
347,319,32108,2,0,L|327:274,1,48
270,275,32414,2,0,L|244:335,1,48
192,319,32721,2,0,L|172:274,1,48,2|0,0:0|0:0,0:0:0:0:
116,272,33026,2,0,L|92:176,1,96
76,124,33485,1,0,0:0:0:0:
60,68,33638,6,0,L|171:39,1,96,2|0,0:0|0:0,0:0:0:0:
193,151,34250,2,0,L|223:209,1,48
242,244,34556,2,0,P|250:281|245:343,1,96,2|0,0:0|0:0,0:0:0:0:
360,355,35169,2,0,L|417:354,1,48
464,344,35475,2,0,P|478:297|470:231,1,96,2|0,0:0|0:0,0:0:0:0:
456,136,36087,6,0,L|405:127,1,48
376,80,36393,2,0,L|312:99,1,48,2|0,0:0|0:0,0:0:0:0:
272,92,36699,1,0,0:0:0:0:
216,72,36852,1,0,0:0:0:0:
159,47,37005,2,0,L|100:64,1,48
112,120,37312,6,0,L|89:233,2,96,2|0|0,0:0|0:0|0:0,0:0:0:0:
156,156,38077,2,0,P|196:184|244:192,1,96
300,196,38536,2,0,P|343:204|366:212,1,48,2|0,0:0|0:0,0:0:0:0:
392,240,38842,2,0,L|400:308,1,48,2|0,0:0|0:0,0:0:0:0:
380,356,39148,5,4,0:3:0:0:
380,356,39301,1,4,0:3:0:0:
235,360,39608,1,4,0:3:0:0:
256,216,39914,1,4,0:3:0:0:
256,216,40067,1,4,0:3:0:0:
144,128,40373,1,4,0:3:0:0:
256,36,40679,1,4,0:3:0:0:
372,120,40985,6,0,L|441:121,1,60,4|4,0:3|0:3,0:0:0:0:
380,256,41444,1,4,0:3:0:0:
380,256,41597,2,0,L|404:336,1,60,4|0,0:3|0:0,0:0:0:0:
328,328,41903,2,0,P|276:348|208:336,1,120,4|0,0:3|0:0,0:0:0:0:
256,200,42516,1,0,0:0:0:0:
140,120,42822,6,0,L|71:121,1,60,4|4,0:3|0:3,0:0:0:0:
132,256,43281,1,4,0:3:0:0:
132,256,43434,2,0,L|108:336,1,60,4|0,0:3|0:0,0:0:0:0:
184,328,43740,2,0,P|236:348|304:336,1,120,4|0,0:3|0:0,0:0:0:0:
256,200,44353,1,0,0:0:0:0:
256,56,44659,6,0,L|256:143,1,60,4|4,0:3|0:3,0:0:0:0:
256,260,45118,1,4,0:3:0:0:
256,260,45271,2,0,L|256:324,1,60,4|0,0:3|0:0,0:0:0:0:
192,356,45577,2,0,P|152:292|148:248,1,120,4|0,0:3|0:0,0:0:0:0:
280,188,46189,1,4,0:3:0:0:
398,104,46495,6,0,P|420:160|413:242,1,120,4|0,0:3|0:0,0:0:0:0:
348,349,47108,1,0,0:0:0:0:
252,240,47414,2,0,P|186:225|121:241,1,120,4|0,0:3|0:0,0:0:0:0:
188,368,48026,1,0,0:0:0:0:
61,298,48332,6,0,P|41:244|58:168,1,120,4|0,0:3|0:0,0:0:0:0:
141,72,48944,1,0,0:0:0:0:
256,156,49250,1,4,0:3:0:0:
371,72,49556,1,0,0:0:0:0:
465,181,49863,2,0,L|477:249,1,60,4|0,0:3|0:0,0:0:0:0:
461,310,50169,6,0,P|401:346|337:346,1,120,4|0,0:3|0:0,0:0:0:0:
232,272,50781,2,0,P|292:236|356:236,1,120,0|4,0:0|0:3,0:0:0:0:
480,200,51393,1,0,0:0:0:0:
400,80,51699,1,0,0:0:0:0:
264,40,52005,6,0,L|144:36,2,120,4|0|0,2:3|0:0|0:0,0:0:0:0:
400,80,52924,1,0,0:0:0:0:
428,220,53230,2,0,L|448:348,1,120
304,360,53842,5,4,0:3:0:0:
288,288,53995,1,4,0:3:0:0:
336,152,54301,1,4,0:3:0:0:
194,179,54608,1,4,0:3:0:0:
183,107,54761,6,0,P|139:131|259:147,1,360,4|6,0:3|0:0,0:0:0:0:
352,284,67618,6,0,P|376:232|384:160,1,120,2|0,2:0|0:0,0:0:0:0:
372,100,68077,2,0,L|256:72,1,120
185,55,68536,2,0,P|161:92|149:189,1,120,2|0,0:0|0:0,0:0:0:0:
154,237,68995,2,0,P|164:303|148:373,1,120
83,361,69454,6,0,P|43:281|43:233,1,120,2|0,0:0|0:0,0:0:0:0:
48,179,69914,2,0,P|64:115|52:43,1,120
121,28,70373,2,0,P|169:49|251:50,1,120,2|0,0:0|0:0,0:0:0:0:
307,43,70832,2,0,P|367:40|449:63,1,120
472,108,71291,2,0,L|484:188,1,60,2|0,0:0|0:0,0:0:0:0:
488,238,71597,1,4,2:0:0:0:
461,305,71750,6,0,P|393:345|337:345,1,120,0|0,0:0|0:0,0:0:0:0:
300,300,72210,2,0,L|280:232,1,60,2|0,0:0|0:0,0:0:0:0:
324,184,72516,2,0,L|340:112,1,60,2|0,0:0|0:0,0:0:0:0:
284,80,72822,2,0,L|276:16,1,60,2|0,0:0|0:0,0:0:0:0:
208,36,73128,6,0,L|64:64,1,120,2|0,2:0|0:0,0:0:0:0:
44,112,73587,2,0,P|40:176|72:236,1,120
128,252,74046,2,0,L|245:229,1,120,2|0,0:0|0:0,0:0:0:0:
316,228,74505,1,0,0:0:0:0:
388,236,74659,2,0,L|456:252,1,60,4|0,2:0|0:0,0:0:0:0:
448,320,74965,2,0,L|380:336,1,60,2|0,0:0|0:0,0:0:0:0:
320,344,75271,1,4,2:0:0:0:
256,316,75424,6,0,P|192:308|116:332,1,120,4|0,0:3|0:0,0:0:0:0:
72,344,75883,2,0,P|52:304|52:216,1,120,4|0,0:3|0:0,0:0:0:0:
76,164,76342,2,0,P|140:176|212:156,1,120,4|0,0:3|0:0,0:0:0:0:
253,126,76801,2,0,L|261:6,1,120,4|0,0:3|0:0,0:0:0:0:
332,19,77261,2,0,L|452:39,1,120,4|0,0:3|0:0,0:0:0:0:
484,102,77720,2,0,P|488:158|464:238,1,120,4|0,0:3|0:0,0:0:0:0:
428,275,78179,1,0,0:0:0:0:
356,270,78332,2,0,L|284:258,1,60,4|0,0:3|0:0,0:0:0:0:
309,189,78638,6,0,P|285:117|289:61,1,120,4|0,0:3|0:0,0:0:0:0:
220,48,79097,2,0,P|156:40|96:52,1,120,4|0,0:3|0:0,0:0:0:0:
51,101,79556,2,0,L|39:225,1,120,4|0,0:3|0:0,0:0:0:0:
112,212,80016,2,0,L|124:348,1,120,4|0,0:3|0:0,0:0:0:0:
192,352,80475,6,0,L|260:364,1,60,4|0,0:3|0:0,0:0:0:0:
260,292,80781,2,0,L|328:280,1,60,4|0,0:3|0:0,0:0:0:0:
300,212,81087,2,0,L|359:177,1,60,4|0,0:3|0:0,0:0:0:0:
313,122,81393,6,0,P|264:16|260:156,1,360,4|4,0:3|2:0,0:0:0:0:
204,316,82924,6,0,B|144:340|88:344|88:344|112:284|160:244|160:244,1,240,4|0,0:0|0:0,0:0:0:0:
300,212,83842,1,0,0:0:0:0:
418,293,84148,6,0,P|438:249|442:217,2,60,4|0|0,0:3|0:0|0:0,0:0:0:0:
367,240,84608,2,0,P|370:191|363:160,2,60,4|0|0,0:3|0:0|0:0,0:0:0:0:
300,212,85067,2,0,P|287:165|269:138,2,60,4|0|0,0:3|0:0|0:0,0:0:0:0:
228,211,85526,2,0,P|183:219|154:237,1,60,4|0,0:3|0:0,0:0:0:0:
118,274,85832,1,4,0:3:0:0:
67,222,85985,6,0,L|56:153,1,60,4|0,0:3|0:0,0:0:0:0:
40,92,86291,1,0,0:0:0:0:
110,107,86444,2,0,L|191:101,1,60,4|0,0:3|0:0,0:0:0:0:
223,54,86750,1,0,0:0:0:0:
282,94,86903,2,0,L|363:88,1,60,4|0,0:3|0:0,0:0:0:0:
412,76,87210,2,0,P|441:140|445:210,1,120,4|4,0:3|0:3,0:0:0:0:
428,258,87669,1,0,0:0:0:0:
392,320,87822,6,0,P|361:336|317:341,2,60,4|0|0,0:3|0:0|0:0,0:0:0:0:
341,268,88281,2,0,P|306:273|263:262,2,60,4|0|0,0:3|0:0|0:0,0:0:0:0:
313,201,88740,2,0,P|279:194|242:168,2,60,4|0|0,0:3|0:0|0:0,0:0:0:0:
311,129,89199,6,0,P|281:111|255:74,2,60,4|0|0,0:3|0:0|0:0,0:0:0:0:
336,61,89659,2,0,P|315:39|289:24,1,60,4|0,0:3|0:0,0:0:0:0:
218,32,89965,2,0,L|144:33,1,60,4|4,0:3|0:3,0:0:0:0:
87,49,90271,1,4,0:3:0:0:
72,119,90424,1,4,0:3:0:0:
53,188,90577,2,0,L|23:326,2,120,4|4|4,0:3|0:3|0:3,0:0:0:0:
123,174,91342,1,0,0:0:0:0:
193,187,91495,6,0,L|213:261,1,60,4|0,0:3|0:0,0:0:0:0:
249,303,91801,1,4,0:3:0:0:
320,304,91954,1,0,0:0:0:0:
392,304,92108,2,0,L|376:246,1,60,4|0,0:3|0:0,0:0:0:0:
438,210,92414,6,0,L|446:91,1,120,4|4,0:3|0:3,0:0:0:0:
395,39,92873,2,0,P|322:27|261:42,1,120
227,87,93332,2,0,L|235:206,1,120,4|4,0:3|0:3,0:0:0:0:
241,278,93791,1,0,0:0:0:0:
192,330,93944,1,4,0:3:0:0:
120,341,94097,1,0,0:0:0:0:
53,314,94250,2,0,L|26:248,1,60,4|0,0:3|0:0,0:0:0:0:
91,221,94556,2,0,L|81:97,1,120,4|4,0:3|0:3,0:0:0:0:
112,36,95016,1,0,0:0:0:0:
182,52,95169,6,0,L|252:75,2,60,4|4|4,0:3|0:3|0:3,0:0:0:0:
178,123,95628,2,0,L|235:168,2,60,4|4|4,0:3|0:3|0:3,0:0:0:0:
153,190,96087,2,0,L|191:252,2,60,4|4|4,0:3|0:3|0:3,0:0:0:0:
105,242,96546,2,0,L|120:314,1,60,4|4,0:3|0:3,0:0:0:0:
162,356,96852,1,4,0:3:0:0:
231,337,97005,6,0,P|297:329|359:342,1,120,4|0,0:3|0:0,0:0:0:0:
420,348,97465,2,0,P|445:292|449:209,1,120,4|0,0:3|0:0,0:0:0:0:
442,162,97924,2,0,L|430:101,1,60,4|0,0:3|0:0,0:0:0:0:
362,78,98230,2,0,L|350:136,1,60,4|0,0:3|0:0,0:0:0:0:
283,109,98536,2,0,L|271:48,1,60,4|0,0:3|0:0,0:0:0:0:
199,43,98842,6,0,L|136:38,1,60,4|4,0:3|0:3,0:0:0:0:
40,155,99301,2,0,L|117:164,1,60,4|4,0:3|0:3,0:0:0:0:
117,308,99761,1,4,0:3:0:0:
117,308,100679,6,0,L|192:320,1,60,4|4,0:3|0:3,0:0:0:0:
319,300,101138,2,0,L|259:290,1,60,4|4,0:3|0:3,0:0:0:0:
316,158,101597,2,0,P|359:178|328:80,1,240,4|0,0:3|0:0,0:0:0:0:
266,102,102363,1,4,0:3:0:0:
229,164,102516,6,0,L|226:225,1,60,4|4,0:3|0:3,0:0:0:0:
314,337,102975,2,0,L|311:277,1,60,4|4,0:3|0:3,0:0:0:0:
179,335,103434,1,4,0:3:0:0:
179,335,104352,6,0,L|133:291,1,60,4|4,0:3|0:3,0:0:0:0:
63,168,104812,2,0,L|106:209,1,60,4|4,0:3|0:3,0:0:0:0:
172,81,105271,1,4,0:3:0:0:
242,65,105424,1,4,0:3:0:0:
312,51,105577,2,0,P|385:89|316:142,1,180,4|0,0:3|0:0,0:0:0:0:
276,184,106189,6,0,L|274:266,1,60,4|0,0:3|0:0,0:0:0:0:
202,245,106495,2,0,L|172:321,1,60,4|0,0:3|0:0,0:0:0:0:
113,274,106801,2,0,L|58:335,1,60,4|0,0:3|0:0,0:0:0:0:
24,265,107108,1,4,0:3:0:0:
25,121,107414,1,4,0:3:0:0:
162,164,107720,1,4,0:3:0:0:
263,62,108026,6,0,L|287:-6,1,60,4|0,0:3|0:0,0:0:0:0:
345,40,108332,2,0,L|364:96,1,60,4|0,0:3|0:0,0:0:0:0:
426,133,108638,2,0,L|450:65,1,60,4|0,0:3|0:0,0:0:0:0:
508,41,108944,1,4,0:3:0:0:
493,184,109250,1,4,0:3:0:0:
510,326,109556,2,0,L|450:363,1,60,4|0,0:3|0:0,0:0:0:0:
422,294,109863,6,0,L|336:308,1,60,4|0,0:3|0:0,0:0:0:0:
291,292,110169,2,0,L|321:210,1,60,4|0,0:3|0:0,0:0:0:0:
241,224,110475,2,0,L|155:238,1,60,4|0,0:3|0:0,0:0:0:0:
110,222,110781,2,0,P|123:175|123:87,1,120,4|4,0:3|0:3,0:0:0:0:
102,36,111240,1,0,0:0:0:0:
173,36,111393,2,0,L|243:40,1,60,4|0,0:3|0:0,0:0:0:0:
304,48,111699,6,0,L|316:121,1,60,4|0,0:3|0:0,0:0:0:0:
382,127,112005,2,0,L|374:200,1,60,4|0,0:3|0:0,0:0:0:0:
434,229,112312,2,0,L|407:298,1,60,4|0,0:3|0:0,0:0:0:0:
375,346,112618,6,0,L|308:349,1,60,4|0,0:3|0:0,0:0:0:0:
259,302,112924,2,0,L|192:305,1,60,4|0,0:3|0:0,0:0:0:0:
149,252,113230,2,0,L|82:255,1,60,4|0,2:3|0:0,0:0:0:0:
49,194,113536,5,4,2:0:0:0:
256,192,113689,12,0,117331,0:0:0:0:
