osu file format v14

[General]
AudioFilename: aragami3.mp3
AudioLeadIn: 0
PreviewTime: -1
Countdown: 1
SampleSet: Soft
StackLeniency: 0.7
Mode: 0
LetterboxInBreaks: 1
WidescreenStoryboard: 0

[Editor]
DistanceSpacing: 0.6
BeatDivisor: 8
GridSize: 4
TimelineZoom: 1

[Metadata]
Title:Aragami
TitleUnicode:Aragami
Artist:xi
ArtistUnicode:xi
Creator:EvilElvis
Version:Easy
Source:BMS
Tags:kiddly GO BACK 2 YOUR ROOTS G2R2014 LIFE STREAM iimo のらねこさい
BeatmapID:745059
BeatmapSetID:336685

[Difficulty]
HPDrainRate:7
CircleSize:5
OverallDifficulty:8.5
ApproachRate:9.5
SliderMultiplier:1.8
SliderTickRate:1

[Events]
//Background and Video events
0,0,"aragami.jpg",0,0
//Break Periods
//Storyboard Layer 0 (Background)
//Storyboard Layer 1 (Fail)
//Storyboard Layer 2 (Pass)
//Storyboard Layer 3 (Foreground)
//Storyboard Sound Samples

[TimingPoints]
3549,612.244897959184,4,2,0,40,1,0
13344,681.818181818182,4,2,0,40,1,0
14025,769.230769230769,4,2,0,40,1,0
14794,882.352941176471,4,2,0,40,1,0
15676,1034.48275862069,4,2,0,40,1,0
16710,1132.07547169811,4,2,0,40,1,0
17842,1250,4,2,0,40,1,0
19092,306.122448979592,3,1,0,60,1,0
28581,-133.333333333333,3,2,0,20,0,0
41132,-100,3,1,0,60,0,0
61336,-200,3,1,0,60,0,0
68683,-100,3,1,0,60,0,0
84296,-133.333333333333,3,1,0,60,0,0
84908,-200,3,1,0,60,0,0
86132,-100,3,1,0,60,0,0
117357,315.789473684211,3,2,0,60,1,0
118304,326.086956521739,3,2,0,60,1,0
118793,337.078651685393,3,2,0,60,1,0
118961,348.837209302326,3,2,0,60,1,0
119135,361.44578313253,3,2,0,60,1,0
119315,337.078651685393,3,2,0,60,1,0

[Colours]
Combo1 : 155,0,155
Combo2 : 255,0,128
Combo3 : 164,72,255
Combo4 : 255,28,28

[HitObjects]
478,347,19092,5,0,0:0:0:0:
448,357,19168,1,0,0:0:0:0:
416,357,19245,1,0,0:0:0:0:
388,341,19321,1,0,0:0:0:0:
373,312,19398,6,0,L|379:255,1,45
401,131,19551,1,0,0:0:0:0:
431,121,19627,1,0,0:0:0:0:
463,121,19704,1,0,0:0:0:0:
491,137,19780,1,0,0:0:0:0:
506,166,19857,6,0,L|500:223,1,45
310,250,20010,1,0,0:0:0:0:
280,260,20086,1,0,0:0:0:0:
248,260,20163,1,0,0:0:0:0:
219,248,20239,1,0,0:0:0:0:
206,218,20316,6,0,L|212:161,1,45
171,54,20469,2,0,L|164:117,1,45
96,192,20622,2,0,L|103:129,1,45
23,25,20775,1,0,0:0:0:0:
25,56,20852,1,0,0:0:0:0:
28,87,20928,6,0,L|20:146,1,45
33,237,21081,1,0,0:0:0:0:
42,267,21158,1,0,0:0:0:0:
52,296,21234,1,0,0:0:0:0:
55,299,21311,1,0,0:0:0:0:
58,302,21387,1,0,0:0:0:0:
60,305,21464,1,0,0:0:0:0:
62,308,21540,2,0,L|113:303,1,45
225,360,21694,2,0,L|174:355,1,45
14,166,21847,6,0,L|48:159,1,30
29,179,21949,2,0,L|55:155,1,30
51,187,22051,2,0,L|59:153,1,30
77,186,22153,1,0,0:0:0:0:
106,175,22229,1,0,0:0:0:0:
137,172,22306,1,0,0:0:0:0:
167,179,22382,1,0,0:0:0:0:
195,192,22459,1,0,0:0:0:0:
211,218,22535,1,0,0:0:0:0:
213,249,22612,1,0,0:0:0:0:
194,274,22688,1,0,0:0:0:0:
213,299,22765,6,0,L|143:293,1,45
77,350,22918,2,0,L|147:356,1,45
254,362,23071,1,0,0:0:0:0:
284,353,23148,1,0,0:0:0:0:
313,342,23224,1,0,0:0:0:0:
343,331,23301,1,0,0:0:0:0:
372,321,23377,2,0,L|434:324,1,45
512,272,23530,2,0,L|450:269,1,45
372,229,23683,5,0,0:0:0:0:
350,206,23760,1,0,0:0:0:0:
342,175,23836,1,0,0:0:0:0:
351,144,23913,1,0,0:0:0:0:
374,123,23989,1,0,0:0:0:0:
404,113,24066,1,0,0:0:0:0:
426,91,24143,1,0,0:0:0:0:
436,61,24219,1,0,0:0:0:0:
427,30,24296,1,0,0:0:0:0:
399,15,24372,1,0,0:0:0:0:
367,17,24449,1,0,0:0:0:0:
347,41,24525,1,0,0:0:0:0:
350,72,24602,5,0,0:0:0:0:
342,76,24678,1,0,0:0:0:0:
333,79,24755,1,0,0:0:0:0:
325,83,24831,1,0,0:0:0:0:
316,85,24908,2,0,L|254:72,1,45
183,94,25061,2,0,L|121:81,1,45
0,155,25214,6,0,L|46:163,1,30
11,174,25316,2,0,L|47:159,1,30
27,185,25418,2,0,L|45:160,1,30
48,191,25520,2,0,L|51:150,1,30
68,187,25622,2,0,L|56:155,1,30
87,175,25724,2,0,L|60:153,1,30
99,158,25826,6,0,L|145:150,1,30
110,139,25928,2,0,L|146:154,1,30
126,128,26030,2,0,L|144:153,1,30
147,122,26132,2,0,L|150:163,1,30
167,126,26234,2,0,L|155:158,1,30
186,138,26336,2,0,L|159:160,1,30
192,155,26438,5,0,0:0:0:0:
256,192,26515,12,0,28275,0:0:0:0:
16,201,28581,6,0,B|10:169|10:169|15:125,1,67.5000025749208
150,143,28887,2,0,B|156:175|156:175|151:219,1,67.5000025749208
94,312,29194,2,0,L|85:156,1,135.000005149842
90,98,29653,1,0,0:0:0:0:
145,355,29806,1,0,0:0:0:0:
164,350,29882,1,0,0:0:0:0:
183,345,29959,1,0,0:0:0:0:
266,328,30112,6,0,B|412:347,1,135.000005149842
478,353,30571,1,0,0:0:0:0:
503,276,30724,2,0,L|432:268,1,67.5000025749208
350,258,31030,6,0,B|333:204|333:204|359:107,1,135.000005149842
368,55,31489,1,0,0:0:0:0:
296,27,31643,1,0,0:0:0:0:
276,31,31719,1,0,0:0:0:0:
256,36,31796,1,0,0:0:0:0:
196,253,31949,6,0,B|143:242|143:242|125:222|125:222|67:213,1,135.000005149842
18,183,32408,2,0,L|183:166,1,135.000005149842
74,30,32867,6,0,L|-1:40,1,67.5000025749208
51,116,33173,1,0,0:0:0:0:
51,116,33326,2,0,L|126:106,1,67.5000025749208
265,331,33632,1,0,0:0:0:0:
245,326,33709,1,0,0:0:0:0:
225,321,33785,5,0,0:0:0:0:
117,253,33938,1,0,0:0:0:0:
205,164,34092,1,0,0:0:0:0:
205,164,34143,1,0,0:0:0:0:
205,164,34194,1,0,0:0:0:0:
205,164,34245,1,0,0:0:0:0:
312,238,34398,1,0,0:0:0:0:
238,253,34551,1,0,0:0:0:0:
218,255,34627,1,0,0:0:0:0:
198,258,34704,1,0,0:0:0:0:
348,160,34857,5,0,0:0:0:0:
348,160,34908,1,0,0:0:0:0:
348,160,34959,1,0,0:0:0:0:
348,160,35010,1,0,0:0:0:0:
499,208,35163,1,0,0:0:0:0:
346,245,35316,1,0,0:0:0:0:
449,133,35469,1,0,0:0:0:0:
469,136,35546,1,0,0:0:0:0:
488,139,35622,5,0,0:0:0:0:
499,72,35775,1,0,0:0:0:0:
511,5,35928,1,0,0:0:0:0:
511,5,36234,1,0,0:0:0:0:
499,72,36387,1,0,0:0:0:0:
488,139,36540,5,0,0:0:0:0:
375,236,36694,1,0,0:0:0:0:
512,222,36847,1,0,0:0:0:0:
400,156,37000,1,0,0:0:0:0:
400,156,37076,1,0,0:0:0:0:
400,156,37153,1,0,0:0:0:0:
464,291,37306,1,0,0:0:0:0:
253,41,37459,5,0,0:0:0:0:
186,51,37612,1,0,0:0:0:0:
119,61,37765,1,0,0:0:0:0:
298,99,37918,1,0,0:0:0:0:
364,112,38071,1,0,0:0:0:0:
430,122,38224,1,0,0:0:0:0:
59,11,38377,5,0,0:0:0:0:
21,97,38530,1,0,0:0:0:0:
36,103,38607,1,0,0:0:0:0:
49,112,38683,1,0,0:0:0:0:
110,145,38836,1,0,0:0:0:0:
170,213,38989,1,0,0:0:0:0:
200,336,39143,2,0,L|208:292,1,33.7500012874604
251,239,39296,5,0,0:0:0:0:
288,301,39449,1,0,0:0:0:0:
323,241,39602,1,0,0:0:0:0:
354,283,39755,1,0,0:0:0:0:
390,240,39908,1,0,0:0:0:0:
417,262,40061,1,0,0:0:0:0:
436,257,40137,1,0,0:0:0:0:
455,251,40214,1,0,0:0:0:0:
512,206,40367,5,0,0:0:0:0:
338,119,40520,1,0,0:0:0:0:
221,277,40673,1,0,0:0:0:0:
396,368,40826,1,0,0:0:0:0:
512,206,40979,1,0,0:0:0:0:
492,201,41056,1,0,0:0:0:0:
466,194,41132,6,0,L|411:211,1,45
253,141,41285,2,0,L|210:154,1,45
134,173,41438,1,0,0:0:0:0:
101,177,41515,1,0,0:0:0:0:
72,190,41592,6,0,L|79:218,1,22.5
49,213,41668,2,0,L|71:239,1,22.5
40,240,41745,2,0,L|74:252,1,22.5
39,267,41821,2,0,L|72:261,1,22.5
48,293,41898,1,0,0:0:0:0:
64,316,41974,1,0,0:0:0:0:
83,328,42051,5,0,0:0:0:0:
451,309,42357,1,0,0:0:0:0:
83,329,42663,1,0,0:0:0:0:
451,309,42969,5,0,0:0:0:0:
246,263,43122,1,0,0:0:0:0:
246,263,43428,1,0,0:0:0:0:
393,372,43581,1,0,0:0:0:0:
297,207,43734,1,0,0:0:0:0:
346,290,43887,5,0,0:0:0:0:
505,195,44194,1,0,0:0:0:0:
346,290,44500,1,0,0:0:0:0:
505,195,44806,5,0,0:0:0:0:
212,117,44959,1,0,0:0:0:0:
212,117,45265,1,0,0:0:0:0:
473,269,45418,1,0,0:0:0:0:
282,60,45571,1,0,0:0:0:0:
435,325,45724,5,0,0:0:0:0:
402,256,45877,1,0,0:0:0:0:
333,204,46030,1,0,0:0:0:0:
252,180,46183,1,0,0:0:0:0:
229,175,46260,1,0,0:0:0:0:
206,177,46336,1,0,0:0:0:0:
184,183,46413,1,0,0:0:0:0:
163,191,46489,1,0,0:0:0:0:
140,193,46566,1,0,0:0:0:0:
117,190,46643,5,0,0:0:0:0:
15,29,46796,1,0,0:0:0:0:
3,187,47102,5,0,0:0:0:0:
150,35,47255,1,0,0:0:0:0:
64,226,47408,1,0,0:0:0:0:
56,247,47484,1,0,0:0:0:0:
56,269,47561,6,0,P|64:294|73:313,1,45
233,327,47714,1,0,0:0:0:0:
241,306,47790,1,0,0:0:0:0:
241,284,47867,2,0,P|232:258|224:240,1,45
145,278,48020,1,0,0:0:0:0:
147,281,48097,1,0,0:0:0:0:
149,284,48173,6,0,L|156:325,1,22.5
165,319,48250,2,0,L|161:346,1,22.5
170,364,48326,1,0,0:0:0:0:
483,233,48479,5,0,0:0:0:0:
425,173,48632,1,0,0:0:0:0:
394,182,48709,1,0,0:0:0:0:
364,191,48785,1,0,0:0:0:0:
295,253,48938,1,0,0:0:0:0:
209,222,49092,1,0,0:0:0:0:
189,138,49245,1,0,0:0:0:0:
237,47,49398,5,0,0:0:0:0:
268,51,49474,1,0,0:0:0:0:
299,55,49551,1,0,0:0:0:0:
330,58,49627,1,0,0:0:0:0:
361,62,49704,1,0,0:0:0:0:
481,118,49857,2,0,L|509:112,3,22.5
454,124,50010,1,0,0:0:0:0:
427,128,50086,1,0,0:0:0:0:
400,132,50163,1,0,0:0:0:0:
373,136,50239,1,0,0:0:0:0:
346,141,50316,6,0,B|434:171,1,90
465,332,50622,2,0,B|485:233,1,90
241,47,50928,1,0,0:0:0:0:
252,71,51005,1,0,0:0:0:0:
260,96,51081,1,0,0:0:0:0:
262,123,51158,1,0,0:0:0:0:
256,149,51234,1,0,0:0:0:0:
247,174,51311,1,0,0:0:0:0:
242,200,51387,1,0,0:0:0:0:
244,227,51464,1,0,0:0:0:0:
252,252,51540,5,0,0:0:0:0:
366,286,51694,1,0,0:0:0:0:
294,375,51847,1,0,0:0:0:0:
168,327,52000,1,0,0:0:0:0:
338,204,52153,5,0,0:0:0:0:
364,209,52229,1,0,0:0:0:0:
390,215,52306,1,0,0:0:0:0:
497,153,52459,1,0,0:0:0:0:
471,148,52535,1,0,0:0:0:0:
445,142,52612,1,0,0:0:0:0:
415,305,52765,1,0,0:0:0:0:
441,310,52841,1,0,0:0:0:0:
467,316,52918,1,0,0:0:0:0:
341,41,53071,5,0,0:0:0:0:
305,45,53148,1,0,0:0:0:0:
269,48,53224,1,0,0:0:0:0:
233,52,53301,1,0,0:0:0:0:
182,100,53377,1,0,0:0:0:0:
146,96,53454,1,0,0:0:0:0:
110,93,53530,1,0,0:0:0:0:
74,89,53607,1,0,0:0:0:0:
11,123,53683,2,0,L|21:178,1,45
134,204,53836,2,0,L|124:259,1,45
101,361,53989,5,0,0:0:0:0:
10,263,54143,1,0,0:0:0:0:
232,63,54296,1,0,0:0:0:0:
323,161,54450,1,0,0:0:0:0:
155,274,54602,5,0,0:0:0:0:
183,143,54756,1,0,0:0:0:0:
186,146,54831,1,0,0:0:0:0:
189,149,54908,1,0,0:0:0:0:
191,152,54984,1,0,0:0:0:0:
194,154,55061,1,0,0:0:0:0:
215,159,55137,1,0,0:0:0:0:
237,164,55214,1,0,0:0:0:0:
258,168,55290,1,0,0:0:0:0:
279,173,55367,1,0,0:0:0:0:
300,178,55444,1,0,0:0:0:0:
292,199,55520,1,0,0:0:0:0:
286,220,55597,1,0,0:0:0:0:
279,241,55673,1,0,0:0:0:0:
271,262,55750,1,0,0:0:0:0:
263,283,55826,5,0,0:0:0:0:
20,192,55979,1,0,0:0:0:0:
20,192,56285,1,0,0:0:0:0:
20,192,56592,1,0,0:0:0:0:
263,283,56745,1,0,0:0:0:0:
271,262,56821,1,0,0:0:0:0:
279,241,56898,1,0,0:0:0:0:
286,220,56974,1,0,0:0:0:0:
292,199,57051,1,0,0:0:0:0:
300,178,57127,1,0,0:0:0:0:
279,173,57204,1,0,0:0:0:0:
258,168,57281,1,0,0:0:0:0:
236,163,57357,6,0,L|176:153,1,45
103,95,57510,2,0,L|164:107,1,45
54,166,57663,6,0,P|18:108|91:9,1,180
358,270,58275,1,0,0:0:0:0:
292,321,58428,1,0,0:0:0:0:
208,310,58581,6,0,P|190:282|199:226,1,90
449,280,58887,2,0,P|459:322|438:362,1,90
116,85,59194,2,0,P|149:42|274:66,2,180
105,160,59959,5,0,0:0:0:0:
152,225,60112,2,0,L|242:209,1,90
512,208,60418,6,0,P|417:187|357:237,2,180
261,331,61183,1,0,0:0:0:0:
265,309,61260,1,0,0:0:0:0:
290,343,61336,6,0,B|173:351|225:295|119:298,1,180
7,255,62102,1,0,0:0:0:0:
82,210,62255,2,0,P|169:205|241:142,1,180
278,83,63020,1,0,0:0:0:0:
295,9,63173,6,0,L|306:203,1,180
317,345,63938,1,0,0:0:0:0:
404,355,64092,2,0,L|391:188,1,157.5
390,127,64704,2,0,L|416:129,1,22.5
512,169,64857,2,0,L|480:177,1,22.5
260,205,65010,5,0,0:0:0:0:
260,205,65469,1,0,0:0:0:0:
260,205,65928,1,0,0:0:0:0:
260,205,66387,2,0,L|224:199,1,22.5
181,279,66540,2,0,L|146:269,1,22.5
153,183,66694,2,0,L|116:178,1,22.5
54,281,66847,5,0,0:0:0:0:
54,281,67306,1,0,0:0:0:0:
54,281,67765,1,0,0:0:0:0:
54,281,68224,1,0,0:0:0:0:
249,322,68683,6,0,L|258:368,1,45
254,308,68836,2,0,L|271:356,1,45
257,293,68989,2,0,L|288:349,1,45
259,278,69143,2,0,L|289:317,1,45
257,258,69296,1,0,0:0:0:0:
242,214,69372,1,0,0:0:0:0:
203,183,69449,1,0,0:0:0:0:
154,171,69525,1,0,0:0:0:0:
104,180,69602,1,0,0:0:0:0:
33,354,69755,5,0,0:0:0:0:
70,369,69831,1,0,0:0:0:0:
110,366,69908,1,0,0:0:0:0:
144,344,69984,1,0,0:0:0:0:
164,308,70061,1,0,0:0:0:0:
389,280,70214,1,0,0:0:0:0:
384,240,70290,1,0,0:0:0:0:
356,209,70367,1,0,0:0:0:0:
315,201,70444,1,0,0:0:0:0:
276,213,70520,5,0,0:0:0:0:
165,161,70673,1,0,0:0:0:0:
182,155,70750,1,0,0:0:0:0:
199,150,70826,1,0,0:0:0:0:
350,127,70979,1,0,0:0:0:0:
337,122,71056,1,0,0:0:0:0:
324,117,71132,1,0,0:0:0:0:
225,37,71285,5,0,0:0:0:0:
233,34,71362,1,0,0:0:0:0:
241,31,71438,1,0,0:0:0:0:
257,46,71515,1,0,0:0:0:0:
267,65,71592,1,0,0:0:0:0:
272,86,71668,1,0,0:0:0:0:
271,108,71745,1,0,0:0:0:0:
265,129,71821,1,0,0:0:0:0:
254,148,71898,1,0,0:0:0:0:
247,169,71974,1,0,0:0:0:0:
239,190,72051,1,0,0:0:0:0:
237,212,72127,1,0,0:0:0:0:
239,234,72204,1,0,0:0:0:0:
247,254,72280,1,0,0:0:0:0:
221,269,72357,5,0,0:0:0:0:
201,299,72433,1,0,0:0:0:0:
207,334,72510,1,0,0:0:0:0:
228,362,72586,1,0,0:0:0:0:
263,368,72663,1,0,0:0:0:0:
296,356,72739,1,0,0:0:0:0:
314,324,72816,1,0,0:0:0:0:
311,287,72893,1,0,0:0:0:0:
283,263,72969,1,0,0:0:0:0:
247,254,73046,5,0,0:0:0:0:
250,266,73122,1,0,0:0:0:0:
252,279,73199,1,0,0:0:0:0:
255,291,73275,1,0,0:0:0:0:
410,336,73428,5,0,0:0:0:0:
413,324,73504,1,0,0:0:0:0:
415,311,73581,1,0,0:0:0:0:
479,256,73734,5,0,0:0:0:0:
476,244,73810,1,0,0:0:0:0:
474,231,73887,1,0,0:0:0:0:
424,158,74040,5,0,0:0:0:0:
427,146,74116,1,0,0:0:0:0:
429,133,74193,1,0,0:0:0:0:
482,72,74347,5,0,0:0:0:0:
479,60,74423,1,0,0:0:0:0:
477,47,74500,1,0,0:0:0:0:
370,51,74653,5,0,0:0:0:0:
373,39,74729,1,0,0:0:0:0:
375,26,74806,1,0,0:0:0:0:
276,196,74959,5,0,0:0:0:0:
273,184,75035,1,0,0:0:0:0:
271,171,75112,1,0,0:0:0:0:
260,178,75188,1,0,0:0:0:0:
261,164,75265,1,0,0:0:0:0:
263,150,75342,1,0,0:0:0:0:
249,151,75418,1,0,0:0:0:0:
250,137,75495,1,0,0:0:0:0:
253,124,75571,1,0,0:0:0:0:
239,124,75648,1,0,0:0:0:0:
244,111,75724,1,0,0:0:0:0:
249,98,75801,1,0,0:0:0:0:
253,76,75877,5,0,0:0:0:0:
240,57,75954,1,0,0:0:0:0:
220,46,76030,1,0,0:0:0:0:
197,42,76107,1,0,0:0:0:0:
165,44,76183,1,0,0:0:0:0:
137,59,76260,1,0,0:0:0:0:
122,91,76336,1,0,0:0:0:0:
107,124,76413,1,0,0:0:0:0:
76,142,76489,1,0,0:0:0:0:
39,142,76566,1,0,0:0:0:0:
14,115,76643,6,0,L|19:87,1,22.5
35,96,76719,2,0,L|21:69,1,22.5
42,76,76796,2,0,L|20:54,1,22.5
41,51,76872,2,0,L|12:37,1,22.5
32,27,76949,5,0,0:0:0:0:
169,175,77102,2,0,L|164:203,1,22.5
148,194,77178,2,0,L|162:221,1,22.5
141,214,77255,2,0,L|163:236,1,22.5
142,239,77331,2,0,L|171:253,1,22.5
151,263,77408,1,0,0:0:0:0:
237,332,77561,1,0,0:0:0:0:
267,340,77637,1,0,0:0:0:0:
298,343,77714,1,0,0:0:0:0:
333,337,77790,1,0,0:0:0:0:
363,316,77867,1,0,0:0:0:0:
328,174,78020,5,0,0:0:0:0:
324,200,78097,1,0,0:0:0:0:
331,225,78173,1,0,0:0:0:0:
474,238,78326,5,0,0:0:0:0:
446,238,78403,1,0,0:0:0:0:
420,246,78479,1,0,0:0:0:0:
486,363,78632,5,0,0:0:0:0:
465,338,78709,1,0,0:0:0:0:
440,318,78785,1,0,0:0:0:0:
229,250,78938,5,0,0:0:0:0:
256,266,79015,1,0,0:0:0:0:
285,277,79092,1,0,0:0:0:0:
451,139,79245,5,0,0:0:0:0:
423,154,79321,1,0,0:0:0:0:
404,179,79398,1,0,0:0:0:0:
236,34,79551,5,0,0:0:0:0:
261,52,79627,1,0,0:0:0:0:
292,56,79704,1,0,0:0:0:0:
323,53,79780,1,0,0:0:0:0:
351,39,79857,1,0,0:0:0:0:
376,20,79933,1,0,0:0:0:0:
407,16,80010,1,0,0:0:0:0:
437,24,80086,1,0,0:0:0:0:
459,46,80163,1,0,0:0:0:0:
467,75,80239,1,0,0:0:0:0:
451,83,80316,5,0,0:0:0:0:
460,98,80393,1,0,0:0:0:0:
471,111,80469,1,0,0:0:0:0:
480,126,80546,1,0,0:0:0:0:
501,118,80622,5,0,0:0:0:0:
494,139,80699,1,0,0:0:0:0:
486,160,80775,1,0,0:0:0:0:
478,181,80852,1,0,0:0:0:0:
469,201,80928,1,0,0:0:0:0:
391,198,81081,5,0,0:0:0:0:
391,225,81158,1,0,0:0:0:0:
399,250,81234,1,0,0:0:0:0:
415,271,81311,1,0,0:0:0:0:
436,287,81387,1,0,0:0:0:0:
462,294,81464,1,0,0:0:0:0:
488,294,81540,5,0,0:0:0:0:
473,304,81617,1,0,0:0:0:0:
464,320,81694,1,0,0:0:0:0:
457,336,81770,1,0,0:0:0:0:
454,353,81847,1,0,0:0:0:0:
326,298,82000,6,0,L|361:293,1,22.5
316,277,82076,2,0,L|344:266,1,22.5
300,260,82153,2,0,L|330:242,1,22.5
278,248,82229,1,0,0:0:0:0:
252,239,82306,1,0,0:0:0:0:
225,238,82382,1,0,0:0:0:0:
198,245,82459,5,0,0:0:0:0:
172,263,82535,1,0,0:0:0:0:
145,279,82612,1,0,0:0:0:0:
111,291,82688,1,0,0:0:0:0:
75,297,82765,1,0,0:0:0:0:
39,292,82842,1,0,0:0:0:0:
14,265,82918,1,0,0:0:0:0:
50,265,82995,1,0,0:0:0:0:
75,297,83071,6,0,L|54:357,2,60
78,170,83377,6,0,L|58:113,2,60
184,246,83683,5,0,0:0:0:0:
224,253,83760,1,0,0:0:0:0:
263,244,83836,1,0,0:0:0:0:
297,222,83913,1,0,0:0:0:0:
318,188,83989,1,0,0:0:0:0:
319,147,84066,1,0,0:0:0:0:
308,107,84143,1,0,0:0:0:0:
279,78,84219,1,0,0:0:0:0:
237,74,84296,6,0,B|260:277|260:277|265:232,1,236.250009012223
125,361,84908,6,0,B|262:283|262:283|405:353,1,315
502,312,86132,5,0,0:0:0:0:
478,298,86209,1,0,0:0:0:0:
453,286,86285,1,0,0:0:0:0:
429,273,86362,1,0,0:0:0:0:
404,261,86438,6,0,L|431:213,1,45
425,106,86592,1,0,0:0:0:0:
401,120,86669,1,0,0:0:0:0:
376,132,86745,1,0,0:0:0:0:
352,145,86822,1,0,0:0:0:0:
327,157,86898,6,0,L|354:205,1,45
332,315,87051,1,0,0:0:0:0:
308,301,87128,1,0,0:0:0:0:
283,289,87204,1,0,0:0:0:0:
259,276,87281,1,0,0:0:0:0:
234,264,87357,6,0,L|261:216,1,45
149,253,87510,2,0,L|176:205,1,45
97,108,87663,6,0,L|124:156,1,45
12,119,87816,2,0,L|39:167,1,45
224,160,87969,5,0,0:0:0:0:
255,164,88046,1,0,0:0:0:0:
286,165,88122,1,0,0:0:0:0:
317,167,88199,1,0,0:0:0:0:
328,137,88275,2,0,L|336:73,1,45
413,53,88428,2,0,L|402:120,1,45
505,211,88581,1,0,0:0:0:0:
474,213,88658,1,0,0:0:0:0:
443,214,88734,1,0,0:0:0:0:
412,216,88811,1,0,0:0:0:0:
380,219,88887,6,0,L|388:259,1,30
366,240,88989,2,0,L|372:274,1,30
352,261,89092,2,0,L|360:301,1,30
334,288,89194,1,0,0:0:0:0:
306,272,89270,1,0,0:0:0:0:
275,264,89347,1,0,0:0:0:0:
243,264,89423,1,0,0:0:0:0:
254,239,89500,5,0,0:0:0:0:
222,237,89576,1,0,0:0:0:0:
191,243,89653,1,0,0:0:0:0:
164,259,89729,1,0,0:0:0:0:
157,227,89806,5,0,0:0:0:0:
133,206,89882,1,0,0:0:0:0:
102,196,89959,1,0,0:0:0:0:
70,196,90035,1,0,0:0:0:0:
38,200,90112,6,0,L|41:151,1,45
219,33,90265,1,0,0:0:0:0:
195,54,90341,1,0,0:0:0:0:
164,64,90418,1,0,0:0:0:0:
132,64,90494,1,0,0:0:0:0:
100,60,90571,6,0,L|103:109,1,45
316,203,90724,1,0,0:0:0:0:
292,182,90800,1,0,0:0:0:0:
261,172,90877,1,0,0:0:0:0:
229,172,90953,1,0,0:0:0:0:
197,176,91030,6,0,L|200:127,1,45
405,36,91183,1,0,0:0:0:0:
381,57,91259,1,0,0:0:0:0:
350,67,91336,1,0,0:0:0:0:
318,67,91412,1,0,0:0:0:0:
286,63,91489,6,0,L|288:107,1,45
512,216,91643,5,0,0:0:0:0:
488,195,91719,1,0,0:0:0:0:
457,185,91796,1,0,0:0:0:0:
425,185,91872,1,0,0:0:0:0:
394,193,91949,1,0,0:0:0:0:
371,214,92025,1,0,0:0:0:0:
357,242,92102,1,0,0:0:0:0:
353,273,92178,1,0,0:0:0:0:
330,295,92255,6,0,L|385:306,1,45
475,268,92408,2,0,L|422:257,1,45
253,159,92561,1,0,0:0:0:0:
253,159,92637,1,0,0:0:0:0:
253,159,92714,1,0,0:0:0:0:
253,159,92790,1,0,0:0:0:0:
253,159,92867,6,0,L|282:153,1,30
266,179,92969,2,0,L|295:175,1,30
266,203,93071,2,0,L|295:202,1,30
256,228,93173,1,0,0:0:0:0:
232,242,93250,1,0,0:0:0:0:
205,243,93326,1,0,0:0:0:0:
178,249,93403,1,0,0:0:0:0:
155,264,93479,5,0,0:0:0:0:
138,285,93556,1,0,0:0:0:0:
132,311,93632,1,0,0:0:0:0:
140,336,93709,1,0,0:0:0:0:
160,353,93785,2,0,L|213:344,1,45
281,359,93938,2,0,L|325:366,1,45
382,311,94092,1,0,0:0:0:0:
390,286,94169,1,0,0:0:0:0:
384,260,94245,1,0,0:0:0:0:
367,239,94322,1,0,0:0:0:0:
344,224,94398,5,0,0:0:0:0:
317,218,94475,1,0,0:0:0:0:
290,217,94551,1,0,0:0:0:0:
266,203,94628,1,0,0:0:0:0:
253,179,94704,1,0,0:0:0:0:
249,143,94780,1,0,0:0:0:0:
266,111,94857,1,0,0:0:0:0:
295,90,94933,1,0,0:0:0:0:
331,93,95010,1,0,0:0:0:0:
363,108,95086,1,0,0:0:0:0:
379,140,95163,1,0,0:0:0:0:
372,175,95239,1,0,0:0:0:0:
394,171,95316,5,0,0:0:0:0:
416,169,95393,1,0,0:0:0:0:
438,171,95469,1,0,0:0:0:0:
458,179,95546,1,0,0:0:0:0:
479,194,95622,6,0,L|485:126,1,45
442,34,95775,2,0,L|445:78,1,45
432,285,95928,5,0,0:0:0:0:
400,311,96005,1,0,0:0:0:0:
360,316,96081,1,0,0:0:0:0:
320,304,96158,1,0,0:0:0:0:
296,271,96234,1,0,0:0:0:0:
287,231,96311,1,0,0:0:0:0:
260,200,96387,1,0,0:0:0:0:
221,185,96464,1,0,0:0:0:0:
180,181,96540,1,0,0:0:0:0:
140,190,96617,1,0,0:0:0:0:
110,217,96694,1,0,0:0:0:0:
95,254,96770,1,0,0:0:0:0:
67,254,96847,5,0,0:0:0:0:
80,277,96923,1,0,0:0:0:0:
93,300,97000,1,0,0:0:0:0:
107,322,97076,1,0,0:0:0:0:
109,356,97153,5,0,0:0:0:0:
131,341,97229,1,0,0:0:0:0:
153,326,97306,1,0,0:0:0:0:
174,312,97382,1,0,0:0:0:0:
200,316,97459,5,0,0:0:0:0:
186,294,97535,1,0,0:0:0:0:
173,271,97612,1,0,0:0:0:0:
160,248,97688,1,0,0:0:0:0:
160,210,97765,5,0,0:0:0:0:
138,225,97841,1,0,0:0:0:0:
116,240,97918,1,0,0:0:0:0:
95,254,97994,1,0,0:0:0:0:
101,227,98071,5,0,0:0:0:0:
99,199,98148,1,0,0:0:0:0:
89,173,98224,1,0,0:0:0:0:
72,151,98301,1,0,0:0:0:0:
49,137,98377,1,0,0:0:0:0:
25,123,98454,1,0,0:0:0:0:
11,100,98530,1,0,0:0:0:0:
7,73,98607,1,0,0:0:0:0:
16,48,98683,6,0,L|48:60,1,22.5
37,29,98760,2,0,L|50:51,1,22.5
75,27,98836,2,0,L|73:52,1,22.5
103,44,98913,2,0,L|78:68,1,22.5
