osu file format v14

[General]
AudioFilename: Aragami.mp3
AudioLeadIn: 0
PreviewTime: 83209
Countdown: 0
SampleSet: Soft
StackLeniency: 0.7
Mode: 3
LetterboxInBreaks: 0
SpecialStyle: 0
WidescreenStoryboard: 1

[Editor]
DistanceSpacing: 1.3
BeatDivisor: 4
GridSize: 8
TimelineZoom: 0.6000006

[Metadata]
Title:Aragami
TitleUnicode:Aragami
Artist:xi
ArtistUnicode:xi
Creator:Blocko
Version:7K Hyper
Source:BMS
Tags:ancul jinjin snover g2r2014
BeatmapID:760454
BeatmapSetID:344198

[Difficulty]
HPDrainRate:7.5
CircleSize:7
OverallDifficulty:7.5
ApproachRate:7.5
SliderMultiplier:1.4
SliderTickRate:1

[Events]
//Background and Video events
0,0,"7kbg.jpg",0,0
//Break Periods
//Storyboard Layer 0 (Background)
//Storyboard Layer 1 (Fail)
//Storyboard Layer 2 (Pass)
//Storyboard Layer 3 (Foreground)
//Storyboard Sound Samples

[TimingPoints]
1842,612.244897959184,4,2,1,20,1,0
1842,-55.5555555555556,4,2,1,20,0,0
9188,-55.8659217877095,4,2,1,20,0,0
9495,-56.1797752808989,4,2,1,20,0,0
9801,-56.4971751412429,4,2,1,20,0,0
10107,-56.8181818181818,4,2,1,20,0,0
10413,-57.1428571428571,4,2,1,20,0,0
10719,-57.4712643678161,4,2,1,20,0,0
11025,-57.8034682080925,4,2,1,20,0,0
11331,-58.1395348837209,4,2,1,20,0,0
11637,681.818181818182,4,2,1,20,1,0
11637,-52.6315789473684,4,2,1,20,0,0
11977,-52.9100529100529,4,2,1,20,0,0
12318,769.230769230769,4,2,1,20,1,0
12318,-47.1698113207547,4,2,1,20,0,0
12702,-47.39336492891,4,2,1,20,0,0
13087,882.352941176471,4,2,1,20,1,0
13087,-41.49377593361,4,2,1,20,0,0
13528,-41.8410041841004,4,2,1,20,0,0
13969,1034.48275862069,4,2,1,20,1,0
13969,-35.84229390681,4,2,1,20,0,0
14486,-36.101083032491,4,2,1,20,0,0
15003,1132.07547169811,4,2,1,20,1,0
15003,-33.2225913621262,4,2,1,20,0,0
15569,-33.3333333333333,4,2,1,20,0,0
16135,1250,4,2,1,20,1,0
16135,-30.3951367781155,4,2,1,20,0,0
16760,-25,4,2,1,20,0,0
17393,306.122448979592,3,1,1,35,1,1
24739,-100,3,1,1,35,0,0
39433,-100,3,1,1,35,0,1
41270,-100,3,1,1,35,0,0
84433,-100,3,1,1,35,0,1
91761,-100,3,1,1,35,0,0
91780,-100,3,1,1,35,0,1
99127,-100,3,1,1,35,0,0
106474,-100,3,1,1,35,0,1
113821,-100,3,2,1,20,0,0
115658,315.789473684211,3,2,1,20,1,0
115658,-97.0873786407767,3,2,1,20,0,0
116605,326.086956521739,3,2,1,20,1,0
116605,-93.4579439252336,3,2,1,20,0,0
117094,337.078651685393,3,2,1,20,1,0
117094,-90.9090909090909,3,2,1,20,0,0
117262,348.837209302326,3,2,1,20,1,0
117262,-87.719298245614,3,2,1,20,0,0
117436,361.44578313253,3,2,1,20,1,0
117436,-84.7457627118644,3,2,1,20,0,0
117616,337.078651685393,3,2,1,20,1,0
117616,-90.9090909090909,3,2,1,20,0,0

[HitObjects]
109,192,3372,5,0,0:0:0:0:
256,192,3678,1,0,0:0:0:0:
402,192,3984,1,0,0:0:0:0:
475,192,4290,1,0,0:0:0:0:
329,192,4597,1,0,0:0:0:0:
182,192,4903,1,0,0:0:0:0:
36,192,5209,1,0,0:0:0:0:
256,192,5515,1,0,0:0:0:0:
402,192,6739,1,0,0:0:0:0:
329,192,7046,1,0,0:0:0:0:
256,192,7352,1,0,0:0:0:0:
182,192,7658,1,0,0:0:0:0:
36,192,7964,1,0,0:0:0:0:
256,192,8576,128,0,9188:0:0:0:0:
36,192,9188,1,0,0:0:0:0:
329,192,9188,1,0,0:0:0:0:
109,192,9801,1,0,0:0:0:0:
182,192,10413,1,0,0:0:0:0:
329,192,11025,1,0,0:0:0:0:
256,192,11637,1,0,0:0:0:0:
329,192,12318,1,0,0:0:0:0:
402,192,13087,1,0,0:0:0:0:
475,192,13969,1,0,0:0:0:0:
256,192,13969,128,0,17393:0:0:0:0:
475,192,17393,1,0,0:0:0:0:
36,192,17393,1,0,0:0:0:0:
402,192,17393,1,0,0:0:0:0:
109,192,17546,1,0,0:0:0:0:
182,192,17622,1,0,0:0:0:0:
256,192,17699,1,0,0:0:0:0:
475,192,17699,1,0,0:0:0:0:
402,192,17852,1,0,0:0:0:0:
36,192,17852,1,0,0:0:0:0:
109,192,17928,1,0,0:0:0:0:
182,192,18005,1,0,0:0:0:0:
402,192,18158,1,0,0:0:0:0:
109,192,18158,1,0,0:0:0:0:
329,192,18234,1,0,0:0:0:0:
36,192,18311,1,0,0:0:0:0:
256,192,18311,1,0,0:0:0:0:
475,192,18464,1,0,0:0:0:0:
402,192,18540,1,0,0:0:0:0:
329,192,18617,1,0,0:0:0:0:
182,192,18617,1,0,0:0:0:0:
36,192,18770,1,0,0:0:0:0:
475,192,18770,1,0,0:0:0:0:
109,192,18847,1,0,0:0:0:0:
182,192,18923,1,0,0:0:0:0:
329,192,19076,1,0,0:0:0:0:
36,192,19076,1,0,0:0:0:0:
402,192,19153,1,0,0:0:0:0:
475,192,19229,1,0,0:0:0:0:
109,192,19229,1,0,0:0:0:0:
182,192,19382,1,0,0:0:0:0:
256,192,19459,1,0,0:0:0:0:
36,192,19535,1,0,0:0:0:0:
329,192,19535,1,0,0:0:0:0:
182,192,19688,1,0,0:0:0:0:
475,192,19688,1,0,0:0:0:0:
402,192,19765,1,0,0:0:0:0:
329,192,19841,1,0,0:0:0:0:
475,192,19995,1,0,0:0:0:0:
36,192,19995,1,0,0:0:0:0:
109,192,20071,1,0,0:0:0:0:
182,192,20148,1,0,0:0:0:0:
329,192,20148,1,0,0:0:0:0:
256,192,20301,1,0,0:0:0:0:
182,192,20377,1,0,0:0:0:0:
109,192,20454,1,0,0:0:0:0:
475,192,20454,1,0,0:0:0:0:
329,192,20607,1,0,0:0:0:0:
256,192,20683,1,0,0:0:0:0:
36,192,20760,1,0,0:0:0:0:
182,192,20760,1,0,0:0:0:0:
329,192,20913,1,0,0:0:0:0:
402,192,20989,1,0,0:0:0:0:
36,192,21066,1,0,0:0:0:0:
109,192,21066,1,0,0:0:0:0:
475,192,21066,1,0,0:0:0:0:
256,192,21219,1,0,0:0:0:0:
329,192,21296,1,0,0:0:0:0:
402,192,21372,1,0,0:0:0:0:
36,192,21372,1,0,0:0:0:0:
256,192,21525,1,0,0:0:0:0:
475,192,21525,1,0,0:0:0:0:
182,192,21602,1,0,0:0:0:0:
109,192,21678,1,0,0:0:0:0:
402,192,21831,1,0,0:0:0:0:
182,192,21831,1,0,0:0:0:0:
109,192,21908,1,0,0:0:0:0:
36,192,21984,1,0,0:0:0:0:
475,192,21984,1,0,0:0:0:0:
256,192,22137,1,0,0:0:0:0:
329,192,22214,1,0,0:0:0:0:
402,192,22290,1,0,0:0:0:0:
109,192,22290,1,0,0:0:0:0:
256,192,22444,1,0,0:0:0:0:
475,192,22444,1,0,0:0:0:0:
182,192,22520,1,0,0:0:0:0:
109,192,22597,1,0,0:0:0:0:
182,192,22750,1,0,0:0:0:0:
329,192,22750,1,0,0:0:0:0:
256,192,22826,1,0,0:0:0:0:
36,192,22903,1,0,0:0:0:0:
475,192,22903,1,0,0:0:0:0:
109,192,23056,1,0,0:0:0:0:
402,192,23056,1,0,0:0:0:0:
182,192,23209,1,0,0:0:0:0:
329,192,23209,1,0,0:0:0:0:
402,192,23362,1,0,0:0:0:0:
109,192,23362,1,0,0:0:0:0:
36,192,23515,1,0,0:0:0:0:
475,192,23515,1,0,0:0:0:0:
109,192,23668,1,0,0:0:0:0:
402,192,23668,1,0,0:0:0:0:
182,192,23821,128,0,24739:0:0:0:0:
329,192,23821,128,0,24739:0:0:0:0:
475,192,24739,128,0,26576:0:0:0:0:
256,192,24739,1,0,0:0:0:0:
36,192,24739,128,0,26576:0:0:0:0:
182,192,26576,1,0,0:0:0:0:
329,192,26576,1,0,0:0:0:0:
475,192,27035,128,0,27495:0:0:0:0:
329,192,27495,128,0,28413:0:0:0:0:
182,192,27495,1,0,0:0:0:0:
36,192,28107,1,0,0:0:0:0:
475,192,28107,1,0,0:0:0:0:
182,192,28719,128,0,29331:0:0:0:0:
402,192,28719,1,0,0:0:0:0:
182,192,29637,128,0,29944:0:0:0:0:
36,192,29637,1,0,0:0:0:0:
475,192,29944,128,0,30250:0:0:0:0:
329,192,29944,1,0,0:0:0:0:
36,192,30250,128,0,32086:0:0:0:0:
182,192,30250,1,0,0:0:0:0:
329,192,30709,1,0,0:0:0:0:
475,192,30709,1,0,0:0:0:0:
402,192,31168,1,0,0:0:0:0:
256,192,31168,1,0,0:0:0:0:
475,192,31474,1,0,0:0:0:0:
182,192,31627,1,0,0:0:0:0:
256,192,31780,1,0,0:0:0:0:
329,192,31933,1,0,0:0:0:0:
402,192,32010,1,0,0:0:0:0:
182,192,32086,1,0,0:0:0:0:
475,192,32239,1,0,0:0:0:0:
329,192,32393,128,0,32546:0:0:0:0:
182,192,32546,1,0,0:0:0:0:
36,192,32699,1,0,0:0:0:0:
256,192,32852,1,0,0:0:0:0:
329,192,32928,1,0,0:0:0:0:
402,192,33005,1,0,0:0:0:0:
109,192,33158,128,0,33311:0:0:0:0:
329,192,33311,1,0,0:0:0:0:
36,192,33464,1,0,0:0:0:0:
182,192,33617,1,0,0:0:0:0:
475,192,33770,1,0,0:0:0:0:
402,192,33847,1,0,0:0:0:0:
329,192,33923,1,0,0:0:0:0:
109,192,33923,128,0,34841:0:0:0:0:
256,192,34076,1,0,0:0:0:0:
475,192,34076,1,0,0:0:0:0:
329,192,34841,1,0,0:0:0:0:
36,192,34841,128,0,35760:0:0:0:0:
256,192,35760,1,0,0:0:0:0:
182,192,36066,128,0,36678:0:0:0:0:
256,192,36678,128,0,36984:0:0:0:0:
109,192,36984,1,0,0:0:0:0:
329,192,36984,128,0,37290:0:0:0:0:
402,192,37290,128,0,37597:0:0:0:0:
182,192,37290,1,0,0:0:0:0:
475,192,37597,128,0,38515:0:0:0:0:
36,192,37597,128,0,38515:0:0:0:0:
109,192,38515,128,0,39433:0:0:0:0:
402,192,38515,128,0,39433:0:0:0:0:
182,192,39433,1,0,0:0:0:0:
329,192,39433,1,0,0:0:0:0:
475,192,39433,1,0,0:0:0:0:
182,192,39586,1,0,0:0:0:0:
329,192,39586,1,0,0:0:0:0:
475,192,39586,1,0,0:0:0:0:
182,192,39893,1,0,0:0:0:0:
475,192,39893,1,0,0:0:0:0:
329,192,39893,1,0,0:0:0:0:
182,192,40199,1,0,0:0:0:0:
475,192,40199,1,0,0:0:0:0:
329,192,40199,1,0,0:0:0:0:
109,192,40352,1,0,0:0:0:0:
256,192,40352,1,0,0:0:0:0:
402,192,40352,1,0,0:0:0:0:
402,192,40658,1,0,0:0:0:0:
256,192,40658,1,0,0:0:0:0:
109,192,40658,1,0,0:0:0:0:
256,192,40964,1,0,0:0:0:0:
109,192,40964,1,0,0:0:0:0:
402,192,40964,1,0,0:0:0:0:
329,192,41270,1,0,0:0:0:0:
182,192,41270,1,0,0:0:0:0:
36,192,41270,1,0,0:0:0:0:
182,192,41423,1,0,0:0:0:0:
182,192,41729,1,0,0:0:0:0:
182,192,41882,1,0,0:0:0:0:
329,192,42188,1,0,0:0:0:0:
182,192,42188,128,0,42495:0:0:0:0:
475,192,42495,128,0,42801:0:0:0:0:
329,192,42801,128,0,43107:0:0:0:0:
36,192,43107,128,0,44025:0:0:0:0:
402,192,43107,1,0,0:0:0:0:
402,192,43260,1,0,0:0:0:0:
402,192,43566,1,0,0:0:0:0:
402,192,43719,1,0,0:0:0:0:
402,192,44025,1,0,0:0:0:0:
329,192,44331,1,0,0:0:0:0:
182,192,44484,1,0,0:0:0:0:
36,192,44637,1,0,0:0:0:0:
109,192,44714,1,0,0:0:0:0:
182,192,44790,1,0,0:0:0:0:
256,192,44867,1,0,0:0:0:0:
329,192,44944,1,0,0:0:0:0:
475,192,44944,1,0,0:0:0:0:
36,192,44944,1,0,0:0:0:0:
109,192,45250,1,0,0:0:0:0:
182,192,45326,1,0,0:0:0:0:
256,192,45403,1,0,0:0:0:0:
329,192,45479,1,0,0:0:0:0:
402,192,45556,1,0,0:0:0:0:
182,192,45709,1,0,0:0:0:0:
329,192,45862,1,0,0:0:0:0:
475,192,45862,1,0,0:0:0:0:
36,192,46015,1,0,0:0:0:0:
109,192,46091,1,0,0:0:0:0:
182,192,46168,1,0,0:0:0:0:
256,192,46321,1,0,0:0:0:0:
329,192,46398,1,0,0:0:0:0:
402,192,46474,1,0,0:0:0:0:
475,192,46627,1,0,0:0:0:0:
182,192,46780,1,0,0:0:0:0:
36,192,46780,1,0,0:0:0:0:
329,192,46933,1,0,0:0:0:0:
256,192,47010,1,0,0:0:0:0:
182,192,47086,1,0,0:0:0:0:
329,192,47239,1,0,0:0:0:0:
182,192,47393,1,0,0:0:0:0:
329,192,47546,1,0,0:0:0:0:
109,192,47699,1,0,0:0:0:0:
402,192,47699,1,0,0:0:0:0:
36,192,48005,1,0,0:0:0:0:
329,192,48005,1,0,0:0:0:0:
109,192,48081,1,0,0:0:0:0:
182,192,48158,1,0,0:0:0:0:
256,192,48234,1,0,0:0:0:0:
475,192,48311,1,0,0:0:0:0:
402,192,48311,1,0,0:0:0:0:
36,192,48617,1,0,0:0:0:0:
329,192,48617,1,0,0:0:0:0:
109,192,48770,1,0,0:0:0:0:
256,192,48923,1,0,0:0:0:0:
402,192,48923,1,0,0:0:0:0:
36,192,49076,1,0,0:0:0:0:
182,192,49229,1,0,0:0:0:0:
329,192,49229,1,0,0:0:0:0:
109,192,49382,1,0,0:0:0:0:
256,192,49535,1,0,0:0:0:0:
402,192,49535,1,0,0:0:0:0:
475,192,49688,1,0,0:0:0:0:
329,192,49841,1,0,0:0:0:0:
182,192,49841,1,0,0:0:0:0:
402,192,49995,1,0,0:0:0:0:
256,192,50148,1,0,0:0:0:0:
109,192,50148,1,0,0:0:0:0:
329,192,50301,1,0,0:0:0:0:
182,192,50454,1,0,0:0:0:0:
36,192,50454,1,0,0:0:0:0:
402,192,50607,1,0,0:0:0:0:
475,192,50760,1,0,0:0:0:0:
256,192,50760,1,0,0:0:0:0:
109,192,50913,1,0,0:0:0:0:
256,192,51066,1,0,0:0:0:0:
36,192,51066,1,0,0:0:0:0:
329,192,51219,1,0,0:0:0:0:
475,192,51372,1,0,0:0:0:0:
182,192,51372,1,0,0:0:0:0:
36,192,51525,1,0,0:0:0:0:
109,192,51602,1,0,0:0:0:0:
182,192,51678,1,0,0:0:0:0:
475,192,51755,1,0,0:0:0:0:
402,192,51831,1,0,0:0:0:0:
329,192,51908,1,0,0:0:0:0:
182,192,51984,1,0,0:0:0:0:
109,192,51984,1,0,0:0:0:0:
402,192,52137,1,0,0:0:0:0:
329,192,52137,1,0,0:0:0:0:
256,192,52290,1,0,0:0:0:0:
36,192,52290,1,0,0:0:0:0:
109,192,52290,1,0,0:0:0:0:
475,192,52444,1,0,0:0:0:0:
402,192,52444,1,0,0:0:0:0:
182,192,52903,1,0,0:0:0:0:
475,192,52903,1,0,0:0:0:0:
475,192,53056,1,0,0:0:0:0:
182,192,53056,1,0,0:0:0:0:
329,192,53362,1,0,0:0:0:0:
36,192,53362,1,0,0:0:0:0:
402,192,53668,1,0,0:0:0:0:
109,192,53668,1,0,0:0:0:0:
182,192,53974,1,0,0:0:0:0:
475,192,53974,1,0,0:0:0:0:
402,192,54127,1,0,0:0:0:0:
256,192,54127,1,0,0:0:0:0:
109,192,54127,1,0,0:0:0:0:
109,192,54280,1,0,0:0:0:0:
256,192,54280,1,0,0:0:0:0:
402,192,54280,1,0,0:0:0:0:
402,192,54586,1,0,0:0:0:0:
256,192,54586,1,0,0:0:0:0:
109,192,54586,1,0,0:0:0:0:
109,192,54893,1,0,0:0:0:0:
256,192,54893,1,0,0:0:0:0:
402,192,54893,1,0,0:0:0:0:
256,192,55046,1,0,0:0:0:0:
109,192,55046,1,0,0:0:0:0:
402,192,55046,1,0,0:0:0:0:
36,192,55352,1,0,0:0:0:0:
475,192,55352,1,0,0:0:0:0:
182,192,55658,1,0,0:0:0:0:
256,192,55734,1,0,0:0:0:0:
329,192,55811,1,0,0:0:0:0:
402,192,55887,1,0,0:0:0:0:
36,192,55964,1,0,0:0:0:0:
475,192,55964,128,0,56576:0:0:0:0:
402,192,56576,1,0,0:0:0:0:
109,192,56729,1,0,0:0:0:0:
256,192,56882,128,0,57495:0:0:0:0:
182,192,57495,128,0,57801:0:0:0:0:
402,192,57801,1,0,0:0:0:0:
36,192,57801,128,0,58413:0:0:0:0:
475,192,58413,128,0,58719:0:0:0:0:
329,192,58719,128,0,59331:0:0:0:0:
182,192,58719,1,0,0:0:0:0:
109,192,59331,1,0,0:0:0:0:
182,192,59408,1,0,0:0:0:0:
256,192,59484,1,0,0:0:0:0:
329,192,59561,1,0,0:0:0:0:
402,192,59637,128,0,60250:0:0:0:0:
36,192,59637,1,0,0:0:0:0:
475,192,59637,1,0,0:0:0:0:
329,192,60250,128,0,60403:0:0:0:0:
182,192,60403,128,0,60556:0:0:0:0:
329,192,60556,128,0,61168:0:0:0:0:
182,192,61168,128,0,61474:0:0:0:0:
36,192,61474,128,0,62086:0:0:0:0:
256,192,62086,128,0,62393:0:0:0:0:
109,192,62393,128,0,63311:0:0:0:0:
402,192,63311,1,0,0:0:0:0:
475,192,63311,1,0,0:0:0:0:
182,192,63311,1,0,0:0:0:0:
36,192,63770,1,0,0:0:0:0:
109,192,64229,1,0,0:0:0:0:
182,192,64688,1,0,0:0:0:0:
256,192,65148,1,0,0:0:0:0:
329,192,65607,1,0,0:0:0:0:
402,192,66066,1,0,0:0:0:0:
475,192,66525,1,0,0:0:0:0:
402,192,66984,1,0,0:0:0:0:
475,192,66984,1,0,0:0:0:0:
329,192,67061,1,0,0:0:0:0:
256,192,67137,1,0,0:0:0:0:
182,192,67214,1,0,0:0:0:0:
109,192,67290,1,0,0:0:0:0:
36,192,67367,1,0,0:0:0:0:
475,192,67444,1,0,0:0:0:0:
402,192,67520,1,0,0:0:0:0:
329,192,67597,1,0,0:0:0:0:
256,192,67673,1,0,0:0:0:0:
182,192,67750,1,0,0:0:0:0:
109,192,67826,1,0,0:0:0:0:
475,192,67903,1,0,0:0:0:0:
402,192,67903,1,0,0:0:0:0:
36,192,67903,1,0,0:0:0:0:
109,192,68209,1,0,0:0:0:0:
329,192,68209,1,0,0:0:0:0:
256,192,68362,1,0,0:0:0:0:
182,192,68438,1,0,0:0:0:0:
109,192,68515,1,0,0:0:0:0:
329,192,68668,1,0,0:0:0:0:
402,192,68745,1,0,0:0:0:0:
475,192,68821,1,0,0:0:0:0:
182,192,68974,1,0,0:0:0:0:
109,192,69051,1,0,0:0:0:0:
36,192,69127,1,0,0:0:0:0:
475,192,69280,1,0,0:0:0:0:
402,192,69357,1,0,0:0:0:0:
329,192,69433,1,0,0:0:0:0:
36,192,69586,1,0,0:0:0:0:
109,192,69663,1,0,0:0:0:0:
182,192,69739,1,0,0:0:0:0:
402,192,69893,1,0,0:0:0:0:
329,192,69969,1,0,0:0:0:0:
256,192,70046,1,0,0:0:0:0:
109,192,70199,1,0,0:0:0:0:
182,192,70275,1,0,0:0:0:0:
256,192,70352,1,0,0:0:0:0:
329,192,70505,1,0,0:0:0:0:
402,192,70581,1,0,0:0:0:0:
475,192,70658,1,0,0:0:0:0:
182,192,70811,1,0,0:0:0:0:
109,192,70887,1,0,0:0:0:0:
36,192,70964,1,0,0:0:0:0:
402,192,71117,1,0,0:0:0:0:
329,192,71194,1,0,0:0:0:0:
256,192,71270,1,0,0:0:0:0:
329,192,71423,1,0,0:0:0:0:
256,192,71500,1,0,0:0:0:0:
182,192,71576,1,0,0:0:0:0:
256,192,71729,1,0,0:0:0:0:
182,192,71806,1,0,0:0:0:0:
109,192,71882,1,0,0:0:0:0:
36,192,71882,1,0,0:0:0:0:
475,192,71882,1,0,0:0:0:0:
256,192,72035,1,0,0:0:0:0:
329,192,72112,1,0,0:0:0:0:
402,192,72188,1,0,0:0:0:0:
182,192,72341,1,0,0:0:0:0:
329,192,72418,1,0,0:0:0:0:
475,192,72495,1,0,0:0:0:0:
109,192,72648,1,0,0:0:0:0:
256,192,72724,1,0,0:0:0:0:
402,192,72801,1,0,0:0:0:0:
329,192,72954,1,0,0:0:0:0:
182,192,73030,1,0,0:0:0:0:
36,192,73107,1,0,0:0:0:0:
402,192,73260,1,0,0:0:0:0:
256,192,73336,1,0,0:0:0:0:
109,192,73413,1,0,0:0:0:0:
475,192,73566,1,0,0:0:0:0:
329,192,73643,1,0,0:0:0:0:
182,192,73719,1,0,0:0:0:0:
36,192,73872,1,0,0:0:0:0:
182,192,73949,1,0,0:0:0:0:
329,192,74025,1,0,0:0:0:0:
402,192,74178,1,0,0:0:0:0:
256,192,74255,5,0,0:0:0:0:
109,192,74331,1,0,0:0:0:0:
329,192,74484,1,0,0:0:0:0:
182,192,74561,1,0,0:0:0:0:
36,192,74637,1,0,0:0:0:0:
402,192,74790,1,0,0:0:0:0:
329,192,74867,1,0,0:0:0:0:
256,192,74944,128,0,75250:0:0:0:0:
402,192,75250,1,0,0:0:0:0:
109,192,75250,1,0,0:0:0:0:
329,192,75403,1,0,0:0:0:0:
182,192,75479,1,0,0:0:0:0:
36,192,75556,5,0,0:0:0:0:
475,192,75556,1,0,0:0:0:0:
402,192,75556,1,0,0:0:0:0:
109,192,75709,5,0,0:0:0:0:
182,192,75709,1,0,0:0:0:0:
329,192,75862,1,0,0:0:0:0:
402,192,75862,1,0,0:0:0:0:
36,192,76015,1,0,0:0:0:0:
182,192,76015,1,0,0:0:0:0:
256,192,76168,1,0,0:0:0:0:
475,192,76168,1,0,0:0:0:0:
329,192,76321,1,0,0:0:0:0:
109,192,76321,1,0,0:0:0:0:
402,192,76474,1,0,0:0:0:0:
182,192,76474,1,0,0:0:0:0:
36,192,76627,1,0,0:0:0:0:
256,192,76627,1,0,0:0:0:0:
182,192,76780,1,0,0:0:0:0:
475,192,76780,1,0,0:0:0:0:
402,192,76933,1,0,0:0:0:0:
109,192,76933,1,0,0:0:0:0:
329,192,77086,1,0,0:0:0:0:
36,192,77086,1,0,0:0:0:0:
182,192,77239,1,0,0:0:0:0:
475,192,77239,1,0,0:0:0:0:
109,192,77393,1,0,0:0:0:0:
402,192,77393,1,0,0:0:0:0:
329,192,77546,1,0,0:0:0:0:
256,192,77546,1,0,0:0:0:0:
36,192,77699,1,0,0:0:0:0:
109,192,77699,1,0,0:0:0:0:
182,192,77852,1,0,0:0:0:0:
256,192,77852,1,0,0:0:0:0:
475,192,78005,1,0,0:0:0:0:
402,192,78005,1,0,0:0:0:0:
329,192,78158,1,0,0:0:0:0:
256,192,78158,1,0,0:0:0:0:
182,192,78311,1,0,0:0:0:0:
109,192,78311,1,0,0:0:0:0:
402,192,78464,1,0,0:0:0:0:
329,192,78464,1,0,0:0:0:0:
36,192,78617,1,0,0:0:0:0:
109,192,78694,1,0,0:0:0:0:
182,192,78770,1,0,0:0:0:0:
256,192,78847,1,0,0:0:0:0:
475,192,78923,1,0,0:0:0:0:
402,192,79000,1,0,0:0:0:0:
329,192,79076,1,0,0:0:0:0:
256,192,79153,1,0,0:0:0:0:
182,192,79229,1,0,0:0:0:0:
109,192,79229,1,0,0:0:0:0:
402,192,79382,1,0,0:0:0:0:
329,192,79459,1,0,0:0:0:0:
256,192,79535,1,0,0:0:0:0:
182,192,79612,1,0,0:0:0:0:
109,192,79688,1,0,0:0:0:0:
36,192,79841,1,0,0:0:0:0:
109,192,79918,1,0,0:0:0:0:
182,192,79995,1,0,0:0:0:0:
256,192,80071,1,0,0:0:0:0:
329,192,80148,1,0,0:0:0:0:
402,192,80148,1,0,0:0:0:0:
36,192,80301,1,0,0:0:0:0:
109,192,80377,1,0,0:0:0:0:
182,192,80454,1,0,0:0:0:0:
256,192,80530,1,0,0:0:0:0:
329,192,80607,1,0,0:0:0:0:
402,192,80683,1,0,0:0:0:0:
475,192,80760,1,0,0:0:0:0:
36,192,80760,1,0,0:0:0:0:
109,192,80836,1,0,0:0:0:0:
182,192,80913,1,0,0:0:0:0:
475,192,80989,1,0,0:0:0:0:
402,192,81066,1,0,0:0:0:0:
329,192,81143,1,0,0:0:0:0:
109,192,81219,1,0,0:0:0:0:
182,192,81296,1,0,0:0:0:0:
475,192,81372,1,0,0:0:0:0:
402,192,81449,1,0,0:0:0:0:
36,192,81525,1,0,0:0:0:0:
109,192,81602,1,0,0:0:0:0:
402,192,81678,1,0,0:0:0:0:
329,192,81755,1,0,0:0:0:0:
109,192,81831,1,0,0:0:0:0:
182,192,81908,1,0,0:0:0:0:
475,192,81984,1,0,0:0:0:0:
402,192,82061,1,0,0:0:0:0:
36,192,82137,1,0,0:0:0:0:
109,192,82214,1,0,0:0:0:0:
329,192,82290,1,0,0:0:0:0:
182,192,82367,1,0,0:0:0:0:
256,192,82444,128,0,82597:0:0:0:0:
109,192,82597,1,0,0:0:0:0:
402,192,82597,1,0,0:0:0:0:
36,192,83209,128,0,84433:0:0:0:0:
475,192,83209,128,0,84433:0:0:0:0:
256,192,83821,1,0,0:0:0:0:
329,192,84127,1,0,0:0:0:0:
402,192,84433,1,0,0:0:0:0:
109,192,84433,1,0,0:0:0:0:
182,192,84433,1,0,0:0:0:0:
256,192,84586,1,0,0:0:0:0:
329,192,84663,1,0,0:0:0:0:
402,192,84739,1,0,0:0:0:0:
109,192,84739,1,0,0:0:0:0:
36,192,84893,1,0,0:0:0:0:
329,192,84893,1,0,0:0:0:0:
109,192,84969,1,0,0:0:0:0:
182,192,85046,1,0,0:0:0:0:
329,192,85199,1,0,0:0:0:0:
36,192,85199,1,0,0:0:0:0:
402,192,85275,1,0,0:0:0:0:
182,192,85352,1,0,0:0:0:0:
475,192,85352,1,0,0:0:0:0:
256,192,85505,1,0,0:0:0:0:
182,192,85581,1,0,0:0:0:0:
109,192,85658,1,0,0:0:0:0:
402,192,85658,1,0,0:0:0:0:
475,192,85811,1,0,0:0:0:0:
182,192,85811,1,0,0:0:0:0:
402,192,85887,1,0,0:0:0:0:
329,192,85964,1,0,0:0:0:0:
182,192,86117,1,0,0:0:0:0:
475,192,86117,1,0,0:0:0:0:
109,192,86194,1,0,0:0:0:0:
36,192,86270,1,0,0:0:0:0:
329,192,86270,1,0,0:0:0:0:
475,192,86423,1,0,0:0:0:0:
402,192,86500,1,0,0:0:0:0:
182,192,86576,1,0,0:0:0:0:
329,192,86576,1,0,0:0:0:0:
36,192,86729,1,0,0:0:0:0:
475,192,86729,1,0,0:0:0:0:
109,192,86806,1,0,0:0:0:0:
182,192,86882,1,0,0:0:0:0:
329,192,87035,1,0,0:0:0:0:
109,192,87035,1,0,0:0:0:0:
402,192,87112,1,0,0:0:0:0:
36,192,87188,1,0,0:0:0:0:
475,192,87188,1,0,0:0:0:0:
329,192,87341,1,0,0:0:0:0:
182,192,87418,1,0,0:0:0:0:
402,192,87495,1,0,0:0:0:0:
109,192,87495,1,0,0:0:0:0:
182,192,87648,1,0,0:0:0:0:
329,192,87724,1,0,0:0:0:0:
475,192,87801,1,0,0:0:0:0:
36,192,87801,1,0,0:0:0:0:
329,192,87954,1,0,0:0:0:0:
182,192,88030,1,0,0:0:0:0:
36,192,88107,1,0,0:0:0:0:
475,192,88107,1,0,0:0:0:0:
402,192,88107,1,0,0:0:0:0:
109,192,88260,1,0,0:0:0:0:
182,192,88336,1,0,0:0:0:0:
402,192,88413,1,0,0:0:0:0:
256,192,88413,1,0,0:0:0:0:
36,192,88566,1,0,0:0:0:0:
475,192,88566,1,0,0:0:0:0:
109,192,88643,1,0,0:0:0:0:
182,192,88719,1,0,0:0:0:0:
402,192,88872,1,0,0:0:0:0:
109,192,88872,1,0,0:0:0:0:
329,192,88949,1,0,0:0:0:0:
36,192,89025,1,0,0:0:0:0:
256,192,89025,1,0,0:0:0:0:
475,192,89178,1,0,0:0:0:0:
402,192,89255,1,0,0:0:0:0:
329,192,89331,1,0,0:0:0:0:
182,192,89331,1,0,0:0:0:0:
36,192,89484,1,0,0:0:0:0:
475,192,89484,1,0,0:0:0:0:
109,192,89561,1,0,0:0:0:0:
182,192,89637,1,0,0:0:0:0:
402,192,89790,1,0,0:0:0:0:
109,192,89790,1,0,0:0:0:0:
329,192,89867,1,0,0:0:0:0:
36,192,89944,5,0,0:0:0:0:
256,192,89944,1,0,0:0:0:0:
109,192,90097,1,0,0:0:0:0:
329,192,90097,1,0,0:0:0:0:
182,192,90250,1,0,0:0:0:0:
402,192,90250,1,0,0:0:0:0:
256,192,90403,1,0,0:0:0:0:
475,192,90403,1,0,0:0:0:0:
36,192,90556,1,0,0:0:0:0:
329,192,90556,1,0,0:0:0:0:
109,192,90709,1,0,0:0:0:0:
402,192,90709,1,0,0:0:0:0:
182,192,90862,1,0,0:0:0:0:
475,192,90862,1,0,0:0:0:0:
402,192,91015,1,0,0:0:0:0:
329,192,91091,1,0,0:0:0:0:
256,192,91168,1,0,0:0:0:0:
182,192,91245,1,0,0:0:0:0:
109,192,91321,1,0,0:0:0:0:
329,192,91474,1,0,0:0:0:0:
256,192,91551,1,0,0:0:0:0:
182,192,91627,1,0,0:0:0:0:
109,192,91704,1,0,0:0:0:0:
36,192,91780,1,0,0:0:0:0:
475,192,91780,1,0,0:0:0:0:
402,192,91780,1,0,0:0:0:0:
256,192,91933,1,0,0:0:0:0:
329,192,92010,1,0,0:0:0:0:
402,192,92086,1,0,0:0:0:0:
109,192,92086,1,0,0:0:0:0:
256,192,92239,1,0,0:0:0:0:
182,192,92316,1,0,0:0:0:0:
329,192,92393,1,0,0:0:0:0:
36,192,92393,1,0,0:0:0:0:
109,192,92546,1,0,0:0:0:0:
402,192,92546,1,0,0:0:0:0:
182,192,92699,1,0,0:0:0:0:
475,192,92699,1,0,0:0:0:0:
256,192,92852,1,0,0:0:0:0:
329,192,92928,1,0,0:0:0:0:
109,192,93005,1,0,0:0:0:0:
402,192,93005,1,0,0:0:0:0:
182,192,93158,1,0,0:0:0:0:
109,192,93234,1,0,0:0:0:0:
329,192,93311,1,0,0:0:0:0:
36,192,93311,1,0,0:0:0:0:
256,192,93464,1,0,0:0:0:0:
182,192,93540,1,0,0:0:0:0:
109,192,93617,1,0,0:0:0:0:
402,192,93617,1,0,0:0:0:0:
329,192,93770,1,0,0:0:0:0:
402,192,93847,1,0,0:0:0:0:
475,192,93923,1,0,0:0:0:0:
182,192,93923,1,0,0:0:0:0:
36,192,94076,1,0,0:0:0:0:
109,192,94153,1,0,0:0:0:0:
182,192,94229,1,0,0:0:0:0:
329,192,94229,1,0,0:0:0:0:
109,192,94382,1,0,0:0:0:0:
475,192,94382,1,0,0:0:0:0:
402,192,94459,1,0,0:0:0:0:
329,192,94535,1,0,0:0:0:0:
36,192,94535,1,0,0:0:0:0:
109,192,94688,1,0,0:0:0:0:
182,192,94739,1,0,0:0:0:0:
256,192,94790,1,0,0:0:0:0:
329,192,94841,1,0,0:0:0:0:
402,192,94841,1,0,0:0:0:0:
182,192,94995,1,0,0:0:0:0:
109,192,95071,1,0,0:0:0:0:
36,192,95148,1,0,0:0:0:0:
475,192,95148,1,0,0:0:0:0:
182,192,95301,1,0,0:0:0:0:
256,192,95377,1,0,0:0:0:0:
329,192,95454,1,0,0:0:0:0:
36,192,95454,1,0,0:0:0:0:
109,192,95454,1,0,0:0:0:0:
402,192,95607,1,0,0:0:0:0:
475,192,95607,1,0,0:0:0:0:
182,192,95760,1,0,0:0:0:0:
109,192,95760,1,0,0:0:0:0:
329,192,95913,1,0,0:0:0:0:
402,192,95913,1,0,0:0:0:0:
36,192,96066,1,0,0:0:0:0:
109,192,96066,1,0,0:0:0:0:
182,192,96219,1,0,0:0:0:0:
256,192,96296,1,0,0:0:0:0:
329,192,96372,1,0,0:0:0:0:
475,192,96372,1,0,0:0:0:0:
402,192,96372,1,0,0:0:0:0:
36,192,96525,1,0,0:0:0:0:
109,192,96602,1,0,0:0:0:0:
182,192,96678,1,0,0:0:0:0:
256,192,96755,1,0,0:0:0:0:
329,192,96831,1,0,0:0:0:0:
402,192,96908,1,0,0:0:0:0:
475,192,96984,1,0,0:0:0:0:
329,192,97061,1,0,0:0:0:0:
256,192,97137,1,0,0:0:0:0:
182,192,97214,1,0,0:0:0:0:
36,192,97290,1,0,0:0:0:0:
475,192,97290,1,0,0:0:0:0:
109,192,97290,1,0,0:0:0:0:
182,192,97444,1,0,0:0:0:0:
256,192,97520,1,0,0:0:0:0:
329,192,97597,1,0,0:0:0:0:
402,192,97673,1,0,0:0:0:0:
109,192,97750,1,0,0:0:0:0:
182,192,97826,1,0,0:0:0:0:
256,192,97903,1,0,0:0:0:0:
329,192,97979,5,0,0:0:0:0:
402,192,98056,1,0,0:0:0:0:
475,192,98132,1,0,0:0:0:0:
329,192,98209,1,0,0:0:0:0:
36,192,98209,1,0,0:0:0:0:
109,192,98209,1,0,0:0:0:0:
109,192,98515,1,0,0:0:0:0:
329,192,98515,1,0,0:0:0:0:
36,192,98515,1,0,0:0:0:0:
182,192,98821,1,0,0:0:0:0:
475,192,98821,1,0,0:0:0:0:
402,192,98821,1,0,0:0:0:0:
36,192,99127,5,0,0:0:0:0:
475,192,99127,1,0,0:0:0:0:
256,192,99127,1,0,0:0:0:0:
36,192,99280,1,0,0:0:0:0:
475,192,99280,1,0,0:0:0:0:
36,192,99586,1,0,0:0:0:0:
475,192,99586,1,0,0:0:0:0:
36,192,99739,1,0,0:0:0:0:
475,192,99739,1,0,0:0:0:0:
36,192,100046,1,0,0:0:0:0:
475,192,100046,1,0,0:0:0:0:
256,192,100658,1,0,0:0:0:0:
109,192,100964,1,0,0:0:0:0:
402,192,100964,1,0,0:0:0:0:
109,192,101117,1,0,0:0:0:0:
402,192,101117,1,0,0:0:0:0:
109,192,101423,1,0,0:0:0:0:
402,192,101423,1,0,0:0:0:0:
402,192,101576,1,0,0:0:0:0:
109,192,101576,1,0,0:0:0:0:
109,192,101882,1,0,0:0:0:0:
402,192,101882,1,0,0:0:0:0:
36,192,102495,128,0,102801:0:0:0:0:
182,192,102801,1,0,0:0:0:0:
475,192,102801,1,0,0:0:0:0:
329,192,102801,1,0,0:0:0:0:
182,192,102954,1,0,0:0:0:0:
475,192,102954,1,0,0:0:0:0:
182,192,103260,1,0,0:0:0:0:
475,192,103260,1,0,0:0:0:0:
182,192,103413,1,0,0:0:0:0:
475,192,103413,1,0,0:0:0:0:
475,192,103719,1,0,0:0:0:0:
182,192,103719,1,0,0:0:0:0:
256,192,104331,1,0,0:0:0:0:
329,192,104637,1,0,0:0:0:0:
36,192,104637,1,0,0:0:0:0:
329,192,104790,1,0,0:0:0:0:
36,192,104790,1,0,0:0:0:0:
36,192,105097,1,0,0:0:0:0:
329,192,105097,1,0,0:0:0:0:
36,192,105250,1,0,0:0:0:0:
329,192,105250,1,0,0:0:0:0:
36,192,105403,5,0,0:0:0:0:
329,192,105403,1,0,0:0:0:0:
109,192,105556,1,0,0:0:0:0:
402,192,105556,1,0,0:0:0:0:
329,192,105709,1,0,0:0:0:0:
256,192,105785,1,0,0:0:0:0:
182,192,105862,1,0,0:0:0:0:
475,192,106015,1,0,0:0:0:0:
402,192,106091,1,0,0:0:0:0:
329,192,106168,1,0,0:0:0:0:
256,192,106245,1,0,0:0:0:0:
182,192,106321,1,0,0:0:0:0:
109,192,106398,1,0,0:0:0:0:
36,192,106474,5,0,0:0:0:0:
402,192,106474,1,0,0:0:0:0:
475,192,106474,1,0,0:0:0:0:
182,192,106627,1,0,0:0:0:0:
256,192,106704,1,0,0:0:0:0:
109,192,106780,1,0,0:0:0:0:
329,192,106780,1,0,0:0:0:0:
256,192,106933,1,0,0:0:0:0:
329,192,107010,1,0,0:0:0:0:
182,192,107086,1,0,0:0:0:0:
402,192,107086,1,0,0:0:0:0:
329,192,107239,1,0,0:0:0:0:
402,192,107316,1,0,0:0:0:0:
475,192,107393,1,0,0:0:0:0:
109,192,107393,1,0,0:0:0:0:
329,192,107546,1,0,0:0:0:0:
256,192,107622,1,0,0:0:0:0:
402,192,107699,1,0,0:0:0:0:
182,192,107699,1,0,0:0:0:0:
256,192,107852,1,0,0:0:0:0:
182,192,107928,1,0,0:0:0:0:
329,192,108005,1,0,0:0:0:0:
109,192,108005,1,0,0:0:0:0:
182,192,108158,1,0,0:0:0:0:
109,192,108234,1,0,0:0:0:0:
36,192,108311,1,0,0:0:0:0:
402,192,108311,1,0,0:0:0:0:
256,192,108464,1,0,0:0:0:0:
329,192,108540,1,0,0:0:0:0:
109,192,108617,1,0,0:0:0:0:
402,192,108617,1,0,0:0:0:0:
182,192,108770,1,0,0:0:0:0:
256,192,108847,1,0,0:0:0:0:
329,192,108923,1,0,0:0:0:0:
109,192,108923,1,0,0:0:0:0:
475,192,109076,1,0,0:0:0:0:
402,192,109153,1,0,0:0:0:0:
36,192,109229,1,0,0:0:0:0:
329,192,109229,1,0,0:0:0:0:
256,192,109382,1,0,0:0:0:0:
182,192,109459,1,0,0:0:0:0:
109,192,109535,1,0,0:0:0:0:
402,192,109535,1,0,0:0:0:0:
329,192,109688,1,0,0:0:0:0:
256,192,109765,1,0,0:0:0:0:
182,192,109841,1,0,0:0:0:0:
402,192,109841,1,0,0:0:0:0:
36,192,109995,1,0,0:0:0:0:
109,192,110071,1,0,0:0:0:0:
475,192,110148,1,0,0:0:0:0:
182,192,110148,1,0,0:0:0:0:
402,192,110148,1,0,0:0:0:0:
329,192,110301,1,0,0:0:0:0:
256,192,110377,1,0,0:0:0:0:
182,192,110454,1,0,0:0:0:0:
36,192,110607,1,0,0:0:0:0:
109,192,110683,1,0,0:0:0:0:
182,192,110760,1,0,0:0:0:0:
329,192,110913,1,0,0:0:0:0:
402,192,110989,1,0,0:0:0:0:
36,192,111066,1,0,0:0:0:0:
475,192,111066,1,0,0:0:0:0:
109,192,111143,1,0,0:0:0:0:
182,192,111219,1,0,0:0:0:0:
256,192,111296,1,0,0:0:0:0:
475,192,111372,1,0,0:0:0:0:
402,192,111449,1,0,0:0:0:0:
329,192,111525,1,0,0:0:0:0:
256,192,111602,1,0,0:0:0:0:
36,192,111678,1,0,0:0:0:0:
109,192,111755,1,0,0:0:0:0:
182,192,111831,1,0,0:0:0:0:
256,192,111908,1,0,0:0:0:0:
36,192,111984,1,0,0:0:0:0:
475,192,111984,1,0,0:0:0:0:
402,192,112061,1,0,0:0:0:0:
329,192,112137,1,0,0:0:0:0:
256,192,112214,1,0,0:0:0:0:
182,192,112290,1,0,0:0:0:0:
36,192,112290,1,0,0:0:0:0:
329,192,112444,1,0,0:0:0:0:
256,192,112520,1,0,0:0:0:0:
182,192,112597,1,0,0:0:0:0:
475,192,112597,1,0,0:0:0:0:
109,192,112673,1,0,0:0:0:0:
36,192,112750,1,0,0:0:0:0:
475,192,112903,1,0,0:0:0:0:
182,192,112903,1,0,0:0:0:0:
402,192,112979,1,0,0:0:0:0:
329,192,113056,1,0,0:0:0:0:
256,192,113132,1,0,0:0:0:0:
182,192,113209,1,0,0:0:0:0:
36,192,113209,1,0,0:0:0:0:
109,192,113362,1,0,0:0:0:0:
182,192,113438,1,0,0:0:0:0:
256,192,113515,1,0,0:0:0:0:
475,192,113515,1,0,0:0:0:0:
402,192,113591,1,0,0:0:0:0:
329,192,113668,1,0,0:0:0:0:
256,192,113745,1,0,0:0:0:0:
36,192,113821,5,0,0:0:0:0:
182,192,113821,1,0,0:0:0:0:
475,192,113821,1,0,0:0:0:0:
109,192,113974,1,0,0:0:0:0:
182,192,114127,1,0,0:0:0:0:
329,192,114280,1,0,0:0:0:0:
402,192,114433,1,0,0:0:0:0:
475,192,114586,1,0,0:0:0:0:
36,192,114739,1,0,0:0:0:0:
109,192,114893,1,0,0:0:0:0:
182,192,115046,1,0,0:0:0:0:
329,192,115199,1,0,0:0:0:0:
402,192,115352,1,0,0:0:0:0:
475,192,115505,1,0,0:0:0:0:
36,192,115658,1,0,0:0:0:0:
109,192,115815,1,0,0:0:0:0:
182,192,115973,1,0,0:0:0:0:
329,192,116131,1,0,0:0:0:0:
402,192,116289,1,0,0:0:0:0:
475,192,116447,1,0,0:0:0:0:
36,192,116605,1,0,0:0:0:0:
109,192,116768,1,0,0:0:0:0:
182,192,116931,1,0,0:0:0:0:
329,192,117094,1,0,0:0:0:0:
402,192,117262,1,0,0:0:0:0:
475,192,117436,1,0,0:0:0:0:
36,192,117616,1,0,0:0:0:0:
182,192,117644,1,0,0:0:0:0:
329,192,117672,1,0,0:0:0:0:
475,192,117700,1,0,0:0:0:0:
