osu file format v14

[General]
AudioFilename: 14 Akasha.mp3
AudioLeadIn: 0
PreviewTime: 21760
Countdown: 0
SampleSet: Soft
StackLeniency: 0.2
Mode: 0
LetterboxInBreaks: 0
WidescreenStoryboard: 0

[Editor]
Bookmarks: 20868,27030,42598,87030,109084,139895,171354,212868
DistanceSpacing: 0.6
BeatDivisor: 4
GridSize: 8
TimelineZoom: 1.8

[Metadata]
Title:Akasha
TitleUnicode:Akasha
Artist:xi
ArtistUnicode:xi
Creator:Midge
Version:Falling
Source:
Tags:streams i'm copying fanzhen ?!??! idunno
BeatmapID:656916
BeatmapSetID:291784

[Difficulty]
HPDrainRate:6
CircleSize:4
OverallDifficulty:8
ApproachRate:9.4
SliderMultiplier:1.4
SliderTickRate:1

[Events]
//Background and Video events
0,0,"grand_eclipse_by_justv23-d7ihrmx.jpg",0,0
//Break Periods
//Storyboard Layer 0 (Background)
//Storyboard Layer 1 (Fail)
//Storyboard Layer 2 (Pass)
//Storyboard Layer 3 (Foreground)
//Storyboard Sound Samples

[TimingPoints]
1409,324.324324324324,4,2,0,70,1,0
22165,-200,4,2,0,70,0,0
42922,-66.6666666666667,4,2,0,70,0,1
43408,-57.1428571428571,4,2,0,70,0,1
43733,-100,4,2,0,70,0,1
44868,-66.6666666666667,4,2,0,70,0,1
45030,-57.1428571428571,4,2,0,70,0,1
45354,-50,4,2,0,70,0,1
48598,-66.6666666666667,4,2,0,70,0,1
55408,-66.6666666666667,4,2,0,70,0,1
55733,-57.1428571428571,4,2,0,70,0,1
56057,-50,4,2,0,70,0,1
56381,-100,4,2,0,70,0,1
57679,-66.6666666666667,4,2,0,70,0,1
58003,-57.1428571428571,4,2,0,70,0,1
58327,-50,4,2,0,70,0,1
63679,-66.6666666666667,4,2,0,70,0,0
66273,-50,4,2,0,70,0,1
66354,-50,4,2,0,70,0,0
73733,-66.6666666666667,4,2,0,70,0,0
74057,-50,4,2,0,70,0,0
75030,-66.6666666666667,4,2,0,70,0,0
75354,-80,4,2,0,70,0,0
75679,-100,4,2,0,70,0,0
76652,-50,4,2,0,70,0,1
76733,-50,4,2,0,70,0,0
85733,-66.6666666666667,4,2,0,70,0,0
86057,-57.1428571428571,4,2,0,70,0,0
86381,-50,4,2,0,70,0,0
88327,-50,4,2,0,70,0,1
103571,-66.6666666666667,4,2,0,70,0,1
108436,-80,4,2,0,70,0,1
108598,-66.6666666666667,4,2,0,70,0,1
108760,-57.1428571428571,4,2,0,70,0,1
108922,-50,4,2,0,70,0,1
109003,-50,4,2,0,70,0,0
109084,-50,4,2,0,70,0,1
109165,-50,4,2,0,70,0,0
119463,-50,4,2,0,70,0,1
119544,-50,4,2,0,70,0,0
129841,-50,4,2,0,70,0,1
129922,-50,4,2,0,70,0,0
132111,-200,4,2,0,70,0,0
140219,-100,4,2,0,70,0,1
140300,-100,4,2,0,70,0,0
146219,-66.6666666666667,4,2,0,70,0,0
146544,-50,4,2,0,70,0,0
146706,-100,4,2,0,70,0,0
150598,-100,4,2,0,70,0,1
150841,-50,4,2,0,70,0,1
170706,-200,4,2,0,70,0,1
171273,-200,4,2,0,70,0,0
171354,-200,4,2,0,70,0,1
171436,-200,4,2,0,70,0,0
179625,-133.333333333333,4,2,0,70,0,0
180273,-100,4,2,0,70,0,0
181733,-133.333333333333,4,2,0,70,0,0
182057,-50,4,2,0,70,0,1
182138,-50,4,2,0,70,0,0
192111,-50,4,2,0,70,0,1
192192,-50,4,2,0,70,0,0
200868,-100,4,2,0,70,0,0
201192,-66.6666666666667,4,2,0,70,0,0
201517,-80,4,2,0,70,0,0
201841,-50,4,2,0,70,0,0
202490,-50,4,2,0,70,0,1
202571,-50,4,2,0,70,0,0
212868,-50,4,2,0,70,0,1
254381,-200,4,2,0,70,0,0
254706,-200,4,2,0,70,0,1
254787,-200,4,2,0,70,0,0

[HitObjects]
112,246,21841,5,0,0:0:0:0:
126,234,21922,1,0,0:0:0:0:
139,210,22003,1,0,0:0:0:0:
139,169,22084,1,0,0:0:0:0:
106,130,22165,6,0,B|72:108|41:113|18:135|11:168|29:199|55:216|102:199|105:198|113:147|137:121|156:116,1,262.5
146,120,23463,2,0,B|198:112|226:59|226:59|242:100|281:143|341:123|341:123|407:98|478:120|505:169|516:238|511:353|354:352|297:313|276:235|293:138|425:123|442:206|402:228|383:213,1,770
246,298,27192,1,0,0:0:0:0:
112,214,27354,6,0,B|94:221|68:198|87:165|110:149|159:152|178:183|173:222|175:256|184:290|193:307|225:319|249:311|246:295,1,280
67,101,29625,5,0,0:0:0:0:
133,195,29787,1,0,0:0:0:0:
270,196,29949,2,0,B|286:174|344:168|403:181|435:240|425:291|403:319|357:327|334:301|345:276|358:271,1,280
349,62,32057,5,0,0:0:0:0:
308,128,32219,1,0,0:0:0:0:
316,20,32381,1,0,0:0:0:0:
308,128,32544,2,0,B|340:180|306:226|306:226|271:273|317:333,1,210
308,128,33841,6,0,B|278:195|216:227|136:218|64:172|70:101|115:49|201:53|272:98|201:171|176:223|172:252|181:268,1,490
281,320,36273,1,0,0:0:0:0:
307,128,36436,6,0,P|321:82|377:43,1,105
379,202,37084,6,0,L|344:206,1,35
227,171,37408,6,0,L|198:175,1,17.5
162,238,37571,2,0,L|133:242,1,17.5
84,319,37733,6,0,P|145:277|347:295,1,280
298,181,40003,5,0,0:0:0:0:
348,302,40165,1,0,0:0:0:0:
216,178,40327,2,0,B|171:156|100:149|70:196|72:232|98:254|118:247|125:229,1,210
56,133,41625,2,0,P|31:164|52:294,1,175
56,133,42598,5,0,0:0:0:0:
62,151,42679,1,0,0:0:0:0:
86,175,42760,1,0,0:0:0:0:
133,188,42841,1,0,0:0:0:0:
190,173,42922,6,0,P|241:145|296:147,1,105.000004005432
190,173,43165,5,0,0:0:0:0:
232,119,43246,1,0,0:0:0:0:
300,79,43327,1,0,0:0:0:0:
383,78,43408,6,0,P|445:101|496:179,1,122.500001168251
304,193,43733,6,0,L|252:182,1,35
209,256,43895,5,0,0:0:0:0:
174,248,43976,1,0,0:0:0:0:
129,258,44057,1,0,0:0:0:0:
91,289,44138,1,0,0:0:0:0:
60,353,44219,5,0,0:0:0:0:
95,338,44300,1,0,0:0:0:0:
114,304,44381,1,0,0:0:0:0:
106,265,44463,1,0,0:0:0:0:
54,186,44544,5,0,0:0:0:0:
38,132,44625,1,0,0:0:0:0:
51,77,44706,1,0,0:0:0:0:
90,37,44787,1,0,0:0:0:0:
187,11,44868,6,0,L|256:-1,1,52.5000020027161
131,123,45030,6,0,P|200:57|257:51,1,122.500001168251
225,142,45273,1,0,0:0:0:0:
131,123,45354,6,0,P|203:75|280:80,1,140
446,228,45679,2,0,B|436:237|436:237|415:233|415:233|394:254|319:251|302:193,1,140
131,123,46003,5,0,0:0:0:0:
162,108,46084,1,0,0:0:0:0:
242,121,46165,5,0,0:0:0:0:
273,106,46246,1,0,0:0:0:0:
371,115,46327,5,0,0:0:0:0:
340,130,46408,1,0,0:0:0:0:
278,205,46490,5,0,0:0:0:0:
264,207,46571,1,0,0:0:0:0:
270,215,46652,1,0,0:0:0:0:
256,217,46733,1,0,0:0:0:0:
261,226,46814,5,0,0:0:0:0:
126,327,46976,1,0,0:0:0:0:
225,113,47138,1,0,0:0:0:0:
316,324,47300,6,0,P|370:345|446:237,1,210
316,324,47625,2,0,B|299:353|299:353|262:333|185:335,1,140
316,324,47949,6,0,P|269:260|195:260,1,140
86,325,48273,5,0,0:0:0:0:
233,332,48436,1,0,0:0:0:0:
88,159,48598,2,0,P|42:188|104:176,1,157.500006008148
88,159,48922,5,0,0:0:0:0:
62,141,49003,1,0,0:0:0:0:
88,159,49084,5,0,0:0:0:0:
106,148,49165,1,0,0:0:0:0:
126,142,49246,1,0,0:0:0:0:
146,142,49327,1,0,0:0:0:0:
165,148,49408,5,0,0:0:0:0:
209,118,49490,1,0,0:0:0:0:
261,114,49571,1,0,0:0:0:0:
308,136,49652,1,0,0:0:0:0:
294,201,49733,5,0,0:0:0:0:
275,157,49814,1,0,0:0:0:0:
277,109,49895,1,0,0:0:0:0:
304,70,49976,1,0,0:0:0:0:
344,45,50057,5,0,0:0:0:0:
386,91,50138,1,0,0:0:0:0:
398,152,50219,1,0,0:0:0:0:
389,214,50300,1,0,0:0:0:0:
367,273,50381,5,0,0:0:0:0:
422,223,50463,1,0,0:0:0:0:
443,152,50544,1,0,0:0:0:0:
443,78,50625,1,0,0:0:0:0:
419,8,50706,5,0,0:0:0:0:
407,48,50787,1,0,0:0:0:0:
395,88,50868,1,0,0:0:0:0:
383,128,50949,1,0,0:0:0:0:
302,153,51030,5,0,0:0:0:0:
314,113,51111,1,0,0:0:0:0:
326,73,51192,1,0,0:0:0:0:
338,33,51273,1,0,0:0:0:0:
255,48,51354,5,0,0:0:0:0:
233,108,51436,1,0,0:0:0:0:
212,167,51517,1,0,0:0:0:0:
191,226,51598,1,0,0:0:0:0:
98,247,51679,5,0,0:0:0:0:
119,188,51760,1,0,0:0:0:0:
140,129,51841,1,0,0:0:0:0:
162,69,51923,1,0,0:0:0:0:
73,83,52003,5,0,0:0:0:0:
19,133,52084,1,0,0:0:0:0:
9,200,52165,1,0,0:0:0:0:
28,259,52246,1,0,0:0:0:0:
75,292,52327,5,0,0:0:0:0:
122,269,52408,1,0,0:0:0:0:
169,264,52490,1,0,0:0:0:0:
214,274,52571,1,0,0:0:0:0:
251,334,52652,5,0,0:0:0:0:
217,317,52733,1,0,0:0:0:0:
199,290,52814,1,0,0:0:0:0:
195,265,52895,1,0,0:0:0:0:
249,199,52976,5,0,0:0:0:0:
259,180,53057,1,0,0:0:0:0:
261,164,53138,1,0,0:0:0:0:
257,154,53219,1,0,0:0:0:0:
197,96,53300,6,0,P|180:43|201:-4,1,105.000004005432
297,76,53544,5,0,0:0:0:0:
262,67,53625,1,0,0:0:0:0:
226,73,53706,1,0,0:0:0:0:
197,96,53787,6,0,P|131:137|80:127,1,105.000004005432
301,168,54111,5,0,0:0:0:0:
311,166,54192,1,0,0:0:0:0:
379,207,54273,5,0,0:0:0:0:
410,188,54354,1,0,0:0:0:0:
446,179,54436,1,0,0:0:0:0:
482,180,54517,1,0,0:0:0:0:
451,262,54598,5,0,0:0:0:0:
399,235,54679,1,0,0:0:0:0:
341,228,54760,1,0,0:0:0:0:
286,246,54841,1,0,0:0:0:0:
344,293,54922,5,0,0:0:0:0:
286,246,55003,1,0,0:0:0:0:
213,232,55084,1,0,0:0:0:0:
139,239,55165,1,0,0:0:0:0:
74,273,55246,5,0,0:0:0:0:
56,265,55327,1,0,0:0:0:0:
20,201,55408,6,0,P|66:165|152:158,1,105.000004005432
24,284,55733,6,0,P|64:195|118:169,1,122.500001168251
97,346,56057,6,0,P|66:259|95:194,1,140
248,67,56381,6,0,L|229:120,1,35
352,168,56544,5,0,0:0:0:0:
290,200,56625,1,0,0:0:0:0:
355,206,56706,5,0,0:0:0:0:
332,238,56787,1,0,0:0:0:0:
387,234,56868,5,0,0:0:0:0:
387,251,56949,1,0,0:0:0:0:
436,248,57030,5,0,0:0:0:0:
436,248,57111,1,0,0:0:0:0:
488,238,57192,5,0,0:0:0:0:
228,275,57354,1,0,0:0:0:0:
375,92,57517,1,0,0:0:0:0:
333,331,57679,6,0,P|381:350|346:287,1,157.500006008148
364,281,58003,6,0,P|429:293|380:367,1,183.750001752377
383,367,58327,6,0,P|477:342|427:261,1,210
460,249,58652,1,0,0:0:0:0:
196,295,58814,1,0,0:0:0:0:
322,94,58976,2,0,B|363:74|363:74|467:72,1,140
322,94,59300,5,0,0:0:0:0:
338,71,59381,1,0,0:0:0:0:
354,47,59463,5,0,0:0:0:0:
347,50,59544,1,0,0:0:0:0:
333,52,59625,1,0,0:0:0:0:
312,51,59706,1,0,0:0:0:0:
221,37,59787,5,0,0:0:0:0:
194,28,59868,1,0,0:0:0:0:
159,30,59949,1,0,0:0:0:0:
123,51,60030,1,0,0:0:0:0:
60,131,60111,5,0,0:0:0:0:
96,153,60192,1,0,0:0:0:0:
141,160,60273,1,0,0:0:0:0:
188,147,60354,1,0,0:0:0:0:
266,229,60436,5,0,0:0:0:0:
286,276,60517,1,0,0:0:0:0:
330,310,60598,1,0,0:0:0:0:
394,323,60679,1,0,0:0:0:0:
461,292,60760,5,0,0:0:0:0:
397,253,60841,1,0,0:0:0:0:
321,264,60922,1,0,0:0:0:0:
256,313,61003,1,0,0:0:0:0:
199,379,61084,5,0,0:0:0:0:
191,359,61165,1,0,0:0:0:0:
178,341,61246,1,0,0:0:0:0:
160,329,61327,1,0,0:0:0:0:
139,324,61408,1,0,0:0:0:0:
135,303,61490,1,0,0:0:0:0:
147,285,61571,1,0,0:0:0:0:
165,274,61652,1,0,0:0:0:0:
185,271,61733,5,0,0:0:0:0:
230,252,61814,1,0,0:0:0:0:
258,212,61895,1,0,0:0:0:0:
268,164,61976,1,0,0:0:0:0:
255,116,62057,1,0,0:0:0:0:
278,72,62138,1,0,0:0:0:0:
326,70,62219,1,0,0:0:0:0:
353,110,62300,1,0,0:0:0:0:
325,150,62381,5,0,0:0:0:0:
249,169,62463,1,0,0:0:0:0:
175,146,62544,1,0,0:0:0:0:
133,81,62625,1,0,0:0:0:0:
113,110,62706,5,0,0:0:0:0:
94,139,62787,1,0,0:0:0:0:
75,168,62868,1,0,0:0:0:0:
56,197,62949,1,0,0:0:0:0:
86,271,63030,5,0,0:0:0:0:
159,293,63111,1,0,0:0:0:0:
235,288,63192,1,0,0:0:0:0:
305,257,63273,1,0,0:0:0:0:
314,275,63354,5,0,0:0:0:0:
323,293,63436,1,0,0:0:0:0:
332,311,63517,1,0,0:0:0:0:
342,329,63598,1,0,0:0:0:0:
425,368,63679,5,0,0:0:0:0:
192,272,65949,5,0,0:0:0:0:
205,267,66030,1,0,0:0:0:0:
218,262,66111,1,0,0:0:0:0:
231,258,66192,1,0,0:0:0:0:
245,254,66273,6,0,P|329:218|362:166,1,140
152,148,66517,2,0,P|102:205|72:296,1,140
255,148,66760,2,0,L|246:58,1,70
192,299,66922,6,0,B|178:304|178:323|190:336|211:330|215:313|240:274|309:279,1,140
484,294,67165,2,0,P|399:273|354:187,1,140
367,91,67408,2,0,L|366:13,1,70
363,217,67571,6,0,P|416:280|428:349,1,140
183,257,67814,2,0,P|241:170|327:149,1,140
249,303,68057,2,0,L|192:355,1,70
119,151,68219,6,0,P|222:127|273:142,1,140
425,310,68463,2,0,P|349:229|327:193,1,140
366,52,68706,2,0,L|342:127,1,70
140,313,68868,5,0,0:0:0:0:
289,60,69111,1,0,0:0:0:0:
424,275,69354,1,0,0:0:0:0:
137,169,69517,5,0,0:0:0:0:
445,23,69760,1,0,0:0:0:0:
293,373,70003,1,0,0:0:0:0:
235,56,70165,6,0,P|297:43|379:84,1,140
188,323,70408,2,0,B|153:281|162:219|162:219|193:191,1,140
423,174,70652,6,0,P|452:234|345:187,1,280
491,217,71138,5,0,0:0:0:0:
493,230,71219,1,0,0:0:0:0:
487,242,71300,1,0,0:0:0:0:
477,252,71381,1,0,0:0:0:0:
463,257,71463,6,0,P|387:216|390:167,1,140
320,301,71706,2,0,P|275:336|177:359,1,140
73,336,71949,2,0,P|107:314|121:269,1,70
115,101,72111,6,0,P|139:173|221:186,1,140
325,5,72354,2,0,P|254:20|194:85,1,140
108,237,72598,2,0,L|89:321,1,70
263,176,72760,6,0,P|261:241|314:321,1,140
312,188,73003,2,0,P|232:92|199:86,1,140
221,236,73246,6,0,P|279:306|403:301,1,210
442,363,73571,2,0,P|487:357|512:360,1,70
327,289,73733,6,0,P|272:249|255:161,1,157.500006008148
334,275,74057,6,0,P|301:193|386:87,1,210
243,95,74381,1,0,0:0:0:0:
474,135,74544,5,0,0:0:0:0:
486,151,74625,1,0,0:0:0:0:
491,171,74706,2,0,B|501:197|501:197|471:178|411:170|344:195|314:223,1,210
259,323,75030,6,0,P|293:278|271:171,1,157.500006008148
90,220,75354,6,0,L|231:244,1,131.25
3,291,75679,6,0,L|110:310,1,105
179,153,76003,5,0,0:0:0:0:
185,150,76084,1,0,0:0:0:0:
191,147,76165,1,0,0:0:0:0:
197,144,76246,1,0,0:0:0:0:
270,166,76327,5,0,0:0:0:0:
304,170,76408,1,0,0:0:0:0:
359,161,76490,1,0,0:0:0:0:
422,128,76571,1,0,0:0:0:0:
462,60,76652,6,0,P|404:46|317:62,1,140
221,225,76895,2,0,P|311:217|364:196,1,140
401,72,77138,2,0,L|336:103,1,70
220,263,77300,6,0,P|154:283|78:218,1,140
288,197,77544,2,0,L|406:294,1,140
164,207,77787,2,0,L|154:131,1,70
58,324,77949,6,0,P|80:234|71:157,1,140
176,242,78192,2,0,P|211:154|222:55,1,140
308,53,78436,2,0,L|326:125,1,70
399,265,78598,6,0,P|424:303|422:243,1,140
282,237,78841,2,0,L|205:364,1,140
354,201,79084,2,0,L|364:73,1,70
145,115,79246,6,0,B|157:180|207:202|251:185|225:148|208:153,1,140
39,258,79490,2,0,P|125:248|193:204,1,140
225,77,79733,2,0,L|241:8,1,70
295,183,79895,6,0,P|374:259|453:286,1,140
248,252,80138,2,0,P|258:168|195:87,1,140
111,214,80381,2,0,L|162:151,1,70
165,20,80544,6,0,P|127:87|151:202,1,140
236,215,80787,2,0,L|298:340,1,140
327,211,81030,2,0,P|383:80|441:73,1,210
421,105,81354,2,0,L|353:135,1,70
272,82,81517,6,0,P|343:22|416:-6,1,140
397,9,81760,1,0,0:0:0:0:
408,16,81841,1,0,0:0:0:0:
319,98,82976,5,0,0:0:0:0:
328,124,83057,1,0,0:0:0:0:
336,150,83138,1,0,0:0:0:0:
185,176,84273,5,0,0:0:0:0:
185,224,84354,1,0,0:0:0:0:
185,273,84436,1,0,0:0:0:0:
251,38,84598,1,0,0:0:0:0:
59,223,84922,5,0,0:0:0:0:
41,283,85003,1,0,0:0:0:0:
23,343,85084,1,0,0:0:0:0:
131,73,85246,1,0,0:0:0:0:
131,73,85571,6,0,L|111:39,2,35
251,174,85733,6,0,P|291:213|366:222,1,105.000004005432
241,132,85976,1,0,0:0:0:0:
251,174,86057,6,0,P|271:240|336:304,1,122.500001168251
261,109,86300,1,0,0:0:0:0:
251,174,86381,6,0,P|261:293|294:354,1,140
278,94,86625,1,0,0:0:0:0:
329,35,86706,1,0,0:0:0:0:
354,25,86868,2,0,L|331:57,2,35
455,114,87030,5,0,0:0:0:0:
429,103,87111,1,0,0:0:0:0:
401,104,87192,1,0,0:0:0:0:
375,114,87273,1,0,0:0:0:0:
376,160,87354,5,0,0:0:0:0:
326,119,87436,1,0,0:0:0:0:
263,120,87517,1,0,0:0:0:0:
212,157,87598,1,0,0:0:0:0:
197,218,87679,5,0,0:0:0:0:
191,245,87760,1,0,0:0:0:0:
185,272,87841,1,0,0:0:0:0:
179,299,87922,1,0,0:0:0:0:
219,343,88003,5,0,0:0:0:0:
195,284,88084,1,0,0:0:0:0:
171,225,88165,1,0,0:0:0:0:
147,166,88246,1,0,0:0:0:0:
177,81,88327,6,0,P|215:46|331:93,1,140
339,199,88571,2,0,P|258:156|265:85,1,140
325,127,88814,2,0,L|417:113,1,70
325,296,88976,5,0,0:0:0:0:
304,291,89057,1,0,0:0:0:0:
283,286,89138,1,0,0:0:0:0:
262,280,89219,1,0,0:0:0:0:
217,295,89300,5,0,0:0:0:0:
159,268,89381,1,0,0:0:0:0:
132,210,89463,1,0,0:0:0:0:
128,147,89544,1,0,0:0:0:0:
151,88,89625,5,0,0:0:0:0:
194,105,89706,2,0,L|276:88,1,70
451,127,89868,5,0,0:0:0:0:
405,154,89949,2,0,L|345:45,1,70
222,17,90111,2,0,L|194:101,1,70
201,227,90273,5,0,0:0:0:0:
161,275,90354,1,0,0:0:0:0:
105,305,90436,1,0,0:0:0:0:
9,291,90517,5,0,0:0:0:0:
49,243,90598,1,0,0:0:0:0:
105,213,90680,1,0,0:0:0:0:
234,234,90760,6,0,L|332:247,1,70
399,325,90922,5,0,0:0:0:0:
264,103,91165,1,0,0:0:0:0:
76,297,91408,1,0,0:0:0:0:
54,315,91490,1,0,0:0:0:0:
1,327,91571,5,0,0:0:0:0:
25,276,91652,1,0,0:0:0:0:
73,247,91733,1,0,0:0:0:0:
128,244,91814,1,0,0:0:0:0:
174,275,91895,5,0,0:0:0:0:
208,275,91976,1,0,0:0:0:0:
238,257,92057,1,0,0:0:0:0:
251,224,92138,1,0,0:0:0:0:
248,189,92219,6,0,P|182:107|103:115,1,140
21,75,92463,2,0,B|44:80|44:80|95:40|202:-1,1,140
232,83,92706,2,0,L|320:70,1,70
352,170,92868,5,0,0:0:0:0:
398,188,92949,1,0,0:0:0:0:
436,216,93030,1,0,0:0:0:0:
464,255,93111,1,0,0:0:0:0:
429,240,93192,5,0,0:0:0:0:
394,234,93273,1,0,0:0:0:0:
359,241,93354,1,0,0:0:0:0:
328,258,93436,1,0,0:0:0:0:
307,286,93517,5,0,0:0:0:0:
327,288,93598,1,0,0:0:0:0:
354,282,93679,1,0,0:0:0:0:
384,265,93760,1,0,0:0:0:0:
407,230,93841,5,0,0:0:0:0:
417,182,93922,1,0,0:0:0:0:
402,128,94003,1,0,0:0:0:0:
356,84,94084,1,0,0:0:0:0:
310,153,94165,5,0,0:0:0:0:
289,171,94246,1,0,0:0:0:0:
255,180,94327,1,0,0:0:0:0:
214,167,94408,1,0,0:0:0:0:
239,132,94490,5,0,0:0:0:0:
268,179,94571,1,0,0:0:0:0:
270,241,94652,1,0,0:0:0:0:
228,305,94733,1,0,0:0:0:0:
140,340,94814,5,0,0:0:0:0:
65,319,94895,1,0,0:0:0:0:
19,256,94976,2,0,B|14:231|14:231|77:262,1,70
151,232,95138,5,0,0:0:0:0:
135,178,95219,1,0,0:0:0:0:
144,122,95300,2,0,B|149:102|149:102|186:156,1,70
285,134,95463,5,0,0:0:0:0:
309,99,95544,1,0,0:0:0:0:
345,78,95625,2,0,B|363:75|363:75|330:118,1,70
473,200,95787,5,0,0:0:0:0:
427,243,95868,1,0,0:0:0:0:
366,260,95949,1,0,0:0:0:0:
303,264,96030,1,0,0:0:0:0:
242,248,96111,5,0,0:0:0:0:
485,55,96354,1,0,0:0:0:0:
242,248,96598,5,0,0:0:0:0:
230,255,96679,1,0,0:0:0:0:
176,245,96760,5,0,0:0:0:0:
164,252,96841,1,0,0:0:0:0:
152,259,96922,1,0,0:0:0:0:
140,266,97003,1,0,0:0:0:0:
76,250,97084,5,0,0:0:0:0:
120,224,97165,1,0,0:0:0:0:
160,198,97246,1,0,0:0:0:0:
202,172,97327,1,0,0:0:0:0:
291,149,97408,5,0,0:0:0:0:
292,163,97490,1,0,0:0:0:0:
288,176,97571,1,0,0:0:0:0:
281,188,97652,1,0,0:0:0:0:
344,231,97733,5,0,0:0:0:0:
337,196,97814,1,0,0:0:0:0:
343,161,97895,1,0,0:0:0:0:
363,132,97976,1,0,0:0:0:0:
284,97,98057,5,0,0:0:0:0:
292,145,98138,1,0,0:0:0:0:
284,193,98219,1,0,0:0:0:0:
261,236,98300,1,0,0:0:0:0:
359,286,98381,5,0,0:0:0:0:
339,217,98463,1,0,0:0:0:0:
354,148,98544,1,0,0:0:0:0:
391,88,98625,1,0,0:0:0:0:
279,101,98706,6,0,P|245:171|211:195,1,70
60,218,98868,1,0,0:0:0:0:
92,185,98949,2,0,P|123:164|191:162,1,70
279,221,99111,1,0,0:0:0:0:
314,241,99192,2,0,P|374:254|433:238,1,70
483,143,99354,5,0,0:0:0:0:
450,127,99436,1,0,0:0:0:0:
427,100,99517,1,0,0:0:0:0:
419,65,99598,1,0,0:0:0:0:
355,99,99679,5,0,0:0:0:0:
300,112,99760,1,0,0:0:0:0:
244,105,99841,1,0,0:0:0:0:
193,79,99922,1,0,0:0:0:0:
173,1,100003,6,0,P|214:45|194:161,1,140
179,199,100246,2,0,P|250:267|351:253,1,140
351,224,100490,2,0,P|399:238|426:266,1,70
209,296,100652,5,0,0:0:0:0:
174,302,100733,1,0,0:0:0:0:
139,302,100814,1,0,0:0:0:0:
104,293,100895,1,0,0:0:0:0:
131,277,100976,5,0,0:0:0:0:
86,232,101057,1,0,0:0:0:0:
101,171,101138,1,0,0:0:0:0:
157,143,101219,1,0,0:0:0:0:
210,176,101300,5,0,0:0:0:0:
235,187,101381,1,0,0:0:0:0:
263,189,101463,1,0,0:0:0:0:
318,139,101544,5,0,0:0:0:0:
353,160,101625,1,0,0:0:0:0:
394,160,101706,1,0,0:0:0:0:
395,81,101787,5,0,0:0:0:0:
445,104,101868,1,0,0:0:0:0:
499,90,101949,5,0,0:0:0:0:
482,67,102030,1,0,0:0:0:0:
456,55,102111,1,0,0:0:0:0:
428,53,102192,1,0,0:0:0:0:
358,86,102273,5,0,0:0:0:0:
312,54,102354,1,0,0:0:0:0:
255,54,102436,1,0,0:0:0:0:
208,85,102517,1,0,0:0:0:0:
181,134,102598,6,0,P|153:161|96:181,1,70
281,137,102760,5,0,0:0:0:0:
322,132,102841,2,0,B|367:147|367:147|343:147,1,70
110,91,103003,5,0,0:0:0:0:
82,51,103084,2,0,P|56:93|76:150,1,70
182,260,103246,5,0,0:0:0:0:
204,276,103327,1,0,0:0:0:0:
286,267,103408,6,0,L|362:303,1,70
106,191,103571,6,0,L|34:173,1,52.5000020027161
157,249,103733,5,0,0:0:0:0:
182,215,103814,1,0,0:0:0:0:
182,175,103895,5,0,0:0:0:0:
95,108,104057,1,0,0:0:0:0:
241,222,104219,1,0,0:0:0:0:
304,135,104381,1,0,0:0:0:0:
348,101,104463,1,0,0:0:0:0:
401,99,104544,5,0,0:0:0:0:
313,275,104706,1,0,0:0:0:0:
259,62,104868,1,0,0:0:0:0:
472,118,105030,1,0,0:0:0:0:
465,187,105111,1,0,0:0:0:0:
416,236,105192,5,0,0:0:0:0:
232,78,105354,1,0,0:0:0:0:
224,239,105517,1,0,0:0:0:0:
255,43,105679,1,0,0:0:0:0:
206,91,105760,1,0,0:0:0:0:
141,113,105841,5,0,0:0:0:0:
1,0,106003,1,0,0:0:0:0:
315,182,106165,1,0,0:0:0:0:
157,4,106327,1,0,0:0:0:0:
233,16,106408,1,0,0:0:0:0:
296,57,106490,5,0,0:0:0:0:
313,76,106571,1,0,0:0:0:0:
323,100,106652,1,0,0:0:0:0:
328,125,106733,1,0,0:0:0:0:
322,150,106814,1,0,0:0:0:0:
309,173,106895,1,0,0:0:0:0:
289,190,106976,1,0,0:0:0:0:
264,199,107057,1,0,0:0:0:0:
247,186,107138,5,0,0:0:0:0:
215,220,107219,1,0,0:0:0:0:
169,231,107300,1,0,0:0:0:0:
122,222,107381,1,0,0:0:0:0:
85,191,107463,1,0,0:0:0:0:
72,145,107544,1,0,0:0:0:0:
77,98,107625,1,0,0:0:0:0:
112,66,107706,1,0,0:0:0:0:
138,74,107787,5,0,0:0:0:0:
150,119,107868,1,0,0:0:0:0:
223,144,107949,5,0,0:0:0:0:
237,152,108030,1,0,0:0:0:0:
217,226,108111,5,0,0:0:0:0:
243,291,108192,1,0,0:0:0:0:
323,273,108273,5,0,0:0:0:0:
345,281,108354,1,0,0:0:0:0:
391,363,108436,6,0,L|362:369,1,21.875
407,338,108517,2,0,L|378:362,1,21.875
415,297,108598,6,0,L|390:335,1,26.2500010013581
393,246,108679,2,0,L|387:294,1,26.2500010013581
337,207,108760,6,0,L|349:244,1,30.6250002920628
267,180,108841,2,0,L|297:208,1,30.6250002920628
184,185,108922,6,0,L|219:193,1,35
113,234,109003,2,0,L|150:224,1,35
65,311,109084,6,0,P|114:242|83:140,1,140
69,70,109327,2,0,P|74:36|100:84,1,140
14,169,109571,2,0,P|53:164|99:174,1,70
186,257,109733,6,0,B|202:279|202:279|260:260|323:285,1,140
400,372,109976,2,0,P|269:378|231:350,1,140
203,241,110219,2,0,L|178:170,1,70
276,146,110381,6,0,P|285:63|346:53,1,140
344,185,110625,2,0,P|261:177|228:107,1,140
371,171,110868,2,0,L|430:135,1,70
413,250,111030,6,0,B|333:264|333:264|276:319,1,140
146,384,111273,2,0,P|181:278|174:228,1,140
56,221,111517,2,0,L|18:160,1,70
105,34,111679,6,0,L|118:193,1,140
190,273,111922,2,0,P|228:198|313:202,1,140
320,311,112165,2,0,L|243:244,1,70
227,124,112327,6,0,P|282:75|278:107,1,140
141,127,112571,2,0,P|141:47|184:-7,1,140
301,74,112814,2,0,L|383:93,1,70
461,184,112976,6,0,P|397:161|274:217,2,210
342,243,113625,2,0,P|271:239|210:295,1,140
402,375,113949,5,0,0:0:0:0:
384,382,114030,1,0,0:0:0:0:
356,381,114111,1,0,0:0:0:0:
324,365,114192,1,0,0:0:0:0:
296,319,114273,6,0,P|321:245|377:214,1,140
198,288,114517,2,0,P|119:325|48:306,1,140
224,186,114760,2,0,L|307:155,1,70
134,107,114922,6,0,P|107:189|129:254,1,140
217,283,115165,2,0,P|269:267|388:284,1,140
412,170,115408,2,0,L|462:231,1,70
289,122,115571,6,0,B|243:154|183:154|183:154|195:127,1,140
311,48,115814,2,0,P|392:100|425:142,1,140
267,224,116057,2,0,P|151:229|84:92,1,280
157,93,116463,1,0,0:0:0:0:
121,159,116544,6,0,P|139:238|224:275,1,140
366,299,116868,2,0,B|421:276|421:276|476:201,1,140
242,243,117192,1,0,0:0:0:0:
401,318,117354,1,0,0:0:0:0:
437,339,117436,1,0,0:0:0:0:
472,361,117517,6,0,P|434:291|290:243,1,210
287,263,117841,2,0,B|210:280|210:280|125:271,1,140
296,166,118165,6,0,P|353:99|396:84,1,105
399,117,118327,2,0,L|442:121,2,35
205,143,118490,6,0,B|133:180|133:180|99:171,1,105
78,186,118652,2,0,L|33:197,2,35
200,56,118814,5,0,0:0:0:0:
220,61,118895,1,0,0:0:0:0:
238,70,118976,1,0,0:0:0:0:
254,83,119057,1,0,0:0:0:0:
227,131,119138,5,0,0:0:0:0:
234,68,119219,1,0,0:0:0:0:
279,24,119300,1,0,0:0:0:0:
340,11,119381,1,0,0:0:0:0:
391,93,119463,6,0,B|409:100|413:146|359:132|326:102|273:177,1,140
218,257,119706,2,0,P|267:298|340:283,1,140
125,274,119949,2,0,L|63:314,1,70
94,204,120111,6,0,P|151:251|240:231,1,140
92,57,120354,2,0,P|157:120|179:171,1,140
0,51,120598,2,0,L|36:126,1,70
192,94,120760,6,0,P|249:71|325:114,1,140
419,242,121003,2,0,P|361:193|431:164,1,140
289,218,121246,2,0,L|241:277,1,70
365,356,121408,6,0,P|343:266|270:238,1,140
156,219,121652,2,0,B|131:232|131:232|144:181|235:142,1,140
338,113,121895,2,0,L|405:162,1,70
484,97,122057,6,0,P|504:186|448:238,1,140
362,248,122300,2,0,P|317:173|354:101,1,140
478,153,122544,2,0,L|447:229,1,70
120,154,122706,6,0,P|206:50|259:45,1,140
432,233,122949,2,0,P|387:298|293:323,1,140
212,85,123192,2,0,L|311:75,1,70
141,336,123354,6,0,B|133:264|53:231|10:250|5:311|36:333|60:294,2,210
104,233,124003,5,0,0:0:0:0:
181,333,124165,1,0,0:0:0:0:
316,119,124327,2,0,P|391:52|500:74,1,210
335,136,124652,2,0,P|356:32|444:9,1,140
498,231,124976,1,0,0:0:0:0:
318,183,125138,6,0,P|248:107|151:79,1,140
71,177,125463,1,0,0:0:0:0:
338,205,125625,6,0,P|421:146|436:64,1,140
187,209,125949,6,0,P|317:220|359:257,1,140
111,293,126273,2,0,P|27:236|27:173,1,140
319,181,126598,2,0,P|356:258|335:326,1,140
59,112,126922,2,0,P|126:32|182:33,1,140
153,245,127246,5,0,0:0:0:0:
154,259,127327,1,0,0:0:0:0:
167,260,127408,1,0,0:0:0:0:
168,274,127489,1,0,0:0:0:0:
181,277,127571,1,0,0:0:0:0:
182,291,127652,1,0,0:0:0:0:
195,292,127733,1,0,0:0:0:0:
196,306,127814,1,0,0:0:0:0:
241,318,127895,5,0,0:0:0:0:
264,327,127976,1,0,0:0:0:0:
305,325,128057,1,0,0:0:0:0:
346,305,128138,1,0,0:0:0:0:
377,240,128219,5,0,0:0:0:0:
380,165,128300,1,0,0:0:0:0:
335,98,128381,1,0,0:0:0:0:
259,74,128463,1,0,0:0:0:0:
162,106,128544,5,0,0:0:0:0:
411,88,128706,2,0,L|461:84,2,35
125,131,128868,1,0,0:0:0:0:
432,17,129030,6,0,L|475:3,2,35
100,198,129192,1,0,0:0:0:0:
70,216,129273,1,0,0:0:0:0:
35,218,129354,1,0,0:0:0:0:
4,200,129436,1,0,0:0:0:0:
51,160,129517,5,0,0:0:0:0:
106,163,129598,1,0,0:0:0:0:
156,187,129679,1,0,0:0:0:0:
193,228,129760,1,0,0:0:0:0:
203,316,129841,5,0,0:0:0:0:
390,126,131138,5,0,0:0:0:0:
412,32,132111,6,0,L|364:43,1,35
300,115,132436,1,0,0:0:0:0:
390,126,133733,5,0,0:0:0:0:
407,123,134706,5,0,0:0:0:0:
295,206,135031,1,0,0:0:0:0:
215,293,136003,5,0,0:0:0:0:
327,210,136328,1,0,0:0:0:0:
47,319,137300,6,0,L|81:311,1,35
124,243,137625,5,0,0:0:0:0:
96,293,138273,5,0,0:0:0:0:
47,319,138922,5,0,0:0:0:0:
314,316,139895,5,0,0:0:0:0:
337,312,139976,1,0,0:0:0:0:
376,290,140057,1,0,0:0:0:0:
412,238,140138,1,0,0:0:0:0:
422,167,140219,6,0,P|395:135|393:190,1,105
412,238,140544,5,0,0:0:0:0:
416,254,140625,1,0,0:0:0:0:
416,311,140706,1,0,0:0:0:0:
365,355,140787,1,0,0:0:0:0:
284,350,140868,5,0,0:0:0:0:
260,333,140949,1,0,0:0:0:0:
210,316,141030,1,0,0:0:0:0:
148,324,141111,1,0,0:0:0:0:
91,370,141192,5,0,0:0:0:0:
125,309,141273,1,0,0:0:0:0:
131,239,141354,1,0,0:0:0:0:
90,181,141436,1,0,0:0:0:0:
22,161,141517,6,0,P|33:194|93:168,1,105
75,111,141841,5,0,0:0:0:0:
93,90,141922,1,0,0:0:0:0:
137,66,142003,1,0,0:0:0:0:
209,64,142084,1,0,0:0:0:0:
280,113,142165,5,0,0:0:0:0:
366,114,142246,1,0,0:0:0:0:
419,66,142327,1,0,0:0:0:0:
412,19,142408,1,0,0:0:0:0:
387,0,142490,5,0,0:0:0:0:
462,37,142571,1,0,0:0:0:0:
475,108,142652,1,0,0:0:0:0:
461,155,142733,1,0,0:0:0:0:
432,176,142814,6,0,P|380:156|326:166,1,105
333,197,143138,5,0,0:0:0:0:
320,189,143219,1,0,0:0:0:0:
276,176,143300,1,0,0:0:0:0:
203,173,143381,1,0,0:0:0:0:
135,214,143463,6,0,P|103:231|71:232,1,35
228,196,143625,5,0,0:0:0:0:
250,195,143706,1,0,0:0:0:0:
279,165,143787,1,0,0:0:0:0:
281,114,143868,1,0,0:0:0:0:
271,54,143949,1,0,0:0:0:0:
332,0,144030,1,0,0:0:0:0:
436,20,144111,5,0,0:0:0:0:
415,79,144192,1,0,0:0:0:0:
367,120,144273,1,0,0:0:0:0:
307,143,144354,1,0,0:0:0:0:
248,138,144436,5,0,0:0:0:0:
281,159,144517,1,0,0:0:0:0:
320,167,144598,1,0,0:0:0:0:
363,160,144679,1,0,0:0:0:0:
399,142,144760,5,0,0:0:0:0:
387,167,144841,1,0,0:0:0:0:
365,185,144922,1,0,0:0:0:0:
338,194,145003,1,0,0:0:0:0:
309,191,145084,5,0,0:0:0:0:
343,207,145165,1,0,0:0:0:0:
394,199,145246,1,0,0:0:0:0:
446,148,145327,1,0,0:0:0:0:
468,66,145408,6,0,B|473:46|473:46|425:66|371:38,1,105
362,76,145733,5,0,0:0:0:0:
331,86,145814,1,0,0:0:0:0:
283,78,145895,1,0,0:0:0:0:
233,55,145976,1,0,0:0:0:0:
180,4,146057,5,0,0:0:0:0:
187,27,146138,1,0,0:0:0:0:
204,51,146219,2,0,L|249:105,1,52.5000020027161
263,201,146381,5,0,0:0:0:0:
308,220,146462,1,0,0:0:0:0:
357,223,146544,2,0,P|409:205|433:167,1,70
156,17,146706,6,0,L|180:130,1,105
308,222,147030,5,0,0:0:0:0:
323,209,147111,1,0,0:0:0:0:
337,176,147192,1,0,0:0:0:0:
335,135,147273,1,0,0:0:0:0:
291,89,147354,5,0,0:0:0:0:
272,110,147436,1,0,0:0:0:0:
225,128,147517,1,0,0:0:0:0:
155,110,147598,1,0,0:0:0:0:
95,53,147679,5,0,0:0:0:0:
164,50,147760,1,0,0:0:0:0:
219,92,147841,1,0,0:0:0:0:
241,158,147922,1,0,0:0:0:0:
222,225,148003,6,0,B|212:238|212:238|206:179|154:162,1,105
136,238,148327,5,0,0:0:0:0:
144,268,148408,1,0,0:0:0:0:
184,305,148490,1,0,0:0:0:0:
246,303,148571,1,0,0:0:0:0:
301,246,148652,5,0,0:0:0:0:
322,257,148733,1,0,0:0:0:0:
336,276,148814,1,0,0:0:0:0:
339,300,148895,1,0,0:0:0:0:
400,271,148976,5,0,0:0:0:0:
433,252,149057,1,0,0:0:0:0:
471,256,149138,1,0,0:0:0:0:
500,280,149219,1,0,0:0:0:0:
462,341,149300,5,0,0:0:0:0:
455,328,149381,1,0,0:0:0:0:
448,315,149463,1,0,0:0:0:0:
441,302,149544,1,0,0:0:0:0:
434,289,149625,1,0,0:0:0:0:
427,276,149706,1,0,0:0:0:0:
420,263,149787,1,0,0:0:0:0:
413,250,149868,1,0,0:0:0:0:
340,241,149949,5,0,0:0:0:0:
313,208,150030,1,0,0:0:0:0:
287,175,150111,1,0,0:0:0:0:
261,142,150192,1,0,0:0:0:0:
182,152,150273,5,0,0:0:0:0:
129,117,150354,1,0,0:0:0:0:
65,120,150436,1,0,0:0:0:0:
21,165,150517,1,0,0:0:0:0:
0,259,150598,5,0,0:0:0:0:
269,56,150760,5,0,0:0:0:0:
336,61,150841,1,0,0:0:0:0:
381,113,150922,2,0,L|421:175,1,70
238,298,151084,5,0,0:0:0:0:
185,251,151165,1,0,0:0:0:0:
115,241,151246,2,0,L|39:269,1,70
357,354,151408,5,0,0:0:0:0:
365,283,151490,1,0,0:0:0:0:
391,218,151571,2,0,L|451:163,1,70
234,243,151733,2,0,L|182:290,1,70
388,163,151895,5,0,0:0:0:0:
417,145,151976,1,0,0:0:0:0:
451,142,152057,1,0,0:0:0:0:
484,151,152138,1,0,0:0:0:0:
444,213,152219,5,0,0:0:0:0:
392,234,152300,1,0,0:0:0:0:
338,218,152381,1,0,0:0:0:0:
315,166,152463,1,0,0:0:0:0:
307,243,152544,5,0,0:0:0:0:
292,274,152625,1,0,0:0:0:0:
268,299,152706,1,0,0:0:0:0:
235,313,152787,1,0,0:0:0:0:
165,271,152868,5,0,0:0:0:0:
154,280,152949,1,0,0:0:0:0:
144,289,153030,1,0,0:0:0:0:
134,298,153111,1,0,0:0:0:0:
55,305,153192,5,0,0:0:0:0:
184,128,153354,1,0,0:0:0:0:
244,90,153436,1,0,0:0:0:0:
304,54,153517,2,0,B|350:25|350:25|341:50,1,70
223,217,153679,5,0,0:0:0:0:
155,200,153761,1,0,0:0:0:0:
87,180,153842,2,0,B|34:166|34:166|58:155,1,70
339,163,154003,5,0,0:0:0:0:
311,227,154085,1,0,0:0:0:0:
281,291,154166,2,0,B|259:340|259:340|252:315,1,70
232,109,154327,2,0,B|228:93|228:93|206:143,1,70
329,342,154490,5,0,0:0:0:0:
358,360,154571,1,0,0:0:0:0:
392,360,154652,1,0,0:0:0:0:
420,340,154733,1,0,0:0:0:0:
430,306,154814,5,0,0:0:0:0:
415,320,154895,1,0,0:0:0:0:
395,326,154976,1,0,0:0:0:0:
374,324,155057,1,0,0:0:0:0:
355,314,155138,5,0,0:0:0:0:
407,293,155219,1,0,0:0:0:0:
442,249,155300,1,0,0:0:0:0:
449,193,155381,1,0,0:0:0:0:
498,239,155463,5,0,0:0:0:0:
470,174,155544,1,0,0:0:0:0:
410,136,155625,1,0,0:0:0:0:
340,137,155706,1,0,0:0:0:0:
285,181,155787,5,0,0:0:0:0:
96,292,155949,1,0,0:0:0:0:
45,340,156030,1,0,0:0:0:0:
29,271,156111,2,0,P|53:235|103:223,1,70
285,181,156273,5,0,0:0:0:0:
335,229,156354,1,0,0:0:0:0:
267,249,156435,2,0,P|229:226|215:177,1,70
370,95,156598,5,0,0:0:0:0:
406,35,156679,1,0,0:0:0:0:
335,34,156760,2,0,P|304:64|303:116,1,70
300,309,156922,2,0,P|330:278|331:226,1,70
226,111,157084,5,0,0:0:0:0:
198,89,157165,1,0,0:0:0:0:
163,85,157246,1,0,0:0:0:0:
131,99,157327,1,0,0:0:0:0:
130,52,157408,5,0,0:0:0:0:
111,113,157490,1,0,0:0:0:0:
93,173,157571,1,0,0:0:0:0:
75,233,157652,1,0,0:0:0:0:
96,262,157733,5,0,0:0:0:0:
112,275,157814,1,0,0:0:0:0:
132,277,157895,1,0,0:0:0:0:
152,273,157976,1,0,0:0:0:0:
140,237,158057,5,0,0:0:0:0:
179,285,158138,1,0,0:0:0:0:
238,306,158219,1,0,0:0:0:0:
300,300,158300,1,0,0:0:0:0:
374,238,158381,5,0,0:0:0:0:
176,162,158544,5,0,0:0:0:0:
118,201,158625,1,0,0:0:0:0:
59,241,158706,2,0,L|-3:282,1,70
223,238,158868,5,0,0:0:0:0:
283,273,158949,1,0,0:0:0:0:
345,308,159030,2,0,L|409:345,1,70
311,186,159192,5,0,0:0:0:0:
374,157,159273,1,0,0:0:0:0:
439,127,159354,2,0,L|506:96,1,70
266,72,159517,2,0,L|202:101,1,70
420,182,159679,5,0,0:0:0:0:
461,175,159760,1,0,0:0:0:0:
430,253,159841,1,0,0:0:0:0:
389,260,159922,1,0,0:0:0:0:
300,206,160003,5,0,0:0:0:0:
341,199,160084,1,0,0:0:0:0:
310,277,160165,1,0,0:0:0:0:
269,284,160246,1,0,0:0:0:0:
210,223,160327,5,0,0:0:0:0:
217,160,160408,1,0,0:0:0:0:
250,105,160490,1,0,0:0:0:0:
306,77,160571,1,0,0:0:0:0:
368,80,160652,5,0,0:0:0:0:
380,47,160733,1,0,0:0:0:0:
410,29,160814,1,0,0:0:0:0:
444,28,160895,1,0,0:0:0:0:
511,58,160976,5,0,0:0:0:0:
224,112,161138,1,0,0:0:0:0:
158,88,161219,1,0,0:0:0:0:
88,88,161300,2,0,B|65:98|65:98|116:111,1,70
290,232,161463,5,0,0:0:0:0:
232,192,161544,1,0,0:0:0:0:
165,174,161625,2,0,B|140:177|140:177|186:203,1,70
355,384,161787,5,0,0:0:0:0:
310,331,161868,1,0,0:0:0:0:
249,296,161949,2,0,B|224:293|224:293|261:329,1,70
445,297,162111,2,0,B|469:299|469:299|432:263,1,70
176,292,162273,5,0,0:0:0:0:
139,312,162354,1,0,0:0:0:0:
97,318,162436,1,0,0:0:0:0:
57,305,162517,1,0,0:0:0:0:
35,244,162598,5,0,0:0:0:0:
87,278,162679,1,0,0:0:0:0:
139,312,162760,1,0,0:0:0:0:
191,346,162841,1,0,0:0:0:0:
266,342,162922,5,0,0:0:0:0:
283,330,163003,1,0,0:0:0:0:
303,324,163084,1,0,0:0:0:0:
323,323,163165,1,0,0:0:0:0:
324,352,163246,5,0,0:0:0:0:
357,316,163327,1,0,0:0:0:0:
404,302,163408,1,0,0:0:0:0:
452,311,163490,1,0,0:0:0:0:
420,349,163571,5,0,0:0:0:0:
348,212,163733,1,0,0:0:0:0:
323,146,163814,1,0,0:0:0:0:
349,81,163895,2,0,P|384:51|417:41,1,70
271,209,164057,5,0,0:0:0:0:
281,279,164138,1,0,0:0:0:0:
243,337,164219,2,0,P|202:359|168:361,1,70
79,135,164381,5,0,0:0:0:0:
148,154,164462,1,0,0:0:0:0:
186,211,164543,2,0,P|190:256|179:289,1,70
51,384,164706,2,0,P|46:338|57:305,1,70
221,119,164868,5,0,0:0:0:0:
269,91,164949,1,0,0:0:0:0:
323,79,165030,1,0,0:0:0:0:
378,81,165111,1,0,0:0:0:0:
426,109,165192,5,0,0:0:0:0:
401,132,165273,1,0,0:0:0:0:
371,114,165354,1,0,0:0:0:0:
378,80,165435,1,0,0:0:0:0:
412,77,165516,5,0,0:0:0:0:
458,130,165598,1,0,0:0:0:0:
458,199,165679,1,0,0:0:0:0:
419,257,165760,1,0,0:0:0:0:
339,213,165841,5,0,0:0:0:0:
300,195,165922,1,0,0:0:0:0:
258,201,166003,1,0,0:0:0:0:
225,227,166084,1,0,0:0:0:0:
196,313,166165,5,0,0:0:0:0:
148,95,166327,1,0,0:0:0:0:
206,132,166408,1,0,0:0:0:0:
237,195,166490,2,0,L|249:274,1,70
360,170,166652,5,0,0:0:0:0:
425,146,166733,1,0,0:0:0:0:
468,89,166815,2,0,L|496:14,1,70
302,212,166976,5,0,0:0:0:0:
303,281,167057,1,0,0:0:0:0:
343,340,167139,2,0,L|404:390,1,70
353,210,167300,2,0,L|299:165,1,70
76,160,167463,5,0,0:0:0:0:
315,54,167625,1,0,0:0:0:0:
378,97,167706,1,0,0:0:0:0:
406,168,167787,2,0,P|434:223|480:247,1,70
288,215,167949,5,0,0:0:0:0:
261,287,168030,1,0,0:0:0:0:
198,330,168111,2,0,P|150:369|137:419,1,70
84,199,168273,5,0,0:0:0:0:
160,202,168354,1,0,0:0:0:0:
225,161,168435,2,0,P|279:132|331:140,1,70
512,208,168598,2,0,P|457:236|405:228,1,70
165,110,168760,5,0,0:0:0:0:
343,259,168922,1,0,0:0:0:0:
306,334,169003,1,0,0:0:0:0:
224,353,169084,2,0,P|147:329|126:287,1,70
191,56,169246,5,0,0:0:0:0:
274,51,169327,1,0,0:0:0:0:
332,113,169408,2,0,P|350:191|324:230,1,70
89,291,169571,5,0,0:0:0:0:
43,222,169652,1,0,0:0:0:0:
68,141,169733,2,0,P|126:85|173:89,1,70
381,250,169895,2,0,P|322:305|275:301,1,70
184,206,170057,5,0,0:0:0:0:
222,165,170138,1,0,0:0:0:0:
263,202,170219,1,0,0:0:0:0:
225,243,170300,1,0,0:0:0:0:
176,171,170381,5,0,0:0:0:0:
259,156,170463,1,0,0:0:0:0:
277,237,170544,1,0,0:0:0:0:
194,252,170626,1,0,0:0:0:0:
227,204,170706,6,0,L|230:199,30,4.375
229,200,171354,5,0,0:0:0:0:
78,338,173787,1,0,0:0:0:0:
319,231,173949,1,0,0:0:0:0:
134,124,176219,1,0,0:0:0:0:
360,264,176381,1,0,0:0:0:0:
262,4,176544,1,0,0:0:0:0:
174,265,177679,1,0,0:0:0:0:
444,184,177841,1,0,0:0:0:0:
87,147,178976,2,0,L|109:161,1,17.5
406,155,179138,1,0,0:0:0:0:
483,128,179300,1,0,0:0:0:0:
85,116,179625,6,0,L|117:142,1,26.2500010013581
433,181,179787,1,0,0:0:0:0:
500,73,179949,1,0,0:0:0:0:
94,83,180273,6,0,L|104:102,2,17.5
478,196,180436,1,0,0:0:0:0:
398,138,180598,6,0,L|388:157,2,17.5
14,251,180761,1,0,0:0:0:0:
213,314,180922,5,0,0:0:0:0:
242,325,181003,1,0,0:0:0:0:
318,366,181084,5,0,0:0:0:0:
349,364,181165,1,0,0:0:0:0:
373,343,181246,1,0,0:0:0:0:
382,312,181327,1,0,0:0:0:0:
373,281,181408,1,0,0:0:0:0:
349,259,181490,1,0,0:0:0:0:
318,252,181571,1,0,0:0:0:0:
288,263,181652,1,0,0:0:0:0:
326,311,181733,6,0,P|356:291|371:248,1,78.7500030040742
320,98,182057,6,0,P|275:136|238:154,1,70
64,183,182219,2,0,L|135:210,1,70
407,153,182381,6,0,P|418:71|375:8,1,140
269,90,182625,2,0,P|201:134|135:119,1,140
148,0,182868,2,0,L|214:75,1,70
316,211,183030,6,0,B|347:238|347:238|401:201|463:203,1,140
401,310,183273,2,0,P|333:334|273:295,1,140
359,153,183517,2,0,L|428:116,1,70
315,63,183679,6,0,P|318:25|273:70,1,140
266,179,183922,2,0,B|285:203|285:203|219:180|149:193,1,140
101,269,184165,2,0,L|29:313,1,70
216,298,184327,6,0,P|286:263|323:200,1,140
159,33,184571,2,0,P|158:80|242:136,1,140
458,76,184814,2,0,L|340:120,1,70
197,258,184976,6,0,P|273:278|341:271,1,140
197,23,185219,2,0,P|217:127|263:170,1,140
497,54,185463,2,0,L|391:78,1,70
77,146,185625,5,0,0:0:0:0:
346,49,185868,1,0,0:0:0:0:
273,371,186111,1,0,0:0:0:0:
256,194,186273,1,0,0:0:0:0:
305,354,186436,2,0,L|354:298,1,70
489,226,186598,2,0,P|430:151|313:208,1,210
291,268,186922,5,0,0:0:0:0:
402,231,187084,1,0,0:0:0:0:
280,185,187246,1,0,0:0:0:0:
253,338,187408,1,0,0:0:0:0:
167,207,187571,5,0,0:0:0:0:
272,251,187733,1,0,0:0:0:0:
113,113,187895,1,0,0:0:0:0:
218,157,188057,1,0,0:0:0:0:
105,262,188219,5,0,0:0:0:0:
269,94,188381,1,0,0:0:0:0:
140,161,188544,1,0,0:0:0:0:
355,216,188706,1,0,0:0:0:0:
137,260,188868,5,0,0:0:0:0:
307,78,189030,1,0,0:0:0:0:
131,126,189192,1,0,0:0:0:0:
379,260,189354,1,0,0:0:0:0:
174,274,189517,5,0,0:0:0:0:
193,282,189598,1,0,0:0:0:0:
202,263,189679,1,0,0:0:0:0:
221,271,189760,1,0,0:0:0:0:
230,252,189841,1,0,0:0:0:0:
249,260,189922,1,0,0:0:0:0:
258,241,190003,1,0,0:0:0:0:
277,249,190084,1,0,0:0:0:0:
289,231,190165,5,0,0:0:0:0:
330,239,190246,1,0,0:0:0:0:
369,226,190327,1,0,0:0:0:0:
392,191,190408,1,0,0:0:0:0:
326,148,190490,5,0,0:0:0:0:
267,125,190571,1,0,0:0:0:0:
204,133,190652,1,0,0:0:0:0:
156,174,190733,1,0,0:0:0:0:
174,274,190814,5,0,0:0:0:0:
374,52,190976,2,0,L|410:30,2,35
227,216,191138,1,0,0:0:0:0:
405,54,191300,6,0,L|446:48,2,35
181,217,191463,1,0,0:0:0:0:
152,236,191544,1,0,0:0:0:0:
117,242,191625,1,0,0:0:0:0:
84,229,191706,1,0,0:0:0:0:
60,202,191787,5,0,0:0:0:0:
94,254,191868,1,0,0:0:0:0:
153,274,191949,1,0,0:0:0:0:
215,272,192030,1,0,0:0:0:0:
276,256,192111,6,0,P|332:191|335:119,1,140
150,69,192354,2,0,P|198:144|246:164,1,140
361,233,192598,2,0,L|436:217,1,70
401,331,192760,6,0,P|309:310|220:345,1,140
159,339,193003,2,0,P|68:325|76:257,1,140
196,265,193246,2,0,P|227:200|200:160,1,70
87,95,193408,6,0,B|79:164|143:175|143:175|161:224,1,140
227,347,193652,2,0,P|254:259|313:195,1,140
407,250,193895,2,0,L|479:278,1,70
359,313,194057,6,0,P|295:248|327:147,1,140
365,124,194300,2,0,B|449:60|449:60|366:90,1,140
213,181,194544,2,0,L|157:228,1,70
37,186,194706,6,0,B|46:121|103:83|103:83|128:108,1,140
199,284,194949,2,0,P|128:344|65:330,1,140
133,160,195192,2,0,L|243:174,1,70
292,265,195354,6,0,B|312:280|312:280|356:227|449:248,1,140
306,369,195598,2,0,P|213:322|192:253,1,140
306,195,195841,2,0,P|359:176|394:174,1,70
415,328,196003,5,0,0:0:0:0:
150,158,196246,1,0,0:0:0:0:
383,37,196490,1,0,0:0:0:0:
289,175,196652,1,0,0:0:0:0:
202,272,196814,5,0,0:0:0:0:
227,260,196895,1,0,0:0:0:0:
242,269,196976,5,0,0:0:0:0:
255,269,197057,1,0,0:0:0:0:
275,263,197138,1,0,0:0:0:0:
296,235,197219,1,0,0:0:0:0:
290,197,197300,6,0,P|267:137|325:57,1,140
458,207,197544,2,0,B|480:222|477:239|455:255|427:238|365:217|340:253,1,140
322,330,197787,2,0,P|355:347|395:326,1,70
388,197,197949,6,0,P|397:111|430:53,1,140
349,124,198192,2,0,P|304:197|227:214,1,140
121,168,198436,2,0,L|220:177,1,70
200,284,198598,6,0,P|307:269|396:313,2,210
344,318,199246,2,0,P|416:337|501:312,1,140
221,254,199571,6,0,B|159:220|61:232|61:232|116:210,1,210
233,271,199895,2,0,P|173:210|100:193,1,140
162,338,200219,1,0,0:0:0:0:
194,98,200381,1,0,0:0:0:0:
220,121,200463,1,0,0:0:0:0:
252,133,200544,2,0,B|318:151|381:124|414:91|414:91|410:133|350:158,1,210
285,189,200868,6,0,P|238:162|156:156,1,105
55,261,201192,6,0,L|240:238,1,157.500006008148
304,340,201517,6,0,L|168:323,1,131.25
76,243,201841,5,0,0:0:0:0:
88,237,201922,1,0,0:0:0:0:
109,218,202003,1,0,0:0:0:0:
122,178,202084,1,0,0:0:0:0:
112,129,202165,5,0,0:0:0:0:
83,65,202246,1,0,0:0:0:0:
136,0,202327,1,0,0:0:0:0:
222,29,202408,1,0,0:0:0:0:
228,134,202490,6,0,P|175:198|95:138,1,140
301,64,202733,2,0,P|388:38|476:103,1,140
297,204,202976,2,0,L|208:213,1,70
117,300,203138,6,0,P|183:326|267:305,1,140
430,240,203381,2,0,B|453:226|436:200|388:240|331:247|302:211,1,140
213,154,203625,2,0,P|203:137|221:153,1,70
164,236,203787,6,0,P|109:173|121:87,1,140
230,61,204030,2,0,B|234:80|234:80|287:48|402:70,1,140
375,157,204273,2,0,L|477:128,1,70
454,272,204436,6,0,P|365:232|294:253,1,140
241,318,204679,2,0,P|304:326|250:275,1,140
152,279,204922,2,0,L|87:321,1,70
53,183,205084,6,0,P|139:203|200:179,1,140
406,135,205327,2,0,P|320:115|259:139,1,140
272,247,205571,2,0,L|346:209,1,70
450,112,205733,6,0,P|357:83|273:88,1,140
4,206,205976,2,0,P|97:235|181:230,1,140
171,44,206219,2,0,L|93:92,1,70
63,276,206381,6,0,B|59:315|33:339|33:339|94:357|132:292,1,140
189,264,206625,2,0,B|213:242|261:247|261:247|290:286|364:271,1,140
478,259,206868,2,0,P|369:215|254:263,1,210
301,273,207192,6,0,L|391:289,1,70
351,199,207354,2,0,P|270:165|162:177,1,140
84,211,207679,5,0,0:0:0:0:
200,253,207841,1,0,0:0:0:0:
304,125,208003,1,0,0:0:0:0:
116,292,208165,1,0,0:0:0:0:
271,124,208327,5,0,0:0:0:0:
322,268,208490,1,0,0:0:0:0:
359,50,208652,1,0,0:0:0:0:
249,166,208814,1,0,0:0:0:0:
165,9,208976,6,0,P|120:81|48:100,1,140
371,107,209300,2,0,P|416:35|488:16,1,140
142,193,209625,6,0,P|21:223|-10:206,1,140
384,214,209949,2,0,P|505:184|536:201,1,140
102,338,210273,5,0,0:0:0:0:
95,340,210354,1,0,0:0:0:0:
88,342,210436,1,0,0:0:0:0:
81,344,210517,1,0,0:0:0:0:
74,346,210598,1,0,0:0:0:0:
67,348,210679,1,0,0:0:0:0:
60,351,210760,1,0,0:0:0:0:
53,354,210841,1,0,0:0:0:0:
46,357,210922,5,0,0:0:0:0:
67,338,211003,1,0,0:0:0:0:
83,315,211084,1,0,0:0:0:0:
91,288,211165,1,0,0:0:0:0:
89,260,211246,5,0,0:0:0:0:
64,209,211327,1,0,0:0:0:0:
67,153,211408,1,0,0:0:0:0:
98,106,211490,1,0,0:0:0:0:
149,83,211571,5,0,0:0:0:0:
283,324,211733,2,0,L|316:351,2,35
62,45,211895,5,0,0:0:0:0:
382,327,212057,2,0,L|416:339,2,35
169,204,212219,5,0,0:0:0:0:
99,195,212300,1,0,0:0:0:0:
74,129,212381,1,0,0:0:0:0:
111,69,212463,1,0,0:0:0:0:
180,73,212544,5,0,0:0:0:0:
228,123,212625,1,0,0:0:0:0:
295,139,212706,1,0,0:0:0:0:
361,118,212787,1,0,0:0:0:0:
412,70,212868,6,0,P|402:45|403:86,1,140
412,70,213111,1,0,0:0:0:0:
453,63,213192,1,0,0:0:0:0:
488,86,213273,1,0,0:0:0:0:
491,127,213354,6,0,B|487:146|487:146|411:138|374:209,1,140
512,234,213679,5,0,0:0:0:0:
503,222,213760,1,0,0:0:0:0:
467,227,213841,5,0,0:0:0:0:
435,211,213922,1,0,0:0:0:0:
400,206,214003,1,0,0:0:0:0:
366,214,214084,1,0,0:0:0:0:
295,242,214165,5,0,0:0:0:0:
261,197,214246,1,0,0:0:0:0:
206,185,214327,1,0,0:0:0:0:
153,203,214408,1,0,0:0:0:0:
183,256,214490,5,0,0:0:0:0:
215,229,214571,1,0,0:0:0:0:
232,190,214652,1,0,0:0:0:0:
234,148,214733,1,0,0:0:0:0:
217,109,214814,5,0,0:0:0:0:
196,103,214895,1,0,0:0:0:0:
176,96,214976,6,0,P|241:122|305:19,1,210
138,35,215300,6,0,P|173:132|302:127,1,210
236,48,215625,5,0,0:0:0:0:
234,275,215787,1,0,0:0:0:0:
325,105,215949,5,0,0:0:0:0:
372,75,216030,1,0,0:0:0:0:
376,132,216111,5,0,0:0:0:0:
360,163,216192,1,0,0:0:0:0:
331,183,216273,1,0,0:0:0:0:
296,187,216354,1,0,0:0:0:0:
201,188,216436,5,0,0:0:0:0:
190,206,216517,1,0,0:0:0:0:
187,226,216598,1,0,0:0:0:0:
194,245,216679,1,0,0:0:0:0:
296,279,216760,5,0,0:0:0:0:
131,160,216922,1,0,0:0:0:0:
304,110,217084,1,0,0:0:0:0:
116,183,217246,5,0,0:0:0:0:
72,348,217408,1,0,0:0:0:0:
33,59,217571,1,0,0:0:0:0:
145,223,217733,1,0,0:0:0:0:
286,133,217895,6,0,B|356:97|425:126|425:126|406:95|368:81,1,210
212,136,218219,2,0,P|265:201|358:140,1,210
205,99,218544,2,0,B|197:77|197:77|134:108|82:50,1,140
230,229,218868,5,0,0:0:0:0:
246,242,218949,1,0,0:0:0:0:
266,244,219030,5,0,0:0:0:0:
255,189,219111,1,0,0:0:0:0:
208,157,219192,1,0,0:0:0:0:
152,154,219273,1,0,0:0:0:0:
103,181,219354,5,0,0:0:0:0:
119,157,219436,1,0,0:0:0:0:
139,138,219517,1,0,0:0:0:0:
164,126,219598,1,0,0:0:0:0:
191,125,219679,5,0,0:0:0:0:
251,140,219760,1,0,0:0:0:0:
312,128,219841,1,0,0:0:0:0:
357,84,219922,1,0,0:0:0:0:
335,14,220003,5,0,0:0:0:0:
292,67,220084,1,0,0:0:0:0:
286,136,220165,1,0,0:0:0:0:
318,197,220246,1,0,0:0:0:0:
383,220,220327,5,0,0:0:0:0:
459,185,220408,1,0,0:0:0:0:
422,108,220490,1,0,0:0:0:0:
346,143,220571,1,0,0:0:0:0:
399,165,220652,5,0,0:0:0:0:
433,160,220733,1,0,0:0:0:0:
462,141,220814,1,0,0:0:0:0:
476,108,220895,1,0,0:0:0:0:
388,68,220976,5,0,0:0:0:0:
354,73,221057,1,0,0:0:0:0:
325,92,221138,1,0,0:0:0:0:
311,125,221219,1,0,0:0:0:0:
286,218,221300,5,0,0:0:0:0:
248,259,221381,1,0,0:0:0:0:
192,270,221463,1,0,0:0:0:0:
139,250,221544,1,0,0:0:0:0:
35,188,221625,5,0,0:0:0:0:
73,147,221706,1,0,0:0:0:0:
129,136,221788,1,0,0:0:0:0:
182,156,221869,1,0,0:0:0:0:
248,259,221949,5,0,0:0:0:0:
255,271,222030,1,0,0:0:0:0:
262,283,222111,1,0,0:0:0:0:
269,295,222192,1,0,0:0:0:0:
276,307,222273,1,0,0:0:0:0:
283,319,222354,1,0,0:0:0:0:
290,331,222436,1,0,0:0:0:0:
296,343,222517,1,0,0:0:0:0:
265,359,222598,5,0,0:0:0:0:
248,328,222679,1,0,0:0:0:0:
254,293,222760,1,0,0:0:0:0:
274,264,222841,1,0,0:0:0:0:
306,251,222922,5,0,0:0:0:0:
354,223,223003,1,0,0:0:0:0:
374,170,223084,1,0,0:0:0:0:
362,115,223165,1,0,0:0:0:0:
281,62,223246,6,0,B|255:58|241:40|241:40|190:47|190:47|174:29|101:38,1,140
166,160,223490,1,0,0:0:0:0:
220,150,223571,1,0,0:0:0:0:
262,115,223652,1,0,0:0:0:0:
281,62,223733,6,0,P|193:32|66:64,1,210
87,181,224057,5,0,0:0:0:0:
106,193,224138,1,0,0:0:0:0:
166,160,224219,5,0,0:0:0:0:
220,150,224300,1,0,0:0:0:0:
262,115,224381,1,0,0:0:0:0:
281,62,224463,1,0,0:0:0:0:
226,11,224544,5,0,0:0:0:0:
232,38,224625,1,0,0:0:0:0:
247,61,224706,1,0,0:0:0:0:
270,76,224787,1,0,0:0:0:0:
297,82,224868,5,0,0:0:0:0:
345,91,224949,1,0,0:0:0:0:
382,122,225030,1,0,0:0:0:0:
399,167,225111,1,0,0:0:0:0:
387,214,225192,6,0,P|368:254|320:286,1,70
145,245,225354,2,0,P|224:171|308:204,1,210
237,261,225679,2,0,P|158:335|74:302,1,210
258,190,226003,2,0,P|304:234|293:308,1,140
32,136,226327,5,0,0:0:0:0:
78,119,226408,1,0,0:0:0:0:
136,182,226490,5,0,0:0:0:0:
148,188,226571,1,0,0:0:0:0:
160,194,226652,1,0,0:0:0:0:
172,200,226733,1,0,0:0:0:0:
248,173,226814,5,0,0:0:0:0:
282,167,226895,1,0,0:0:0:0:
322,138,226976,1,0,0:0:0:0:
351,82,227057,1,0,0:0:0:0:
362,5,227138,5,0,0:0:0:0:
196,126,227300,1,0,0:0:0:0:
350,155,227463,1,0,0:0:0:0:
166,58,227625,6,0,P|109:54|34:113,1,140
294,249,227949,2,0,B|300:268|333:258|363:223|304:144,1,140
108,150,228273,5,0,0:0:0:0:
262,252,228436,1,0,0:0:0:0:
275,93,228598,2,0,B|260:74|260:74|318:96|426:71,1,140
429,147,228922,2,0,P|313:101|201:138,1,210
174,216,229246,5,0,0:0:0:0:
140,227,229327,1,0,0:0:0:0:
105,221,229408,5,0,0:0:0:0:
115,230,229490,1,0,0:0:0:0:
127,236,229571,1,0,0:0:0:0:
140,240,229652,1,0,0:0:0:0:
153,241,229733,5,0,0:0:0:0:
194,240,229814,1,0,0:0:0:0:
225,212,229895,1,0,0:0:0:0:
230,170,229976,1,0,0:0:0:0:
153,106,230057,5,0,0:0:0:0:
146,50,230138,1,0,0:0:0:0:
184,9,230219,1,0,0:0:0:0:
239,0,230300,1,0,0:0:0:0:
333,92,230381,6,0,L|403:95,1,70
415,183,230544,2,0,L|485:186,1,70
284,250,230706,2,0,L|214:247,1,70
115,354,230868,2,0,L|45:351,1,70
51,185,231030,5,0,0:0:0:0:
45,172,231111,1,0,0:0:0:0:
46,158,231192,1,0,0:0:0:0:
52,145,231273,1,0,0:0:0:0:
99,167,231354,5,0,0:0:0:0:
143,189,231436,1,0,0:0:0:0:
191,192,231517,1,0,0:0:0:0:
236,174,231598,1,0,0:0:0:0:
267,136,231679,5,0,0:0:0:0:
254,111,231760,1,0,0:0:0:0:
229,124,231841,1,0,0:0:0:0:
242,149,231922,1,0,0:0:0:0:
267,136,232003,5,0,0:0:0:0:
326,115,232084,1,0,0:0:0:0:
388,120,232165,1,0,0:0:0:0:
443,150,232246,1,0,0:0:0:0:
474,204,232327,5,0,0:0:0:0:
433,194,232408,1,0,0:0:0:0:
417,154,232490,1,0,0:0:0:0:
427,113,232571,1,0,0:0:0:0:
381,180,232652,5,0,0:0:0:0:
372,191,232733,1,0,0:0:0:0:
363,202,232814,1,0,0:0:0:0:
355,213,232895,1,0,0:0:0:0:
271,272,232976,5,0,0:0:0:0:
261,223,233057,1,0,0:0:0:0:
281,178,233138,1,0,0:0:0:0:
328,165,233219,1,0,0:0:0:0:
202,186,233300,5,0,0:0:0:0:
181,190,233381,1,0,0:0:0:0:
160,194,233463,1,0,0:0:0:0:
139,198,233544,1,0,0:0:0:0:
36,170,233625,6,0,P|23:165|81:123,1,140
47,193,233868,1,0,0:0:0:0:
65,213,233949,1,0,0:0:0:0:
102,230,234030,1,0,0:0:0:0:
157,224,234111,6,0,P|221:189|314:193,1,140
145,308,234436,5,0,0:0:0:0:
89,301,234517,1,0,0:0:0:0:
52,258,234598,5,0,0:0:0:0:
79,256,234679,1,0,0:0:0:0:
106,261,234760,1,0,0:0:0:0:
128,277,234841,1,0,0:0:0:0:
168,358,234922,5,0,0:0:0:0:
218,382,235003,1,0,0:0:0:0:
273,373,235084,1,0,0:0:0:0:
317,339,235165,1,0,0:0:0:0:
384,243,235246,5,0,0:0:0:0:
328,201,235327,1,0,0:0:0:0:
261,221,235408,1,0,0:0:0:0:
241,289,235490,1,0,0:0:0:0:
276,262,235571,5,0,0:0:0:0:
275,227,235652,1,0,0:0:0:0:
258,196,235733,2,0,P|180:153|86:224,1,210
181,239,236057,2,0,B|203:244|203:244|165:187|195:109|276:111|304:145,1,210
328,201,236381,1,0,0:0:0:0:
172,117,236544,1,0,0:0:0:0:
357,281,236706,5,0,0:0:0:0:
397,291,236787,1,0,0:0:0:0:
367,320,236868,5,0,0:0:0:0:
357,281,236949,1,0,0:0:0:0:
373,242,237030,1,0,0:0:0:0:
405,215,237111,1,0,0:0:0:0:
446,207,237192,5,0,0:0:0:0:
425,187,237273,1,0,0:0:0:0:
397,180,237354,1,0,0:0:0:0:
368,183,237436,1,0,0:0:0:0:
291,232,237517,5,0,0:0:0:0:
265,347,237679,1,0,0:0:0:0:
444,292,237841,1,0,0:0:0:0:
209,282,238003,6,0,P|162:265|64:372,1,210
150,351,238327,1,0,0:0:0:0:
94,137,238490,1,0,0:0:0:0:
172,314,238652,6,0,P|240:356|335:343,1,140
372,272,238976,1,0,0:0:0:0:
243,167,239138,1,0,0:0:0:0:
220,384,239300,6,0,P|318:374|361:263,1,210
281,259,239625,5,0,0:0:0:0:
253,210,239706,1,0,0:0:0:0:
174,235,239787,5,0,0:0:0:0:
147,227,239868,1,0,0:0:0:0:
118,196,239949,1,0,0:0:0:0:
111,140,240030,1,0,0:0:0:0:
141,77,240111,5,0,0:0:0:0:
153,70,240192,1,0,0:0:0:0:
165,63,240273,1,0,0:0:0:0:
177,57,240354,1,0,0:0:0:0:
249,105,240436,5,0,0:0:0:0:
282,113,240517,1,0,0:0:0:0:
315,121,240598,1,0,0:0:0:0:
348,129,240679,1,0,0:0:0:0:
414,199,240760,5,0,0:0:0:0:
395,258,240841,1,0,0:0:0:0:
332,258,240922,1,0,0:0:0:0:
313,199,241003,1,0,0:0:0:0:
365,157,241084,5,0,0:0:0:0:
406,229,241165,1,0,0:0:0:0:
348,289,241246,1,0,0:0:0:0:
273,255,241327,1,0,0:0:0:0:
281,171,241409,5,0,0:0:0:0:
322,163,241490,1,0,0:0:0:0:
365,157,241571,1,0,0:0:0:0:
406,150,241652,1,0,0:0:0:0:
341,83,241733,5,0,0:0:0:0:
300,90,241814,1,0,0:0:0:0:
257,96,241895,1,0,0:0:0:0:
216,104,241976,1,0,0:0:0:0:
264,206,242057,5,0,0:0:0:0:
319,197,242138,1,0,0:0:0:0:
374,189,242219,1,0,0:0:0:0:
429,181,242300,1,0,0:0:0:0:
350,47,242381,5,0,0:0:0:0:
295,56,242462,1,0,0:0:0:0:
240,64,242543,1,0,0:0:0:0:
185,72,242624,1,0,0:0:0:0:
117,178,242706,5,0,0:0:0:0:
137,197,242787,1,0,0:0:0:0:
163,206,242868,1,0,0:0:0:0:
190,204,242949,1,0,0:0:0:0:
61,194,243030,5,0,0:0:0:0:
106,246,243111,1,0,0:0:0:0:
165,267,243192,1,0,0:0:0:0:
226,252,243273,1,0,0:0:0:0:
267,204,243354,5,0,0:0:0:0:
304,184,243436,1,0,0:0:0:0:
345,187,243517,1,0,0:0:0:0:
379,210,243598,1,0,0:0:0:0:
343,232,243679,5,0,0:0:0:0:
347,204,243760,1,0,0:0:0:0:
362,180,243841,1,0,0:0:0:0:
387,168,243922,1,0,0:0:0:0:
414,171,244003,5,0,0:0:0:0:
324,323,244165,1,0,0:0:0:0:
297,332,244246,1,0,0:0:0:0:
255,329,244327,1,0,0:0:0:0:
207,299,244408,1,0,0:0:0:0:
183,224,244490,6,0,B|231:194|218:128|218:128|155:103|186:8,1,210
140,160,244814,5,0,0:0:0:0:
132,171,244895,1,0,0:0:0:0:
141,216,244976,5,0,0:0:0:0:
130,225,245057,1,0,0:0:0:0:
102,230,245138,1,0,0:0:0:0:
63,212,245219,1,0,0:0:0:0:
44,166,245300,5,0,0:0:0:0:
50,228,245381,1,0,0:0:0:0:
110,276,245463,1,0,0:0:0:0:
192,263,245544,1,0,0:0:0:0:
270,198,245625,5,0,0:0:0:0:
288,161,245706,1,0,0:0:0:0:
258,131,245787,1,0,0:0:0:0:
221,151,245868,1,0,0:0:0:0:
228,191,245949,5,0,0:0:0:0:
319,220,246030,1,0,0:0:0:0:
399,167,246111,2,0,B|410:138|410:138|327:226|218:168,1,210
159,90,246436,2,0,P|250:37|310:133,1,210
291,241,246760,5,0,0:0:0:0:
235,112,246922,1,0,0:0:0:0:
328,263,247084,5,0,0:0:0:0:
369,257,247165,1,0,0:0:0:0:
400,229,247246,5,0,0:0:0:0:
380,220,247327,1,0,0:0:0:0:
359,219,247408,1,0,0:0:0:0:
339,226,247490,1,0,0:0:0:0:
323,240,247571,5,0,0:0:0:0:
276,255,247652,1,0,0:0:0:0:
228,243,247733,1,0,0:0:0:0:
190,211,247814,1,0,0:0:0:0:
172,165,247895,5,0,0:0:0:0:
390,302,248057,1,0,0:0:0:0:
165,279,248219,1,0,0:0:0:0:
311,180,248381,5,0,0:0:0:0:
82,220,248544,1,0,0:0:0:0:
214,143,248706,5,0,0:0:0:0:
0,122,248868,1,0,0:0:0:0:
158,223,249030,5,0,0:0:0:0:
363,93,249192,1,0,0:0:0:0:
180,82,249354,5,0,0:0:0:0:
108,323,249517,1,0,0:0:0:0:
324,90,249679,6,0,B|346:49|446:24|486:62|484:114|438:134|422:81,1,210
303,58,250003,5,0,0:0:0:0:
260,33,250084,1,0,0:0:0:0:
215,53,250165,5,0,0:0:0:0:
187,50,250246,1,0,0:0:0:0:
160,57,250327,1,0,0:0:0:0:
139,75,250408,1,0,0:0:0:0:
140,32,250490,5,0,0:0:0:0:
86,17,250571,1,0,0:0:0:0:
32,34,250652,1,0,0:0:0:0:
3,82,250733,1,0,0:0:0:0:
75,127,250814,5,0,0:0:0:0:
137,135,250895,1,0,0:0:0:0:
198,120,250976,1,0,0:0:0:0:
249,83,251057,1,0,0:0:0:0:
255,149,251138,5,0,0:0:0:0:
198,120,251219,1,0,0:0:0:0:
142,91,251300,1,0,0:0:0:0:
85,62,251381,1,0,0:0:0:0:
1,133,251463,5,0,0:0:0:0:
58,162,251544,1,0,0:0:0:0:
114,191,251625,1,0,0:0:0:0:
171,220,251706,1,0,0:0:0:0:
257,196,251787,5,0,0:0:0:0:
275,186,251868,1,0,0:0:0:0:
293,176,251949,1,0,0:0:0:0:
311,166,252030,1,0,0:0:0:0:
351,235,252111,5,0,0:0:0:0:
392,233,252192,1,0,0:0:0:0:
427,254,252273,1,0,0:0:0:0:
445,291,252354,1,0,0:0:0:0:
343,310,252436,5,0,0:0:0:0:
315,307,252517,1,0,0:0:0:0:
287,304,252598,1,0,0:0:0:0:
259,301,252679,1,0,0:0:0:0:
212,228,252760,5,0,0:0:0:0:
159,209,252841,1,0,0:0:0:0:
106,228,252922,1,0,0:0:0:0:
79,277,253003,1,0,0:0:0:0:
161,288,253084,5,0,0:0:0:0:
174,233,253165,1,0,0:0:0:0:
162,192,253246,1,0,0:0:0:0:
130,176,253327,1,0,0:0:0:0:
102,176,253408,5,0,0:0:0:0:
50,153,253490,1,0,0:0:0:0:
37,112,253571,1,0,0:0:0:0:
46,78,253652,1,0,0:0:0:0:
72,68,253733,5,0,0:0:0:0:
122,92,253814,1,0,0:0:0:0:
163,93,253895,1,0,0:0:0:0:
192,74,253976,1,0,0:0:0:0:
204,57,254057,5,0,0:0:0:0:
240,116,254138,1,0,0:0:0:0:
287,129,254219,1,0,0:0:0:0:
328,123,254300,1,0,0:0:0:0:
355,101,254381,6,0,P|376:67|376:43,1,52.5
13,370,254706,5,0,0:0:0:0:
