osu file format v12

[General]
AudioFilename: 14 Akasha.mp3
AudioLeadIn: 0
PreviewTime: 152381
Countdown: 1
SampleSet: Soft
StackLeniency: 0.7
Mode: 0
LetterboxInBreaks: 1
WidescreenStoryboard: 1

[Editor]
DistanceSpacing: 1
BeatDivisor: 4
GridSize: 4
TimelineZoom: 1

[Metadata]
Title:Akasha
TitleUnicode:Akasha
Artist:xi
ArtistUnicode:xi
Creator:Kochiya Sanya
Version:Standard
Source:100sec records
Tags:Energy -Limitless Space World-
BeatmapID:411916
BeatmapSetID:162810

[Difficulty]
HPDrainRate:3
CircleSize:4
OverallDifficulty:3
ApproachRate:5
SliderMultiplier:0.999999999999999
SliderTickRate:1

[Events]
//Background and Video events
0,0,"23050135.jpg",0,0
//Break Periods
//Storyboard Layer 0 (Background)
//Storyboard Layer 1 (Fail)
//Storyboard Layer 2 (Pass)
//Storyboard Layer 3 (Foreground)
//Storyboard Sound Samples
//Background Colour Transformations
3,100,163,162,255

[TimingPoints]
1409,648.648648648649,4,2,0,40,1,0
1509,-100,4,2,0,40,0,0
42598,324.324324324324,4,2,0,40,1,0
42598,-100,4,2,0,40,0,0
42679,-100,4,2,0,40,0,0
42760,-100,4,2,0,40,0,0
42841,-100,4,2,0,40,0,0
42922,-100,4,2,0,40,0,0
59949,-100,4,2,0,40,0,0
60111,-100,4,2,0,40,0,0
88327,-80,4,2,0,40,0,1
108760,-100,4,2,0,40,0,0
125625,-66.6666666666667,4,2,0,40,0,1
129841,648.648648648649,4,2,0,40,1,0
129841,-200,4,2,0,40,0,0
140219,324.324324324324,4,2,0,40,1,0
150597,-66.6666666666667,4,2,0,40,0,1
171354,-66.6666666666667,4,2,0,40,0,0
192110,-66.6666666666667,4,2,0,40,0,1
212867,-66.6666666666667,4,2,0,40,0,0
254705,-66.6666666666667,4,2,0,40,0,0

[Colours]
Combo1 : 0,255,64
Combo2 : 255,0,0
Combo3 : 255,255,0

[HitObjects]
256,192,19571,12,0,22165,0:0:0:0:
96,128,22814,6,0,P|160:116|200:132,1,100
284,168,24111,1,0,0:0:0:0:
324,260,24760,2,0,P|220:300|132:284,1,200
88,104,27030,2,0,P|80:144|88:172,1,50
168,128,28003,1,0,0:0:0:0:
268,124,28652,1,0,0:0:0:0:
404,188,29625,2,0,P|424:224|420:252,1,50
260,328,31246,2,0,P|188:332|144:320,1,100
140,316,32057,1,0,0:0:0:0:
120,300,32219,2,0,P|104:256|108:240,1,50
80,152,33517,2,0,P|116:120|128:112,1,50
316,104,35138,2,0,P|372:128|400:180,1,100
368,200,36111,2,0,P|384:240|376:268,1,50
316,280,36922,1,0,0:0:0:0:
316,280,37084,2,0,P|272:324|220:336,1,100
84,288,39030,2,0,P|88:224|108:176,1,100
108,140,40003,2,0,P|136:100|148:92,1,50
208,232,41300,1,0,0:0:0:0:
316,184,41625,1,0,0:0:0:0:
256,192,41787,12,0,42922,0:0:0:0:
132,112,43246,6,0,P|96:172|88:212,1,99.9999999999999
128,236,43733,1,0,0:0:0:0:
228,232,44057,1,0,0:0:0:0:
288,164,44381,1,0,0:0:0:0:
268,116,44543,2,0,P|216:88|164:92,1,99.9999999999999
124,172,45192,2,0,P|124:236|152:284,1,99.9999999999999
236,288,45841,1,0,0:0:0:0:
236,288,46003,2,0,P|312:280|376:228,1,150
344,140,46814,2,0,P|288:108|232:96,2,99.9999999999999
344,140,47625,1,0,0:0:0:0:
196,156,47949,1,0,0:0:0:0:
164,196,48111,2,0,P|220:224|272:236,1,99.9999999999999
372,252,48922,1,0,0:0:0:0:
372,252,49084,2,0,P|372:184|332:156,1,99.9999999999999
264,112,49733,1,0,0:0:0:0:
168,92,50057,1,0,0:0:0:0:
84,144,50381,1,0,0:0:0:0:
84,144,50706,2,0,P|88:212|108:256,1,99.9999999999999
132,280,51192,1,0,0:0:0:0:
180,300,51354,2,0,P|240:312|280:296,1,99.9999999999999
344,224,52003,1,0,0:0:0:0:
312,128,52327,1,0,0:0:0:0:
232,68,52652,1,0,0:0:0:0:
132,76,52976,1,0,0:0:0:0:
72,156,53300,2,0,P|76:224|116:248,2,99.9999999999999
116,136,54111,1,0,0:0:0:0:
164,128,54273,2,0,P|224:136|256:176,1,99.9999999999999
336,212,54922,2,0,P|320:312|232:328,1,200
188,308,55733,1,0,0:0:0:0:
140,292,55895,2,0,P|96:240|92:188,1,99.9999999999999
120,168,56381,2,0,P|180:136|208:152,1,99.9999999999999
328,228,57192,1,0,0:0:0:0:
192,296,57679,2,0,P|144:264|132:216,1,99.9999999999999
144,140,58327,1,0,0:0:0:0:
144,140,58489,2,0,P|204:144|248:168,1,99.9999999999999
356,196,59300,1,0,0:0:0:0:
356,196,59787,2,0,P|320:252|232:256,1,150
152,224,60435,2,0,P|120:168|144:128,1,99.9999999999999
228,116,61084,2,0,P|260:168|256:204,2,99.9999999999999
140,96,62057,1,0,0:0:0:0:
120,192,62381,1,0,0:0:0:0:
120,192,62543,2,0,P|152:256|184:280,1,99.9999999999999
260,224,63192,1,0,0:0:0:0:
260,224,63354,2,0,P|324:216|360:244,1,99.9999999999999
136,160,65949,5,0,0:0:0:0:
136,160,66273,2,0,P|140:216|168:260,1,99.9999999999999
260,252,66922,2,0,P|324:260|372:236,1,99.9999999999999
400,224,67408,1,0,0:0:0:0:
424,180,67570,2,0,P|408:128|360:112,1,99.9999999999999
268,96,68219,2,0,P|208:116|172:148,1,99.9999999999999
88,180,68868,1,0,0:0:0:0:
104,228,69030,2,0,P|168:288|236:288,1,150
320,252,69841,1,0,0:0:0:0:
328,204,70003,2,0,P|324:176|308:148,1,50
244,136,70408,1,0,0:0:0:0:
172,120,70652,1,0,0:0:0:0:
100,104,70895,2,0,P|52:136|44:200,1,125
84,228,71462,2,0,P|92:296|132:304,1,99.9999999999999
208,272,72111,1,0,0:0:0:0:
304,240,72435,1,0,0:0:0:0:
368,128,72760,2,0,L|296:96,1,74.9999999999999
232,132,73246,2,0,P|176:160|144:200,1,99.9999999999999
151,187,73733,1,0,0:0:0:0:
236,244,74057,2,0,P|200:300|160:300,1,99.9999999999999
124,288,74543,1,0,0:0:0:0:
80,260,74706,2,0,P|44:196|64:160,1,99.9999999999999
140,128,75354,1,0,0:0:0:0:
236,156,75679,1,0,0:0:0:0:
236,156,75841,2,0,L|292:164,1,50
332,176,76165,2,0,L|380:208,1,50
376,252,76489,2,0,L|380:312,1,50
280,308,76976,1,0,0:0:0:0:
280,308,77138,2,0,P|192:312|132:276,1,150
104,248,77787,1,0,0:0:0:0:
108,200,77949,2,0,P|136:144|172:136,1,99.9999999999999
240,204,78597,2,0,P|296:204|344:172,1,99.9999999999999
324,84,79246,2,0,P|388:96|424:128,1,99.9999999999999
360,200,79895,1,0,0:0:0:0:
304,284,80219,1,0,0:0:0:0:
208,316,80543,2,0,P|144:312|116:296,1,74.9999999999999
92,244,81030,1,0,0:0:0:0:
92,144,81354,1,0,0:0:0:0:
92,144,81516,2,0,P|152:124|200:128,1,99.9999999999999
236,136,82003,2,0,P|300:168|324:204,1,99.9999999999999
400,248,82652,1,0,0:0:0:0:
400,248,82814,2,0,P|348:292|304:292,1,99.9999999999999
232,244,83462,1,0,0:0:0:0:
148,192,83787,1,0,0:0:0:0:
232,140,84111,1,0,0:0:0:0:
156,76,84435,1,0,0:0:0:0:
256,76,84760,2,0,L|320:72,2,50
288,116,85246,1,0,0:0:0:0:
304,164,85408,2,0,P|288:232|256:240,1,99.9999999999999
168,244,86057,2,0,P|112:240|92:200,1,99.9999999999999
68,160,86543,1,0,0:0:0:0:
76,112,86706,2,0,P|124:80|168:88,1,99.9999999999999
212,104,87192,2,0,L|264:120,2,50
212,104,87679,2,0,L|160:92,2,50
236,240,88327,1,0,0:0:0:0:
236,240,88489,2,0,P|272:304|320:288,1,125
360,256,88976,1,0,0:0:0:0:
396,136,89300,2,0,P|340:80|292:88,1,125
180,104,89949,1,0,0:0:0:0:
88,188,90273,1,0,0:0:0:0:
