osu file format v12

[General]
AudioFilename: 14 Akasha.mp3
AudioLeadIn: 0
PreviewTime: 152381
Countdown: 1
SampleSet: None
StackLeniency: 0.7
Mode: 0
LetterboxInBreaks: 1
WidescreenStoryboard: 1

[Editor]
DistanceSpacing: 0.5
BeatDivisor: 4
GridSize: 4
TimelineZoom: 1

[Metadata]
Title:Akasha
TitleUnicode:Akasha
Artist:xi
ArtistUnicode:xi
Creator:Kochiya Sanya
Version:Hyper
Source:100sec records
Tags:Energy -Limitless Space World-
BeatmapID:411915
BeatmapSetID:162810

[Difficulty]
HPDrainRate:5
CircleSize:4
OverallDifficulty:6
ApproachRate:8
SliderMultiplier:1.4
SliderTickRate:1

[Events]
//Background and Video events
0,0,"23050135.jpg",0,0
//Break Periods
//Storyboard Layer 0 (Background)
//Storyboard Layer 1 (Fail)
//Storyboard Layer 2 (Pass)
//Storyboard Layer 3 (Foreground)
//Storyboard Sound Samples
//Background Colour Transformations
3,100,163,162,255

[TimingPoints]
1409,648.648648648649,4,2,0,40,1,0
1509,-200,4,2,0,40,0,0
42598,324.324324324324,4,2,0,40,1,0
42598,-100,4,2,0,40,0,0
42679,-100,4,2,0,40,0,0
42760,-100,4,2,0,40,0,0
42841,-100,4,2,0,40,0,0
42922,-100,4,2,0,40,0,0
59949,-100,4,2,0,40,0,0
60111,-100,4,2,0,40,0,0
88327,-80,4,2,0,40,0,1
108760,-100,4,2,0,40,0,0
125625,-66.6666666666667,4,2,0,40,0,1
129841,648.648648648649,4,2,0,40,1,0
129841,-200,4,2,0,40,0,0
140219,324.324324324324,4,2,0,40,1,0
150597,-66.6666666666667,4,2,0,40,0,1
171354,-66.6666666666667,4,2,0,40,0,0
192110,-66.6666666666667,4,2,0,40,0,1
212867,-66.6666666666667,4,2,0,40,0,0
254705,-66.6666666666667,4,2,0,40,0,0

[Colours]
Combo1 : 0,255,64
Combo2 : 255,0,0
Combo3 : 255,255,0

[HitObjects]
84,112,21841,6,0,L|88:120,4,8.75
108,208,23463,1,0,0:0:0:0:
204,272,24111,2,0,P|248:288|276:284,1,70
256,188,26057,1,0,0:0:0:0:
400,208,27030,1,0,0:0:0:0:
400,208,27192,1,0,0:0:0:0:
400,208,27354,2,0,P|392:252|368:272,1,70
256,300,28652,1,0,0:0:0:0:
64,200,29625,1,0,0:0:0:0:
64,200,29787,1,0,0:0:0:0:
64,200,29949,2,0,P|72:152|88:128,1,70
188,68,31246,1,0,0:0:0:0:
320,104,32057,1,0,0:0:0:0:
364,180,32219,1,0,0:0:0:0:
332,256,32381,1,0,0:0:0:0:
260,312,32544,2,0,P|216:332|192:332,1,70
112,316,33517,1,0,0:0:0:0:
52,252,33841,1,0,0:0:0:0:
48,160,34490,2,0,P|80:132|112:128,1,70
224,140,36111,1,0,0:0:0:0:
224,140,36273,1,0,0:0:0:0:
224,140,36435,1,0,0:0:0:0:
352,216,36922,1,0,0:0:0:0:
316,296,37084,1,0,0:0:0:0:
232,328,37246,1,0,0:0:0:0:
144,320,37409,2,0,L|132:312,4,8.75
60,160,39030,2,0,P|92:136|136:140,1,70
280,152,40003,1,0,0:0:0:0:
364,176,40165,1,0,0:0:0:0:
400,256,40327,2,0,P|384:304|328:328,1,105
256,192,41625,12,0,42922,0:0:0:0:
84,124,43246,5,0,0:0:0:0:
84,124,43327,1,0,0:0:0:0:
84,124,43408,2,0,P|96:168|120:188,1,70
208,228,43733,1,0,0:0:0:0:
312,240,43895,1,0,0:0:0:0:
408,280,44057,2,0,P|400:328|372:340,1,70
280,336,44381,1,0,0:0:0:0:
180,308,44543,1,0,0:0:0:0:
104,232,44706,1,0,0:0:0:0:
104,128,44868,2,0,L|132:104,4,35
196,176,45354,1,0,0:0:0:0:
288,124,45516,2,0,P|340:120|360:132,1,70
436,196,45841,1,0,0:0:0:0:
408,292,46003,1,0,0:0:0:0:
392,300,46084,1,0,0:0:0:0:
376,304,46165,2,0,L|324:328,3,35
336,316,46489,2,0,L|287:297,4,35
260,248,46976,1,0,0:0:0:0:
180,180,47138,1,0,0:0:0:0:
100,248,47300,1,0,0:0:0:0:
68,148,47462,1,0,0:0:0:0:
160,84,47625,2,0,P|200:76|236:96,2,70
344,180,48111,1,0,0:0:0:0:
420,264,48273,1,0,0:0:0:0:
320,320,48435,2,0,P|260:344|228:344,1,70
152,296,48760,1,0,0:0:0:0:
52,184,48922,1,0,0:0:0:0:
56,172,49003,1,0,0:0:0:0:
64,160,49084,2,0,L|88:120,4,35
168,132,49570,1,0,0:0:0:0:
248,200,49733,1,0,0:0:0:0:
260,208,49814,1,0,0:0:0:0:
272,212,49895,2,0,L|308:228,5,35
303,226,50381,2,0,L|344:216,3,35
348,208,50706,1,0,0:0:0:0:
356,196,50787,2,0,P|368:160|360:120,1,70
360,116,51030,1,0,0:0:0:0:
352,104,51111,2,0,P|312:80|268:72,1,70
276,72,51354,1,0,0:0:0:0:
264,72,51435,2,0,P|204:88|192:96,1,70
188,100,51679,2,0,L|140:136,3,35
160,121,52003,2,0,L|156:180,3,35
152,168,52327,2,0,P|140:220|120:240,1,70
36,184,52652,2,0,P|32:244|56:276,1,70
128,264,52976,2,0,P|168:272|204:256,1,70
194,262,53219,1,0,0:0:0:0:
194,262,53300,1,0,0:0:0:0:
344,188,53462,2,0,P|356:236|340:264,1,70
348,253,53706,1,0,0:0:0:0:
348,253,53787,1,0,0:0:0:0:
284,336,53949,1,0,0:0:0:0:
180,320,54111,2,0,P|136:280|140:256,1,70
136,256,54354,1,0,0:0:0:0:
136,240,54435,2,0,P|140:192|156:172,1,70
248,104,54760,1,0,0:0:0:0:
384,120,54922,1,0,0:0:0:0:
412,220,55084,2,0,P|368:232|328:220,1,70
320,136,55408,2,0,P|272:148|244:180,1,70
160,220,55733,1,0,0:0:0:0:
80,304,55895,1,0,0:0:0:0:
176,368,56057,1,0,0:0:0:0:
260,288,56219,1,0,0:0:0:0:
312,184,56381,1,0,0:0:0:0:
304,168,56462,1,0,0:0:0:0:
292,156,56543,2,0,P|264:104|244:88,2,70
184,176,57030,1,0,0:0:0:0:
88,132,57192,1,0,0:0:0:0:
144,40,57354,1,0,0:0:0:0:
144,40,57435,1,0,0:0:0:0:
144,40,57516,1,0,0:0:0:0:
256,64,57679,2,0,P|300:72|336:96,1,70
268,176,58003,2,0,P|304:204|340:192,1,70
432,192,58327,1,0,0:0:0:0:
320,308,58489,1,0,0:0:0:0:
204,280,58652,1,0,0:0:0:0:
120,212,58814,2,0,P|124:172|152:148,1,70
220,80,59138,1,0,0:0:0:0:
328,88,59300,1,0,0:0:0:0:
328,88,59381,1,0,0:0:0:0:
328,88,59462,2,0,P|392:128|416:208,1,140
415,185,59949,1,0,0:0:0:0:
415,185,60111,1,0,0:0:0:0:
400,292,60273,1,0,0:0:0:0:
400,292,60354,1,0,0:0:0:0:
400,292,60435,1,0,0:0:0:0:
288,336,60597,2,0,L|236:328,2,35
252,236,60922,2,0,P|264:192|296:164,1,70
360,112,61246,1,0,0:0:0:0:
268,56,61408,1,0,0:0:0:0:
192,128,61570,1,0,0:0:0:0:
192,128,61652,1,0,0:0:0:0:
192,128,61733,2,0,P|172:200|192:264,1,140
264,288,62219,2,0,P|228:328|184:340,1,70
108,336,62543,1,0,0:0:0:0:
36,256,62706,1,0,0:0:0:0:
72,156,62868,1,0,0:0:0:0:
164,208,63030,1,0,0:0:0:0:
72,156,63192,1,0,0:0:0:0:
152,88,63354,2,0,L|224:60,2,70
