osu file format v12

[General]
AudioFilename: 14 Akasha.mp3
AudioLeadIn: 0
PreviewTime: 152381
Countdown: 1
SampleSet: Soft
StackLeniency: 0.7
Mode: 0
LetterboxInBreaks: 1
SkinPreference:BinJip
WidescreenStoryboard: 0

[Editor]
DistanceSpacing: 0.7
BeatDivisor: 4
GridSize: 32
TimelineZoom: 3.299999

[Metadata]
Title:Akasha
TitleUnicode:Akasha
Artist:xi
ArtistUnicode:xi
Creator:Kochiya Sanya
Version:Extra
Source:100sec records
Tags:Energy -Limitless Space World-
BeatmapID:396973
BeatmapSetID:162810

[Difficulty]
HPDrainRate:8
CircleSize:4
OverallDifficulty:8
ApproachRate:9
SliderMultiplier:2
SliderTickRate:1

[Events]
//Background and Video events
0,0,"23050135.jpg",0,0
//Break Periods
//Storyboard Layer 0 (Background)
//Storyboard Layer 1 (Fail)
//Storyboard Layer 2 (Pass)
//Storyboard Layer 3 (Foreground)
//Storyboard Sound Samples
//Background Colour Transformations
3,100,163,162,255

[TimingPoints]
1409,648.648648648649,4,2,0,40,1,0
1509,-200,4,2,0,40,0,0
42598,324.324324324324,4,2,0,40,1,0
42598,-100,4,2,0,46,0,0
42679,-100,4,2,0,52,0,0
42760,-100,4,2,0,58,0,0
42841,-100,4,2,0,64,0,0
42922,-100,4,2,0,70,0,0
59949,-100,4,2,0,70,0,0
60111,-100,4,2,0,70,0,0
65949,-100,4,2,0,55,0,0
88327,-80,4,2,0,85,0,1
108760,-100,4,2,0,85,0,0
125625,-66.6666666666667,4,2,0,100,0,1
129841,648.648648648649,4,2,0,40,1,0
129841,-200,4,2,0,40,0,0
140219,324.324324324324,4,2,0,70,1,0
150597,-66.6666666666667,4,2,0,85,0,1
171354,-100,4,2,0,85,0,0
192110,-66.6666666666667,4,2,0,85,0,1
212867,-80,4,2,0,70,0,0
215246,-80,4,3,0,70,0,0
215462,-80,4,2,0,70,0,0
225624,-80,4,3,0,70,0,0
225840,-80,4,2,0,70,0,0
236002,-80,4,3,0,70,0,0
236218,-80,4,2,0,70,0,0
244002,-80,4,2,0,70,0,0
251786,-80,4,3,0,70,0,0
254705,-66.6666666666667,4,2,0,60,0,0
255029,-66.6666666666667,4,2,0,50,0,0
255354,-66.6666666666667,4,2,0,45,0,0
255678,-66.6666666666667,4,2,0,40,0,0
256002,-66.6666666666667,4,2,0,35,0,0
256327,-66.6666666666667,4,2,0,30,0,0
256651,-66.6666666666667,4,2,0,25,0,0
256975,-66.6666666666667,4,2,0,20,0,0
257300,-66.6666666666667,4,2,0,15,0,0
257624,-66.6666666666667,4,2,0,10,0,0

[HitObjects]
256,192,1409,12,0,4003,0:0:0:0:
256,192,5300,5,0,0:0:0:0:
256,192,6598,12,0,9192,0:0:0:0:
256,192,10490,5,0,0:0:0:0:
256,192,11787,12,0,14381,0:0:0:0:
256,192,15679,5,0,0:0:0:0:
256,192,16976,12,0,21679,0:0:0:0:
68,68,21841,5,0,0:0:0:0:
60,80,21922,1,0,0:0:0:0:
52,92,22003,1,0,0:0:0:0:
48,104,22084,1,0,0:0:0:0:
38,133,22165,2,0,P|38:189|102:269,1,150,4|0,0:0|0:0,0:0:0:0:
91,262,23463,1,2,0:0:0:0:
190,324,24111,2,0,P|261:326|295:302,1,100
256,221,25409,2,0,P|317:196|357:228,1,100
163,82,27030,5,0,0:0:0:0:
163,82,27192,1,0,0:0:0:0:
163,82,27354,2,4,P|202:164|263:191,1,150,8|0,0:0|0:0,0:0:0:0:
252,189,28652,1,8,0:0:0:0:
378,64,29625,5,0,0:0:0:0:
440,155,29787,1,0,0:0:0:0:
385,258,29949,2,0,P|286:290|232:264,1,150,8|0,0:0|0:0,0:0:0:0:
247,278,31246,1,8,0:0:0:0:
100,266,32057,5,0,0:0:0:0:
17,179,32219,1,0,0:0:0:0:
110,93,32381,1,0,0:0:0:0:
17,179,32544,2,0,L|168:182,1,150,8|0,0:0|0:0,0:0:0:0:
14,178,33841,1,8,0:0:0:0:
103,266,34490,1,0,0:0:0:0:
225,308,35138,2,0,P|294:318|338:298,1,100
274,215,36111,1,0,0:0:0:0:
225,307,36273,1,0,0:0:0:0:
120,338,36436,2,0,P|79:337|43:306,1,75,2|0,0:0|0:0,0:0:0:0:
120,338,37084,1,0,0:0:0:0:
152,228,37246,1,0,0:0:0:0:
238,151,37409,1,0,0:0:0:0:
249,147,37490,1,0,0:0:0:0:
261,145,37571,1,0,0:0:0:0:
273,145,37652,1,0,0:0:0:0:
285,147,37733,2,0,P|370:168|430:206,1,150,8|0,0:0|0:0,0:0:0:0:
423,200,39030,1,8,0:0:0:0:
69,251,40003,1,0,0:0:0:0:
172,200,40165,1,0,0:0:0:0:
252,266,40327,2,0,P|339:236|368:172,1,150,8|0,0:0|0:0,0:0:0:0:
228,69,41625,1,8,0:0:0:0:
256,192,41787,12,0,42436,0:0:0:0:
163,99,42598,5,0,0:0:0:0:
153,119,42679,1,0,0:0:0:0:
145,140,42760,1,0,0:0:0:0:
135,160,42841,1,0,0:0:0:0:
126,180,42922,1,4,0:0:0:0:
310,152,43084,5,0,0:0:0:0:
322,170,43165,1,0,0:0:0:0:
334,188,43246,1,0,0:0:0:0:
346,206,43327,1,0,0:0:0:0:
357,225,43408,1,8,0:0:0:0:
200,323,43570,2,0,P|141:315|74:279,1,100,0|2,0:0|0:0,0:0:0:0:
18,140,43895,1,0,0:0:0:0:
30,121,43976,1,0,0:0:0:0:
47,107,44057,1,0,0:0:0:0:
68,100,44138,1,0,0:0:0:0:
89,93,44219,1,4,0:0:0:0:
376,90,44381,1,2,0:0:0:0:
127,289,44543,1,4,0:0:0:0:
286,317,44706,5,8,0:0:0:0:
300,317,44787,1,0,0:0:0:0:
314,317,44868,2,0,L|353:318,3,33.3333333333334,0|0|0|2,0:0|0:0|0:0|0:0,0:0:0:0:
432,90,45192,1,4,0:0:0:0:
336,176,45354,1,2,0:0:0:0:
216,231,45516,1,8,0:0:0:0:
59,217,45679,1,0,0:0:0:0:
136,34,45841,2,0,P|203:54|234:100,1,100
228,88,46084,1,0,0:0:0:0:
231,102,46165,1,0,0:0:0:0:
235,116,46246,1,0,0:0:0:0:
237,130,46327,1,0,0:0:0:0:
238,144,46408,1,0,0:0:0:0:
241,178,46489,2,2,L|233:235,1,50,8|0,0:0|0:0,0:0:0:0:
132,226,46652,2,2,L|72:200,1,50,8|0,0:0|0:0,0:0:0:0:
48,58,46814,6,0,P|112:47|177:59,1,100,8|0,0:0|0:0,0:0:0:0:
160,56,47057,1,0,0:0:0:0:
173,61,47138,1,0,0:0:0:0:
184,70,47219,1,0,0:0:0:0:
194,80,47300,1,2,0:0:0:0:
345,260,47462,1,0,0:0:0:0:
352,272,47543,1,0,0:0:0:0:
357,285,47625,1,8,0:0:0:0:
193,308,47787,1,8,0:0:0:0:
57,236,47949,1,0,0:0:0:0:
283,57,48111,5,4,0:0:0:0:
376,126,48273,1,0,0:0:0:0:
288,206,48435,1,0,0:0:0:0:
190,135,48597,1,0,0:0:0:0:
289,209,48760,1,8,0:0:0:0:
183,280,48922,1,0,0:0:0:0:
168,284,49003,1,0,0:0:0:0:
153,286,49084,1,0,0:0:0:0:
138,287,49165,1,0,0:0:0:0:
123,286,49246,1,0,0:0:0:0:
108,283,49327,1,0,0:0:0:0:
94,277,49408,1,4,0:0:0:0:
57,100,49570,6,0,L|100:91,3,33.3333333333334,0|0|0|2,0:0|0:0|0:0|0:0,0:0:0:0:
104,93,49814,1,0,0:0:0:0:
118,91,49895,1,0,0:0:0:0:
132,91,49976,1,0,0:0:0:0:
146,93,50057,1,0,0:0:0:0:
160,96,50138,1,0,0:0:0:0:
174,99,50219,1,0,0:0:0:0:
188,103,50300,1,0,0:0:0:0:
225,105,50381,2,0,L|286:105,1,50,8|0,0:0|0:0,0:0:0:0:
285,246,50543,2,0,L|223:247,1,50,8|0,0:0|0:0,0:0:0:0:
225,104,50706,2,0,L|288:104,1,50,2|0,0:0|0:0,0:0:0:0:
412,146,50868,6,0,L|397:191,3,33.3333333333334,8|0|8|0,0:0|0:0|0:0|0:0,0:0:0:0:
393,190,51111,1,0,0:0:0:0:
384,202,51192,1,0,0:0:0:0:
373,212,51273,1,0,0:0:0:0:
362,222,51354,1,0,0:0:0:0:
349,230,51435,1,0,0:0:0:0:
337,239,51516,2,0,L|290:271,2,33.3333333333334
232,312,51679,1,0,0:0:0:0:
224,296,51760,1,0,0:0:0:0:
216,280,51841,2,0,L|164:288,3,33.3333333333334,8|0|8|0,0:0|0:0|0:0|0:0,0:0:0:0:
198,260,52084,5,0,0:0:0:0:
177,237,52165,1,0,0:0:0:0:
162,210,52246,1,0,0:0:0:0:
138,191,52327,1,0,0:0:0:0:
111,176,52408,1,0,0:0:0:0:
81,169,52489,1,0,0:0:0:0:
52,159,52570,1,0,0:0:0:0:
31,136,52652,1,0,0:0:0:0:
26,106,52733,1,0,0:0:0:0:
32,76,52814,2,0,L|67:42,3,33.3333333333334,8|0|8|0,0:0|0:0|0:0|0:0,0:0:0:0:
68,45,53057,5,0,0:0:0:0:
82,41,53138,1,0,0:0:0:0:
96,43,53219,1,0,0:0:0:0:
110,48,53300,1,4,0:0:0:0:
184,150,53462,5,0,0:0:0:0:
188,164,53543,1,0,0:0:0:0:
196,176,53625,1,0,0:0:0:0:
205,187,53706,1,0,0:0:0:0:
216,197,53787,1,8,0:0:0:0:
381,94,53949,1,0,0:0:0:0:
216,197,54111,1,0,0:0:0:0:
372,272,54273,1,0,0:0:0:0:
360,284,54354,1,0,0:0:0:0:
352,296,54435,1,0,0:0:0:0:
340,304,54516,1,0,0:0:0:0:
332,312,54597,2,0,P|262:326|220:316,1,100,4|0,0:0|0:0,0:0:0:0:
76,105,54922,5,2,0:0:0:0:
203,45,55084,1,0,0:0:0:0:
217,45,55165,1,0,0:0:0:0:
231,46,55246,2,0,L|285:47,3,33.3333333333334
425,235,55570,1,0,0:0:0:0:
264,316,55733,1,2,0:0:0:0:
128,268,55895,1,8,0:0:0:0:
65,157,56057,1,0,0:0:0:0:
48,306,56219,1,0,0:0:0:0:
221,116,56381,5,0,0:0:0:0:
230,127,56462,1,0,0:0:0:0:
237,140,56543,2,0,L|256:172,6,33.3333333333333,8|0|0|0|0|0|0,0:0|0:0|0:0|0:0|0:0|0:0|0:0,0:0:0:0:
251,135,56949,1,0,0:0:0:0:
263,126,57030,1,0,0:0:0:0:
275,117,57111,1,0,0:0:0:0:
289,113,57192,2,0,P|341:98|390:116,1,100,4|0,0:0|0:0,0:0:0:0:
394,121,57435,1,0,0:0:0:0:
401,133,57516,1,0,0:0:0:0:
406,146,57597,1,0,0:0:0:0:
409,160,57679,1,4,0:0:0:0:
341,283,57841,5,8,0:0:0:0:
201,200,58003,1,2,0:0:0:0:
37,227,58165,1,0,0:0:0:0:
138,332,58327,1,0,0:0:0:0:
323,73,58489,1,12,0:0:0:0:
453,130,58652,2,0,P|428:229|327:321,1,200,8|8,0:0|0:0,0:0:0:0:
215,342,59138,1,8,0:0:0:0:
272,184,59300,5,0,0:0:0:0:
257,180,59381,1,0,0:0:0:0:
242,177,59462,1,0,0:0:0:0:
227,173,59543,1,0,0:0:0:0:
211,174,59625,2,0,L|149:185,3,33.3333333333333,0|0|0|4,0:0|0:0|0:0|0:0,0:0:0:0:
84,309,59949,1,2,0:0:0:0:
428,309,60111,5,2,0:0:0:0:
328,208,60273,1,2,0:0:0:0:
335,195,60354,1,2,0:0:0:0:
342,182,60435,1,2,0:0:0:0:
220,202,60597,1,2,0:0:0:0:
229,190,60679,1,2,0:0:0:0:
239,179,60760,1,2,0:0:0:0:
114,202,60922,2,0,L|134:175,3,33.3333333333333,0|0|0|0,0:0|0:0|0:0|0:0,0:0:0:0:
1,202,61246,2,0,L|32:161,3,33.3333333333333,0|0|0|2,0:0|0:0|0:0|0:0,0:0:0:0:
33,166,61489,1,0,0:0:0:0:
46,158,61570,1,0,0:0:0:0:
60,153,61652,1,0,0:0:0:0:
74,150,61733,1,4,0:0:0:0:
88,147,61814,1,0,0:0:0:0:
102,146,61895,6,0,L|159:142,2,33.3333333333333
152,248,62057,1,0,0:0:0:0:
168,240,62138,1,0,0:0:0:0:
184,232,62219,2,0,L|220:211,3,33.3333333333333,8|0|0|8,0:0|0:0|0:0|0:0,0:0:0:0:
244,212,62462,5,0,0:0:0:0:
272,201,62543,1,0,0:0:0:0:
294,180,62625,1,0,0:0:0:0:
313,157,62706,1,0,0:0:0:0:
328,131,62787,1,0,0:0:0:0:
352,113,62868,1,0,0:0:0:0:
380,104,62949,1,0,0:0:0:0:
408,124,63030,6,0,L|441:175,1,50,2|2,0:0|0:0,0:0:0:0:
384,252,63192,2,0,L|387:315,1,50,2|2,0:0|0:0,0:0:0:0:
264,299,63354,2,0,L|205:326,6,33.3333333333333,0|0|0|0|0|0|4,0:0|0:0|0:0|0:0|0:0|0:0|0:0,0:0:0:0:
358,69,65949,5,0,0:0:0:0:
359,88,66030,1,0,0:0:0:0:
356,107,66111,1,0,0:0:0:0:
351,126,66192,1,0,0:0:0:0:
341,143,66273,2,0,P|305:200|268:218,1,100,4|2,0:0|0:0,0:0:0:0:
277,214,66516,1,2,0:0:0:0:
74,229,66760,5,0,0:0:0:0:
77,248,66841,1,0,0:0:0:0:
84,266,66922,2,0,P|108:325|141:347,1,100,8|2,0:0|0:0,0:0:0:0:
136,344,67165,1,2,0:0:0:0:
295,293,67327,1,2,0:0:0:0:
311,303,67408,1,2,0:0:0:0:
334,164,67570,1,0,0:0:0:0:
261,49,67733,1,2,0:0:0:0:
278,40,67814,1,2,0:0:0:0:
92,112,67976,5,0,0:0:0:0:
84,129,68057,1,0,0:0:0:0:
77,148,68138,1,0,0:0:0:0:
77,167,68219,2,0,P|66:242|93:300,1,100,8|2,0:0|0:0,0:0:0:0:
79,282,68462,1,2,0:0:0:0:
219,303,68625,2,2,L|233:364,1,50
327,220,68868,1,0,0:0:0:0:
242,109,69030,2,2,L|283:57,1,50
124,113,69354,1,0,0:0:0:0:
124,113,69435,1,0,0:0:0:0:
124,113,69516,1,8,0:0:0:0:
24,215,69679,1,2,0:0:0:0:
24,215,69760,1,2,0:0:0:0:
102,335,70003,1,0,0:0:0:0:
102,335,70084,1,0,0:0:0:0:
102,335,70165,1,8,0:0:0:0:
328,266,70408,2,0,B|383:198|372:146|307:107,1,150,8|8,0:0|0:0,0:0:0:0:
201,71,70895,5,0,0:0:0:0:
182,77,70976,1,0,0:0:0:0:
163,83,71057,1,0,0:0:0:0:
143,88,71138,1,4,0:0:0:0:
125,97,71219,1,0,0:0:0:0:
107,105,71300,1,0,0:0:0:0:
336,238,71462,1,8,0:0:0:0:
216,309,71625,1,2,0:0:0:0:
216,309,71706,1,2,0:0:0:0:
54,265,71868,1,8,0:0:0:0:
54,265,72111,1,8,0:0:0:0:
81,122,72354,1,0,0:0:0:0:
205,50,72597,1,0,0:0:0:0:
205,50,72679,1,0,0:0:0:0:
205,50,72760,1,8,0:0:0:0:
410,197,73003,1,0,0:0:0:0:
74,333,73246,1,0,0:0:0:0:
296,296,73570,5,8,0:0:0:0:
297,294,73733,2,0,P|368:215|336:125,1,200,8|0,0:0|0:0,0:0:0:0:
100,124,74381,1,8,0:0:0:0:
83,135,74462,1,0,0:0:0:0:
73,152,74543,1,0,0:0:0:0:
64,170,74625,1,0,0:0:0:0:
58,189,74706,2,0,P|43:256|90:320,1,150,0|2,0:0|0:0,0:0:0:0:
87,318,75030,1,2,0:0:0:0:
87,318,75192,1,0,0:0:0:0:
242,302,75354,1,4,0:0:0:0:
328,190,75516,1,0,0:0:0:0:
325,170,75597,1,0,0:0:0:0:
319,150,75679,1,8,0:0:0:0:
188,85,75841,1,0,0:0:0:0:
169,91,75922,1,0,0:0:0:0:
153,104,76003,1,0,0:0:0:0:
142,121,76084,1,0,0:0:0:0:
133,139,76165,1,0,0:0:0:0:
131,158,76246,1,0,0:0:0:0:
117,172,76327,1,0,0:0:0:0:
105,188,76408,1,0,0:0:0:0:
92,203,76489,1,0,0:0:0:0:
87,222,76570,1,0,0:0:0:0:
86,242,76652,1,4,0:0:0:0:
345,89,76814,5,2,0:0:0:0:
358,103,76895,2,2,P|399:177|397:226,1,100
400,190,77138,1,2,0:0:0:0:
400,190,77300,1,0,0:0:0:0:
264,313,77462,1,2,0:0:0:0:
244,313,77543,2,2,P|173:310|123:272,1,100
130,287,77787,1,2,0:0:0:0:
225,75,77949,1,8,0:0:0:0:
100,146,78111,1,2,0:0:0:0:
100,146,78192,1,2,0:0:0:0:
234,225,78435,1,0,0:0:0:0:
251,214,78516,1,0,0:0:0:0:
268,204,78597,2,0,P|331:142|346:106,1,100,8|2,0:0|0:0,0:0:0:0:
335,132,78841,1,2,0:0:0:0:
227,33,79084,1,4,0:0:0:0:
47,209,79246,5,8,0:0:0:0:
148,287,79408,1,2,0:0:0:0:
148,287,79489,1,2,0:0:0:0:
248,344,79733,1,0,0:0:0:0:
334,260,79895,2,0,P|393:188|404:164,1,100,0|2,0:0|0:0,0:0:0:0:
399,173,80138,1,2,0:0:0:0:
280,70,80381,1,0,0:0:0:0:
280,70,80543,1,0,0:0:0:0:
141,75,80706,1,2,0:0:0:0:
121,80,80787,1,2,0:0:0:0:
103,316,81030,1,0,0:0:0:0:
345,204,81354,1,0,0:0:0:0:
46,91,81516,1,4,0:0:0:0:
46,91,81679,1,8,0:0:0:0:
42,224,81841,5,8,0:0:0:0:
165,314,82003,2,0,P|283:318|359:278,2,200
94,64,82814,1,4,0:0:0:0:
287,41,82976,5,0,0:0:0:0:
275,56,83057,1,0,0:0:0:0:
263,72,83138,1,4,0:0:0:0:
163,95,83300,5,0,0:0:0:0:
173,111,83381,1,0,0:0:0:0:
181,128,83462,1,4,0:0:0:0:
301,150,83625,5,0,0:0:0:0:
286,163,83706,1,0,0:0:0:0:
271,176,83787,1,4,0:0:0:0:
132,210,83949,5,0,0:0:0:0:
146,224,84030,1,0,0:0:0:0:
160,237,84111,1,4,0:0:0:0:
307,260,84273,5,0,0:0:0:0:
291,272,84354,1,0,0:0:0:0:
275,284,84435,1,4,0:0:0:0:
143,349,84597,2,0,P|46:302|34:210,1,200
38,199,85003,1,0,0:0:0:0:
51,183,85084,1,4,0:0:0:0:
136,104,85246,1,0,0:0:0:0:
154,96,85327,1,0,0:0:0:0:
172,89,85408,1,8,0:0:0:0:
346,87,85570,2,0,L|375:62,1,25
350,112,85652,2,0,L|393:108,1,25
343,129,85733,2,0,L|479:87,1,100,8|0,0:0|0:0,0:0:0:0:
138,126,86057,2,0,L|32:88,1,100,8|0,0:0|0:0,0:0:0:0:
340,255,86381,2,0,L|435:317,1,100,8|0,0:0|0:0,0:0:0:0:
134,266,86706,2,0,L|11:326,1,100,8|0,0:0|0:0,0:0:0:0:
117,350,87030,5,0,0:0:0:0:
146,350,87111,1,0,0:0:0:0:
175,346,87192,1,0,0:0:0:0:
202,344,87273,1,0,0:0:0:0:
228,329,87354,1,0,0:0:0:0:
249,308,87435,1,0,0:0:0:0:
265,282,87516,1,0,0:0:0:0:
273,253,87597,1,0,0:0:0:0:
268,223,87678,1,0,0:0:0:0:
244,204,87759,1,0,0:0:0:0:
219,186,87840,1,0,0:0:0:0:
200,162,87922,1,0,0:0:0:0:
200,132,88003,1,0,0:0:0:0:
212,104,88084,1,0,0:0:0:0:
228,79,88165,1,0,0:0:0:0:
248,57,88246,1,0,0:0:0:0:
271,38,88327,1,4,0:0:0:0:
447,111,88489,5,0,0:0:0:0:
447,111,88570,1,0,0:0:0:0:
447,111,88652,2,0,P|427:190|357:243,1,125,8|0,0:0|0:0,0:0:0:0:
265,282,88976,1,8,0:0:0:0:
110,276,89138,1,0,0:0:0:0:
72,271,89219,1,0,0:0:0:0:
32,252,89300,1,0,0:0:0:0:
61,91,89462,1,8,0:0:0:0:
204,30,89625,2,0,P|324:35|397:74,1,187.5,2|0,0:0|0:0,0:0:0:0:
383,63,89949,2,2,P|429:160|419:232,1,125
144,172,90273,5,8,0:0:0:0:
265,282,90435,1,2,0:0:0:0:
292,307,90516,1,2,0:0:0:0:
129,310,90679,1,0,0:0:0:0:
97,289,90760,1,0,0:0:0:0:
77,256,90841,1,0,0:0:0:0:
62,221,90922,1,0,0:0:0:0:
58,183,91003,1,0,0:0:0:0:
69,147,91084,1,0,0:0:0:0:
85,113,91165,1,8,0:0:0:0:
386,169,91408,5,0,0:0:0:0:
203,278,91570,1,8,0:0:0:0:
196,64,91733,1,0,0:0:0:0:
364,192,91895,1,0,0:0:0:0:
170,278,92057,1,0,0:0:0:0:
225,73,92219,1,8,0:0:0:0:
361,235,92381,1,0,0:0:0:0:
150,261,92543,1,0,0:0:0:0:
240,67,92706,1,0,0:0:0:0:
401,135,92868,6,0,L|344:99,1,62.5,8|0,0:0|0:0,0:0:0:0:
326,221,93030,2,0,L|269:264,1,62.5,8|0,0:0|0:0,0:0:0:0:
228,142,93192,2,0,L|175:101,1,62.5,8|0,0:0|0:0,0:0:0:0:
127,213,93354,2,8,L|70:248,1,62.5,8|0,0:0|0:0,0:0:0:0:
32,132,93516,5,4,0:0:0:0:
168,53,93679,1,0,0:0:0:0:
205,50,93760,1,0,0:0:0:0:
242,47,93841,1,0,0:0:0:0:
279,49,93922,1,0,0:0:0:0:
316,60,94003,1,0,0:0:0:0:
352,76,94084,1,2,0:0:0:0:
403,219,94246,1,0,0:0:0:0:
388,253,94327,1,0,0:0:0:0:
364,281,94408,1,0,0:0:0:0:
333,302,94489,1,2,0:0:0:0:
174,287,94652,5,2,0:0:0:0:
198,258,94733,1,2,0:0:0:0:
225,232,94814,1,2,0:0:0:0:
183,98,94976,5,2,0:0:0:0:
153,121,95057,1,2,0:0:0:0:
127,148,95138,1,2,0:0:0:0:
174,287,95300,5,2,0:0:0:0:
198,258,95381,1,2,0:0:0:0:
225,232,95462,1,2,0:0:0:0:
183,98,95625,5,2,0:0:0:0:
153,121,95706,1,2,0:0:0:0:
127,148,95787,1,2,0:0:0:0:
308,87,95949,5,0,0:0:0:0:
341,104,96030,1,0,0:0:0:0:
370,127,96111,2,0,P|423:175|456:244,1,125,8|0,0:0|0:0,0:0:0:0:
448,221,96354,1,2,0:0:0:0:
305,327,96597,1,0,0:0:0:0:
129,272,96760,1,0,0:0:0:0:
298,178,96922,1,0,0:0:0:0:
131,87,97084,1,0,0:0:0:0:
301,27,97246,1,0,0:0:0:0:
386,189,97408,1,8,0:0:0:0:
206,256,97570,1,0,0:0:0:0:
27,193,97733,1,0,0:0:0:0:
206,256,97895,2,0,L|244:230,1,31.25
204,282,97976,2,0,L|252:284,1,31.25
191,298,98057,1,2,0:0:0:0:
352,301,98219,1,0,0:0:0:0:
368,267,98300,1,0,0:0:0:0:
374,230,98381,1,2,0:0:0:0:
312,106,98543,2,0,L|344:88,1,31.25
292,96,98625,2,0,L|316:64,1,31.25
276,88,98706,1,0,0:0:0:0:
25,139,98868,5,8,0:0:0:0:
40,168,98949,2,0,P|100:236|192:256,1,187.5
252,102,99354,1,0,0:0:0:0:
223,78,99435,1,0,0:0:0:0:
186,68,99516,1,0,0:0:0:0:
149,61,99597,1,0,0:0:0:0:
111,54,99679,1,2,0:0:0:0:
127,170,99841,1,0,0:0:0:0:
158,190,99922,1,0,0:0:0:0:
198,189,100003,1,2,0:0:0:0:
352,72,100246,2,0,P|420:144|400:232,1,187.5
264,320,100652,5,8,0:0:0:0:
264,176,100814,1,0,0:0:0:0:
356,72,100976,1,0,0:0:0:0:
264,176,101138,1,0,0:0:0:0:
152,76,101300,2,0,P|80:132|68:224,1,187.5,8|0,0:0|0:0,0:0:0:0:
256,212,101787,1,0,0:0:0:0:
160,316,101949,5,8,0:0:0:0:
196,328,102030,1,0,0:0:0:0:
232,324,102111,1,0,0:0:0:0:
264,320,102192,1,0,0:0:0:0:
300,308,102273,2,0,P|364:272|396:212,1,125,8|0,0:0|0:0,0:0:0:0:
364,92,102597,1,8,0:0:0:0:
364,92,102841,1,0,0:0:0:0:
56,292,103084,1,2,0:0:0:0:
192,136,103246,5,0,0:0:0:0:
404,200,103408,2,0,P|376:264|288:292,1,125,0|8,0:0|0:0,0:0:0:0:
296,304,103652,1,0,0:0:0:0:
260,312,103733,1,0,0:0:0:0:
224,316,103814,1,0,0:0:0:0:
188,312,103895,1,4,0:0:0:0:
80,168,104057,1,0,0:0:0:0:
232,72,104219,1,0,0:0:0:0:
350,189,104381,1,2,0:0:0:0:
350,189,104462,1,2,0:0:0:0:
350,189,104543,1,2,0:0:0:0:
354,42,104706,5,0,0:0:0:0:
350,189,104868,1,0,0:0:0:0:
485,296,105030,1,0,0:0:0:0:
350,189,105192,1,0,0:0:0:0:
254,308,105354,1,8,0:0:0:0:
350,189,105516,1,8,0:0:0:0:
243,258,105679,2,0,P|168:295|101:282,1,125,8|8,0:0|0:0,0:0:0:0:
45,206,106003,1,0,0:0:0:0:
230,67,106165,1,8,0:0:0:0:
269,51,106246,1,0,0:0:0:0:
305,47,106327,1,0,0:0:0:0:
343,50,106408,1,0,0:0:0:0:
369,75,106489,1,4,0:0:0:0:
418,222,106652,1,0,0:0:0:0:
418,222,106733,2,0,P|432:298|353:364,1,187.5,0|2,0:0|0:0,0:0:0:0:
354,363,107057,1,2,0:0:0:0:
357,364,107138,1,2,0:0:0:0:
200,350,107300,5,0,0:0:0:0:
45,245,107462,1,2,0:0:0:0:
63,246,107543,1,0,0:0:0:0:
81,247,107625,2,0,L|149:248,1,62.5
150,105,107787,1,4,0:0:0:0:
168,106,107868,1,0,0:0:0:0:
186,107,107949,2,0,L|255:107,1,62.5
254,255,108111,1,4,0:0:0:0:
272,255,108192,1,0,0:0:0:0:
290,255,108273,2,0,L|360:256,1,62.5
352,152,108435,2,0,L|376:148,12,15.625
328,180,108760,2,0,L|312:244,1,50
212,224,108922,2,0,L|152:256,1,50
88,180,109084,1,4,0:0:0:0:
62,311,109246,5,2,0:0:0:0:
62,311,109327,1,2,0:0:0:0:
201,333,109571,1,0,0:0:0:0:
201,333,109733,1,8,0:0:0:0:
336,288,109895,1,0,0:0:0:0:
356,276,109976,1,0,0:0:0:0:
372,256,110057,1,0,0:0:0:0:
427,123,110219,1,0,0:0:0:0:
270,67,110381,1,8,0:0:0:0:
165,197,110543,1,0,0:0:0:0:
352,215,110706,1,0,0:0:0:0:
201,119,110868,1,0,0:0:0:0:
370,115,111030,5,8,0:0:0:0:
285,229,111192,1,0,0:0:0:0:
125,273,111354,1,0,0:0:0:0:
157,113,111516,1,0,0:0:0:0:
301,40,111679,2,0,P|369:72|392:131,1,100,8|0,0:0|0:0,0:0:0:0:
381,90,111922,1,0,0:0:0:0:
415,251,112084,1,0,0:0:0:0:
408,264,112165,1,0,0:0:0:0:
399,276,112246,1,0,0:0:0:0:
387,285,112327,1,8,0:0:0:0:
233,318,112489,1,0,0:0:0:0:
57,281,112652,1,0,0:0:0:0:
233,318,112814,1,0,0:0:0:0:
160,179,112976,1,8,0:0:0:0:
233,318,113138,1,0,0:0:0:0:
307,168,113300,1,0,0:0:0:0:
233,318,113462,2,0,P|312:325|351:293,1,100,0|8,0:0|0:0,0:0:0:0:
412,199,113787,5,0,0:0:0:0:
364,81,113949,1,0,0:0:0:0:
227,53,114111,1,0,0:0:0:0:
79,277,114273,1,2,0:0:0:0:
65,283,114354,1,2,0:0:0:0:
355,285,114516,1,2,0:0:0:0:
368,291,114597,1,2,0:0:0:0:
228,186,114760,1,0,0:0:0:0:
145,107,114922,2,0,P|92:84|28:93,1,100,8|0,0:0|0:0,0:0:0:0:
36,89,115165,1,0,0:0:0:0:
22,94,115246,1,8,0:0:0:0:
74,231,115408,1,0,0:0:0:0:
203,312,115570,2,0,P|268:315|305:288,1,100,0|2,0:0|0:0,0:0:0:0:
316,264,115814,1,2,0:0:0:0:
316,264,115895,1,2,0:0:0:0:
334,112,116057,1,0,0:0:0:0:
200,86,116219,1,8,0:0:0:0:
238,273,116381,5,0,0:0:0:0:
322,103,116543,1,0,0:0:0:0:
153,190,116706,1,0,0:0:0:0:
348,211,116868,1,8,0:0:0:0:
93,295,117030,1,0,0:0:0:0:
225,346,117192,1,0,0:0:0:0:
365,281,117354,1,2,0:0:0:0:
365,281,117435,1,2,0:0:0:0:
365,281,117516,1,2,0:0:0:0:
412,146,117679,1,0,0:0:0:0:
312,53,117841,1,2,0:0:0:0:
312,53,117922,1,2,0:0:0:0:
312,53,118003,1,2,0:0:0:0:
88,140,118165,1,4,0:0:0:0:
149,266,118327,6,0,L|119:288,1,25
160,279,118408,2,0,L|134:306,1,25
170,287,118489,1,2,0:0:0:0:
294,312,118652,1,0,0:0:0:0:
311,303,118733,1,0,0:0:0:0:
324,288,118814,1,0,0:0:0:0:
336,272,118895,1,0,0:0:0:0:
344,259,118976,1,0,0:0:0:0:
340,247,119057,1,0,0:0:0:0:
336,232,119138,2,2,L|271:229,1,50,2|2,0:0|0:0,0:0:0:0:
283,131,119300,2,2,L|346:130,1,50,2|2,0:0|0:0,0:0:0:0:
334,228,119462,1,6,0:0:0:0:
124,106,119625,5,0,0:0:0:0:
103,94,119706,1,0,0:0:0:0:
83,88,119787,1,8,0:0:0:0:
128,288,119949,1,0,0:0:0:0:
0,332,120111,1,0,0:0:0:0:
274,335,120273,1,0,0:0:0:0:
293,334,120354,1,0,0:0:0:0:
312,336,120435,1,0,0:0:0:0:
331,332,120516,1,0,0:0:0:0:
350,330,120597,1,10,0:0:0:0:
417,206,120760,2,0,P|412:152|361:102,1,100,8|2,0:0|0:0,0:0:0:0:
367,106,121003,1,2,0:0:0:0:
347,100,121084,1,2,0:0:0:0:
184,83,121246,1,0,0:0:0:0:
74,202,121408,5,8,0:0:0:0:
306,158,121570,1,0,0:0:0:0:
203,260,121733,1,0,0:0:0:0:
184,83,121895,1,0,0:0:0:0:
373,289,122057,1,12,0:0:0:0:
245,337,122300,5,2,0:0:0:0:
225,342,122381,1,2,0:0:0:0:
61,311,122543,1,0,0:0:0:0:
51,104,122706,2,0,P|112:86|179:113,1,100,2|2,0:0|0:0,0:0:0:0:
165,99,122949,1,2,0:0:0:0:
182,108,123030,1,2,0:0:0:0:
318,46,123192,1,0,0:0:0:0:
328,288,123354,1,8,0:0:0:0:
150,278,123597,1,0,0:0:0:0:
130,272,123679,2,0,P|82:194|90:147,1,100,8|0,0:0|0:0,0:0:0:0:
128,98,124003,1,8,0:0:0:0:
80,252,124165,2,0,P|156:300|192:292,1,100,0|4,0:0|0:0,0:0:0:0:
294,89,124489,5,0,0:0:0:0:
180,58,124652,1,10,0:0:0:0:
71,146,124814,1,0,0:0:0:0:
168,246,124976,1,0,0:0:0:0:
280,163,125138,1,2,0:0:0:0:
393,244,125300,1,10,0:0:0:0:
286,334,125462,1,0,0:0:0:0:
96,224,125625,6,0,P|28:304|48:368,1,150.000005722046,4|0,0:0|0:0,0:0:0:0:
325,317,125949,6,0,P|424:280|436:184,1,150.000005722046,4|0,0:0|0:0,0:0:0:0:
287,43,126273,6,0,P|208:40|124:124,1,150.000005722046,4|0,0:0|0:0,0:0:0:0:
77,228,126597,6,0,P|64:332|148:352,1,150.000005722046,4|0,0:0|0:0,0:0:0:0:
354,97,126922,5,8,0:0:0:0:
354,97,127084,1,8,0:0:0:0:
100,172,127246,1,4,0:0:0:0:
380,48,127408,1,4,0:0:0:0:
384,304,127570,1,4,0:0:0:0:
148,92,127733,1,2,0:0:0:0:
184,64,127814,1,2,0:0:0:0:
216,44,127976,1,4,0:0:0:0:
436,116,128057,5,4,0:0:0:0:
68,160,128219,1,4,0:0:0:0:
436,236,128381,1,4,0:0:0:0:
60,292,128543,1,4,0:0:0:0:
188,168,128706,2,0,L|232:156,1,37.5000014305115
196,156,128787,2,0,L|236:140,1,37.5000014305115
204,140,128868,1,4,0:0:0:0:
332,100,129030,2,0,L|376:88,1,37.5000014305115
340,88,129111,2,0,L|380:72,1,37.5000014305115
348,72,129192,1,4,0:0:0:0:
400,228,129354,2,0,L|436:152,1,75.0000028610231
472,56,129516,1,4,0:0:0:0:
406,305,129679,5,0,0:0:0:0:
356,307,129760,1,0,0:0:0:0:
306,307,129841,2,0,P|190:288|112:224,1,200,4|0,0:0|0:0,0:0:0:0:
75,104,131786,6,0,P|117:88|139:82,1,50,8|0,0:0|0:0,0:0:0:0:
75,104,132273,1,0,0:0:0:0:
146,200,132435,2,0,P|212:222|259:213,1,100,8|0,0:0|0:0,0:0:0:0:
348,147,133408,5,0,0:0:0:0:
284,31,133732,2,0,P|218:31|184:59,1,100,8|0,0:0|0:0,0:0:0:0:
97,125,134705,1,0,0:0:0:0:
45,249,135030,2,0,P|100:296|135:302,1,100,8|0,0:0|0:0,0:0:0:0:
241,294,136003,5,0,0:0:0:0:
369,236,136327,2,0,P|392:166|379:120,1,100,8|0,0:0|0:0,0:0:0:0:
241,140,137300,1,0,0:0:0:0:
370,236,137462,1,0,0:0:0:0:
243,334,137624,1,8,0:0:0:0:
90,258,138273,1,8,0:0:0:0:
43,108,138922,1,8,0:0:0:0:
162,27,139570,1,8,0:0:0:0:
384,72,139895,5,0,0:0:0:0:
384,84,139976,1,0,0:0:0:0:
380,96,140057,1,0,0:0:0:0:
376,108,140138,1,0,0:0:0:0:
368,128,140219,2,0,P|340:184|300:208,1,100,4|0,0:0|0:0,0:0:0:0:
168,112,140543,1,8,0:0:0:0:
152,124,140624,1,0,0:0:0:0:
140,140,140705,1,0,0:0:0:0:
128,156,140786,1,0,0:0:0:0:
116,172,140867,1,0,0:0:0:0:
108,188,140948,1,0,0:0:0:0:
100,208,141029,1,0,0:0:0:0:
96,228,141110,1,0,0:0:0:0:
100,248,141191,2,0,L|120:300,2,33.3333333333333
200,280,141354,2,0,L|240:260,2,33.3333333333333
316,304,141516,1,4,0:0:0:0:
420,176,141678,5,0,0:0:0:0:
328,52,141840,1,8,0:0:0:0:
172,72,142002,2,0,L|116:88,3,33.3333333333333,0|0|0|2,0:0|0:0|0:0|0:0,0:0:0:0:
124,92,142246,1,0,0:0:0:0:
112,108,142327,1,0,0:0:0:0:
100,124,142408,1,0,0:0:0:0:
92,140,142489,1,2,0:0:0:0:
104,284,142651,1,0,0:0:0:0:
104,284,142732,1,0,0:0:0:0:
104,284,142813,1,4,0:0:0:0:
232,184,142975,1,0,0:0:0:0:
252,180,143056,1,0,0:0:0:0:
272,172,143137,2,0,L|320:144,2,33.3333333333333
376,164,143300,2,0,L|420:200,2,33.3333333333333
484,112,143462,1,4,0:0:0:0:
448,264,143624,5,0,0:0:0:0:
432,272,143705,1,0,0:0:0:0:
416,280,143786,2,0,L|424:320,1,25
392,288,143867,2,0,L|384:320,1,25
368,288,143948,2,0,L|336:296,1,25
352,284,144029,2,0,L|316:284,1,25
348,272,144110,1,4,0:0:0:0:
388,112,144354,5,2,0:0:0:0:
404,100,144435,1,2,0:0:0:0:
236,64,144678,1,2,0:0:0:0:
236,44,144759,1,2,0:0:0:0:
64,108,145002,1,2,0:0:0:0:
48,96,145083,1,2,0:0:0:0:
64,264,145327,1,2,0:0:0:0:
48,276,145408,1,6,0:0:0:0:
224,320,145570,5,0,0:0:0:0:
172,184,145732,1,0,0:0:0:0:
188,172,145813,1,0,0:0:0:0:
208,164,145894,1,0,0:0:0:0:
228,160,145975,1,0,0:0:0:0:
248,160,146056,1,0,0:0:0:0:
268,156,146137,1,0,0:0:0:0:
288,148,146219,1,0,0:0:0:0:
308,140,146300,1,0,0:0:0:0:
328,140,146381,2,0,L|368:148,2,33.3333333333333,8|0|8,0:0|0:0|0:0,0:0:0:0:
400,220,146543,2,0,L|444:240,2,33.3333333333333,8|0|8,0:0|0:0|0:0,0:0:0:0:
440,320,146705,1,4,0:0:0:0:
264,336,146867,6,0,L|224:324,3,33.3333333333333
212,320,147110,1,0,0:0:0:0:
192,312,147191,1,0,0:0:0:0:
176,300,147273,1,0,0:0:0:0:
160,288,147354,1,0,0:0:0:0:
148,272,147435,1,0,0:0:0:0:
136,256,147516,1,0,0:0:0:0:
128,236,147597,1,0,0:0:0:0:
128,216,147678,1,4,0:0:0:0:
168,88,147840,6,0,L|136:80,1,25
184,76,147921,2,0,L|160:52,1,25
200,72,148002,1,4,0:0:0:0:
392,68,148164,1,0,0:0:0:0:
384,84,148246,1,0,0:0:0:0:
372,100,148327,1,0,0:0:0:0:
360,116,148408,1,0,0:0:0:0:
348,132,148489,2,0,P|328:152|296:168,1,50,8|0,0:0|0:0,0:0:0:0:
204,128,148651,1,8,0:0:0:0:
192,144,148732,1,0,0:0:0:0:
184,160,148813,1,0,0:0:0:0:
176,180,148894,1,0,0:0:0:0:
176,200,148975,1,0,0:0:0:0:
176,220,149056,1,0,0:0:0:0:
180,236,149137,2,0,L|152:260,1,25
184,252,149219,2,0,L|160:280,1,25
192,264,149300,1,4,0:0:0:0:
400,252,149462,5,0,0:0:0:0:
384,268,149543,1,0,0:0:0:0:
368,280,149624,2,0,L|316:308,5,33.3333333333333,2|2|2|2|2|2,0:0|0:0|0:0|0:0|0:0|0:0,0:0:0:0:
232,320,149948,2,0,L|184:320,5,33.3333333333333,2|2|2|2|2|2,0:0|0:0|0:0|0:0|0:0|0:0,0:0:0:0:
68,244,150273,2,0,L|48:192,5,33.3333333333333,2|2|2|2|2|2,0:0|0:0|0:0|0:0|0:0|0:0,0:0:0:0:
104,76,150597,1,4,0:0:0:0:
360,64,150759,1,0,0:0:0:0:
368,108,150840,1,2,0:0:0:0:
360,152,150921,1,2,0:0:0:0:
276,296,151164,1,2,0:0:0:0:
232,300,151246,1,2,0:0:0:0:
76,204,151489,1,0,0:0:0:0:
56,164,151570,1,0,0:0:0:0:
220,44,151813,1,0,0:0:0:0:
264,44,151894,6,0,L|424:44,1,150.000005722046,0|0,0:0|0:0,0:0:0:0:
184,128,152219,2,0,L|8:128,1,150.000005722046
280,212,152543,2,0,L|464:212,1,150.000005722046
200,308,152867,2,0,L|32:308,1,150.000005722046
416,228,153191,5,4,0:0:0:0:
280,116,153435,1,2,0:0:0:0:
244,88,153516,1,2,0:0:0:0:
172,228,153759,1,2,0:0:0:0:
140,260,153840,1,2,0:0:0:0:
60,128,154083,1,2,0:0:0:0:
24,100,154164,1,2,0:0:0:0:
172,48,154327,2,0,P|276:64|316:116,1,150.000005722046
328,132,154570,1,0,0:0:0:0:
336,176,154651,1,0,0:0:0:0:
312,212,154732,1,0,0:0:0:0:
268,220,154813,1,0,0:0:0:0:
224,232,154894,1,0,0:0:0:0:
192,264,154975,1,0,0:0:0:0:
160,296,155056,1,0,0:0:0:0:
128,304,155137,2,0,L|60:280,2,50.0000019073487,8|0|8,0:0|0:0|0:0,0:0:0:0:
80,216,155300,2,0,L|68:168,2,50.0000019073487,8|0|8,0:0|0:0|0:0,0:0:0:0:
148,148,155462,2,0,L|164:100,2,50.0000019073487,8|0|8,0:0|0:0|0:0,0:0:0:0:
236,152,155624,2,0,L|280:128,2,50.0000019073487,8|0|8,0:0|0:0|0:0,0:0:0:0:
340,204,155786,5,4,0:0:0:0:
212,324,155948,1,0,0:0:0:0:
168,128,156110,1,8,0:0:0:0:
400,200,156273,1,0,0:0:0:0:
224,348,156435,1,0,0:0:0:0:
160,156,156597,1,0,0:0:0:0:
300,68,156759,1,8,0:0:0:0:
408,204,156921,1,0,0:0:0:0:
380,312,157083,1,0,0:0:0:0:
336,312,157164,1,0,0:0:0:0:
292,296,157246,1,0,0:0:0:0:
252,276,157327,1,0,0:0:0:0:
224,244,157408,5,0,0:0:0:0:
216,200,157489,1,0,0:0:0:0:
228,156,157570,1,0,0:0:0:0:
224,112,157651,1,0,0:0:0:0:
196,76,157732,1,0,0:0:0:0:
156,56,157813,1,0,0:0:0:0:
112,56,157894,1,0,0:0:0:0:
72,76,157975,1,0,0:0:0:0:
52,116,158056,5,2,0:0:0:0:
68,156,158137,1,2,0:0:0:0:
96,192,158218,1,2,0:0:0:0:
136,212,158300,1,2,0:0:0:0:
180,212,158381,1,6,0:0:0:0:
340,92,158543,5,0,0:0:0:0:
456,188,158705,1,8,0:0:0:0:
376,312,158867,1,0,0:0:0:0:
252,216,159029,1,0,0:0:0:0:
336,92,159191,1,8,0:0:0:0:
252,216,159354,1,8,0:0:0:0:
92,308,159516,1,8,0:0:0:0:
88,128,159678,1,4,0:0:0:0:
88,128,159759,1,0,0:0:0:0:
88,128,159840,1,0,0:0:0:0:
88,128,159921,1,0,0:0:0:0:
88,128,160002,1,0,0:0:0:0:
220,60,160164,2,0,L|184:36,1,37.5000014305115
264,48,160246,2,0,L|244:12,1,37.5000014305115
308,56,160327,2,0,L|344:4,5,50.0000019073487,8|0|8|0|8|0,0:0|0:0|0:0|0:0|0:0|0:0,0:0:0:0:
412,156,160651,2,0,L|360:184,5,50.0000019073487,8|0|8|0|8|0,0:0|0:0|0:0|0:0|0:0|0:0,0:0:0:0:
400,316,160975,1,4,0:0:0:0:
224,312,161137,5,0,0:0:0:0:
224,312,161218,1,2,0:0:0:0:
224,312,161300,1,2,0:0:0:0:
64,152,161462,1,0,0:0:0:0:
64,152,161543,1,2,0:0:0:0:
64,152,161624,1,2,0:0:0:0:
256,32,161786,1,0,0:0:0:0:
256,32,161867,1,2,0:0:0:0:
256,32,161948,1,2,0:0:0:0:
424,168,162110,1,0,0:0:0:0:
424,168,162191,1,2,0:0:0:0:
424,168,162273,1,2,0:0:0:0:
380,264,162435,1,0,0:0:0:0:
128,324,162597,1,10,0:0:0:0:
35,233,162759,1,8,0:0:0:0:
348,232,162921,1,2,0:0:0:0:
408,136,163083,1,8,0:0:0:0:
152,136,163246,1,10,0:0:0:0:
71,46,163408,1,8,0:0:0:0:
352,48,163570,5,4,0:0:0:0:
432,216,163732,1,0,0:0:0:0:
432,216,163813,1,2,0:0:0:0:
432,216,163894,1,2,0:0:0:0:
296,304,164056,1,0,0:0:0:0:
296,304,164137,1,2,0:0:0:0:
296,304,164218,1,2,0:0:0:0:
116,208,164381,1,0,0:0:0:0:
248,96,164543,1,8,0:0:0:0:
312,256,164705,1,0,0:0:0:0:
112,336,164867,5,8,0:0:0:0:
80,304,164948,1,0,0:0:0:0:
60,264,165029,1,0,0:0:0:0:
68,220,165110,1,0,0:0:0:0:
84,180,165191,1,0,0:0:0:0:
108,144,165273,1,0,0:0:0:0:
140,112,165354,1,0,0:0:0:0:
172,80,165435,1,0,0:0:0:0:
216,68,165516,2,0,L|272:52,2,50.0000019073487,8|0|8,0:0|0:0|0:0,0:0:0:0:
288,132,165678,2,0,L|332:164,2,50.0000019073487,8|0|8,0:0|0:0|0:0,0:0:0:0:
276,228,165840,2,0,L|288:288,2,50.0000019073487,8|0|8,0:0|0:0|0:0,0:0:0:0:
200,284,166002,2,0,L|176:340,2,50.0000019073487,8|0|8,0:0|0:0|0:0,0:0:0:0:
104,240,166164,1,0,0:0:0:0:
72,88,166327,5,0,0:0:0:0:
204,36,166489,1,8,0:0:0:0:
348,68,166651,1,0,0:0:0:0:
444,184,166813,1,0,0:0:0:0:
368,320,166975,1,0,0:0:0:0:
204,304,167137,1,8,0:0:0:0:
88,192,167300,1,0,0:0:0:0:
304,68,167462,5,4,0:0:0:0:
384,184,167624,1,0,0:0:0:0:
316,312,167786,1,8,0:0:0:0:
148,328,167948,1,0,0:0:0:0:
100,160,168110,1,0,0:0:0:0:
212,64,168273,1,0,0:0:0:0:
396,116,168435,1,8,0:0:0:0:
400,160,168516,1,0,0:0:0:0:
372,196,168597,1,0,0:0:0:0:
336,224,168678,1,0,0:0:0:0:
304,256,168759,1,0,0:0:0:0:
108,64,168921,5,4,0:0:0:0:
388,64,169083,1,4,0:0:0:0:
104,188,169246,1,4,0:0:0:0:
396,188,169408,1,4,0:0:0:0:
104,320,169570,1,4,0:0:0:0:
400,320,169732,1,4,0:0:0:0:
296,324,169894,6,0,P|156:344|104:296,1,150.000005722046,8|0,0:0|0:0,0:0:0:0:
124,312,170137,1,0,0:0:0:0:
104,264,170218,2,0,L|52:252,1,37.5000014305115,2|2,0:0|0:0,0:0:0:0:
128,224,170300,2,0,L|96:196,1,37.5000014305115,2|2,0:0|0:0,0:0:0:0:
160,196,170381,1,0,0:0:0:0:
188,168,170462,1,0,0:0:0:0:
172,128,170543,2,0,L|108:144,1,37.5000014305115,2|2,0:0|0:0,0:0:0:0:
196,92,170624,2,0,L|160:64,1,37.5000014305115,2|2,0:0|0:0,0:0:0:0:
240,84,170705,2,0,L|264:72,12,18.7500007152558
288,76,171029,5,0,0:0:0:0:
304,80,171110,1,0,0:0:0:0:
316,88,171191,1,0,0:0:0:0:
328,100,171273,1,0,0:0:0:0:
340,112,171354,1,4,0:0:0:0:
256,192,173786,1,0,0:0:0:0:
256,192,173948,1,8,0:0:0:0:
256,192,176218,1,8,0:0:0:0:
256,192,176381,1,8,0:0:0:0:
256,192,176543,1,8,0:0:0:0:
256,192,177678,1,0,0:0:0:0:
256,192,177759,1,0,0:0:0:0:
256,192,177840,1,4,0:0:0:0:
348,320,178083,1,0,0:0:0:0:
108,280,178327,1,0,0:0:0:0:
60,88,178651,6,0,P|116:148|160:160,1,100,0|8,0:0|0:0,0:0:0:0:
296,176,178975,2,0,L|324:208,3,25
404,296,179137,1,8,0:0:0:0:
268,304,179300,1,0,0:0:0:0:
144,276,179462,1,8,0:0:0:0:
224,188,179624,2,0,L|248:164,3,25
324,88,179786,1,0,0:0:0:0:
140,96,180110,5,0,0:0:0:0:
216,188,180273,2,0,L|256:176,1,25
212,212,180354,2,0,L|240:220,1,25
200,232,180435,1,8,0:0:0:0:
60,272,180597,2,0,L|20:280,1,25
72,292,180678,2,0,L|32:320,1,25
84,304,180759,1,8,0:0:0:0:
216,336,180921,1,0,0:0:0:0:
245,333,181002,1,0,0:0:0:0:
275,327,181083,1,0,0:0:0:0:
302,315,181164,1,0,0:0:0:0:
328,300,181245,1,0,0:0:0:0:
351,281,181326,1,0,0:0:0:0:
370,258,181407,1,0,0:0:0:0:
386,232,181488,1,0,0:0:0:0:
398,205,181569,1,0,0:0:0:0:
400,176,181651,1,0,0:0:0:0:
400,148,181732,1,4,0:0:0:0:
104,148,182056,5,12,0:0:0:0:
232,120,182218,1,0,0:0:0:0:
184,248,182381,1,0,0:0:0:0:
72,320,182543,1,0,0:0:0:0:
184,248,182705,1,8,0:0:0:0:
296,320,182867,1,0,0:0:0:0:
348,120,183029,2,0,P|292:80|220:76,1,100,0|0,0:0|0:0,0:0:0:0:
136,96,183354,1,8,0:0:0:0:
44,168,183516,1,0,0:0:0:0:
196,176,183678,1,0,0:0:0:0:
88,264,183840,1,0,0:0:0:0:
196,176,184002,1,8,0:0:0:0:
328,184,184164,1,0,0:0:0:0:
112,232,184327,6,0,P|144:300|232:328,1,150,8|2,0:0|0:0,0:0:0:0:
240,332,184651,1,2,0:0:0:0:
248,208,184813,2,0,P|212:140|152:140,1,100
68,84,185218,5,2,0:0:0:0:
40,76,185300,1,2,0:0:0:0:
44,228,185462,1,8,0:0:0:0:
304,292,185624,2,0,P|364:256|392:172,1,150,4|2,0:0|0:0,0:0:0:0:
392,183,185948,1,2,0:0:0:0:
448,288,186110,1,0,0:0:0:0:
304,292,186273,1,0,0:0:0:0:
176,340,186435,1,0,0:0:0:0:
56,280,186597,2,0,P|80:196|120:176,1,100,8|0,0:0|0:0,0:0:0:0:
196,104,186921,5,8,0:0:0:0:
84,196,187083,2,0,P|52:244|128:356,1,200
376,188,187732,1,0,0:0:0:0:
376,188,187894,1,0,0:0:0:0:
128,188,188056,1,0,0:0:0:0:
128,188,188218,1,4,0:0:0:0:
328,324,188381,1,0,0:0:0:0:
328,324,188543,1,8,0:0:0:0:
252,72,188705,1,0,0:0:0:0:
252,72,188867,1,0,0:0:0:0:
184,324,189029,1,0,0:0:0:0:
184,324,189191,1,8,0:0:0:0:
376,188,189354,1,0,0:0:0:0:
376,188,189516,1,0,0:0:0:0:
252,72,189678,1,0,0:0:0:0:
256,68,189840,1,8,0:0:0:0:
112,104,190002,1,0,0:0:0:0:
112,104,190083,1,0,0:0:0:0:
112,104,190164,1,4,0:0:0:0:
68,232,190327,5,0,0:0:0:0:
184,324,190489,2,0,P|276:324|296:300,1,100
404,256,190813,1,8,0:0:0:0:
316,156,190975,2,0,L|344:144,1,25
304,148,191056,2,0,L|336:140,1,25
292,140,191137,1,8,0:0:0:0:
220,208,191300,2,0,L|192:180,1,25
200,220,191381,2,0,L|176:200,1,25
184,228,191462,1,8,0:0:0:0:
104,144,191624,1,0,0:0:0:0:
92,132,191705,1,0,0:0:0:0:
80,120,191786,2,0,L|52:56,1,50,8|0,0:0|0:0,0:0:0:0:
196,52,191948,2,0,L|224:108,1,50,8|0,0:0|0:0,0:0:0:0:
392,56,192110,1,4,0:0:0:0:
436,176,192273,1,0,0:0:0:0:
344,280,192435,1,8,0:0:0:0:
436,176,192597,1,0,0:0:0:0:
344,280,192759,1,0,0:0:0:0:
204,316,192921,1,0,0:0:0:0:
344,280,193083,1,8,0:0:0:0:
280,144,193246,1,0,0:0:0:0:
52,264,193408,6,0,P|128:308|204:316,1,150.000005722046,8|0,0:0|0:0,0:0:0:0:
188,316,193651,1,2,0:0:0:0:
188,316,193732,1,2,0:0:0:0:
120,156,193894,1,0,0:0:0:0:
328,188,194056,1,0,0:0:0:0:
192,348,194218,1,0,0:0:0:0:
160,140,194381,1,0,0:0:0:0:
356,216,194543,1,0,0:0:0:0:
164,304,194705,2,0,P|80:280|48:216,1,150.000005722046
48,200,194948,1,2,0:0:0:0:
48,172,195029,1,10,0:0:0:0:
144,64,195191,1,0,0:0:0:0:
156,208,195354,1,0,0:0:0:0:
296,56,195516,1,0,0:0:0:0:
304,204,195678,1,8,0:0:0:0:
144,64,195840,1,0,0:0:0:0:
248,232,196002,2,0,P|288:316|340:336,1,150.000005722046
336,335,196246,1,2,0:0:0:0:
336,335,196327,1,2,0:0:0:0:
336,335,196489,1,0,0:0:0:0:
192,304,196651,1,8,0:0:0:0:
80,228,196813,1,0,0:0:0:0:
96,100,196975,5,2,0:0:0:0:
96,100,197056,1,0,0:0:0:0:
96,100,197137,1,0,0:0:0:0:
312,172,197300,2,0,P|384:148|428:76,1,150.000005722046
424,89,197543,1,2,0:0:0:0:
424,89,197624,1,2,0:0:0:0:
296,40,197786,1,0,0:0:0:0:
152,156,197948,1,8,0:0:0:0:
368,264,198191,1,2,0:0:0:0:
368,264,198273,1,2,0:0:0:0:
240,328,198435,1,0,0:0:0:0:
48,240,198597,1,4,0:0:0:0:
128,100,198840,1,2,0:0:0:0:
128,100,198921,1,2,0:0:0:0:
288,104,199083,1,0,0:0:0:0:
424,100,199246,5,0,0:0:0:0:
348,216,199408,1,8,0:0:0:0:
212,220,199570,1,8,0:0:0:0:
84,220,199732,1,0,0:0:0:0:
312,312,199894,1,8,0:0:0:0:
212,332,200056,1,0,0:0:0:0:
112,304,200218,1,0,0:0:0:0:
40,228,200381,1,0,0:0:0:0:
44,200,200462,1,0,0:0:0:0:
56,172,200543,2,0,P|120:120|184:104,1,150.000005722046,8|0,0:0|0:0,0:0:0:0:
176,224,200867,5,8,0:0:0:0:
300,288,201029,2,0,L|272:312,1,37.5000014305115
324,296,201110,2,0,L|300:344,1,37.5000014305115
348,296,201191,1,8,0:0:0:0:
392,152,201354,2,0,L|416:120,1,37.5000014305115
368,140,201435,2,0,L|376:100,1,37.5000014305115
348,144,201516,1,8,0:0:0:0:
244,88,201678,2,0,L|320:32,1,75.0000028610231
148,164,201840,2,0,L|60:224,1,75.0000028610231
160,80,202002,2,0,L|100:24,1,75.0000028610231
236,176,202164,2,0,L|300:240,1,75.0000028610231
136,252,202327,2,0,L|56:300,1,75.0000028610231
236,272,202489,1,4,0:0:0:0:
400,240,202651,5,2,0:0:0:0:
436,232,202732,1,2,0:0:0:0:
348,144,202894,1,2,0:0:0:0:
380,120,202975,1,2,0:0:0:0:
408,96,203056,1,2,0:0:0:0:
436,72,203137,1,10,0:0:0:0:
240,88,203300,1,2,0:0:0:0:
248,52,203381,1,2,0:0:0:0:
96,104,203543,1,2,0:0:0:0:
72,132,203624,2,0,P|40:224|72:284,1,150.000005722046,2|0,0:0|0:0,0:0:0:0:
176,240,203948,1,2,0:0:0:0:
192,272,204029,1,2,0:0:0:0:
316,336,204191,1,2,0:0:0:0:
344,312,204273,1,2,0:0:0:0:
372,288,204354,1,2,0:0:0:0:
404,268,204435,1,10,0:0:0:0:
360,124,204597,5,2,0:0:0:0:
384,144,204678,2,2,P|432:204|388:276,1,150.000005722046,2|0,0:0|0:0,0:0:0:0:
208,192,204921,1,2,0:0:0:0:
208,192,205083,2,0,P|84:256|84:280,1,150.000005722046,0|2,0:0|0:0,0:0:0:0:
172,276,205327,1,2,0:0:0:0:
316,336,205489,1,2,0:0:0:0:
348,360,205570,1,2,0:0:0:0:
412,112,205732,1,8,0:0:0:0:
264,96,205894,1,2,0:0:0:0:
240,68,205975,1,2,0:0:0:0:
220,36,206056,1,2,0:0:0:0:
112,148,206218,1,8,0:0:0:0:
52,268,206381,2,0,P|112:332|192:336,1,150.000005722046,4|0,0:0|0:0,0:0:0:0:
208,336,206624,1,0,0:0:0:0:
244,332,206705,1,0,0:0:0:0:
280,320,206786,1,0,0:0:0:0:
312,300,206867,1,0,0:0:0:0:
340,276,206948,1,0,0:0:0:0:
360,244,207029,1,8,0:0:0:0:
328,88,207191,5,8,0:0:0:0:
124,256,207354,1,8,0:0:0:0:
240,292,207516,5,0,0:0:0:0:
88,104,207678,2,0,P|168:72|276:76,1,150.000005722046
336,88,208002,1,0,0:0:0:0:
460,180,208164,2,0,P|328:180|276:208,1,150.000005722046
208,228,208489,1,0,0:0:0:0:
56,328,208651,1,0,0:0:0:0:
92,224,208813,1,2,0:0:0:0:
112,192,208894,1,2,0:0:0:0:
144,176,208975,1,2,0:0:0:0:
212,272,209137,5,2,0:0:0:0:
248,260,209218,1,2,0:0:0:0:
280,240,209300,1,2,0:0:0:0:
236,120,209462,5,2,0:0:0:0:
272,108,209543,1,2,0:0:0:0:
308,116,209624,1,2,0:0:0:0:
376,228,209786,5,2,0:0:0:0:
408,212,209867,1,2,0:0:0:0:
432,184,209948,1,2,0:0:0:0:
316,40,210110,5,2,0:0:0:0:
280,52,210191,1,2,0:0:0:0:
248,72,210273,1,2,0:0:0:0:
80,76,210435,2,0,P|56:156|76:232,1,150.000005722046
188,320,210759,1,0,0:0:0:0:
224,328,210840,1,0,0:0:0:0:
260,320,210921,1,4,0:0:0:0:
340,232,211083,5,0,0:0:0:0:
192,84,211246,1,8,0:0:0:0:
192,84,211408,1,0,0:0:0:0:
64,220,211570,1,8,0:0:0:0:
216,144,211732,2,0,L|256:108,3,37.5000014305115
328,40,211894,1,8,0:0:0:0:
404,196,212056,2,0,L|360:232,3,37.5000014305115
272,288,212218,1,8,0:0:0:0:
136,304,212381,5,0,0:0:0:0:
100,292,212462,1,0,0:0:0:0:
76,264,212543,1,0,0:0:0:0:
64,220,212624,1,0,0:0:0:0:
72,184,212705,1,0,0:0:0:0:
68,148,212786,1,0,0:0:0:0:
64,112,212867,1,4,0:0:0:0:
256,64,213029,1,0,0:0:0:0:
276,80,213110,1,0,0:0:0:0:
292,100,213191,1,0,0:0:0:0:
308,120,213273,1,0,0:0:0:0:
320,140,213354,1,8,0:0:0:0:
140,156,213516,5,0,0:0:0:0:
224,288,213678,1,0,0:0:0:0:
380,292,213840,1,0,0:0:0:0:
396,272,213921,1,0,0:0:0:0:
408,252,214002,1,0,0:0:0:0:
420,228,214083,1,0,0:0:0:0:
424,204,214164,1,8,0:0:0:0:
184,84,214327,5,0,0:0:0:0:
284,176,214489,1,0,0:0:0:0:
264,180,214570,1,0,0:0:0:0:
240,184,214651,1,0,0:0:0:0:
216,188,214732,1,0,0:0:0:0:
192,192,214813,2,0,L|136:168,2,41.6666666666667,8|0|0,0:0|0:0|0:0,0:0:0:0:
288,248,214975,1,8,0:0:0:0:
132,288,215137,5,0,0:0:0:0:
276,272,215246,1,2,0:0:0:0:
276,272,215300,1,2,0:0:0:0:
384,112,215462,2,0,P|392:200|344:256,1,125,8|0,0:0|0:0,0:0:0:0:
212,144,215786,1,0,0:0:0:0:
60,184,215948,5,8,0:0:0:0:
80,200,216029,1,0,0:0:0:0:
96,216,216110,1,0,0:0:0:0:
116,232,216191,1,0,0:0:0:0:
160,272,216273,5,8,0:0:0:0:
184,272,216354,1,0,0:0:0:0:
208,272,216435,1,0,0:0:0:0:
232,272,216516,1,0,0:0:0:0:
256,272,216597,1,0,0:0:0:0:
276,272,216678,1,0,0:0:0:0:
300,272,216759,1,4,0:0:0:0:
400,172,216921,5,0,0:0:0:0:
380,156,217002,1,0,0:0:0:0:
360,144,217083,1,0,0:0:0:0:
340,128,217164,1,0,0:0:0:0:
320,112,217246,1,0,0:0:0:0:
144,72,217408,1,2,0:0:0:0:
124,88,217489,1,2,0:0:0:0:
108,108,217570,1,2,0:0:0:0:
228,192,217732,1,0,0:0:0:0:
228,216,217813,1,0,0:0:0:0:
228,240,217894,1,0,0:0:0:0:
228,264,217975,1,0,0:0:0:0:
228,288,218056,1,4,0:0:0:0:
320,224,218218,5,0,0:0:0:0:
84,200,218381,1,8,0:0:0:0:
24,116,218543,1,0,0:0:0:0:
248,92,218705,1,0,0:0:0:0:
344,40,218867,5,2,0:0:0:0:
348,64,218948,1,2,0:0:0:0:
348,88,219029,1,2,0:0:0:0:
348,112,219110,1,2,0:0:0:0:
336,168,219191,5,0,0:0:0:0:
320,188,219273,1,0,0:0:0:0:
300,204,219354,1,0,0:0:0:0:
280,220,219435,1,0,0:0:0:0:
264,232,219516,2,0,L|204:280,3,41.6666666666667,8|0|8|0,0:0|0:0|0:0|0:0,0:0:0:0:
212,272,219759,5,0,0:0:0:0:
188,276,219840,1,0,0:0:0:0:
164,276,219921,1,0,0:0:0:0:
140,276,220002,1,0,0:0:0:0:
116,272,220083,1,0,0:0:0:0:
92,264,220164,1,0,0:0:0:0:
72,252,220246,1,0,0:0:0:0:
56,232,220327,2,0,L|56:168,1,62.5,8|0,0:0|0:0,0:0:0:0:
52,40,220489,2,0,L|52:132,1,62.5,8|0,0:0|0:0,0:0:0:0:
160,232,220651,2,0,L|160:164,1,62.5,8|0,0:0|0:0,0:0:0:0:
164,36,220813,2,0,L|164:-8,2,41.6666666666667,8|0|8,0:0|0:0|0:0,0:0:0:0:
168,128,220975,5,8,0:0:0:0:
184,144,221056,1,0,0:0:0:0:
204,160,221137,1,0,0:0:0:0:
224,176,221218,1,0,0:0:0:0:
248,184,221300,1,0,0:0:0:0:
272,188,221381,1,0,0:0:0:0:
296,184,221462,2,0,L|356:136,2,41.6666666666667,8|0|8,0:0|0:0|0:0,0:0:0:0:
232,280,221624,5,0,0:0:0:0:
212,296,221705,1,0,0:0:0:0:
184,308,221786,2,0,L|116:324,2,41.6666666666667,8|0|8,0:0|0:0|0:0,0:0:0:0:
296,292,221948,1,8,0:0:0:0:
316,268,222029,1,0,0:0:0:0:
344,244,222110,1,0,0:0:0:0:
364,212,222191,1,0,0:0:0:0:
368,176,222273,1,0,0:0:0:0:
364,140,222354,1,0,0:0:0:0:
348,108,222435,1,0,0:0:0:0:
328,76,222516,1,0,0:0:0:0:
296,56,222597,1,0,0:0:0:0:
332,56,222678,1,0,0:0:0:0:
368,60,222759,2,0,L|440:68,2,41.6666666666667,8|0|8,0:0|0:0|0:0,0:0:0:0:
216,64,222921,5,8,0:0:0:0:
180,100,223002,1,0,0:0:0:0:
160,144,223083,1,0,0:0:0:0:
144,192,223164,1,0,0:0:0:0:
148,244,223246,1,4,0:0:0:0:
351,289,223408,1,0,0:0:0:0:
328,310,223489,1,0,0:0:0:0:
301,326,223570,1,0,0:0:0:0:
270,332,223651,1,0,0:0:0:0:
238,332,223732,1,0,0:0:0:0:
95,274,223894,1,0,0:0:0:0:
95,274,224056,1,0,0:0:0:0:
209,218,224218,1,0,0:0:0:0:
238,206,224300,1,0,0:0:0:0:
266,193,224381,1,0,0:0:0:0:
290,173,224462,1,0,0:0:0:0:
308,147,224543,1,0,0:0:0:0:
395,50,224705,1,0,0:0:0:0:
155,55,224867,1,0,0:0:0:0:
127,70,224948,1,0,0:0:0:0:
105,92,225029,1,0,0:0:0:0:
93,120,225110,1,0,0:0:0:0:
87,150,225191,2,0,L|84:216,3,41.6666666666667
193,278,225516,1,0,0:0:0:0:
328,249,225624,1,0,0:0:0:0:
328,249,225678,1,0,0:0:0:0:
392,120,225840,2,0,P|316:76|248:88,1,125
176,152,226164,1,0,0:0:0:0:
64,280,226327,1,0,0:0:0:0:
92,264,226408,1,0,0:0:0:0:
124,256,226489,2,0,L|176:248,5,41.6666666666667
184,248,226813,1,0,0:0:0:0:
212,256,226894,1,0,0:0:0:0:
240,272,226975,1,0,0:0:0:0:
272,268,227056,1,0,0:0:0:0:
300,256,227137,1,0,0:0:0:0:
352,116,227300,2,0,L|476:24,1,125
224,104,227624,2,0,L|320:24,1,125
152,204,227948,2,0,L|47:306,1,125
280,208,228273,1,0,0:0:0:0:
104,72,228435,1,0,0:0:0:0:
56,197,228597,2,0,P|187:166|236:68,1,250
267,258,229083,1,0,0:0:0:0:
334,345,229246,1,0,0:0:0:0:
302,345,229327,1,0,0:0:0:0:
271,339,229408,1,0,0:0:0:0:
240,332,229489,1,0,0:0:0:0:
210,321,229570,2,0,L|159:284,2,41.6666666666667
300,253,229732,1,0,0:0:0:0:
325,234,229813,1,0,0:0:0:0:
337,205,229894,2,0,L|316:161,2,41.6666666666667
384,98,230056,1,0,0:0:0:0:
353,89,230137,1,0,0:0:0:0:
322,85,230218,1,0,0:0:0:0:
290,90,230300,1,0,0:0:0:0:
261,102,230381,1,0,0:0:0:0:
231,111,230462,1,0,0:0:0:0:
199,107,230543,1,0,0:0:0:0:
173,89,230624,1,0,0:0:0:0:
143,78,230705,1,0,0:0:0:0:
113,86,230786,1,0,0:0:0:0:
89,106,230867,2,0,L|53:158,2,41.6666666666667
153,188,231029,1,0,0:0:0:0:
182,198,231110,1,0,0:0:0:0:
209,212,231191,2,0,L|245:252,2,41.6666666666667
309,177,231354,1,0,0:0:0:0:
345,184,231435,1,0,0:0:0:0:
379,197,231516,1,0,0:0:0:0:
405,222,231597,1,0,0:0:0:0:
414,258,231678,1,0,0:0:0:0:
422,294,231759,1,0,0:0:0:0:
417,331,231840,2,0,L|439:369,2,41.6666666666667
289,314,232002,1,0,0:0:0:0:
249,328,232083,1,0,0:0:0:0:
205,334,232164,2,0,L|172:349,1,31.25
174,300,232246,2,0,L|125:298,1,31.25
159,257,232327,1,0,0:0:0:0:
159,213,232408,1,0,0:0:0:0:
165,169,232489,1,0,0:0:0:0:
141,132,232570,1,0,0:0:0:0:
106,105,232651,1,0,0:0:0:0:
100,61,232732,1,0,0:0:0:0:
141,74,232813,1,0,0:0:0:0:
176,99,232894,1,0,0:0:0:0:
206,129,232975,1,0,0:0:0:0:
225,167,233056,1,0,0:0:0:0:
253,199,233137,1,0,0:0:0:0:
294,212,233218,1,0,0:0:0:0:
334,228,233300,2,0,L|382:197,2,41.6666666666667
428,248,233462,2,0,L|374:290,2,41.6666666666667
223,290,233624,1,0,0:0:0:0:
89,264,233786,1,0,0:0:0:0:
115,248,233867,1,0,0:0:0:0:
142,233,233948,1,0,0:0:0:0:
168,216,234029,1,0,0:0:0:0:
194,200,234110,1,0,0:0:0:0:
354,152,234273,1,0,0:0:0:0:
354,152,234435,1,0,0:0:0:0:
399,281,234597,2,0,L|350:338,1,62.5
286,285,234759,2,0,L|237:342,1,62.5
163,282,234921,1,0,0:0:0:0:
132,273,235002,1,0,0:0:0:0:
115,248,235083,1,0,0:0:0:0:
102,219,235164,1,0,0:0:0:0:
101,187,235246,1,0,0:0:0:0:
114,158,235327,1,0,0:0:0:0:
128,130,235408,1,0,0:0:0:0:
151,109,235489,1,0,0:0:0:0:
177,92,235570,2,0,L|225:77,3,41.6666666666667
349,82,235894,1,0,0:0:0:0:
390,217,236002,1,2,0:0:0:0:
390,217,236056,1,2,0:0:0:0:
318,331,236218,2,0,P|203:323|166:284,1,125
103,318,236543,2,0,P|156:240|221:232,1,125
210,222,236786,1,0,0:0:0:0:
240,216,236867,1,0,0:0:0:0:
271,214,236948,1,0,0:0:0:0:
302,213,237029,1,0,0:0:0:0:
333,211,237110,1,0,0:0:0:0:
364,212,237191,2,0,L|429:211,1,62.5
435,315,237354,2,0,L|356:316,1,62.5
364,212,237516,1,0,0:0:0:0:
384,81,237678,1,0,0:0:0:0:
128,81,237840,1,0,0:0:0:0:
211,125,238002,2,0,P|131:184|80:168,1,125
145,297,238327,2,0,P|221:284|259:244,1,125
341,153,238651,1,0,0:0:0:0:
136,258,238813,1,0,0:0:0:0:
266,309,238975,2,0,P|332:284|364:219,2,125
136,258,239462,1,0,0:0:0:0:
104,64,239624,1,0,0:0:0:0:
103,95,239705,1,0,0:0:0:0:
100,126,239786,1,0,0:0:0:0:
97,157,239867,1,0,0:0:0:0:
94,188,239948,1,0,0:0:0:0:
91,219,240029,1,0,0:0:0:0:
110,273,240110,1,0,0:0:0:0:
134,301,240191,1,0,0:0:0:0:
162,325,240273,2,0,L|218:354,2,41.6666666666667
250,270,240435,1,0,0:0:0:0:
221,245,240516,1,0,0:0:0:0:
197,216,240597,1,0,0:0:0:0:
183,181,240678,1,0,0:0:0:0:
188,143,240759,1,0,0:0:0:0:
190,105,240840,1,0,0:0:0:0:
203,69,240921,1,0,0:0:0:0:
237,53,241002,1,0,0:0:0:0:
270,70,241083,1,0,0:0:0:0:
284,104,241164,1,0,0:0:0:0:
301,137,241246,1,0,0:0:0:0:
331,159,241327,1,0,0:0:0:0:
368,161,241408,1,0,0:0:0:0:
404,151,241489,1,0,0:0:0:0:
437,134,241570,2,0,L|463:86,2,41.6666666666667
417,253,241732,1,0,0:0:0:0:
388,286,241813,1,0,0:0:0:0:
350,307,241894,1,0,0:0:0:0:
307,318,241975,1,0,0:0:0:0:
263,314,242056,1,0,0:0:0:0:
224,293,242137,1,0,0:0:0:0:
195,260,242218,2,0,L|192:197,2,41.6666666666667
75,235,242381,1,0,0:0:0:0:
75,235,242462,1,0,0:0:0:0:
75,235,242543,2,0,L|75:171,2,41.6666666666667
169,155,242705,1,0,0:0:0:0:
215,138,242786,1,0,0:0:0:0:
258,113,242867,1,0,0:0:0:0:
292,77,242948,1,0,0:0:0:0:
324,38,243029,1,0,0:0:0:0:
361,71,243110,1,0,0:0:0:0:
401,99,243191,1,0,0:0:0:0:
446,120,243273,1,0,0:0:0:0:
492,137,243354,1,0,0:0:0:0:
472,183,243435,1,0,0:0:0:0:
467,232,243516,2,0,L|476:305,2,41.6666666666667
357,286,243678,1,0,0:0:0:0:
312,307,243759,1,0,0:0:0:0:
263,296,243840,1,0,0:0:0:0:
214,282,243921,1,0,0:0:0:0:
167,267,244002,1,0,0:0:0:0:
256,64,244164,1,0,0:0:0:0:
236,80,244245,1,0,0:0:0:0:
220,100,244326,1,0,0:0:0:0:
204,120,244408,1,0,0:0:0:0:
192,140,244489,1,8,0:0:0:0:
372,156,244651,5,0,0:0:0:0:
288,288,244813,1,0,0:0:0:0:
132,292,244975,1,0,0:0:0:0:
116,272,245056,1,0,0:0:0:0:
104,252,245137,1,0,0:0:0:0:
92,228,245218,1,0,0:0:0:0:
85,199,245300,2,0,L|130:135,1,62.5
206,42,245462,2,0,L|157:104,1,62.5
228,176,245624,1,0,0:0:0:0:
248,180,245705,1,0,0:0:0:0:
272,184,245786,1,0,0:0:0:0:
296,188,245867,1,0,0:0:0:0:
320,192,245948,2,0,L|376:168,2,41.6666666666667,8|0|0,0:0|0:0|0:0,0:0:0:0:
224,248,246110,1,8,0:0:0:0:
380,288,246272,5,0,0:0:0:0:
236,272,246381,1,2,0:0:0:0:
236,272,246435,1,2,0:0:0:0:
128,112,246597,2,0,P|120:200|168:256,1,125,8|0,0:0|0:0,0:0:0:0:
300,144,246921,1,0,0:0:0:0:
452,184,247083,5,8,0:0:0:0:
432,200,247164,1,0,0:0:0:0:
415,219,247246,2,0,L|370:257,6,33.3333333333333
376,250,247570,1,0,0:0:0:0:
355,263,247651,1,0,0:0:0:0:
331,272,247732,1,0,0:0:0:0:
306,275,247813,1,0,0:0:0:0:
281,279,247894,1,0,0:0:0:0:
116,96,248381,1,0,0:0:0:0:
414,88,248705,1,2,0:0:0:0:
166,249,249029,1,0,0:0:0:0:
450,328,249353,5,0,0:0:0:0:
328,78,249678,1,0,0:0:0:0:
170,44,250002,5,2,0:0:0:0:
166,68,250083,1,2,0:0:0:0:
166,92,250164,1,2,0:0:0:0:
166,116,250245,1,2,0:0:0:0:
164,142,250327,2,0,L|120:189,2,41.6666666666667
218,207,250489,1,0,0:0:0:0:
232,220,250570,1,0,0:0:0:0:
248,232,250651,2,0,L|308:280,3,41.6666666666667,8|0|8|0,0:0|0:0|0:0|0:0,0:0:0:0:
300,272,250894,5,0,0:0:0:0:
324,276,250975,1,0,0:0:0:0:
348,276,251056,1,0,0:0:0:0:
372,276,251137,1,0,0:0:0:0:
396,272,251218,1,0,0:0:0:0:
420,264,251299,1,0,0:0:0:0:
440,252,251381,1,0,0:0:0:0:
456,232,251462,2,0,L|456:168,1,62.5,8|0,0:0|0:0,0:0:0:0:
406,90,251624,2,0,L|408:38,2,41.6666666666667
352,232,251786,2,0,L|352:164,1,62.5,8|0,0:0|0:0,0:0:0:0:
289,91,251948,2,0,L|289:47,2,41.6666666666667,8|0|8,0:0|0:0|0:0,0:0:0:0:
344,128,252110,5,8,0:0:0:0:
328,144,252191,1,8,0:0:0:0:
308,160,252272,1,8,0:0:0:0:
288,176,252353,1,8,0:0:0:0:
264,184,252435,1,8,0:0:0:0:
240,188,252516,1,8,0:0:0:0:
216,184,252597,2,0,L|156:136,2,41.6666666666667,8|0|8,0:0|0:0|0:0,0:0:0:0:
280,280,252759,5,8,0:0:0:0:
300,296,252840,1,8,0:0:0:0:
328,308,252921,2,0,L|396:324,2,41.6666666666667,8|0|8,0:0|0:0|0:0,0:0:0:0:
216,292,253083,1,8,0:0:0:0:
196,268,253164,1,8,0:0:0:0:
168,244,253245,1,8,0:0:0:0:
148,212,253326,1,8,0:0:0:0:
144,176,253408,1,8,0:0:0:0:
148,140,253489,1,8,0:0:0:0:
164,108,253570,1,8,0:0:0:0:
184,76,253651,1,8,0:0:0:0:
226,66,253732,2,0,L|308:52,3,62.5
279,149,254056,2,0,L|346:133,2,41.6666666666667
359,235,254218,2,0,L|374:187,2,41.6666666666667
256,192,254705,1,4,0:0:0:0:
256,192,254786,12,0,260867,0:0:0:0:
