osu file format v14

[General]
AudioFilename: Akasha.mp3
AudioLeadIn: 0
PreviewTime: 105143
Countdown: 0
SampleSet: Soft
StackLeniency: 0.9
Mode: 0
LetterboxInBreaks: 1
WidescreenStoryboard: 0

[Editor]
Bookmarks: 140170
DistanceSpacing: 0.5
BeatDivisor: 4
GridSize: 4
TimelineZoom: 2.4

[Metadata]
Title:Akasha
TitleUnicode:Akasha
Artist:xi
ArtistUnicode:xi
Creator:Jemmmmy
Version:Hyper
Source:
Tags:100sec Records Stream Energy Limitless Space World M3 27 2011 Urushi38 Minakami Yuki mtbbsben cdhsausageboy Evil_Twilight Kagami yuki _Gezo_
BeatmapID:366642
BeatmapSetID:118768

[Difficulty]
HPDrainRate:5
CircleSize:4
OverallDifficulty:6.5
ApproachRate:8
SliderMultiplier:1.4
SliderTickRate:1

[Events]
//Background and Video events
0,0,"Grand_Universe_by_ANTIFAN_REAL.jpg",0,0
//Break Periods
2,63830,65150
2,129992,139096
2,171505,172988
2,174100,175420
2,215614,222447
//Storyboard Layer 0 (Background)
//Storyboard Layer 1 (Fail)
//Storyboard Layer 2 (Pass)
//Storyboard Layer 3 (Foreground)
//Storyboard Sound Samples

[TimingPoints]
1360,324.324324324324,4,2,0,60,1,0
1360,-200,4,2,2,40,0,0
42549,-125,4,2,2,40,0,0
42873,-100,4,2,3,60,0,0
108387,-83.3333333333333,4,2,0,70,0,0
109035,-100,4,1,0,60,0,1
129792,-100,4,2,0,60,0,0
131089,-200,4,2,0,40,0,0
140170,-100,4,2,2,60,0,0
150549,-100,4,1,4,60,0,1
160278,-83.3333333333333,4,1,4,60,0,1
160927,-100,4,1,4,60,0,1
165468,-83.3333333333333,4,1,4,60,0,1
166116,-100,4,1,4,60,0,1
170657,-83.3333333333333,4,1,4,70,0,1
171305,-100,4,2,0,60,0,0
181684,-100,4,1,4,60,0,1
202116,-100,4,1,4,60,0,1
202441,-100,4,1,4,60,0,1
212819,-100,4,2,3,60,0,0
254251,-200,4,2,0,60,0,0
255630,-83.3333333333333,4,2,0,55,0,0
255954,-83.3333333333333,4,2,0,50,0,0
256278,-83.3333333333333,4,2,0,45,0,0
256603,-83.3333333333333,4,2,0,40,0,0
256927,-83.3333333333333,4,2,0,35,0,0
257251,-83.3333333333333,4,2,0,30,0,0
257576,-83.3333333333333,4,2,0,25,0,0
257900,-83.3333333333333,4,2,0,20,0,0
258224,-83.3333333333333,4,2,0,15,0,0

[Colours]
Combo1 : 49,227,34
Combo2 : 41,225,235
Combo3 : 31,63,190
Combo4 : 231,132,50

[HitObjects]
110,98,21792,6,0,L|151:72,1,35,0|0,0:0|0:0,0:0:0:0:
214,68,22116,2,0,P|258:145|273:33,2,280,6|2|0,0:0|0:0|0:0,0:0:0:0:
404,143,26008,6,0,P|357:211|221:223,1,210,0|0,0:0|0:0,0:0:0:0:
120,216,27305,2,0,P|36:283|147:271,1,280,0|2,0:0|0:0,0:0:0:0:
320,68,29576,2,0,L|320:28,1,35,0|0,0:0|0:0,0:0:0:0:
420,96,29900,2,0,P|384:152|248:136,1,210,0|0,0:0|0:0,0:0:0:0:
56,88,31197,38,0,P|136:156|132:256,1,210,2|0,0:0|0:0,0:0:0:0:
56,344,32495,2,0,P|115:292|244:320,1,210,0|0,0:0|0:0,0:0:0:0:
332,372,33792,2,0,P|380:384|364:232,1,280,2|0,0:0|0:0,0:0:0:0:
188,144,36062,2,0,P|160:124|152:116,1,35,0|0,0:0|0:0,0:0:0:0:
228,72,36387,2,0,P|272:108|356:112,1,140,0|0,0:0|0:0,0:0:0:0:
448,64,37359,1,0,0:0:0:0:
496,208,37684,6,0,P|476:320|328:368,1,280,0|2,0:0|0:0,0:0:0:0:
15,208,40278,2,0,P|50:336|180:369,1,280,0|2,0:0|0:0,0:0:0:0:
229,48,42549,2,0,L|253:77,3,28,0|0|0|0,0:0|0:0|0:0|0:0,0:0:0:0:
192,48,42873,6,0,P|144:92|128:180,1,140,6|0,3:0|0:0,0:0:0:0:
144,252,43359,1,0,0:0:0:0:
40,360,43684,1,2,3:0:0:0:
40,360,43846,2,0,P|90:348|127:357,1,70,0|0,0:0|0:0,0:0:0:0:
144,252,44170,2,0,P|188:280|208:312,1,70,2|0,3:0|0:0,0:0:0:0:
296,252,44495,2,0,P|307:302|298:339,1,70,0|2,0:0|3:0,0:0:0:0:
408,352,44819,6,0,P|408:276|444:212,1,140,0|2,0:0|3:0,0:0:0:0:
496,152,45305,1,0,0:0:0:0:
468,64,45468,1,2,3:0:0:0:
380,88,45630,2,0,P|312:112|220:88,1,140,0|0,0:0|0:0,0:0:0:0:
148,72,46116,2,0,L|94:68,3,35,0|0|2|0,0:0|0:0|3:0|0:0,0:0:0:0:
88,116,46440,2,0,L|34:112,3,35,0|0|0|0,0:0|0:0|0:0|0:0,0:0:0:0:
32,164,46765,6,0,P|72:200|176:208,1,140,2|0,3:0|0:0,0:0:0:0:
264,184,47251,2,0,P|312:184|348:196,1,70,2|0,3:0|0:0,0:0:0:0:
448,244,47576,2,0,P|420:288|384:312,1,70,2|0,3:0|0:0,0:0:0:0:
280,308,47900,1,2,3:0:0:0:
280,308,48224,1,0,0:0:0:0:
280,308,48549,2,0,P|236:308|192:320,1,70,0|0,0:0|0:0,0:0:0:0:
116,336,48873,6,0,P|128:264|96:184,1,140,2|0,3:0|0:0,0:0:0:0:
76,164,49278,1,0,0:0:0:0:
76,164,49359,2,0,P|148:180|228:156,1,140,2|0,3:0|0:0,0:0:0:0:
368,84,49846,2,0,P|296:68|216:92,1,140,2|0,3:0|0:0,0:0:0:0:
332,176,50332,2,0,P|388:180|420:168,1,70,2|0,3:0|0:0,0:0:0:0:
492,120,50657,6,0,L|500:84,2,35,2|0|0,3:0|0:0|0:0,0:0:0:0:
488,232,50981,2,0,L|496:196,2,35,0|0|0,0:0|0:0|0:0,0:0:0:0:
484,344,51305,2,0,L|492:308,2,35,0|0|2,0:0|0:0|3:0,0:0:0:0:
396,360,51630,2,0,P|336:332|304:336,1,70,0|0,0:0|0:0,0:0:0:0:
252,348,51954,1,2,3:0:0:0:
284,256,52116,1,0,0:0:0:0:
272,160,52278,2,0,P|240:108|216:96,2,70,0|2|0,0:0|3:0|0:0,0:0:0:0:
168,188,52765,2,0,P|96:224|56:296,1,140,2|2,3:0|3:0,0:0:0:0:
52,304,53170,1,0,0:0:0:0:
52,304,53251,6,0,P|68:220|48:152,1,140,4|0,3:0|0:0,0:0:0:0:
4,84,53738,1,0,0:0:0:0:
256,32,54062,2,0,P|300:64|328:148,1,140,2|0,3:0|0:0,0:0:0:0:
424,96,54549,2,0,P|432:149|392:228,1,140,2|0,3:0|0:0,0:0:0:0:
496,264,55035,2,0,P|464:308|380:336,1,140,2|0,3:0|0:0,0:0:0:0:
304,320,55522,6,0,P|244:316|224:324,1,70,2|0,3:0|0:0,0:0:0:0:
108,332,55846,2,0,P|112:284|128:256,1,70,2|0,3:0|0:0,0:0:0:0:
192,188,56170,1,0,0:0:0:0:
280,100,56332,2,0,L|308:64,3,35,0|0|0|0,0:0|0:0|0:0|0:0,0:0:0:0:
356,80,56657,2,0,L|384:44,3,35,2|0|0|0,3:0|0:0|0:0|0:0,0:0:0:0:
432,56,56981,1,0,0:0:0:0:
432,56,57143,6,0,L|456:208,1,140,2|0,3:0|0:0,0:0:0:0:
482,361,57630,2,0,L|472:292,1,70,2|0,3:0|0:0,0:0:0:0:
368,300,57954,2,0,L|334:238,1,70,2|0,3:0|0:0,0:0:0:0:
240,280,58278,2,0,L|187:233,1,70,2|4,3:0|0:0,0:0:0:0:
120,312,58602,2,0,L|54:286,1,70,0|0,0:0|0:0,0:0:0:0:
104,180,58927,1,0,0:0:0:0:
268,144,59251,5,2,3:0:0:0:
224,56,59414,2,0,L|192:20,2,35,0|0|0,0:0|0:0|0:0,0:0:0:0:
312,64,59738,2,0,L|302:16,2,35,2|0|0,3:0|0:0|0:0,0:0:0:0:
388,96,60062,2,0,L|403:50,2,35,0|0|2,0:0|0:0|3:0,0:0:0:0:
440,168,60386,2,0,L|476:136,2,35,0|0|0,0:0|0:0|0:0,0:0:0:0:
452,256,60711,1,2,3:0:0:0:
272,344,61035,6,0,P|232:312|220:280,1,70,2|0,3:0|0:0,0:0:0:0:
244,176,61359,2,0,P|284:208|296:240,1,70,0|0,0:0|0:0,0:0:0:0:
124,296,61684,2,0,P|84:264|72:232,1,70,0|2,0:0|3:0,0:0:0:0:
96,128,62008,2,0,P|136:160|148:188,1,70,0|0,0:0|0:0,0:0:0:0:
32,52,62332,5,2,3:0:0:0:
48,36,62414,1,0,0:0:0:0:
68,28,62495,1,0,0:0:0:0:
88,24,62576,1,0,0:0:0:0:
108,24,62657,2,0,L|160:36,3,35,0|0|2|0,0:0|0:0|3:0|0:0,0:0:0:0:
196,28,62981,2,0,L|248:40,3,35,0|0|2|0,0:0|0:0|3:0|0:0,0:0:0:0:
288,32,63305,2,0,L|340:44,3,35,2|0|2|2,3:0|0:0|3:0|3:0,0:0:0:0:
376,40,63630,1,4,0:0:0:0:
72,208,65900,38,0,L|56:132,1,70,0|0,0:0|0:0,0:0:0:0:
40,44,66224,2,0,P|84:52|124:44,1,70,4|0,0:0|0:0,0:0:0:0:
148,36,66468,2,0,P|192:28|260:40,1,105,0|0,0:0|0:0,0:0:0:0:
352,12,66872,2,0,P|356:56|336:100,1,70,2|0,0:0|0:0,0:0:0:0:
328,116,67116,2,0,P|312:152|316:224,1,105,0|0,0:0|0:0,0:0:0:0:
420,232,67522,6,0,P|464:232|492:244,1,70,2|0,0:0|0:0,0:0:0:0:
512,276,67765,2,0,P|480:312|420:332,1,105,0|0,0:0|0:0,0:0:0:0:
312,320,68170,2,0,P|272:312|232:324,1,70,2|0,0:0|0:0,0:0:0:0:
204,336,68414,2,0,P|152:360|76:344,1,105,0|0,0:0|0:0,0:0:0:0:
136,256,68819,6,0,P|144:208|136:172,1,70,2|0,0:0|0:0,0:0:0:0:
128,148,69062,2,0,P|112:104|116:28,1,105,0|0,0:0|0:0,0:0:0:0:
220,84,69468,2,0,P|236:120|236:156,1,70,2|0,0:0|0:0,0:0:0:0:
232,192,69711,2,0,P|228:240|248:304,1,105,0|0,0:0|0:0,0:0:0:0:
352,372,70116,5,0,0:0:0:0:
468,320,70359,1,0,0:0:0:0:
364,248,70603,1,0,0:0:0:0:
296,48,70927,37,0,0:0:0:0:
288,132,71089,1,0,0:0:0:0:
220,84,71251,1,0,0:0:0:0:
212,168,71414,2,0,P|168:148|144:116,1,70,2|0,0:0|0:0,0:0:0:0:
132,96,71657,2,0,P|128:136|84:208,1,105,0|0,0:0|0:0,0:0:0:0:
16,292,72062,2,0,P|56:300|96:332,1,70,2|0,0:0|0:0,0:0:0:0:
112,340,72305,2,0,P|152:360|212:360,1,105,0|0,0:0|0:0,0:0:0:0:
220,232,72711,5,0,3:0:0:0:
248,108,72954,1,0,3:0:0:0:
348,184,73197,2,0,P|400:224|484:240,1,140,0|0,3:0|0:0,0:0:0:0:
440,132,73684,5,0,0:0:0:0:
408,296,74008,1,0,0:0:0:0:
244,320,74332,1,2,0:0:0:0:
168,284,74495,1,2,0:0:0:0:
168,284,74576,1,0,0:0:0:0:
168,284,74657,2,0,P|124:240|100:152,1,140,2|0,0:0|0:0,0:0:0:0:
248,47,75305,6,0,P|286:32|316:2,1,70,2|0,0:0|0:0,0:0:0:0:
240,173,75630,2,0,P|225:135|195:104,1,70,8|0,0:0|0:0,0:0:0:0:
369,180,75954,2,0,P|331:195|301:226,1,70,2|0,0:0|0:0,0:0:0:0:
377,51,76278,2,0,P|392:89|423:119,1,70,8|0,0:0|0:0,0:0:0:0:
492,184,76603,6,0,P|476:240|416:284,1,105,6|0,0:0|0:0,0:0:0:0:
320,296,77089,1,0,0:0:0:0:
320,296,77251,2,0,P|268:296|208:336,1,105,2|0,0:0|0:0,0:0:0:0:
104,368,77738,1,0,0:0:0:0:
104,368,77900,6,0,P|104:316|64:256,1,105,2|0,0:0|0:0,0:0:0:0:
8,168,78387,1,0,0:0:0:0:
8,168,78549,2,0,P|60:168|120:128,1,105,2|0,0:0|0:0,0:0:0:0:
196,56,79035,1,4,0:0:0:0:
196,56,79197,5,6,0:0:0:0:
316,88,79441,1,0,0:0:0:0:
436,52,79684,1,0,0:0:0:0:
436,52,79846,5,2,0:0:0:0:
388,168,80089,1,0,0:0:0:0:
428,288,80332,1,0,0:0:0:0:
428,288,80495,5,2,0:0:0:0:
312,244,80738,1,0,0:0:0:0:
188,272,80981,1,0,0:0:0:0:
40,352,81305,5,0,0:0:0:0:
28,268,81468,1,0,0:0:0:0:
108,296,81630,1,4,0:0:0:0:
100,212,81792,2,0,P|92:136|116:68,1,140,6|0,0:0|0:0,0:0:0:0:
256,12,82278,2,0,P|264:88|240:156,1,140,0|0,0:0|0:0,0:0:0:0:
200,220,82765,1,0,0:0:0:0:
188,304,82927,1,8,3:0:0:0:
188,304,83008,1,8,3:0:0:0:
188,304,83089,6,0,L|280:284,1,70,4|0,0:0|0:0,0:0:0:0:
340,352,83414,2,0,L|390:272,1,70,0|0,0:0|0:0,0:0:0:0:
484,292,83738,2,0,L|463:199,1,70,0|0,0:0|0:0,0:0:0:0:
436,116,84062,1,0,0:0:0:0:
416,20,84224,1,8,3:0:0:0:
416,20,84305,1,8,3:0:0:0:
416,20,84387,6,0,P|360:52|332:144,1,140,4|0,0:0|0:0,0:0:0:0:
228,100,84873,1,8,3:0:0:0:
228,100,84954,1,8,3:0:0:0:
228,100,85036,2,0,P|227:164|293:234,1,140,4|0,0:0|0:0,0:0:0:0:
364,268,85522,1,8,3:0:0:0:
364,268,85603,1,8,3:0:0:0:
364,268,85684,6,0,L|296:320,1,70,2|0,0:0|0:0,0:0:0:0:
160,364,86008,2,0,L|216:304,1,70,2|0,0:0|0:0,0:0:0:0:
204,208,86332,2,0,L|128:240,1,70,2|0,0:0|0:0,0:0:0:0:
0,304,86656,2,0,L|48:228,1,70,2|0,0:0|0:0,0:0:0:0:
80,136,86981,6,0,L|108:96,3,35,0|0|0|0,0:0|0:0|0:0|0:0,0:0:0:0:
164,112,87305,2,0,L|192:72,3,35,0|0|0|0,0:0|0:0|0:0|0:0,0:0:0:0:
248,80,87630,2,0,L|276:40,3,35,0|0|0|0,0:0|0:0|0:0|0:0,0:0:0:0:
332,56,87954,2,0,L|360:16,3,35,0|0|0|0,0:0|0:0|0:0|0:0,0:0:0:0:
392,84,88278,6,0,P|432:120|448:184,2,105,4|0|0,3:0|0:0|0:0,0:0:0:0:
340,176,88927,2,0,P|332:216|340:248,1,70,8|0,3:0|0:0,0:0:0:0:
380,332,89251,1,0,0:0:0:0:
284,316,89414,1,0,0:0:0:0:
188,336,89576,2,0,P|152:344|64:328,2,105,8|0|0,3:0|0:0|0:0,0:0:0:0:
120,240,90224,6,0,P|80:236|40:248,1,70,8|0,3:0|0:0,0:0:0:0:
8,248,90468,2,0,P|32:205|32:177,1,70,0|0,0:0|0:0,0:0:0:0:
32,144,90711,1,0,0:0:0:0:
16,48,90873,2,0,P|64:52|104:40,1,70,8|0,3:0|0:0,0:0:0:0:
124,36,91116,2,0,P|168:24|196:28,1,70,0|0,0:0|0:0,0:0:0:0:
232,32,91359,1,0,0:0:0:0:
324,64,91522,6,0,P|388:72|464:48,1,140,8|0,3:0|0:0,0:0:0:0:
412,120,92008,1,0,0:0:0:0:
412,120,92170,2,0,P|384:156|372:232,2,105,8|0|0,3:0|0:0|0:0,0:0:0:0:
448,284,92819,2,0,P|420:308|360:316,1,70,8|0,3:0|0:0,0:0:0:0:
232,284,93143,2,0,P|260:260|320:252,1,70,0|0,0:0|0:0,0:0:0:0:
164,364,93468,6,0,P|136:328|128:252,2,105,8|0|0,3:0|0:0|0:0,0:0:0:0:
216,200,94116,2,0,P|179:175|136:168,1,70,8|0,3:0|0:0,0:0:0:0:
52,160,94441,2,0,L|44:88,1,70,0|0,0:0|0:0,0:0:0:0:
144,24,94765,6,0,L|96:24,2,35,8|0|0,3:0|0:0|0:0,0:0:0:0:
204,96,95089,2,0,L|156:88,2,35,0|0|0,0:0|0:0|0:0,0:0:0:0:
368,24,95414,2,0,L|416:24,2,35,8|0|0,3:0|0:0|0:0,0:0:0:0:
308,96,95738,2,0,L|356:88,2,35,0|0|0,0:0|0:0|0:0,0:0:0:0:
256,180,96062,6,0,P|248:248|276:312,1,140,8|0,3:0|0:0,0:0:0:0:
356,368,96549,1,0,0:0:0:0:
388,276,96711,2,0,L|416:196,1,70,8|0,3:0|0:0,0:0:0:0:
480,280,97035,2,0,L|452:344,1,70,0|0,0:0|0:0,0:0:0:0:
356,368,97359,1,4,3:0:0:0:
276,352,97522,6,0,L|228:340,2,35,0|0|0,3:0|3:0|3:0,0:0:0:0:
212,260,97846,2,0,L|164:273,2,35,0|0|8,3:0|3:0|3:0,0:0:0:0:
108,216,98170,2,0,L|73:251,2,35,0|0|0,3:0|3:0|3:0,0:0:0:0:
184,128,98495,1,8,0:0:0:0:
184,128,98576,1,8,0:0:0:0:
184,128,98657,6,0,P|216:88|236:8,2,105,12|0|0,3:0|0:0|0:0,0:0:0:0:
296,96,99305,2,0,P|352:72|392:68,1,70,8|0,3:0|0:0,0:0:0:0:
460,60,99630,1,0,0:0:0:0:
504,148,99792,1,0,0:0:0:0:
408,140,99954,2,0,P|364:144|296:196,2,105,8|0|0,3:0|0:0|0:0,0:0:0:0:
288,276,100603,2,0,P|248:248|228:212,1,70,8|0,3:0|0:0,0:0:0:0:
188,144,100927,1,0,0:0:0:0:
180,48,101089,1,0,0:0:0:0:
92,92,101251,6,0,P|48:140|36:204,2,105,8|0|0,3:0|0:0|0:0,0:0:0:0:
120,240,101900,2,0,P|88:264|32:272,1,70,8|0,3:0|0:0,0:0:0:0:
32,368,102224,1,0,0:0:0:0:
124,336,102387,1,0,0:0:0:0:
220,356,102549,2,0,P|280:372|340:364,2,105,8|0|0,3:0|0:0|0:0,0:0:0:0:
120,240,103197,2,0,L|84:148,1,70,8|0,3:0|0:0,3:0:0:0:
48,52,103521,1,2,0:0:0:0:
48,52,103602,1,2,0:0:0:0:
48,52,103683,1,2,0:0:0:0:
48,52,103764,1,2,0:0:0:0:
48,52,103846,6,0,P|128:56|204:24,1,140,8|8,3:0|3:0,0:0:0:0:
328,12,104332,1,0,0:0:0:0:
328,12,104414,1,0,0:0:0:0:
328,12,104495,2,0,P|308:80|240:144,1,140,8|8,3:0|3:0,0:0:0:0:
168,156,104981,1,0,0:0:0:0:
72,152,105143,1,8,3:0:0:0:
72,152,105305,6,0,P|40:112|32:84,2,70,0|8|0,0:0|3:0|0:0,0:0:0:0:
144,220,105792,2,0,P|197:243|248:334,1,140,8|8,3:0|3:0,0:0:0:0:
135,331,106278,1,0,0:0:0:0:
135,331,106359,1,0,0:0:0:0:
135,331,106441,6,0,P|94:319|57:281,1,70,2|2,0:0|0:0,0:0:0:0:
37,262,106684,1,0,0:0:0:0:
29,248,106765,2,0,P|23:182|36:152,1,70,2|2,0:0|0:0,0:0:0:0:
41,127,107008,1,0,0:0:0:0:
49,113,107089,2,0,P|103:75|125:71,1,70,2|2,0:0|0:0,0:0:0:0:
212,60,107413,6,0,P|266:74|297:100,1,70,2|2,0:0|0:0,0:0:0:0:
298,126,107657,1,0,0:0:0:0:
304,140,107738,2,0,L|320:184,3,35,0|0|0|0,3:0|3:0|3:0|3:0,0:0:0:0:
364,172,108062,2,0,L|380:216,3,35,0|0|0|0,3:0|3:0|3:0|3:0,0:0:0:0:
432,224,108387,6,2,P|336:320|168:308,1,293.999991027832,0|0,0:0|0:0,0:0:0:0:
144,292,109035,6,0,P|140:248|128:216,1,70,12|0,3:0|0:0,0:0:0:0:
112,180,109278,2,0,P|92:132|96:60,1,105,0|0,0:0|0:0,0:0:0:0:
208,104,109684,2,0,P|256:100|280:88,1,70,8|0,3:0|0:0,0:0:0:0:
316,60,109927,2,0,P|360:40|420:48,1,105,0|0,0:0|0:0,0:0:0:0:
372,156,110332,6,0,P|348:188|312:208,1,70,8|0,3:0|0:0,0:0:0:0:
272,208,110576,2,0,P|332:216|376:252,1,105,0|0,0:0|0:0,0:0:0:0:
456,284,110981,2,0,P|470:315|477:350,1,70,8|0,3:0|0:0,0:0:0:0:
428,344,111224,2,0,P|376:360|320:352,1,105,0|0,0:0|0:0,0:0:0:0:
228,272,111630,6,0,P|208:308|204:340,1,70,8|0,3:0|0:0,0:0:0:0:
204,384,111873,2,0,P|164:344|116:328,1,105,0|0,0:0|0:0,0:0:0:0:
20,320,112278,1,8,3:0:0:0:
44,176,112522,1,0,0:0:0:0:
164,264,112765,1,0,0:0:0:0:
164,264,112927,5,8,3:0:0:0:
308,292,113170,1,0,0:0:0:0:
256,152,113414,2,0,L|256:72,1,70,0|8,0:0|3:0,0:0:0:0:
160,68,113738,1,0,0:0:0:0:
160,68,113900,1,0,0:0:0:0:
160,68,114062,1,0,0:0:0:0:
160,68,114224,6,0,P|112:92|88:128,1,70,8|0,3:0|0:0,0:0:0:0:
76,148,114468,2,0,P|60:196|76:264,1,105,0|0,0:0|0:0,0:0:0:0:
120,360,114873,2,0,P|160:336|176:312,1,70,8|0,3:0|0:0,0:0:0:0:
200,276,115116,2,0,P|240:228|292:208,1,105,0|0,0:0|0:0,0:0:0:0:
372,184,115522,5,8,3:0:0:0:
316,320,115765,1,0,0:0:0:0:
460,304,116008,1,0,0:0:0:0:
476,108,116332,1,0,0:0:0:0:
476,108,116495,6,0,L|488:32,1,70,0|0,0:0|0:0,0:0:0:0:
396,76,116819,2,0,P|368:120|288:164,1,140,8|0,3:0|0:0,0:0:0:0:
196,152,117305,1,0,0:0:0:0:
196,152,117387,1,0,0:0:0:0:
196,152,117468,2,0,P|224:108|264:84,2,70,8|0|0,3:0|0:0|0:0,0:0:0:0:
184,248,117954,1,0,0:0:0:0:
212,344,118116,5,8,3:0:0:0:
116,320,118278,2,0,L|76:304,2,35,2|2|2,0:0|0:0|0:0,0:0:0:0:
92,224,118603,2,0,L|52:208,2,35,2|2|2,0:0|0:0|0:0,0:0:0:0:
76,128,118927,2,0,L|36:112,2,35,2|2|2,0:0|0:0|0:0,0:0:0:0:
60,32,119251,1,8,0:0:0:0:
60,32,119332,1,8,0:0:0:0:
60,32,119414,6,0,L|160:80,1,105,8|0,3:0|0:0,0:0:0:0:
352,84,119900,1,0,0:0:0:0:
352,84,120062,2,0,L|257:38,1,105,8|0,3:0|0:0,0:0:0:0:
272,188,120549,1,0,0:0:0:0:
272,188,120711,6,0,P|324:212|396:208,1,105,8|0,3:0|0:0,0:0:0:0:
504,176,121197,1,0,0:0:0:0:
504,176,121359,2,0,P|496:244|476:284,1,105,8|0,3:0|0:0,0:0:0:0:
352,344,121846,1,0,0:0:0:0:
352,344,122008,6,0,L|236:364,2,105,8|0|0,3:0|0:0|0:0,0:0:0:0:
136,304,122657,2,0,L|239:286,2,105,8|0|0,3:0|0:0|0:0,0:0:0:0:
88,316,123224,1,0,0:0:0:0:
88,316,123305,1,8,3:0:0:0:
32,180,123549,1,0,0:0:0:0:
76,40,123792,2,0,L|120:112,1,70,0|8,0:0|3:0,0:0:0:0:
168,180,124116,1,0,0:0:0:0:
168,180,124278,1,0,0:0:0:0:
320,88,124603,6,0,L|368:156,1,70,2|0,0:0|0:0,0:0:0:0:
408,256,124927,2,0,L|456:324,1,70,2|0,0:0|0:0,0:0:0:0:
440,108,125251,2,0,L|488:176,1,70,2|0,0:0|0:0,0:0:0:0:
296,244,125576,2,0,L|344:312,1,70,2|0,0:0|0:0,0:0:0:0:
224,360,125900,6,0,P|184:372|140:368,1,70,6|0,0:0|0:0,0:0:0:0:
52,292,126224,2,0,P|92:280|136:284,1,70,2|0,0:0|0:0,0:0:0:0:
296,244,126549,2,0,P|256:256|212:252,1,70,2|0,0:0|0:0,0:0:0:0:
124,176,126873,2,0,P|164:164|208:168,1,70,2|0,0:0|0:0,0:0:0:0:
324,156,127197,6,0,P|396:128|436:56,1,140,6|2,2:0|0:0,0:0:0:0:
448,188,127684,1,8,0:0:0:0:
448,188,127765,1,8,0:0:0:0:
448,188,127846,2,0,P|460:272|428:340,1,140,2|0,0:0|0:0,0:0:0:0:
368,252,128332,1,8,0:0:0:0:
328,340,128495,6,0,L|288:348,3,35,0|0|0|0,0:0|0:0|0:0|0:0,0:0:0:0:
248,324,128819,2,0,L|208:332,3,35,0|0|0|0,0:0|0:0|0:0|0:0,0:0:0:0:
168,312,129143,2,0,L|128:320,3,35,0|0|0|0,0:0|0:0|0:0|0:0,0:0:0:0:
92,296,129468,2,0,L|52:304,3,35,0|0|0|0,0:0|0:0|0:0|0:0,0:0:0:0:
12,280,129792,5,4,0:0:0:0:
356,324,139846,6,0,L|380:276,1,52.5,0|0,0:0|0:0,0:0:0:0:
400,232,140170,6,0,P|432:300|504:336,1,140,4|0,3:0|0:0,0:0:0:0:
496,232,140657,1,0,0:0:0:0:
440,144,140819,2,0,L|452:200,2,35,0|0|0,0:0|0:0|0:0,0:0:0:0:
408,36,141143,2,0,P|372:68|296:76,1,105,2|0,0:0|0:0,0:0:0:0:
284,80,141468,6,0,P|219:85|139:129,1,140,2|0,0:0|0:0,0:0:0:0:
100,196,141954,1,0,0:0:0:0:
60,292,142116,2,0,P|56:332|60:368,1,70,2|0,0:0|0:0,0:0:0:0:
152,332,142441,2,0,P|156:292|148:256,1,70,2|2,0:0|3:0,0:0:0:0:
248,328,142765,6,0,P|308:356|392:352,1,140,4|0,3:0|0:0,0:0:0:0:
476,272,143251,1,0,0:0:0:0:
476,272,143414,2,0,P|416:244|332:248,1,140,0|0,0:0|0:0,0:0:0:0:
220,228,143900,1,0,0:0:0:0:
120,184,144062,6,0,P|76:144|52:84,1,105,2|0,0:0|0:0,0:0:0:0:
56,56,144387,2,0,P|108:88|164:92,1,105,2|0,0:0|0:0,0:0:0:0:
196,80,144711,2,0,P|240:72|328:92,1,105,2|0,0:0|0:0,0:0:0:0:
336,112,145035,2,0,P|288:128|260:156,1,70,2|2,0:0|3:0,0:0:0:0:
344,204,145359,6,0,L|384:280,1,70,4|0,3:0|0:0,0:0:0:0:
24,348,146332,2,0,P|72:300|88:272,1,70,0|2,0:0|3:0,0:0:0:0:
84,252,146576,1,2,3:0:0:0:
84,252,146657,6,0,L|96:164,1,70,4|0,3:0|0:0,0:0:0:0:
356,96,147630,2,0,P|396:76|440:72,1,70,0|2,0:0|3:0,0:0:0:0:
468,84,147873,1,2,3:0:0:0:
468,84,147954,6,0,L|480:160,1,70,4|0,3:0|0:0,0:0:0:0:
400,208,148441,1,2,3:0:0:0:
400,208,148522,1,2,3:0:0:0:
400,208,148603,6,0,L|412:284,1,70,4|0,3:0|0:0,0:0:0:0:
296,300,149089,1,2,3:0:0:0:
296,300,149170,1,2,3:0:0:0:
296,300,149251,6,0,L|308:376,1,70,0|8,0:0|3:0,0:0:0:0:
228,344,149495,2,0,L|216:268,1,70,4|8,3:0|3:0,0:0:0:0:
146,312,149738,2,0,L|158:388,1,70,4|8,3:0|3:0,0:0:0:0:
78,356,149982,2,0,L|66:280,1,70,4|8,3:0|3:0,0:0:0:0:
55,211,150224,2,0,L|43:135,1,70,4|4,3:0|3:0,0:0:0:0:
164,165,150548,6,0,L|178:250,1,70,8|0,3:0|0:0,0:0:0:0:
267,220,150872,2,0,L|282:304,1,70,0|0,0:0|0:0,0:0:0:0:
372,177,151197,2,0,L|387:261,1,70,8|0,3:0|0:0,0:0:0:0:
476,216,151521,2,0,L|491:300,1,70,0|0,0:0|0:0,0:0:0:0:
472,88,151846,5,8,3:0:0:0:
472,88,151927,1,0,0:0:0:0:
472,88,152008,1,0,0:0:0:0:
472,88,152089,1,0,0:0:0:0:
472,88,152170,2,0,L|408:20,1,70,0|0,0:0|0:0,0:0:0:0:
344,112,152495,1,8,3:0:0:0:
344,112,152576,1,0,0:0:0:0:
344,112,152657,1,0,0:0:0:0:
344,112,152738,1,0,0:0:0:0:
344,112,152819,2,0,L|280:44,1,70,0|0,0:0|0:0,0:0:0:0:
192,48,153142,6,0,P|156:56|104:80,1,70,8|0,3:0|0:0,0:0:0:0:
72,168,153467,2,0,P|108:160|138:144,1,70,0|0,0:0|0:0,0:0:0:0:
240,196,153792,2,0,P|204:204|152:228,1,70,8|0,3:0|0:0,0:0:0:0:
120,316,154117,2,0,P|156:308|186:292,1,70,0|0,0:0|0:0,0:0:0:0:
316,244,154441,5,8,3:0:0:0:
328,236,154522,1,0,2:0:0:0:
340,232,154603,1,0,2:0:0:0:
352,232,154684,1,0,2:0:0:0:
364,232,154765,2,0,P|416:252|456:248,1,70,0|0,0:0|0:0,0:0:0:0:
468,148,155089,1,8,3:0:0:0:
456,156,155170,1,0,2:0:0:0:
444,159,155251,1,0,2:0:0:0:
432,159,155332,1,0,2:0:0:0:
420,159,155413,2,0,P|368:139|328:143,1,70,0|0,2:0|2:0,0:0:0:0:
184,148,155738,6,0,P|140:164|108:200,1,70,8|0,3:0|0:0,0:0:0:0:
244,84,156062,2,0,P|201:64|153:67,1,70,0|0,0:0|0:0,0:0:0:0:
332,80,156387,2,0,P|316:36|280:4,1,70,8|0,3:0|0:0,0:0:0:0:
396,140,156711,2,0,P|415:97|412:49,1,70,0|0,0:0|0:0,0:0:0:0:
392,228,157035,6,0,L|440:236,2,35,8|0|0,3:0|0:0|0:0,0:0:0:0:
320,304,157359,2,0,L|368:312,2,35,0|0|0,0:0|0:0|0:0,0:0:0:0:
216,296,157684,6,0,L|180:300,3,35,8|0|0|0,3:0|2:0|2:0|2:0,0:0:0:0:
124,280,158008,2,0,L|88:284,3,35,2|2|2|2,2:0|2:0|2:0|2:0,0:0:0:0:
48,260,158332,6,0,L|28:164,1,70,8|0,3:0|0:0,0:0:0:0:
132,176,158657,2,0,L|112:80,1,70,0|0,0:0|0:0,0:0:0:0:
252,216,158981,2,0,L|232:120,1,70,8|0,3:0|0:0,0:0:0:0:
336,132,159306,2,0,L|316:36,1,70,0|0,0:0|0:0,0:0:0:0:
456,32,159630,2,0,L|412:40,3,35,8|0|0|0,3:0|0:0|0:0|0:0,0:0:0:0:
372,40,159954,2,0,L|328:48,3,35,0|0|0|0,0:0|0:0|0:0|0:0,0:0:0:0:
288,48,160278,6,2,P|216:64|172:100,1,125.999996154785,2|0,2:0|0:0,2:0:0:0:
156,180,160603,2,0,P|228:164|272:128,1,125.999996154785,2|0,2:0|0:0,2:0:0:0:
356,128,160927,6,0,P|412:132|452:148,1,70,8|0,3:0|0:0,0:0:0:0:
472,240,161251,2,0,P|416:236|376:220,1,70,0|0,0:0|0:0,0:0:0:0:
244,220,161576,2,0,P|300:224|340:240,1,70,8|0,3:0|0:0,0:0:0:0:
360,332,161900,2,0,P|304:328|264:312,1,70,0|0,0:0|0:0,0:0:0:0:
176,288,162224,5,8,3:0:0:0:
160,284,162305,1,0,0:0:0:0:
144,284,162387,1,0,0:0:0:0:
128,288,162468,1,0,0:0:0:0:
112,296,162549,2,0,P|64:336|52:364,1,70,0|0,0:0|0:0,0:0:0:0:
56,220,162873,1,8,3:0:0:0:
68,208,162954,1,0,0:0:0:0:
76,192,163035,1,0,0:0:0:0:
80,176,163116,1,0,0:0:0:0:
84,160,163197,2,0,P|80:100|64:76,1,70,0|0,0:0|0:0,0:0:0:0:
156,40,163522,6,0,L|244:40,1,70,8|0,3:0|0:0,0:0:0:0:
236,128,163846,2,0,L|324:128,1,70,0|0,0:0|0:0,0:0:0:0:
436,120,164170,2,0,L|404:184,1,70,8|0,3:0|0:0,0:0:0:0:
488,252,164495,2,0,L|456:316,1,70,0|0,0:0|0:0,0:0:0:0:
344,324,164819,2,0,L|304:344,3,35,8|0|0|0,3:0|0:0|0:0|0:0,0:0:0:0:
264,328,165143,2,0,L|224:348,3,35,0|0|0|0,0:0|0:0|0:0|0:0,0:0:0:0:
184,328,165468,6,2,P|120:332|48:296,1,125.999996154785,2|0,2:0|0:0,2:0:0:0:
8,224,165792,2,2,P|72:220|144:256,1,125.999996154785,2|0,2:0|0:0,2:0:0:0:
216,240,166116,6,0,P|272:244|304:236,1,70,8|0,3:0|0:0,0:0:0:0:
328,220,166359,1,0,0:0:0:0:
328,220,166441,2,0,P|384:216|416:224,1,70,0|0,0:0|0:0,0:0:0:0:
500,264,166765,2,0,P|508:212|492:168,1,70,8|0,3:0|0:0,0:0:0:0:
484,152,167008,1,0,0:0:0:0:
484,152,167089,2,0,P|468:104|472:72,1,70,0|0,0:0|0:0,0:0:0:0:
360,32,167414,6,0,P|340:64|308:84,1,70,8|0,3:0|0:0,0:0:0:0:
264,92,167657,1,0,0:0:0:0:
264,92,167738,2,0,P|216:96|176:80,1,70,8|0,3:0|0:0,0:0:0:0:
104,80,168062,2,0,P|125:115|133:159,1,70,8|0,3:0|0:0,0:0:0:0:
142,193,168305,1,0,0:0:0:0:
142,193,168387,2,0,P|142:242|134:273,1,70,8|0,3:0|0:0,0:0:0:0:
128,348,168711,6,0,L|96:380,2,35,8|0|0,3:0|0:0|0:0,0:0:0:0:
224,256,169035,2,0,L|240:220,2,35,8|0|0,3:0|0:0|0:0,0:0:0:0:
276,348,169359,2,0,L|268:388,2,35,8|0|0,3:0|0:0|0:0,0:0:0:0:
340,228,169684,2,0,P|368:188|428:152,1,105,8|0,3:0|0:0,0:0:0:0:
460,144,170008,5,8,3:0:0:0:
392,48,170170,2,0,L|400:12,2,35,2|2|2,0:0|0:0|0:0,0:0:0:0:
332,108,170495,1,2,0:0:0:0:
244,96,170657,6,2,P|100:184|76:348,1,335.999989746094,0|4,0:0|3:0,0:0:0:0:
88,148,173738,6,0,L|88:232,1,70,8|4,3:0|3:0,0:0:0:0:
88,148,176170,5,0,0:0:0:0:
88,148,176332,2,0,L|88:232,1,70,0|4,0:0|3:0,0:0:0:0:
88,148,177630,6,0,L|88:208,2,35,8|8|4,3:0|3:0|3:0,0:0:0:0:
88,148,178927,6,0,L|88:208,2,35,8|8|4,3:0|3:0|3:0,0:0:0:0:
164,284,179576,6,0,L|164:344,2,35,8|8|4,3:0|3:0|3:0,0:0:0:0:
348,264,180224,6,0,L|348:299,1,35,8|8,3:0|3:0,0:0:0:0:
349,336,180387,2,0,P|395:312|448:312,1,105,4|4,3:0|3:0,0:0:0:0:
448,312,180711,2,0,P|450:260|476:214,1,105,4|4,3:0|3:0,0:0:0:0:
476,214,181035,2,0,P|432:185|405:141,1,105,4|4,3:0|3:0,0:0:0:0:
405,141,181359,2,0,P|358:164|306:165,1,105,4|4,3:0|3:0,0:0:0:0:
258,153,181684,6,0,P|207:133|128:140,1,105,0|0,0:0|0:0,0:0:0:0:
112,148,182008,6,0,P|128:188|132:248,1,70,4|0,2:0|0:0,0:0:0:0:
68,300,182332,2,0,P|112:316|156:312,1,70,8|0,3:0|0:0,0:0:0:0:
184,304,182576,2,0,P|252:292|316:312,1,105,0|0,0:0|0:0,0:0:0:0:
396,364,182981,6,0,P|412:328|412:296,1,70,8|0,3:0|0:0,0:0:0:0:
396,252,183224,2,0,P|368:212|296:192,1,105,0|0,0:0|0:0,0:0:0:0:
408,120,183630,2,0,P|444:96|464:64,1,70,8|0,3:0|0:0,0:0:0:0:
468,124,183873,2,0,P|476:188|504:232,1,105,0|0,0:0|0:0,0:0:0:0:
396,32,184278,5,8,3:0:0:0:
316,156,184522,1,0,0:0:0:0:
256,24,184765,1,0,0:0:0:0:
256,24,184927,5,8,3:0:0:0:
188,152,185170,1,0,0:0:0:0:
256,284,185414,1,0,0:0:0:0:
256,284,185495,1,0,0:0:0:0:
256,284,185576,2,0,P|216:304|136:292,2,105,8|0|0,3:0|0:0|0:0,0:0:0:0:
380,216,186387,1,2,0:0:0:0:
380,216,186549,2,0,P|396:264|396:296,1,70,2|0,0:0|0:0,0:0:0:0:
364,376,186873,6,0,L|276:368,1,70,8|0,3:0|0:0,0:0:0:0:
300,264,187197,2,0,L|212:256,1,70,0|0,0:0|0:0,0:0:0:0:
152,332,187522,2,0,L|64:324,1,70,8|0,3:0|0:0,0:0:0:0:
220,168,187846,2,0,L|132:160,1,70,0|2,0:0|0:0,0:0:0:0:
100,152,188089,1,2,0:0:0:0:
100,152,188170,6,0,L|124:232,1,70,10|0,3:0|0:0,0:0:0:0:
160,28,188495,2,0,L|184:108,1,70,0|0,0:0|0:0,0:0:0:0:
288,128,188819,2,0,L|312:208,1,70,8|0,3:0|0:0,0:0:0:0:
348,4,189144,2,0,L|372:84,1,70,0|0,0:0|0:0,0:0:0:0:
440,180,189468,6,0,L|456:228,3,35,8|0|0|0,3:0|0:0|0:0|0:0,0:0:0:0:
424,288,189792,2,0,L|412:254,3,35,0|0|0|0,0:0|0:0|0:0|0:0,0:0:0:0:
352,204,190116,2,0,L|368:252,3,35,8|0|0|0,3:0|0:0|0:0|0:0,0:0:0:0:
336,312,190440,2,0,L|324:278,3,35,0|0|0|0,0:0|0:0|0:0|0:0,0:0:0:0:
284,224,190765,6,0,P|252:264|212:284,1,70,8|0,3:0|0:0,0:0:0:0:
192,304,191008,1,0,0:0:0:0:
192,304,191089,2,0,P|173:256|176:211,1,70,0|0,0:0|0:0,0:0:0:0:
172,184,191332,1,0,0:0:0:0:
172,184,191414,2,0,P|222:191|259:216,1,70,8|0,3:0|0:0,0:0:0:0:
80,224,191738,1,2,2:0:0:0:
76,204,191819,1,2,2:0:0:0:
76,184,191900,1,2,2:0:0:0:
80,164,191981,1,2,2:0:0:0:
88,144,192062,6,0,P|128:92|176:72,1,105,8|0,3:0|0:0,0:0:0:0:
384,36,192549,1,0,0:0:0:0:
384,36,192711,2,0,P|344:88|296:108,1,105,8|0,3:0|0:0,0:0:0:0:
172,184,193197,1,0,0:0:0:0:
172,184,193359,6,0,P|204:232|248:256,1,105,8|0,3:0|0:0,0:0:0:0:
476,320,193846,1,0,0:0:0:0:
476,320,194008,2,0,P|444:272|400:248,1,105,8|0,3:0|0:0,0:0:0:0:
308,368,194495,1,0,0:0:0:0:
308,368,194657,6,0,P|236:376|180:356,1,105,8|0,3:0|0:0,0:0:0:0:
0,272,195143,1,0,0:0:0:0:
0,272,195305,2,0,P|72:264|128:284,2,105,8|0|0,3:0|0:0|0:0,0:0:0:0:
52,356,195954,5,8,3:0:0:0:
96,192,196197,1,0,0:0:0:0:
52,28,196441,2,0,P|120:84|184:96,1,140,0|0,0:0|0:0,0:0:0:0:
288,72,196927,1,2,2:0:0:0:
308,64,197008,1,2,2:0:0:0:
328,60,197089,1,2,2:0:0:0:
348,60,197170,1,2,2:0:0:0:
368,64,197251,6,0,P|432:84|464:116,2,105,8|0|0,3:0|0:0|0:0,0:0:0:0:
280,200,197900,2,0,P|229:187|189:154,2,105,8|0|0,3:0|0:0|0:0,0:0:0:0:
396,184,198549,5,8,3:0:0:0:
476,320,198792,1,0,0:0:0:0:
320,320,199035,2,0,P|248:324|172:356,1,140,0|0,0:0|0:0,0:0:0:0:
212,248,199522,1,2,0:0:0:0:
212,248,199846,6,0,P|256:192|340:160,1,140,8|0,3:0|0:0,0:0:0:0:
420,140,200332,1,0,0:0:0:0:
420,140,200414,1,0,0:0:0:0:
420,140,200495,2,0,P|396:96|368:72,1,70,8|0,3:0|0:0,0:0:0:0:
292,28,200819,2,0,P|248:68|236:100,1,70
124,44,201143,6,0,L|64:40,3,35
104,96,201468,2,0,P|132:136|132:196,1,105,0|0,0:0|0:0,0:0:0:0:
120,244,201792,2,0,L|92:296,3,35,8|0|0|0,3:0|0:0|0:0|0:0,0:0:0:0:
152,304,202116,2,0,L|124:356,3,35,8|0|0|0,3:0|0:0|0:0|0:0,0:0:0:0:
188,352,202441,6,0,P|232:316|268:308,1,70,8|0,3:0|0:0,0:0:0:0:
288,296,202684,2,0,P|340:296|372:312,1,70,0|0,0:0|0:0,0:0:0:0:
400,320,202927,1,0,0:0:0:0:
404,224,203089,2,0,P|392:184|396:148,1,70,8|0,3:0|0:0,0:0:0:0:
400,116,203332,2,0,P|392:60|376:40,1,70,0|0,0:0|0:0,0:0:0:0:
360,16,203576,1,0,0:0:0:0:
288,96,203738,6,0,P|252:108|216:108,1,70,8|0,3:0|0:0,0:0:0:0:
180,100,203981,2,0,P|184:144|200:176,1,70,0|0,0:0|0:0,0:0:0:0:
228,192,204224,1,0,0:0:0:0:
324,240,204387,2,0,P|300:272|264:292,1,70,8|0,3:0|0:0,0:0:0:0:
236,300,204630,2,0,P|184:308|152:296,1,70,0|0,0:0|0:0,0:0:0:0:
132,280,204873,1,0,0:0:0:0:
96,204,205035,6,0,L|64:104,2,105,8|0|0,3:0|0:0|0:0,0:0:0:0:
224,252,205684,2,0,L|256:352,2,105,8|0|0,3:0|0:0|0:0,0:0:0:0:
192,160,206332,5,8,3:0:0:0:
264,32,206576,1,0,0:0:0:0:
408,68,206819,1,2,0:0:0:0:
364,248,207143,1,2,0:0:0:0:
364,248,207305,2,0,L|408:336,1,70,2|0,0:0|0:0,0:0:0:0:
272,308,207630,6,0,P|216:296|132:340,1,140,2|0,0:0|0:0,0:0:0:0:
48,380,208116,2,0,P|40:320|72:240,1,140,2|0,0:0|0:0,0:0:0:0:
128,168,208603,2,0,P|160:108|164:84,1,70,2|0,0:0|0:0,0:0:0:0:
152,8,208927,6,0,L|240:12,1,70,8|0,3:0|0:0,0:0:0:0:
300,68,209251,2,0,L|388:72,1,70,0|0,0:0|0:0,0:0:0:0:
212,160,209576,2,0,L|300:164,1,70,8|0,3:0|0:0,0:0:0:0:
360,220,209900,2,0,L|448:224,1,70,0|0,0:0|0:0,0:0:0:0:
392,336,210224,6,0,L|312:316,1,70,8|2,3:0|2:0,0:0:0:0:
228,300,210549,1,2,2:0:0:0:
132,320,210711,1,2,2:0:0:0:
132,320,210792,1,2,2:0:0:0:
132,320,210873,2,0,P|136:280|152:244,1,70,8|2,3:0|2:0,0:0:0:0:
264,156,211197,2,0,P|260:196|244:232,1,70,2|2,2:0|2:0,0:0:0:0:
236,64,211522,5,8,3:0:0:0:
336,24,211684,2,0,L|380:0,2,35,8|8|8,2:0|2:0|2:0,0:0:0:0:
400,104,212008,2,8,L|450:105,2,35,8|8|8,2:0|2:0|3:0,0:0:0:0:
312,156,212332,1,8,2:0:0:0:
296,168,212414,1,8,2:0:0:0:
284,184,212495,2,0,L|272:224,3,35,0|0|0|8,0:0|0:0|0:0|0:0,0:0:0:0:
309,268,212819,5,12,2:3:0:0:
256,192,212900,12,0,215414,0:0:0:0:
412,328,223197,6,0,L|376:260,1,70,6|0,3:0|0:0,0:0:0:0:
328,184,223522,1,0,0:0:0:0:
276,268,223684,2,0,P|228:304|120:316,1,140,0|0,0:0|0:0,0:0:0:0:
56,296,224170,1,0,0:0:0:0:
56,284,224251,1,0,0:0:0:0:
56,272,224332,1,0,0:0:0:0:
56,260,224414,1,0,0:0:0:0:
56,248,224495,2,0,L|56:172,1,70,6|0,3:0|0:0,0:0:0:0:
148,148,224819,6,0,P|164:68|216:20,1,140,0|0,0:0|0:0,0:0:0:0:
220,20,225224,1,0,0:0:0:0:
236,16,225305,2,0,P|240:88|264:136,1,105,2|0,0:0|0:0,0:0:0:0:
280,160,225630,2,0,P|316:200|396:232,1,140,2|0,0:0|0:0,0:0:0:0:
512,232,226116,1,0,0:0:0:0:
472,144,226278,1,0,0:0:0:0:
392,88,226441,2,0,L|352:48,3,35,2|0|0|0,0:0|0:0|0:0|0:0,0:0:0:0:
328,124,226765,2,0,L|240:192,1,105,0|0,0:0|0:0,0:0:0:0:
204,212,227089,6,0,P|216:176|212:96,1,105,6|0,3:0|0:0,0:0:0:0:
200,64,227414,2,0,L|184:24,2,35,0|0|0,0:0|0:0|0:0,0:0:0:0:
112,132,227738,2,0,L|96:92,2,35,2|0|0,0:0|0:0|0:0,0:0:0:0:
56,240,228062,1,0,0:0:0:0:
56,240,228224,6,0,L|72:316,1,70,2|6,0:0|3:0,0:0:0:0:
156,264,228549,2,0,L|172:340,1,70,2|0,0:0|0:0,0:0:0:0:
256,292,228873,2,0,L|272:368,1,70,2|2,0:0|0:0,0:0:0:0:
356,316,229197,1,0,0:0:0:0:
356,316,229278,1,0,0:0:0:0:
356,316,229359,2,0,L|344:264,3,35,0|0|0|0,0:0|0:0|0:0|0:0,0:0:0:0:
400,260,229684,6,0,L|388:208,3,35,6|0|0|0,3:0|0:0|0:0|0:0,0:0:0:0:
448,172,230008,2,0,L|455:206,3,35,0|0|0|0,0:0|0:0|0:0|0:0,0:0:0:0:
380,172,230332,2,0,L|368:120,3,35,2|0|0|0,0:0|0:0|0:0|0:0,0:0:0:0:
428,84,230656,2,0,L|435:118,3,35,0|0|0|0,0:0|0:0|0:0|0:0,0:0:0:0:
360,84,230981,6,0,P|300:72|256:28,1,105,6|0,3:0|0:0,0:0:0:0:
267,44,231305,2,0,P|256:96|272:160,1,105,2|0,0:0|0:0,0:0:0:0:
265,146,231630,2,0,P|216:132|168:80,1,105,0|0,0:0|0:0,0:0:0:0:
177,96,231954,2,0,P|156:168|160:208,1,105,2|0,0:0|0:0,0:0:0:0:
168,244,232278,6,0,L|96:184,1,70,6|0,3:0|0:0,0:0:0:0:
44,132,232603,1,2,2:0:0:0:
44,144,232684,1,2,2:0:0:0:
44,156,232765,1,2,2:0:0:0:
44,168,232846,1,2,2:0:0:0:
43,178,232927,2,0,L|43:222,3,35,2|2|2|2,3:0|3:0|3:0|3:0,0:0:0:0:
14,245,233251,2,0,L|14:289,3,35,2|2|2|2,3:0|3:0|3:0|3:0,0:0:0:0:
44,312,233576,6,0,P|100:280|196:280,1,140,6|0,3:0|0:0,0:0:0:0:
268,304,234062,2,0,P|320:332|432:336,1,140,0|0,0:0|0:0,0:0:0:0:
460,264,234549,2,0,P|420:248|368:248,1,70,0|0,0:0|0:0,0:0:0:0:
304,204,234873,2,0,P|276:168|264:120,1,70,6|0,3:0|0:0,0:0:0:0:
360,112,235197,2,0,P|365:66|391:24,1,70,0|0,0:0|0:0,0:0:0:0:
456,100,235522,2,0,P|448:152|384:220,1,140,2|0,0:0|0:0,0:0:0:0:
296,244,236008,1,0,0:0:0:0:
296,244,236170,6,0,P|232:252|160:296,1,140,6|0,3:0|0:0,0:0:0:0:
104,364,236657,1,0,0:0:0:0:
108,264,236819,1,2,0:0:0:0:
108,252,236900,1,0,0:0:0:0:
108,240,236981,1,0,0:0:0:0:
108,228,237062,1,0,0:0:0:0:
108,216,237143,2,0,L|108:176,3,35,0|0|0|0,0:0|0:0|0:0|0:0,0:0:0:0:
96,132,237468,6,0,P|60:104|40:72,2,70,6|0|0,3:0|0:0|0:0,0:0:0:0:
188,164,237954,2,0,P|232:196|248:228,1,70,0|2,0:0|0:0,0:0:0:0:
284,296,238278,2,0,P|308:344|336:368,1,70,0|0,0:0|0:0,0:0:0:0:
384,280,238603,1,0,0:0:0:0:
484,96,238927,1,0,0:0:0:0:
496,292,239251,1,0,0:0:0:0:
368,140,239576,1,0,0:0:0:0:
280,96,239738,2,0,L|224:88,3,35,0|0|0|0,0:0|0:0|0:0|0:0,0:0:0:0:
232,136,240062,6,0,P|248:188|248:220,1,70,6|0,3:0|0:0,0:0:0:0:
184,328,240387,2,0,P|168:276|168:244,1,70,2|0,0:0|0:0,0:0:0:0:
88,112,240711,2,0,P|104:164|104:196,1,70,2|0,0:0|0:0,0:0:0:0:
40,304,241036,2,0,P|24:252|24:220,1,70,2|0,0:0|0:0,0:0:0:0:
16,56,241359,6,0,P|76:28|124:24,1,105,6|0,3:0|0:0,0:0:0:0:
164,32,241684,2,0,P|216:44|276:36,1,105,2|0,0:0|0:0,0:0:0:0:
316,28,242008,2,0,P|368:32|424:72,1,105,0|0,0:0|0:0,0:0:0:0:
432,104,242332,2,0,P|440:160|416:216,1,105,2|0,0:0|0:0,0:0:0:0:
392,240,242657,6,0,L|364:276,3,35,6|2|2|2,3:0|0:0|0:0|0:0,0:0:0:0:
336,304,242981,2,0,P|328:264|300:224,1,70,0|0,0:0|0:0,0:0:0:0:
236,308,243305,1,2,0:0:0:0:
224,316,243387,1,2,0:0:0:0:
212,320,243468,1,2,0:0:0:0:
200,324,243549,1,2,0:0:0:0:
188,328,243630,1,2,0:0:0:0:
176,328,243711,1,2,0:0:0:0:
164,328,243792,1,2,0:0:0:0:
152,324,243873,1,2,0:0:0:0:
140,320,243954,6,0,P|96:272|104:200,1,140,6|0,3:0|0:0,0:0:0:0:
160,124,244441,1,0,0:0:0:0:
160,124,244765,5,0,0:0:0:0:
256,120,244927,1,0,0:0:0:0:
348,88,245089,1,0,0:0:0:0:
404,8,245251,2,0,P|440:52|444:76,1,70,6|0,3:0|0:0,0:0:0:0:
420,204,245576,2,0,P|384:160|380:136,1,70,0|0,0:3|0:3,0:0:0:0:
512,228,245900,5,2,0:0:0:0:
512,228,246062,2,0,P|468:284|424:300,1,105,0|0,0:0|0:0,0:0:0:0:
384,304,246387,2,0,P|340:308|292:336,1,70,0|6,0:0|3:0,0:0:0:0:
220,356,246711,2,0,P|224:292|276:228,1,140,0|0,0:0|0:0,0:0:0:0:
360,184,247197,2,0,L|404:164,3,35,2|0|0|0,0:0|0:0|0:0|0:0,0:0:0:0:
420,124,247522,2,0,L|464:104,3,35,0|0|0|0,0:0|0:0|0:0|0:0,0:0:0:0:
476,64,247846,6,0,P|392:60|316:24,1,140,6|0,3:0|0:0,0:0:0:0:
304,172,248332,2,0,P|252:124|232:72,1,105,2|0,0:0|0:0,0:0:0:0:
216,44,248657,2,0,P|208:96|160:148,1,105,2|0,0:0|0:0,0:0:0:0:
144,176,248981,2,0,P|112:236|112:336,1,140,2|0,0:0|0:0,0:0:0:0:
406,306,249630,2,0,P|400:237|368:176,1,140,2|0,0:0|0:0,0:0:0:0:
340,136,250035,1,0,0:0:0:0:
340,136,250116,2,0,L|344:100,3,35,0|0|0|0,0:0|0:0|0:0|0:0,0:0:0:0:
336,72,250441,6,0,L|432:60,1,70,2|8,0:0|0:0,0:0:0:0:
228,152,250765,2,0,L|297:143,1,70,2|8,0:0|0:0,0:0:0:0:
116,232,251089,2,0,L|212:220,1,70,2|8,0:0|0:0,0:0:0:0:
8,312,251413,2,0,L|77:303,1,70,2|8,0:0|0:0,0:0:0:0:
204,320,251738,5,2,0:0:0:0:
220,320,251819,1,2,0:0:0:0:
236,320,251900,1,2,0:0:0:0:
252,320,251981,1,2,0:0:0:0:
268,320,252062,2,0,L|320:320,2,35
280,232,252387,5,2,0:0:0:0:
294,224,252468,1,2,0:0:0:0:
308,215,252549,1,2,0:0:0:0:
324,208,252630,1,2,0:0:0:0:
336,200,252711,2,0,L|381:174,2,35
300,120,253035,5,2,0:0:0:0:
308,106,253116,1,2,0:0:0:0:
315,91,253197,1,2,0:0:0:0:
324,78,253278,1,2,0:0:0:0:
332,64,253359,2,0,L|358:18,2,35
236,32,253684,5,2,0:0:0:0:
224,44,253765,1,2,0:0:0:0:
212,56,253846,1,2,0:0:0:0:
200,68,253927,1,2,0:0:0:0:
188,80,254008,2,0,L|164:108,5,23.3333333333333,0|0|0|0|0|0,0:0|0:0|0:0|0:0|0:0|0:0,0:0:0:0:
256,192,254657,5,4,0:0:0:0:
256,192,254738,12,0,260170,0:0:0:0:
