osu file format v14

[General]
AudioFilename: Akasha.mp3
AudioLeadIn: 0
PreviewTime: 105143
Countdown: 0
SampleSet: Soft
StackLeniency: 0.7
Mode: 0
LetterboxInBreaks: 1
WidescreenStoryboard: 0

[Editor]
DistanceSpacing: 1.1
BeatDivisor: 4
GridSize: 4
TimelineZoom: 3.100005

[Metadata]
Title:Akasha
TitleUnicode:Akasha
Artist:xi
ArtistUnicode:xi
Creator:Jemmmmy
Version:Heaven
Source:
Tags:100sec Records Stream Energy Limitless Space World M3 27 2011 Urushi38 Minakami Yuki mtbbsben cdhsausageboy Evil_Twilight Kagami yuki _Gezo_
BeatmapID:408378
BeatmapSetID:118768

[Difficulty]
HPDrainRate:6
CircleSize:4.2
OverallDifficulty:9.4
ApproachRate:9.6
SliderMultiplier:2
SliderTickRate:1

[Events]
//Background and Video events
0,0,"Grand_Universe_by_ANTIFAN_REAL.jpg",0,0
//Break Periods
2,63830,65391
//Storyboard Layer 0 (Background)
//Storyboard Layer 1 (Fail)
//Storyboard Layer 2 (Pass)
//Storyboard Layer 3 (Foreground)
//Storyboard Sound Samples

[TimingPoints]
1360,324.324324324324,4,2,0,45,1,0
1360,-200,4,2,0,45,0,0
21792,-200,4,2,0,30,0,0
21873,-200,4,2,0,35,0,0
21954,-200,4,2,0,40,0,0
22035,-200,4,2,0,45,0,0
22116,-200,4,2,2,50,0,0
23089,-200,4,2,0,30,0,0
23414,-200,4,2,2,35,0,0
24387,-200,4,2,0,40,0,0
24711,-200,4,2,0,45,0,0
25684,-200,4,2,0,50,0,0
26008,-200,4,2,0,55,0,0
26981,-200,4,2,0,45,0,0
27143,-200,4,2,0,40,0,0
27305,-200,4,2,0,30,0,0
28603,-200,4,2,2,50,0,0
29576,-200,4,2,0,30,0,0
31197,-200,4,2,2,50,0,0
32008,-200,4,2,0,30,0,0
33468,-200,4,2,0,40,0,0
33792,-200,4,2,2,50,0,0
35089,-200,4,2,0,40,0,0
36387,-200,4,2,0,45,0,0
37360,-200,4,2,0,50,0,0
37522,-200,4,2,0,40,0,0
37684,-200,4,2,0,30,0,0
38981,-200,4,2,2,50,0,0
41576,-200,4,2,0,10,0,0
41630,-200,4,2,0,13,0,0
41684,-200,4,2,0,16,0,0
41738,-200,4,2,0,19,0,0
41792,-200,4,2,0,22,0,0
41846,-200,4,2,0,25,0,0
41900,-200,4,2,0,28,0,0
41954,-200,4,2,0,31,0,0
42008,-200,4,2,0,34,0,0
42062,-200,4,2,0,37,0,0
42116,-200,4,2,0,40,0,0
42170,-200,4,2,0,43,0,0
42224,-200,4,2,0,46,0,0
42278,-200,4,2,0,49,0,0
42332,-200,4,2,0,52,0,0
42387,-200,4,2,0,55,0,0
42441,-200,4,2,0,58,0,0
42495,-200,4,2,0,60,0,0
42549,-100,4,2,50,35,0,0
42630,-100,4,2,51,40,0,0
42711,-100,4,2,53,45,0,0
42792,-100,4,2,55,50,0,0
42873,-100,4,2,58,70,0,0
43035,-100,4,2,50,40,0,0
43116,-100,4,2,51,45,0,0
43197,-100,4,2,53,50,0,0
43278,-100,4,2,55,55,0,0
43359,-100,4,2,60,70,0,0
43522,-100,4,2,3,60,0,0
43683,-100,4,2,51,70,0,0
43846,-100,4,2,51,60,0,0
43927,-100,4,2,50,50,0,0
44008,-100,4,2,51,60,0,0
44089,-100,4,2,53,50,0,0
44170,-100,4,2,55,65,0,0
44251,-100,4,2,51,45,0,0
44332,-100,4,2,55,50,0,0
44413,-100,4,2,60,55,0,0
44495,-100,4,2,63,65,0,0
44575,-100,4,2,55,50,0,0
44656,-100,4,2,60,55,0,0
44737,-100,4,2,63,65,0,0
44819,-100,4,2,64,75,0,0
44873,-100,4,2,65,75,0,0
44927,-100,4,2,66,75,0,0
44981,-100,4,2,67,80,0,0
45143,-100,4,2,3,45,0,0
45251,-100,4,2,66,50,0,0
45305,-100,4,2,67,80,0,0
45468,-100,4,2,3,45,0,0
45629,-100,4,2,65,65,0,0
45792,-100,4,2,3,60,0,0
45954,-100,4,2,63,60,0,0
46035,-100,4,2,62,50,0,0
46116,-100,4,2,63,60,0,0
46197,-100,4,2,62,50,0,0
46278,-100,4,2,58,45,0,0
46359,-100,4,2,53,40,0,0
46440,-100,4,2,51,35,0,0
46521,-100,4,2,53,30,0,0
46602,-100,4,2,51,40,0,0
46683,-100,4,2,50,30,0,0
46765,-100,4,2,62,65,0,0
46927,-100,4,2,3,55,0,0
47089,-100,4,2,3,55,0,0
47251,-100,4,2,63,65,0,0
47414,-100,4,2,3,65,0,0
47495,-100,4,2,3,65,0,0
47576,-100,4,2,65,70,0,0
47738,-100,4,2,3,55,0,0
47819,-100,4,2,3,55,0,0
47900,-100,4,2,62,65,0,0
48062,-100,4,2,3,45,0,0
48224,-100,4,2,58,55,0,0
48387,-100,4,2,3,45,0,0
48548,-100,4,2,60,60,0,0
48711,-100,4,2,3,45,0,0
48872,-100,4,2,51,45,0,0
48954,-100,4,2,50,35,0,0
49035,-100,4,2,51,45,0,0
49116,-100,4,2,50,35,0,0
49197,-100,4,2,51,45,0,0
49278,-100,4,2,53,35,0,0
49359,-100,4,2,55,50,0,0
49440,-100,4,2,51,40,0,0
49521,-100,4,2,55,45,0,0
49576,-100,4,2,58,45,0,0
49630,-100,4,2,59,50,0,0
49683,-100,4,2,60,60,0,0
49764,-100,4,2,51,45,0,0
49845,-100,4,2,56,50,0,0
49927,-100,4,2,60,55,0,0
50008,-100,4,2,63,65,0,0
50089,-100,4,2,56,55,0,0
50170,-100,4,2,60,60,0,0
50251,-100,4,2,63,65,0,0
50332,-100,4,2,67,75,0,0
50413,-100,4,2,60,60,0,0
50494,-100,4,2,63,65,0,0
50576,-100,4,2,67,65,0,0
50656,-100,4,2,65,70,0,0
50737,-100,4,2,58,60,0,0
50818,-100,4,2,62,65,0,0
50873,-100,4,2,63,65,0,0
50927,-100,4,2,64,65,0,0
50981,-100,4,2,65,70,0,0
51062,-100,4,2,58,60,0,0
51143,-100,4,2,62,65,0,0
51224,-100,4,2,63,70,0,0
51305,-100,4,2,65,70,0,0
51386,-100,4,2,58,60,0,0
51467,-100,4,2,62,65,0,0
51522,-100,4,2,63,65,0,0
51576,-100,4,2,64,65,0,0
51629,-100,4,2,65,70,0,0
51710,-100,4,2,66,60,0,0
51791,-100,4,2,67,70,0,0
51846,-100,4,2,68,65,0,0
51900,-100,4,2,69,65,0,0
51954,-100,4,2,70,75,0,0
52035,-100,4,2,68,70,0,0
52116,-100,4,2,67,65,0,0
52197,-100,4,2,65,60,0,0
52278,-100,4,2,63,55,0,0
52359,-100,4,2,65,50,0,0
52440,-100,4,2,63,45,0,0
52521,-100,4,2,62,40,0,0
52602,-100,4,2,58,45,0,0
52683,-100,4,2,53,40,0,0
52764,-100,4,2,58,45,0,0
52819,-100,4,2,60,50,0,0
52873,-100,4,2,61,50,0,0
52927,-100,4,2,62,55,0,0
53008,-100,4,2,58,50,0,0
53089,-100,4,2,62,55,0,0
53170,-100,4,2,65,55,0,0
53251,-100,4,2,51,60,0,0
53413,-100,4,2,50,50,0,0
53495,-100,4,2,51,50,0,0
53576,-100,4,2,53,50,0,0
53657,-100,4,2,55,50,0,0
53737,-100,4,2,60,60,0,0
53900,-100,4,2,3,60,0,0
54062,-100,4,2,51,60,0,0
54224,-100,4,2,51,50,0,0
54305,-100,4,2,50,50,0,0
54387,-100,4,2,51,50,0,0
54468,-100,4,2,53,50,0,0
54548,-100,4,2,55,65,0,0
54629,-100,4,2,51,50,0,0
54710,-100,4,2,55,55,0,0
54791,-100,4,2,60,60,0,0
54872,-100,4,2,63,65,0,0
54954,-100,4,2,55,55,0,0
55035,-100,4,2,60,60,0,0
55116,-100,4,2,63,65,0,0
55197,-100,4,2,64,70,0,0
55251,-100,4,2,65,70,0,0
55305,-100,4,2,66,70,0,0
55359,-100,4,2,67,70,0,0
55522,-100,4,2,3,70,0,0
55630,-100,4,2,66,70,0,0
55684,-100,4,2,67,70,0,0
55846,-100,4,2,3,70,0,0
56008,-100,4,2,65,60,0,0
56170,-100,4,2,3,60,0,0
56332,-100,4,2,63,50,0,0
56414,-100,4,2,62,50,0,0
56495,-100,4,2,63,60,0,0
56549,-100,4,2,62,60,0,0
56603,-100,4,2,63,60,0,0
56657,-100,4,2,62,60,0,0
56711,-100,4,2,63,60,0,0
56765,-100,4,2,62,60,0,0
56819,-100,4,2,63,60,0,0
56900,-100,4,2,62,60,0,0
56981,-100,4,2,63,60,0,0
57062,-100,4,2,65,60,0,0
57143,-100,4,2,67,60,0,0
57305,-100,4,2,51,50,0,0
57387,-100,4,2,53,40,0,0
57468,-100,4,2,55,50,0,0
57549,-100,4,2,58,40,0,0
57629,-100,4,2,68,65,0,0
57792,-100,4,2,55,30,0,0
57873,-100,4,2,58,30,0,0
57954,-100,4,2,67,65,0,0
58116,-100,4,2,55,30,0,0
58197,-100,4,2,58,30,0,0
58278,-100,4,2,65,60,0,0
58441,-100,4,2,3,50,0,0
58602,-100,4,2,67,55,0,0
58765,-100,4,2,3,50,0,0
58927,-100,4,2,63,60,0,0
59089,-100,4,2,3,50,0,0
59251,-100,4,2,51,50,0,0
59332,-100,4,2,50,40,0,0
59413,-100,4,2,51,50,0,0
59494,-100,4,2,50,40,0,0
59575,-100,4,2,51,50,0,0
59630,-100,4,2,53,50,0,0
59684,-100,4,2,55,50,0,0
59737,-100,4,2,56,60,0,0
59818,-100,4,2,51,45,0,0
59900,-100,4,2,56,50,0,0
59954,-100,4,2,58,55,0,0
60008,-100,4,2,59,55,0,0
60062,-100,4,2,60,60,0,0
60143,-100,4,2,51,50,0,0
60224,-100,4,2,56,60,0,0
60305,-100,4,2,60,50,0,0
60386,-100,4,2,63,60,0,0
60467,-100,4,2,56,50,0,0
60548,-100,4,2,60,55,0,0
60630,-100,4,2,63,65,0,0
60710,-100,4,2,67,65,0,0
60791,-100,4,2,60,55,0,0
60872,-100,4,2,63,60,0,0
60927,-100,4,2,65,60,0,0
60981,-100,4,2,67,60,0,0
61035,-100,4,2,65,60,0,0
61116,-100,4,2,58,40,0,0
61197,-100,4,2,62,50,0,0
61251,-100,4,2,63,50,0,0
61305,-100,4,2,64,50,0,0
61359,-100,4,2,65,60,0,0
61440,-100,4,2,58,40,0,0
61521,-100,4,2,62,50,0,0
61603,-100,4,2,65,50,0,0
61683,-100,4,2,70,65,0,0
61764,-100,4,2,65,45,0,0
61845,-100,4,2,67,55,0,0
61900,-100,4,2,68,55,0,0
61954,-100,4,2,69,55,0,0
62008,-100,4,2,70,65,0,0
62089,-100,4,2,65,45,0,0
62170,-100,4,2,74,55,0,0
62224,-100,4,2,75,55,0,0
62278,-100,4,2,76,55,0,0
62332,-100,4,2,77,70,0,0
62413,-100,4,2,75,65,0,0
62494,-100,4,2,74,60,0,0
62575,-100,4,2,70,55,0,0
62656,-100,4,2,65,50,0,0
62737,-100,4,2,63,45,0,0
62818,-100,4,2,62,50,0,0
62900,-100,4,2,58,55,0,0
62981,-100,4,2,74,65,0,0
63062,-100,4,2,70,60,0,0
63143,-100,4,2,65,55,0,0
63224,-100,4,2,63,50,0,0
63305,-100,4,2,62,45,0,0
63359,-100,4,2,63,55,0,0
63414,-100,4,2,62,55,0,0
63467,-100,4,2,58,45,0,0
63522,-100,4,2,53,55,0,0
63576,-100,4,2,50,55,0,0
63629,-100,4,2,38,65,0,0
65900,-117.647058823529,4,2,43,45,0,0
65981,-117.647058823529,4,2,46,46,0,0
66062,-117.647058823529,4,2,50,55,0,0
66143,-117.647058823529,4,2,53,60,0,0
66224,-117.647058823529,4,2,55,65,0,0
66386,-117.647058823529,4,2,48,35,0,0
66467,-117.647058823529,4,2,55,55,0,0
66629,-117.647058823529,4,2,48,35,0,0
66710,-117.647058823529,4,2,55,60,0,0
66873,-117.647058823529,4,2,55,60,0,0
67035,-117.647058823529,4,2,48,35,0,0
67116,-117.647058823529,4,2,55,60,0,0
67278,-117.647058823529,4,2,48,35,0,0
67359,-117.647058823529,4,2,56,65,0,0
67522,-117.647058823529,4,2,55,60,0,0
67684,-117.647058823529,4,2,50,35,0,0
67765,-117.647058823529,4,2,55,60,0,0
67927,-117.647058823529,4,2,50,35,0,0
68008,-117.647058823529,4,2,55,65,0,0
68170,-117.647058823529,4,2,55,65,0,0
68332,-117.647058823529,4,2,50,35,0,0
68413,-117.647058823529,4,2,55,60,0,0
68575,-117.647058823529,4,2,50,35,0,0
68656,-117.647058823529,4,2,56,65,0,0
68819,-117.647058823529,4,2,58,65,0,0
68981,-117.647058823529,4,2,51,35,0,0
69062,-117.647058823529,4,2,58,60,0,0
69224,-117.647058823529,4,2,51,35,0,0
69305,-117.647058823529,4,2,58,65,0,0
69468,-117.647058823529,4,2,58,65,0,0
69630,-117.647058823529,4,2,51,35,0,0
69711,-117.647058823529,4,2,56,60,0,0
69873,-117.647058823529,4,2,51,35,0,0
69954,-117.647058823529,4,2,55,65,0,0
70116,-117.647058823529,4,2,56,65,0,0
70359,-117.647058823529,4,2,55,55,0,0
70602,-117.647058823529,4,2,51,55,0,0
70846,-117.647058823529,4,2,46,35,0,0
70927,-117.647058823529,4,2,51,65,0,0
71089,-117.647058823529,4,2,51,55,0,0
71251,-117.647058823529,4,2,46,55,0,0
71413,-117.647058823529,4,2,58,65,0,0
71575,-117.647058823529,4,2,53,35,0,0
71656,-117.647058823529,4,2,58,60,0,0
71818,-117.647058823529,4,2,53,35,0,0
71899,-117.647058823529,4,2,58,65,0,0
72062,-117.647058823529,4,2,58,65,0,0
72224,-117.647058823529,4,2,53,35,0,0
72305,-117.647058823529,4,2,56,60,0,0
72467,-117.647058823529,4,2,53,35,0,0
72548,-117.647058823529,4,2,55,65,0,0
72711,-117.647058823529,4,2,56,60,0,0
72954,-117.647058823529,4,2,55,60,0,0
73197,-117.647058823529,4,2,51,60,0,0
73441,-117.647058823529,4,2,46,35,0,0
73522,-117.647058823529,4,2,46,60,0,0
73683,-117.647058823529,4,2,53,60,0,0
73927,-117.647058823529,4,2,46,35,0,0
74008,-117.647058823529,4,2,53,65,0,0
74332,-117.647058823529,4,2,53,60,0,0
74494,-117.647058823529,4,2,55,65,0,0
74575,-117.647058823529,4,2,53,60,0,0
74656,-117.647058823529,4,2,51,55,0,0
74900,-117.647058823529,4,2,46,35,0,0
74981,-117.647058823529,4,2,46,60,0,0
75305,-117.647058823529,4,2,51,65,0,0
75468,-117.647058823529,4,2,46,45,0,0
75549,-117.647058823529,4,2,46,45,0,0
75629,-117.647058823529,4,2,50,50,0,0
75792,-117.647058823529,4,2,46,45,0,0
75873,-117.647058823529,4,2,50,50,0,0
75954,-117.647058823529,4,2,51,60,0,0
76035,-117.647058823529,4,2,47,50,0,0
76116,-117.647058823529,4,2,50,60,0,0
76197,-117.647058823529,4,2,51,50,0,0
76278,-117.647058823529,4,2,53,55,0,0
76359,-117.647058823529,4,2,47,60,0,0
76440,-117.647058823529,4,2,50,65,0,0
76521,-117.647058823529,4,2,53,70,0,0
76603,-100,4,2,55,70,0,0
76764,-100,4,2,48,40,0,0
76846,-100,4,2,55,65,0,0
77008,-100,4,2,48,40,0,0
77089,-100,4,2,55,65,0,0
77251,-100,4,2,55,65,0,0
77413,-100,4,2,48,40,0,0
77495,-100,4,2,55,65,0,0
77657,-100,4,2,48,40,0,0
77738,-100,4,2,56,65,0,0
77900,-100,4,2,55,65,0,0
78062,-100,4,2,50,40,0,0
78143,-100,4,2,55,65,0,0
78305,-100,4,2,50,40,0,0
78387,-100,4,2,55,65,0,0
78548,-100,4,2,55,65,0,0
78710,-100,4,2,50,40,0,0
78792,-100,4,2,55,65,0,0
78954,-100,4,2,50,40,0,0
79035,-100,4,2,56,65,0,0
79197,-100,4,2,58,65,0,0
79359,-100,4,2,51,40,0,0
79441,-100,4,2,58,65,0,0
79603,-100,4,2,51,40,0,0
79684,-100,4,2,58,65,0,0
79845,-100,4,2,63,65,0,0
80008,-100,4,2,51,40,0,0
80089,-100,4,2,63,65,0,0
80251,-100,4,2,51,40,0,0
80332,-100,4,2,62,65,0,0
80494,-100,4,2,62,65,0,0
80657,-100,4,2,51,40,0,0
80737,-100,4,2,62,65,0,0
80900,-100,4,2,51,40,0,0
80981,-100,4,2,63,65,0,0
81224,-100,4,2,51,40,0,0
81305,-100,4,2,58,60,0,0
81467,-100,4,2,65,60,0,0
81629,-100,4,2,0,55,0,0
81791,-100,4,2,62,65,0,0
81954,-100,4,2,0,55,0,0
82197,-100,4,2,53,40,0,0
82278,-100,4,2,63,70,0,0
82441,-100,4,2,53,40,0,0
82522,-100,4,2,53,40,0,0
82603,-100,4,2,0,55,0,0
82684,-100,4,2,53,40,0,0
82765,-100,4,2,70,70,0,0
82927,-100,4,2,53,40,0,0
83008,-100,4,2,53,40,0,0
83089,-100,4,2,68,70,0,0
83251,-100,4,2,55,40,0,0
83332,-100,4,2,55,40,0,0
83413,-100,4,2,67,70,0,0
83576,-100,4,2,55,40,0,0
83657,-100,4,2,55,40,0,0
83737,-100,4,2,63,70,0,0
83900,-100,4,2,55,40,0,0
83981,-100,4,2,55,40,0,0
84062,-100,4,2,65,70,0,0
84224,-100,4,2,55,40,0,0
84305,-100,4,2,55,40,0,0
84387,-100,4,2,65,70,0,0
84549,-100,4,2,0,55,0,0
84711,-100,4,2,56,40,0,0
84792,-100,4,2,56,40,0,0
84873,-100,4,2,67,70,0,0
84954,-100,4,2,65,70,0,0
85035,-100,4,2,63,70,0,0
85197,-100,4,2,0,50,0,0
85359,-100,4,2,58,50,0,0
85522,-100,4,2,0,60,0,0
85684,-100,4,2,63,55,0,0
85846,-100,4,2,58,50,0,0
85927,-100,4,2,58,50,0,0
86008,-100,4,2,62,70,0,0
86089,-100,4,2,0,70,0,0
86170,-100,4,2,58,50,0,0
86251,-100,4,2,58,50,0,0
86332,-100,4,2,63,70,0,0
86414,-100,4,2,0,70,0,0
86494,-100,4,2,0,70,0,0
86495,-100,4,2,59,50,0,0
86576,-100,4,2,59,50,0,0
86656,-100,4,2,65,70,0,0
86738,-100,4,2,0,60,0,0
86819,-100,4,2,59,55,0,0
86900,-100,4,2,59,55,0,0
86981,-100,4,2,75,60,0,0
87062,-100,4,2,74,60,0,0
87143,-100,4,2,71,60,0,0
87224,-100,4,2,67,60,0,0
87305,-100,4,2,71,60,0,0
87387,-100,4,2,67,60,0,0
87468,-100,4,2,62,60,0,0
87549,-100,4,2,59,60,0,0
87630,-100,4,2,67,60,0,0
87711,-100,4,2,62,60,0,0
87792,-100,4,2,59,60,0,0
87873,-100,4,2,55,60,0,0
87954,-100,4,2,51,60,0,0
88035,-100,4,2,53,60,0,0
88116,-100,4,2,55,60,0,0
88197,-100,4,2,58,60,0,0
88278,-100,4,2,62,60,0,0
88441,-100,4,2,56,50,0,0
88522,-100,4,2,62,60,0,0
88603,-100,4,2,51,50,0,0
88684,-100,4,2,56,40,0,0
88765,-100,4,2,63,60,0,0
88846,-100,4,2,51,40,0,0
88927,-100,4,2,56,70,0,0
89008,-100,4,2,58,70,0,0
89089,-100,4,2,63,70,0,0
89170,-100,4,2,70,70,0,0
89251,-100,4,2,58,70,0,0
89332,-100,4,2,63,70,0,0
89414,-100,4,2,68,70,0,0
89495,-100,4,2,70,70,0,0
89576,-100,4,2,75,60,0,0
89738,-100,4,2,0,70,0,0
89819,-100,4,2,74,60,0,0
89981,-100,4,2,0,70,0,0
90062,-100,4,2,70,60,0,0
90224,-100,4,2,67,60,0,0
90387,-100,4,2,0,70,0,0
90468,-100,4,2,65,60,0,0
90549,-100,4,2,0,70,0,0
90630,-100,4,2,67,60,0,0
90711,-100,4,2,65,60,0,0
90792,-100,4,2,63,60,0,0
90873,-100,4,2,65,60,0,0
91035,-100,4,2,58,50,0,0
91116,-100,4,2,67,60,0,0
91197,-100,4,2,55,50,0,0
91278,-100,4,2,58,50,0,0
91359,-100,4,2,62,60,0,0
91441,-100,4,2,55,50,0,0
91522,-100,4,2,58,60,0,0
91603,-100,4,2,55,60,0,0
91684,-100,4,2,58,60,0,0
91765,-100,4,2,55,60,0,0
91846,-100,4,2,58,60,0,0
91927,-100,4,2,55,60,0,0
92008,-100,4,2,58,60,0,0
92089,-100,4,2,62,60,0,0
92170,-100,4,2,65,60,0,0
92332,-100,4,2,55,60,0,0
92414,-100,4,2,63,60,0,0
92576,-100,4,2,55,60,0,0
92657,-100,4,2,62,60,0,0
92738,-100,4,2,55,70,0,0
92819,-100,4,2,62,60,0,0
92900,-100,4,2,63,60,0,0
92981,-100,4,2,62,60,0,0
93062,-100,4,2,60,60,0,0
93143,-100,4,2,62,60,0,0
93224,-100,4,2,58,60,0,0
93305,-100,4,2,55,60,0,0
93387,-100,4,2,58,60,0,0
93468,-100,4,2,53,60,0,0
93630,-100,4,2,0,70,0,0
93711,-100,4,2,53,60,0,0
93792,-100,4,2,56,50,0,0
93873,-100,4,2,58,50,0,0
93954,-100,4,2,56,50,0,0
94035,-100,4,2,60,50,0,0
94116,-100,4,2,0,70,0,0
94197,-100,4,2,56,60,0,0
94278,-100,4,2,60,60,0,0
94359,-100,4,2,63,60,0,0
94441,-100,4,2,67,60,0,0
94522,-100,4,2,56,60,0,0
94603,-100,4,2,63,60,0,0
94684,-100,4,2,67,60,0,0
94764,-100,4,2,65,70,0,0
94846,-100,4,2,63,70,0,0
94927,-100,4,2,62,70,0,0
95008,-100,4,2,63,70,0,0
95089,-100,4,2,65,70,0,0
95170,-100,4,2,63,70,0,0
95251,-100,4,2,62,70,0,0
95332,-100,4,2,63,70,0,0
95414,-100,4,2,65,70,0,0
95495,-100,4,2,63,70,0,0
95576,-100,4,2,62,70,0,0
95657,-100,4,2,65,70,0,0
95738,-100,4,2,74,70,0,0
95900,-100,4,2,72,70,0,0
95981,-100,4,2,70,70,0,0
96062,-100,4,2,68,70,0,0
96143,-100,4,2,0,70,0,0
96305,-100,4,2,70,70,0,0
96387,-100,4,2,0,70,0,0
96468,-100,4,2,58,60,0,0
96549,-100,4,2,67,70,0,0
96630,-100,4,2,0,70,0,0
96710,-100,4,2,63,60,0,0
96792,-100,4,2,58,70,0,0
96873,-100,4,2,63,70,0,0
96954,-100,4,2,65,70,0,0
97035,-100,4,2,67,70,0,0
97116,-100,4,2,58,70,0,0
97197,-100,4,2,63,70,0,0
97278,-100,4,2,67,70,0,0
97359,-100,4,2,68,70,0,0
97441,-100,4,2,59,70,0,0
97522,-100,4,2,62,65,0,0
97603,-100,4,2,65,70,0,0
97684,-100,4,2,67,70,0,0
97765,-100,4,2,59,65,0,0
97846,-100,4,2,62,65,0,0
97887,-100,4,2,0,65,0,0
97927,-100,4,2,67,70,0,0
97968,-100,4,2,0,65,0,0
98008,-100,4,2,65,70,0,0
98089,-100,4,2,55,65,0,0
98170,-100,4,2,59,70,0,0
98251,-100,4,2,62,65,0,0
98332,-100,4,2,63,70,0,0
98414,-100,4,2,55,65,0,0
98495,-100,4,2,59,70,0,0
98535,-100,4,2,0,65,0,0
98576,-100,4,2,63,65,0,0
98616,-100,4,2,0,65,0,0
98657,-100,4,2,62,70,0,0
98819,-100,4,2,0,65,0,0
98900,-100,4,2,62,70,0,0
99062,-100,4,2,0,65,0,0
99143,-100,4,2,63,70,0,0
99224,-100,4,2,55,65,0,0
99305,-100,4,2,51,65,0,0
99387,-100,4,2,55,65,0,0
99468,-100,4,2,60,65,0,0
99549,-100,4,2,63,65,0,0
99630,-100,4,2,55,65,0,0
99711,-100,4,2,60,65,0,0
99792,-100,4,2,62,65,0,0
99873,-100,4,2,63,65,0,0
99954,-100,4,2,65,70,0,0
100116,-100,4,2,0,65,0,0
100197,-100,4,2,65,70,0,0
100359,-100,4,2,0,65,0,0
100441,-100,4,2,65,70,0,0
100522,-100,4,2,55,70,0,0
100603,-100,4,2,59,70,0,0
100684,-100,4,2,55,70,0,0
100765,-100,4,2,59,70,0,0
100846,-100,4,2,62,70,0,0
100927,-100,4,2,65,70,0,0
101008,-100,4,2,55,60,0,0
101089,-100,4,2,63,70,0,0
101170,-100,4,2,55,60,0,0
101251,-100,4,2,62,65,0,0
101414,-100,4,2,0,70,0,0
101495,-100,4,2,62,65,0,0
101657,-100,4,2,0,70,0,0
101738,-100,4,2,63,65,0,0
101819,-100,4,2,55,70,0,0
101900,-100,4,2,51,65,0,0
101981,-100,4,2,55,65,0,0
102062,-100,4,2,58,65,0,0
102143,-100,4,2,63,65,0,0
102224,-100,4,2,55,65,0,0
102305,-100,4,2,58,65,0,0
102387,-100,4,2,60,70,0,0
102468,-100,4,2,63,70,0,0
102549,-100,4,2,65,70,0,0
102711,-100,4,2,0,65,0,0
102792,-100,4,2,67,70,0,0
102954,-100,4,2,0,65,0,0
103035,-100,4,2,63,70,0,0
103197,-100,4,2,3,65,0,0
103359,-100,4,2,75,70,0,0
103441,-100,4,2,0,65,0,0
103522,-100,4,2,74,70,0,0
103603,-100,4,2,72,70,0,0
103684,-100,4,2,74,70,0,0
103765,-100,4,2,75,70,0,0
103846,-100,4,2,77,60,0,0
103927,-100,4,2,51,50,0,0
104008,-100,4,2,56,50,0,0
104089,-100,4,2,58,50,0,0
104170,-100,4,2,60,50,0,0
104251,-100,4,2,51,50,0,0
104332,-100,4,2,75,70,0,0
104414,-100,4,2,74,70,0,0
104495,-100,4,2,75,55,0,0
104576,-100,4,2,60,55,0,0
104657,-100,4,2,56,55,0,0
104738,-100,4,2,51,55,0,0
104819,-100,4,2,60,55,0,0
104900,-100,4,2,56,55,0,0
104981,-100,4,2,51,55,0,0
105062,-100,4,2,48,55,0,0
105143,-100,4,2,45,65,0,0
105224,-100,4,2,48,60,0,0
105305,-100,4,2,75,65,0,0
105387,-100,4,2,57,60,0,0
105468,-100,4,2,74,65,0,0
105549,-100,4,2,51,60,0,0
105630,-100,4,2,75,65,0,0
105711,-100,4,2,60,60,0,0
105792,-100,4,2,74,70,0,0
105873,-100,4,2,57,60,0,0
105954,-100,4,2,60,60,0,0
106035,-100,4,2,62,60,0,0
106116,-100,4,2,74,75,0,0
106197,-100,4,2,72,70,0,0
106278,-100,4,2,74,75,0,0
106359,-100,4,2,75,70,0,0
106441,-100,4,2,77,70,0,0
106522,-100,4,2,58,60,0,0
106603,-100,4,2,53,60,0,0
106684,-100,4,2,79,70,0,0
106765,-100,4,2,58,60,0,0
106846,-100,4,2,53,60,0,0
106927,-100,4,2,75,70,0,0
107008,-100,4,2,74,80,0,0
107089,-100,4,2,75,80,0,0
107170,-100,4,2,53,60,0,0
107251,-100,4,2,58,60,0,0
107332,-100,4,2,63,60,0,0
107414,-100,4,2,65,90,0,0
107495,-100,4,2,67,90,0,0
107576,-100,4,2,70,90,0,0
107657,-100,4,2,74,90,0,0
107738,-100,4,2,77,90,0,0
107819,-100,4,2,75,90,0,0
107900,-100,4,2,74,90,0,0
107981,-100,4,2,75,90,0,0
108062,-100,4,2,77,90,0,0
108143,-100,4,2,75,90,0,0
108224,-100,4,2,74,90,0,0
108305,-100,4,2,70,90,0,0
108387,-100,4,2,82,80,0,0
108427,-100,4,2,79,80,0,0
108468,-100,4,2,77,80,0,0
108508,-100,4,2,74,80,0,0
108549,-100,4,2,72,80,0,0
108589,-100,4,2,70,80,0,0
108630,-100,4,2,67,80,0,0
108670,-100,4,2,65,75,0,0
108711,-100,4,2,55,75,0,0
108792,-100,4,2,58,75,0,0
108873,-100,4,2,62,75,0,0
108954,-100,4,2,65,75,0,0
109035,-83.3333333333333,4,2,67,75,0,1
109197,-83.3333333333333,4,2,48,45,0,1
109278,-83.3333333333333,4,2,55,55,0,1
109440,-83.3333333333333,4,2,48,45,0,1
109521,-83.3333333333333,4,2,55,75,0,1
109603,-83.3333333333333,4,2,48,45,0,1
109684,-83.3333333333333,4,2,55,75,0,1
109846,-83.3333333333333,4,2,48,45,0,1
109927,-83.3333333333333,4,2,55,75,0,1
110089,-83.3333333333333,4,2,48,45,0,1
110170,-83.3333333333333,4,2,56,75,0,1
110251,-83.3333333333333,4,2,48,45,0,1
110333,-83.3333333333333,4,2,55,75,0,1
110495,-83.3333333333333,4,2,50,45,0,1
110576,-83.3333333333333,4,2,55,75,0,1
110738,-83.3333333333333,4,2,50,45,0,1
110819,-83.3333333333333,4,2,55,75,0,1
110900,-83.3333333333333,4,2,50,45,0,1
110981,-83.3333333333333,4,2,55,75,0,1
111143,-83.3333333333333,4,2,50,45,0,1
111224,-83.3333333333333,4,2,55,75,0,1
111386,-83.3333333333333,4,2,50,45,0,1
111467,-83.3333333333333,4,2,56,75,0,1
111549,-83.3333333333333,4,2,50,45,0,1
111630,-83.3333333333333,4,2,58,75,0,1
111792,-83.3333333333333,4,2,51,45,0,1
111873,-83.3333333333333,4,2,58,75,0,1
112035,-83.3333333333333,4,2,51,45,0,1
112116,-83.3333333333333,4,2,58,75,0,1
112197,-83.3333333333333,4,2,51,45,0,1
112279,-83.3333333333333,4,2,58,75,0,1
112441,-83.3333333333333,4,2,51,45,0,1
112522,-83.3333333333333,4,2,56,75,0,1
112684,-83.3333333333333,4,2,51,45,0,1
112765,-83.3333333333333,4,2,55,75,0,1
112846,-83.3333333333333,4,2,51,45,0,1
112927,-83.3333333333333,4,2,56,75,0,1
113170,-83.3333333333333,4,2,55,55,0,1
113413,-83.3333333333333,4,2,51,55,0,1
113576,-83.3333333333333,4,2,0,55,0,1
113657,-83.3333333333333,4,2,46,35,0,1
113738,-83.3333333333333,4,2,51,75,0,1
113819,-83.3333333333333,4,2,0,55,0,1
113900,-83.3333333333333,4,2,51,55,0,1
113981,-83.3333333333333,4,2,0,55,0,1
114062,-83.3333333333333,4,2,46,55,0,1
114143,-83.3333333333333,4,2,0,55,0,1
114224,-83.3333333333333,4,2,58,75,0,1
114386,-83.3333333333333,4,2,53,35,0,1
114467,-83.3333333333333,4,2,58,75,0,1
114629,-83.3333333333333,4,2,53,35,0,1
114710,-83.3333333333333,4,2,58,75,0,1
114873,-83.3333333333333,4,2,58,75,0,1
115035,-83.3333333333333,4,2,53,35,0,1
115116,-83.3333333333333,4,2,56,75,0,1
115278,-83.3333333333333,4,2,53,35,0,1
115359,-83.3333333333333,4,2,55,75,0,1
115522,-83.3333333333333,4,2,56,75,0,1
115684,-83.3333333333333,4,2,46,35,0,1
115765,-83.3333333333333,4,2,55,75,0,1
115927,-83.3333333333333,4,2,46,35,0,1
116008,-83.3333333333333,4,2,51,75,0,1
116170,-83.3333333333333,4,2,0,50,0,1
116333,-83.3333333333333,4,2,46,75,0,1
116494,-83.3333333333333,4,2,53,75,0,1
116657,-83.3333333333333,4,2,0,55,0,1
116819,-83.3333333333333,4,2,53,75,0,1
116981,-83.3333333333333,4,2,0,50,0,1
117143,-83.3333333333333,4,2,53,75,0,1
117305,-83.3333333333333,4,2,55,75,0,1
117386,-83.3333333333333,4,2,53,75,0,1
117467,-83.3333333333333,4,2,51,55,0,1
117630,-83.3333333333333,4,2,0,35,0,1
117792,-83.3333333333333,4,2,46,75,0,1
117954,-83.3333333333333,4,2,0,35,0,1
118116,-83.3333333333333,4,2,51,75,0,1
118279,-83.3333333333333,4,2,46,45,0,1
118360,-83.3333333333333,4,2,46,45,0,1
118440,-83.3333333333333,4,2,50,50,0,1
118603,-83.3333333333333,4,2,46,45,0,1
118684,-83.3333333333333,4,2,50,50,0,1
118765,-83.3333333333333,4,2,51,75,0,1
118846,-83.3333333333333,4,2,47,50,0,1
118927,-83.3333333333333,4,2,50,75,0,1
119008,-83.3333333333333,4,2,51,50,0,1
119089,-83.3333333333333,4,2,53,55,0,1
119170,-83.3333333333333,4,2,47,75,0,1
119251,-83.3333333333333,4,2,50,75,0,1
119332,-83.3333333333333,4,2,53,75,0,1
119414,-83.3333333333333,4,2,55,75,0,1
119575,-83.3333333333333,4,2,48,40,0,1
119657,-83.3333333333333,4,2,55,75,0,1
119819,-83.3333333333333,4,2,48,40,0,1
119900,-83.3333333333333,4,2,55,75,0,1
119981,-83.3333333333333,4,2,48,40,0,1
120062,-83.3333333333333,4,2,55,75,0,1
120224,-83.3333333333333,4,2,48,40,0,1
120306,-83.3333333333333,4,2,55,75,0,1
120468,-83.3333333333333,4,2,48,40,0,1
120549,-83.3333333333333,4,2,56,75,0,1
120630,-83.3333333333333,4,2,48,40,0,1
120711,-83.3333333333333,4,2,55,75,0,1
120873,-83.3333333333333,4,2,50,40,0,1
120954,-83.3333333333333,4,2,55,75,0,1
121116,-83.3333333333333,4,2,50,40,0,1
121198,-83.3333333333333,4,2,55,75,0,1
121278,-83.3333333333333,4,2,50,40,0,1
121359,-83.3333333333333,4,2,55,75,0,1
121521,-83.3333333333333,4,2,50,40,0,1
121603,-83.3333333333333,4,2,55,75,0,1
121765,-83.3333333333333,4,2,50,40,0,1
121846,-83.3333333333333,4,2,56,75,0,1
121927,-83.3333333333333,4,2,50,40,0,1
122008,-83.3333333333333,4,2,58,75,0,1
122170,-83.3333333333333,4,2,51,40,0,1
122252,-83.3333333333333,4,2,58,75,0,1
122414,-83.3333333333333,4,2,51,40,0,1
122495,-83.3333333333333,4,2,58,75,0,1
122576,-83.3333333333333,4,2,51,40,0,1
122656,-83.3333333333333,4,2,63,75,0,1
122819,-83.3333333333333,4,2,51,40,0,1
122900,-83.3333333333333,4,2,63,75,0,1
123062,-83.3333333333333,4,2,51,40,0,1
123143,-83.3333333333333,4,2,62,75,0,1
123224,-83.3333333333333,4,2,63,75,0,1
123305,-83.3333333333333,4,2,62,75,0,1
123548,-83.3333333333333,4,2,62,75,0,1
123792,-83.3333333333333,4,2,63,75,0,1
123954,-83.3333333333333,4,2,0,40,0,1
124116,-83.3333333333333,4,2,58,75,0,1
124197,-83.3333333333333,4,2,63,75,0,1
124278,-83.3333333333333,4,2,65,75,0,1
124440,-83.3333333333333,4,2,0,55,0,1
124602,-83.3333333333333,4,2,62,75,0,1
124765,-83.3333333333333,4,2,53,55,0,1
125089,-83.3333333333333,4,2,63,75,0,1
125252,-83.3333333333333,4,2,53,40,0,1
125414,-83.3333333333333,4,2,53,55,0,1
125576,-83.3333333333333,4,2,70,75,0,1
125738,-83.3333333333333,4,2,53,40,0,1
125900,-83.3333333333333,4,2,68,75,0,1
126062,-83.3333333333333,4,2,55,40,0,1
126143,-83.3333333333333,4,2,55,40,0,1
126224,-83.3333333333333,4,2,67,75,0,1
126387,-83.3333333333333,4,2,55,40,0,1
126468,-83.3333333333333,4,2,55,40,0,1
126548,-83.3333333333333,4,2,63,75,0,1
126711,-83.3333333333333,4,2,55,40,0,1
126792,-83.3333333333333,4,2,55,40,0,1
126873,-83.3333333333333,4,2,65,75,0,1
127035,-83.3333333333333,4,2,55,40,0,1
127116,-83.3333333333333,4,2,55,40,0,1
127197,-83.3333333333333,4,2,65,75,0,1
127278,-83.3333333333333,4,2,0,55,0,1
127360,-83.3333333333333,4,2,0,55,0,1
127441,-83.3333333333333,4,2,0,55,0,1
127522,-83.3333333333333,4,2,56,40,0,1
127603,-83.3333333333333,4,2,56,40,0,1
127684,-83.3333333333333,4,2,67,75,0,1
127765,-83.3333333333333,4,2,65,75,0,1
127846,-83.3333333333333,4,2,63,75,0,1
127927,-83.3333333333333,4,2,0,55,0,1
128008,-83.3333333333333,4,2,0,50,0,1
128089,-83.3333333333333,4,2,0,55,0,1
128170,-83.3333333333333,4,2,58,50,0,1
128251,-83.3333333333333,4,2,0,55,0,1
128494,-83.3333333333333,4,2,63,55,0,1
128657,-83.3333333333333,4,2,58,50,0,1
128738,-83.3333333333333,4,2,58,50,0,1
128819,-83.3333333333333,4,2,62,75,0,1
128981,-83.3333333333333,4,2,58,50,0,1
129062,-83.3333333333333,4,2,58,50,0,1
129143,-83.3333333333333,4,2,63,75,0,1
129305,-83.3333333333333,4,2,59,50,0,1
129387,-83.3333333333333,4,2,59,50,0,1
129467,-83.3333333333333,4,2,65,75,0,1
129508,-83.3333333333333,4,2,0,75,0,1
129549,-83.3333333333333,4,2,0,75,0,1
129589,-83.3333333333333,4,2,0,75,0,1
129630,-83.3333333333333,4,2,59,55,0,1
129670,-83.3333333333333,4,2,0,75,0,1
129711,-83.3333333333333,4,2,59,55,0,1
129751,-83.3333333333333,4,2,0,75,0,1
129792,-83.3333333333333,4,2,63,75,0,1
131089,-200,4,2,67,30,0,0
132062,-200,4,2,65,30,0,0
132224,-200,4,2,67,30,0,0
132387,-200,4,2,65,50,0,0
133359,-200,4,2,58,40,0,0
133684,-200,4,2,67,50,0,0
134657,-200,4,2,63,50,0,0
134981,-200,4,2,62,50,0,0
135954,-200,4,2,55,40,0,0
136278,-200,4,2,63,50,0,0
137251,-200,4,2,62,40,0,0
137414,-200,4,2,63,50,0,0
137576,-200,4,2,65,50,0,0
138062,-200,4,2,2,40,0,0
138224,-200,4,2,63,50,0,0
138711,-200,4,2,2,40,0,0
138873,-200,4,2,62,50,0,0
139359,-200,4,2,2,40,0,0
139522,-200,4,2,63,50,0,0
139846,-200,4,2,44,40,0,0
139927,-200,4,2,48,40,0,0
140008,-200,4,2,51,40,0,0
140089,-200,4,2,56,40,0,0
140170,-100,4,2,58,60,0,0
140332,-100,4,2,51,50,0,0
140495,-100,4,2,56,50,0,0
140576,-100,4,2,48,50,0,0
140657,-100,4,2,51,50,0,0
140738,-100,4,2,56,50,0,0
140819,-100,4,2,48,50,0,0
140900,-100,4,2,51,50,0,0
140981,-100,4,2,56,50,0,0
141062,-100,4,2,58,50,0,0
141143,-100,4,2,51,60,0,0
141197,-100,4,2,53,60,0,0
141251,-100,4,2,55,60,0,0
141305,-100,4,2,56,60,0,0
141359,-100,4,2,58,60,0,0
141414,-100,4,2,59,60,0,0
141468,-100,4,2,60,60,0,0
141630,-100,4,2,51,40,0,0
141711,-100,4,2,56,60,0,0
141792,-100,4,2,60,60,0,0
141873,-100,4,2,56,60,0,0
141954,-100,4,2,60,60,0,0
142008,-100,4,2,61,60,0,0
142062,-100,4,2,62,60,0,0
142116,-100,4,2,63,60,0,0
142197,-100,4,2,56,60,0,0
142278,-100,4,2,60,60,0,0
142359,-100,4,2,63,60,0,0
142441,-100,4,2,67,60,0,0
142522,-100,4,2,56,60,0,0
142603,-100,4,2,63,60,0,0
142684,-100,4,2,67,60,0,0
142765,-100,4,2,65,60,0,0
142927,-100,4,2,50,60,0,0
143008,-100,4,2,55,60,0,0
143089,-100,4,2,58,60,0,0
143143,-100,4,2,60,60,0,0
143197,-100,4,2,61,60,0,0
143251,-100,4,2,62,60,0,0
143305,-100,4,2,63,60,0,0
143359,-100,4,2,64,60,0,0
143414,-100,4,2,65,60,0,0
143495,-100,4,2,55,60,0,0
143576,-100,4,2,58,60,0,0
143657,-100,4,2,60,60,0,0
143738,-100,4,2,58,60,0,0
143792,-100,4,2,60,60,0,0
143846,-100,4,2,62,60,0,0
143900,-100,4,2,63,60,0,0
143954,-100,4,2,65,60,0,0
144008,-100,4,2,68,60,0,0
144062,-100,4,2,70,60,0,0
144143,-100,4,2,60,60,0,0
144224,-100,4,2,63,60,0,0
144305,-100,4,2,70,60,0,0
144387,-100,4,2,68,60,0,0
144468,-100,4,2,60,60,0,0
144549,-100,4,2,63,60,0,0
144630,-100,4,2,68,60,0,0
144711,-100,4,2,67,60,0,0
144792,-100,4,2,55,60,0,0
144873,-100,4,2,60,60,0,0
144954,-100,4,2,67,60,0,0
145035,-100,4,2,65,60,0,0
145116,-100,4,2,55,60,0,0
145197,-100,4,2,60,60,0,0
145278,-100,4,2,65,60,0,0
145359,-100,4,2,63,60,0,0
145522,-100,4,2,48,60,0,0
145576,-100,4,2,53,60,0,0
145630,-100,4,2,55,60,0,0
145684,-100,4,2,56,60,0,0
145765,-100,4,2,53,60,0,0
145846,-100,4,2,56,60,0,0
145927,-100,4,2,58,60,0,0
146008,-100,4,2,60,60,0,0
146089,-100,4,2,53,60,0,0
146170,-100,4,2,56,60,0,0
146251,-100,4,2,60,60,0,0
146332,-100,4,2,63,60,0,0
146387,-100,4,2,56,60,0,0
146441,-100,4,2,58,60,0,0
146495,-100,4,2,60,60,0,0
146549,-100,4,2,61,60,0,0
146603,-100,4,2,62,60,0,0
146657,-100,4,2,63,60,0,0
146819,-100,4,2,48,60,0,0
146873,-100,4,2,53,60,0,0
146927,-100,4,2,55,60,0,0
146981,-100,4,2,57,60,0,0
147062,-100,4,2,53,60,0,0
147143,-100,4,2,57,60,0,0
147224,-100,4,2,58,60,0,0
147305,-100,4,2,60,60,0,0
147387,-100,4,2,53,60,0,0
147468,-100,4,2,57,60,0,0
147549,-100,4,2,60,60,0,0
147630,-100,4,2,67,75,0,0
147711,-100,4,2,57,60,0,0
147792,-100,4,2,60,60,0,0
147873,-100,4,2,67,75,0,0
147954,-100,4,2,65,60,0,0
148116,-100,4,2,50,60,0,0
148197,-100,4,2,53,60,0,0
148278,-100,4,2,58,60,0,0
148359,-100,4,2,53,60,0,0
148441,-100,4,2,58,60,0,0
148522,-100,4,2,62,60,0,0
148603,-100,4,2,65,60,0,0
148684,-100,4,2,62,60,0,0
148765,-100,4,2,58,60,0,0
148846,-100,4,2,53,60,0,0
148927,-100,4,2,62,60,0,0
149008,-100,4,2,58,60,0,0
149089,-100,4,2,53,60,0,0
149170,-100,4,2,50,60,0,0
149251,-100,4,2,71,65,0,0
149332,-100,4,2,50,65,0,0
149414,-100,4,2,55,65,0,0
149495,-100,4,2,59,65,0,0
149576,-100,4,2,62,70,0,0
149630,-100,4,2,55,70,0,0
149684,-100,4,2,59,70,0,0
149738,-100,4,2,62,70,0,0
149792,-100,4,2,67,70,0,0
149846,-100,4,2,71,70,0,0
149900,-100,4,2,74,75,0,0
149954,-100,4,2,71,75,0,0
150008,-100,4,2,67,75,0,0
150062,-100,4,2,62,75,0,0
150116,-100,4,2,59,75,0,0
150170,-100,4,2,55,75,0,0
150224,-100,4,2,71,75,0,0
150278,-100,4,2,67,75,0,0
150332,-100,4,2,62,75,0,0
150387,-100,4,2,59,75,0,0
150441,-100,4,2,55,75,0,0
150495,-100,4,2,50,75,0,0
150549,-83.3333333333333,4,2,51,70,0,1
150711,-83.3333333333333,4,2,63,70,0,1
150792,-83.3333333333333,4,2,75,70,0,1
150873,-83.3333333333333,4,2,75,70,0,1
151035,-83.3333333333333,4,2,63,70,0,1
151116,-83.3333333333333,4,2,72,70,0,1
151197,-83.3333333333333,4,2,72,70,0,1
151359,-83.3333333333333,4,2,60,70,0,1
151441,-83.3333333333333,4,2,68,70,0,1
151522,-83.3333333333333,4,2,68,70,0,1
151684,-83.3333333333333,4,2,68,80,0,1
151765,-83.3333333333333,4,2,67,80,0,1
151846,-83.3333333333333,4,2,65,80,0,1
151927,-83.3333333333333,4,2,67,80,0,1
152008,-83.3333333333333,4,2,65,80,0,1
152089,-83.3333333333333,4,2,63,80,0,1
152170,-83.3333333333333,4,2,62,80,0,1
152251,-83.3333333333333,4,2,63,80,0,1
152332,-83.3333333333333,4,2,62,80,0,1
152414,-83.3333333333333,4,2,60,80,0,1
152495,-83.3333333333333,4,2,62,80,0,1
152576,-83.3333333333333,4,2,58,80,0,1
152657,-83.3333333333333,4,2,53,80,0,1
152738,-83.3333333333333,4,2,58,80,0,1
152819,-83.3333333333333,4,2,65,80,0,1
152900,-83.3333333333333,4,2,62,80,0,1
152981,-83.3333333333333,4,2,58,80,0,1
153062,-83.3333333333333,4,2,68,80,0,1
153143,-83.3333333333333,4,2,67,80,0,1
153305,-83.3333333333333,4,2,67,80,0,1
153387,-83.3333333333333,4,2,77,80,0,1
153468,-83.3333333333333,4,2,77,80,0,1
153630,-83.3333333333333,4,2,67,80,0,1
153711,-83.3333333333333,4,2,74,80,0,1
153792,-83.3333333333333,4,2,74,80,0,1
153954,-83.3333333333333,4,2,62,80,0,1
154035,-83.3333333333333,4,2,67,80,0,1
154116,-83.3333333333333,4,2,67,80,0,1
154278,-83.3333333333333,4,2,67,80,0,1
154359,-83.3333333333333,4,2,71,80,0,1
154441,-83.3333333333333,4,2,75,80,0,1
154522,-83.3333333333333,4,2,74,80,0,1
154603,-83.3333333333333,4,2,72,80,0,1
154684,-83.3333333333333,4,2,67,80,0,1
154765,-83.3333333333333,4,2,72,80,0,1
154846,-83.3333333333333,4,2,67,80,0,1
154927,-83.3333333333333,4,2,72,80,0,1
155008,-83.3333333333333,4,2,75,80,0,1
155089,-83.3333333333333,4,2,79,80,0,1
155143,-83.3333333333333,4,2,75,80,0,1
155197,-83.3333333333333,4,2,72,80,0,1
155251,-83.3333333333333,4,2,67,80,0,1
155305,-83.3333333333333,4,2,63,80,0,1
155359,-83.3333333333333,4,2,60,80,0,1
155414,-83.3333333333333,4,2,75,80,0,1
155468,-83.3333333333333,4,2,72,80,0,1
155522,-83.3333333333333,4,2,67,80,0,1
155576,-83.3333333333333,4,2,63,80,0,1
155630,-83.3333333333333,4,2,60,80,0,1
155684,-83.3333333333333,4,2,55,80,0,1
155738,-83.3333333333333,4,2,51,80,0,1
155900,-83.3333333333333,4,2,63,80,0,1
155981,-83.3333333333333,4,2,75,80,0,1
156062,-83.3333333333333,4,2,75,80,0,1
156224,-83.3333333333333,4,2,63,80,0,1
156305,-83.3333333333333,4,2,72,80,0,1
156387,-83.3333333333333,4,2,72,80,0,1
156549,-83.3333333333333,4,2,60,80,0,1
156630,-83.3333333333333,4,2,68,80,0,1
156711,-83.3333333333333,4,2,68,80,0,1
156873,-83.3333333333333,4,2,60,80,0,1
156954,-83.3333333333333,4,2,67,80,0,1
157035,-83.3333333333333,4,2,65,80,0,1
157116,-83.3333333333333,4,2,67,80,0,1
157197,-83.3333333333333,4,2,65,80,0,1
157278,-83.3333333333333,4,2,63,80,0,1
157359,-83.3333333333333,4,2,62,80,0,1
157441,-83.3333333333333,4,2,63,80,0,1
157522,-83.3333333333333,4,2,62,80,0,1
157603,-83.3333333333333,4,2,60,80,0,1
157684,-83.3333333333333,4,2,62,80,0,1
157765,-83.3333333333333,4,2,58,80,0,1
157846,-83.3333333333333,4,2,62,80,0,1
157927,-83.3333333333333,4,2,65,80,0,1
158008,-83.3333333333333,4,2,70,80,0,1
158089,-83.3333333333333,4,2,68,80,0,1
158170,-83.3333333333333,4,2,67,80,0,1
158251,-83.3333333333333,4,2,65,80,0,1
158332,-83.3333333333333,4,2,55,80,0,1
158495,-83.3333333333333,4,2,67,80,0,1
158576,-83.3333333333333,4,2,79,80,0,1
158657,-83.3333333333333,4,2,79,80,0,1
158819,-83.3333333333333,4,2,67,80,0,1
158900,-83.3333333333333,4,2,75,80,0,1
158981,-83.3333333333333,4,2,75,80,0,1
159143,-83.3333333333333,4,2,63,80,0,1
159224,-83.3333333333333,4,2,67,80,0,1
159305,-83.3333333333333,4,2,67,80,0,1
159468,-83.3333333333333,4,2,63,80,0,1
159549,-83.3333333333333,4,2,67,80,0,1
159630,-83.3333333333333,4,2,74,80,0,1
159711,-83.3333333333333,4,2,72,80,0,1
159792,-83.3333333333333,4,2,71,80,0,1
159873,-83.3333333333333,4,2,72,80,0,1
159954,-83.3333333333333,4,2,74,80,0,1
160035,-83.3333333333333,4,2,67,80,0,1
160116,-83.3333333333333,4,2,71,80,0,1
160197,-83.3333333333333,4,2,74,80,0,1
160278,-83.3333333333333,4,2,79,80,0,1
160332,-83.3333333333333,4,2,74,80,0,1
160387,-83.3333333333333,4,2,71,80,0,1
160441,-83.3333333333333,4,2,67,80,0,1
160495,-83.3333333333333,4,2,62,80,0,1
160549,-83.3333333333333,4,2,59,80,0,1
160603,-83.3333333333333,4,2,74,80,0,1
160657,-83.3333333333333,4,2,71,80,0,1
160711,-83.3333333333333,4,2,67,80,0,1
160765,-83.3333333333333,4,2,62,80,0,1
160819,-83.3333333333333,4,2,59,80,0,1
160873,-83.3333333333333,4,2,55,80,0,1
160927,-83.3333333333333,4,2,51,80,0,1
161089,-83.3333333333333,4,2,63,80,0,1
161170,-83.3333333333333,4,2,75,80,0,1
161251,-83.3333333333333,4,2,75,80,0,1
161414,-83.3333333333333,4,2,63,80,0,1
161495,-83.3333333333333,4,2,72,80,0,1
161576,-83.3333333333333,4,2,72,80,0,1
161738,-83.3333333333333,4,2,60,80,0,1
161819,-83.3333333333333,4,2,67,80,0,1
161900,-83.3333333333333,4,2,67,80,0,1
161954,-83.3333333333333,4,2,55,80,0,1
162008,-83.3333333333333,4,2,58,80,0,1
162062,-83.3333333333333,4,2,60,80,0,1
162116,-83.3333333333333,4,2,63,80,0,1
162170,-83.3333333333333,4,2,67,80,0,1
162224,-83.3333333333333,4,2,65,80,0,1
162305,-83.3333333333333,4,2,67,80,0,1
162387,-83.3333333333333,4,2,65,80,0,1
162468,-83.3333333333333,4,2,63,80,0,1
162549,-83.3333333333333,4,2,62,80,0,1
162630,-83.3333333333333,4,2,63,80,0,1
162711,-83.3333333333333,4,2,62,80,0,1
162792,-83.3333333333333,4,2,60,80,0,1
162873,-83.3333333333333,4,2,62,80,0,1
162954,-83.3333333333333,4,2,59,80,0,1
163035,-83.3333333333333,4,2,55,80,0,1
163116,-83.3333333333333,4,2,59,80,0,1
163197,-83.3333333333333,4,2,65,80,0,1
163278,-83.3333333333333,4,2,62,80,0,1
163359,-83.3333333333333,4,2,59,80,0,1
163441,-83.3333333333333,4,2,68,80,0,1
163522,-83.3333333333333,4,2,55,80,0,1
163684,-83.3333333333333,4,2,65,80,0,1
163765,-83.3333333333333,4,2,77,80,0,1
163846,-83.3333333333333,4,2,77,80,0,1
164008,-83.3333333333333,4,2,65,80,0,1
164089,-83.3333333333333,4,2,74,80,0,1
164170,-83.3333333333333,4,2,74,80,0,1
164332,-83.3333333333333,4,2,62,80,0,1
164414,-83.3333333333333,4,2,65,80,0,1
164495,-83.3333333333333,4,2,65,80,0,1
164549,-83.3333333333333,4,2,58,60,0,1
164603,-83.3333333333333,4,2,62,60,0,1
164657,-83.3333333333333,4,2,65,60,0,1
164711,-83.3333333333333,4,2,68,60,0,1
164765,-83.3333333333333,4,2,70,60,0,1
164819,-83.3333333333333,4,2,75,80,0,1
164900,-83.3333333333333,4,2,74,80,0,1
164981,-83.3333333333333,4,2,72,80,0,1
165062,-83.3333333333333,4,2,67,80,0,1
165143,-83.3333333333333,4,2,72,80,0,1
165224,-83.3333333333333,4,2,67,80,0,1
165305,-83.3333333333333,4,2,72,80,0,1
165387,-83.3333333333333,4,2,75,80,0,1
165468,-83.3333333333333,4,2,79,80,0,1
165522,-83.3333333333333,4,2,75,80,0,1
165576,-83.3333333333333,4,2,72,80,0,1
165630,-83.3333333333333,4,2,68,80,0,1
165684,-83.3333333333333,4,2,63,80,0,1
165738,-83.3333333333333,4,2,60,80,0,1
165792,-83.3333333333333,4,2,75,80,0,1
165846,-83.3333333333333,4,2,72,80,0,1
165900,-83.3333333333333,4,2,67,80,0,1
165954,-83.3333333333333,4,2,62,80,0,1
166008,-83.3333333333333,4,2,58,80,0,1
166062,-83.3333333333333,4,2,55,80,0,1
166116,-83.3333333333333,4,2,51,80,0,1
166278,-83.3333333333333,4,2,63,80,0,1
166359,-83.3333333333333,4,2,75,80,0,1
166441,-83.3333333333333,4,2,75,80,0,1
166603,-83.3333333333333,4,2,63,80,0,1
166684,-83.3333333333333,4,2,72,80,0,1
166765,-83.3333333333333,4,2,72,80,0,1
166927,-83.3333333333333,4,2,60,80,0,1
167008,-83.3333333333333,4,2,68,80,0,1
167089,-83.3333333333333,4,2,68,80,0,1
167143,-83.3333333333333,4,2,56,80,0,1
167197,-83.3333333333333,4,2,58,80,0,1
167251,-83.3333333333333,4,2,60,80,0,1
167305,-83.3333333333333,4,2,63,80,0,1
167359,-83.3333333333333,4,2,67,80,0,1
167414,-83.3333333333333,4,2,53,80,0,1
167576,-83.3333333333333,4,2,65,80,0,1
167657,-83.3333333333333,4,2,77,80,0,1
167738,-83.3333333333333,4,2,77,80,0,1
167900,-83.3333333333333,4,2,65,80,0,1
167981,-83.3333333333333,4,2,74,80,0,1
168062,-83.3333333333333,4,2,74,80,0,1
168224,-83.3333333333333,4,2,62,80,0,1
168305,-83.3333333333333,4,2,70,80,0,1
168387,-83.3333333333333,4,2,70,80,0,1
168441,-83.3333333333333,4,2,58,80,0,1
168495,-83.3333333333333,4,2,60,80,0,1
168549,-83.3333333333333,4,2,62,80,0,1
168603,-83.3333333333333,4,2,65,80,0,1
168657,-83.3333333333333,4,2,68,80,0,1
168711,-83.3333333333333,4,2,55,80,0,1
168792,-83.3333333333333,4,2,3,90,0,1
168873,-83.3333333333333,4,2,67,90,0,1
168954,-83.3333333333333,4,2,79,90,0,1
169035,-83.3333333333333,4,2,79,90,0,1
169116,-83.3333333333333,4,2,3,90,0,1
169197,-83.3333333333333,4,2,67,90,0,1
169278,-83.3333333333333,4,2,75,90,0,1
169359,-83.3333333333333,4,2,75,90,0,1
169441,-83.3333333333333,4,2,3,90,0,1
169522,-83.3333333333333,4,2,63,90,0,1
169603,-83.3333333333333,4,2,72,90,0,1
169684,-83.3333333333333,4,2,72,90,0,1
169738,-83.3333333333333,4,2,56,90,0,1
169792,-83.3333333333333,4,2,60,90,0,1
169846,-83.3333333333333,4,2,63,90,0,1
169900,-83.3333333333333,4,2,67,90,0,1
169954,-83.3333333333333,4,2,70,90,0,1
170008,-83.3333333333333,4,2,74,90,0,1
170089,-83.3333333333333,4,2,65,90,0,1
170170,-83.3333333333333,4,2,70,90,0,1
170251,-83.3333333333333,4,2,72,90,0,1
170332,-83.3333333333333,4,2,74,90,0,1
170414,-83.3333333333333,4,2,65,90,0,1
170495,-83.3333333333333,4,2,70,90,0,1
170576,-83.3333333333333,4,2,74,90,0,1
170657,-83.3333333333333,4,2,82,80,0,1
170697,-83.3333333333333,4,2,79,80,0,1
170738,-83.3333333333333,4,2,77,80,0,1
170778,-83.3333333333333,4,2,74,80,0,1
170819,-83.3333333333333,4,2,72,80,0,1
170859,-83.3333333333333,4,2,70,80,0,1
170900,-83.3333333333333,4,2,67,80,0,1
170941,-83.3333333333333,4,2,65,70,0,1
170981,-83.3333333333333,4,2,43,70,0,1
171062,-83.3333333333333,4,2,46,70,0,1
171143,-83.3333333333333,4,2,50,70,0,1
171224,-83.3333333333333,4,2,53,70,0,1
171305,-200,4,2,55,60,0,0
172441,-200,4,2,56,60,0,0
172603,-200,4,2,55,60,0,0
173738,-200,4,2,56,60,0,0
173900,-200,4,2,58,60,0,0
174792,-200,4,2,56,60,0,0
175035,-200,4,2,55,60,0,0
175197,-200,4,2,56,60,0,0
175441,-200,4,2,55,60,0,0
175684,-200,4,2,51,60,0,0
176332,-200,4,2,46,60,0,0
176495,-100,4,2,58,60,0,0
176657,-100,4,2,53,40,0,0
176738,-100,4,2,58,60,0,0
176900,-100,4,2,53,40,0,0
176981,-100,4,2,58,60,0,0
177305,-100,4,2,53,40,0,0
177387,-100,4,2,56,60,0,0
177549,-100,4,2,53,40,0,0
177630,-100,4,2,55,60,0,0
177711,-100,4,2,53,40,0,0
177792,-100,4,2,56,60,0,0
177954,-100,4,2,46,40,0,0
178035,-100,4,2,55,60,0,0
178197,-100,4,2,46,40,0,0
178278,-100,4,2,51,60,0,0
178441,-100,4,2,0,60,0,0
178603,-100,4,2,46,60,0,0
178765,-100,4,2,53,60,0,0
178927,-100,4,2,0,60,0,0
179089,-100,4,2,53,60,0,0
179251,-100,4,2,0,60,0,0
179414,-100,4,2,53,60,0,0
179576,-100,4,2,55,60,0,0
179657,-100,4,2,53,60,0,0
179738,-100,4,2,51,60,0,0
179900,-100,4,2,0,60,0,0
180062,-100,4,2,46,60,0,0
180224,-100,4,2,0,60,0,0
180387,-100,4,2,51,60,0,0
180468,-100,4,2,0,60,0,0
180549,-100,4,2,46,60,0,0
180630,-100,4,2,0,60,0,0
180711,-100,4,2,50,60,0,0
180792,-100,4,2,0,60,0,0
180873,-100,4,2,46,60,0,0
180954,-100,4,2,50,60,0,0
181035,-100,4,2,51,60,0,0
181116,-100,4,2,47,60,0,0
181197,-100,4,2,50,60,0,0
181278,-100,4,2,51,60,0,0
181359,-100,4,2,53,60,0,0
181441,-100,4,2,47,60,0,0
181522,-100,4,2,50,60,0,0
181603,-100,4,2,53,60,0,0
181684,-200,4,2,55,60,0,0
181927,-83.3333333333333,4,2,55,65,0,1
182008,-83.3333333333333,4,1,0,65,0,1
182170,-83.3333333333333,4,2,55,65,0,1
182251,-83.3333333333333,4,2,48,40,0,1
182332,-83.3333333333333,4,2,55,65,0,1
182494,-83.3333333333333,4,2,48,40,0,1
182576,-83.3333333333333,4,2,55,65,0,1
182738,-83.3333333333333,4,2,48,40,0,1
182819,-83.3333333333333,4,2,56,65,0,1
182981,-83.3333333333333,4,2,55,65,0,1
183143,-83.3333333333333,4,2,50,40,0,1
183224,-83.3333333333333,4,2,55,65,0,1
183386,-83.3333333333333,4,2,50,40,0,1
183468,-83.3333333333333,4,2,55,65,0,1
183629,-83.3333333333333,4,2,55,65,0,1
183791,-83.3333333333333,4,2,50,40,0,1
183873,-83.3333333333333,4,2,55,65,0,1
184035,-83.3333333333333,4,2,50,40,0,1
184116,-83.3333333333333,4,2,56,65,0,1
184278,-83.3333333333333,4,2,58,65,0,1
184440,-83.3333333333333,4,2,51,40,0,1
184522,-83.3333333333333,4,2,58,65,0,1
184684,-83.3333333333333,4,2,51,40,0,1
184765,-83.3333333333333,4,2,58,65,0,1
184926,-83.3333333333333,4,2,63,65,0,1
185089,-83.3333333333333,4,2,51,40,0,1
185170,-83.3333333333333,4,2,63,65,0,1
185332,-83.3333333333333,4,2,51,40,0,1
185413,-83.3333333333333,4,2,62,65,0,1
185494,-83.3333333333333,4,2,63,65,0,1
185575,-83.3333333333333,4,2,62,65,0,1
185738,-83.3333333333333,4,2,51,40,0,1
185818,-83.3333333333333,4,2,62,65,0,1
185981,-83.3333333333333,4,2,51,40,0,1
186062,-83.3333333333333,4,2,63,65,0,1
186224,-83.3333333333333,4,2,0,40,0,1
186386,-83.3333333333333,4,2,58,60,0,1
186467,-83.3333333333333,4,2,63,60,0,1
186548,-83.3333333333333,4,2,65,60,0,1
186630,-83.3333333333333,4,2,0,55,0,1
186710,-83.3333333333333,4,2,0,55,0,1
186872,-83.3333333333333,4,2,62,65,0,1
186954,-83.3333333333333,4,2,0,55,0,1
187035,-83.3333333333333,4,2,0,55,0,1
187278,-83.3333333333333,4,2,53,40,0,1
187359,-83.3333333333333,4,2,63,70,0,1
187441,-83.3333333333333,4,2,0,55,0,1
187522,-83.3333333333333,4,2,53,40,0,1
187603,-83.3333333333333,4,2,53,40,0,1
187684,-83.3333333333333,4,2,0,55,0,1
187765,-83.3333333333333,4,2,53,40,0,1
187846,-83.3333333333333,4,2,70,70,0,1
187927,-83.3333333333333,4,2,0,55,0,1
188008,-83.3333333333333,4,2,53,40,0,1
188089,-83.3333333333333,4,2,53,40,0,1
188170,-83.3333333333333,4,2,68,70,0,1
188251,-83.3333333333333,4,2,0,55,0,1
188332,-83.3333333333333,4,2,55,40,0,1
188413,-83.3333333333333,4,2,55,40,0,1
188494,-83.3333333333333,4,2,67,70,0,1
188576,-83.3333333333333,4,2,0,55,0,1
188657,-83.3333333333333,4,2,55,40,0,1
188738,-83.3333333333333,4,2,55,40,0,1
188818,-83.3333333333333,4,2,63,70,0,1
188900,-83.3333333333333,4,2,0,55,0,1
188981,-83.3333333333333,4,2,55,40,0,1
189062,-83.3333333333333,4,2,55,40,0,1
189143,-83.3333333333333,4,2,65,70,0,1
189224,-83.3333333333333,4,2,0,55,0,1
189305,-83.3333333333333,4,2,55,40,0,1
189386,-83.3333333333333,4,2,55,40,0,1
189467,-83.3333333333333,4,2,65,70,0,1
189548,-83.3333333333333,4,2,0,55,0,1
189630,-83.3333333333333,4,2,0,55,0,1
189711,-83.3333333333333,4,2,0,55,0,1
189792,-83.3333333333333,4,2,56,40,0,1
189873,-83.3333333333333,4,2,56,40,0,1
189954,-83.3333333333333,4,2,67,70,0,1
190035,-83.3333333333333,4,2,65,70,0,1
190116,-83.3333333333333,4,2,63,70,0,1
190197,-83.3333333333333,4,2,0,55,0,1
190278,-83.3333333333333,4,2,0,50,0,1
190359,-83.3333333333333,4,2,0,55,0,1
190440,-83.3333333333333,4,2,58,50,0,1
190521,-83.3333333333333,4,2,0,55,0,1
190764,-83.3333333333333,4,2,63,55,0,1
190927,-83.3333333333333,4,2,0,60,0,1
190927,-83.3333333333333,4,2,58,50,0,1
191008,-83.3333333333333,4,2,58,50,0,1
191089,-83.3333333333333,4,2,62,70,0,1
191251,-83.3333333333333,4,2,58,50,0,1
191332,-83.3333333333333,4,2,58,50,0,1
191413,-83.3333333333333,4,2,63,70,0,1
191575,-83.3333333333333,4,2,0,70,0,1
191576,-83.3333333333333,4,2,59,50,0,1
191657,-83.3333333333333,4,2,59,50,0,1
191737,-83.3333333333333,4,2,53,70,0,1
191819,-83.3333333333333,4,2,47,70,0,1
191900,-83.3333333333333,4,2,50,70,0,1
191981,-83.3333333333333,4,2,53,70,0,1
192062,-74.0740740740741,4,2,55,75,0,1
192224,-74.0740740740741,4,2,48,35,0,1
192305,-74.0740740740741,4,2,55,55,0,1
192387,-74.0740740740741,4,2,0,75,0,1
192467,-74.0740740740741,4,2,48,35,0,1
192548,-74.0740740740741,4,2,55,75,0,1
192630,-74.0740740740741,4,2,48,35,0,1
192711,-74.0740740740741,4,2,55,75,0,1
192873,-74.0740740740741,4,2,48,35,0,1
192954,-74.0740740740741,4,2,55,75,0,1
193035,-74.0740740740741,4,2,0,75,0,1
193116,-74.0740740740741,4,2,48,35,0,1
193197,-74.0740740740741,4,2,56,75,0,1
193278,-74.0740740740741,4,2,48,35,0,1
193360,-74.0740740740741,4,2,55,75,0,1
193522,-74.0740740740741,4,2,50,35,0,1
193603,-74.0740740740741,4,2,55,75,0,1
193684,-74.0740740740741,4,2,0,75,0,1
193765,-74.0740740740741,4,2,50,35,0,1
193846,-74.0740740740741,4,2,55,75,0,1
193927,-74.0740740740741,4,2,50,35,0,1
194008,-74.0740740740741,4,2,55,75,0,1
194170,-74.0740740740741,4,2,50,35,0,1
194251,-74.0740740740741,4,2,55,75,0,1
194332,-74.0740740740741,4,2,0,75,0,1
194413,-74.0740740740741,4,2,50,35,0,1
194494,-74.0740740740741,4,2,56,75,0,1
194576,-74.0740740740741,4,2,50,35,0,1
194657,-74.0740740740741,4,2,58,75,0,1
194819,-74.0740740740741,4,2,51,35,0,1
194900,-74.0740740740741,4,2,58,75,0,1
194981,-74.0740740740741,4,2,0,75,0,1
195062,-74.0740740740741,4,2,51,35,0,1
195143,-74.0740740740741,4,2,58,75,0,1
195224,-74.0740740740741,4,2,51,35,0,1
195306,-74.0740740740741,4,2,58,75,0,1
195468,-74.0740740740741,4,2,51,35,0,1
195549,-74.0740740740741,4,2,56,75,0,1
195711,-74.0740740740741,4,2,51,35,0,1
195792,-74.0740740740741,4,2,55,75,0,1
195873,-74.0740740740741,4,2,51,35,0,1
195954,-74.0740740740741,4,2,56,75,0,1
196116,-74.0740740740741,4,2,46,35,0,1
196197,-74.0740740740741,4,2,55,55,0,1
196359,-74.0740740740741,4,2,46,35,0,1
196440,-74.0740740740741,4,2,51,55,0,1
196603,-74.0740740740741,4,2,0,55,0,1
196765,-74.0740740740741,4,2,46,75,0,1
196846,-74.0740740740741,4,2,0,55,0,1
196927,-74.0740740740741,4,2,51,55,0,1
197008,-74.0740740740741,4,2,53,55,0,1
197089,-74.0740740740741,4,2,55,55,0,1
197170,-74.0740740740741,4,2,56,55,0,1
197251,-74.0740740740741,4,2,58,75,0,1
197413,-74.0740740740741,4,2,53,35,0,1
197494,-74.0740740740741,4,2,58,75,0,1
197656,-74.0740740740741,4,2,53,35,0,1
197737,-74.0740740740741,4,2,58,75,0,1
197819,-74.0740740740741,4,2,53,35,0,1
197900,-74.0740740740741,4,2,58,75,0,1
198062,-74.0740740740741,4,2,53,35,0,1
198143,-74.0740740740741,4,2,56,75,0,1
198305,-74.0740740740741,4,2,53,35,0,1
198386,-74.0740740740741,4,2,55,75,0,1
198468,-74.0740740740741,4,2,53,35,0,1
198549,-74.0740740740741,4,2,56,75,0,1
198711,-74.0740740740741,4,2,46,35,0,1
198792,-74.0740740740741,4,2,55,75,0,1
198954,-74.0740740740741,4,2,46,35,0,1
199035,-74.0740740740741,4,2,51,75,0,1
199197,-74.0740740740741,4,2,0,50,0,1
199360,-74.0740740740741,4,2,46,75,0,1
199521,-74.0740740740741,4,2,53,75,0,1
199684,-74.0740740740741,4,2,0,55,0,1
199846,-74.0740740740741,4,2,53,75,0,1
200008,-74.0740740740741,4,2,0,55,0,1
200170,-74.0740740740741,4,2,53,75,0,1
200251,-74.0740740740741,4,2,46,40,0,1
200332,-74.0740740740741,4,2,55,75,0,1
200413,-74.0740740740741,4,2,53,75,0,1
200494,-74.0740740740741,4,2,51,55,0,1
200657,-74.0740740740741,4,2,0,35,0,1
200819,-74.0740740740741,4,2,46,75,0,1
200981,-74.0740740740741,4,2,0,35,0,1
201143,-74.0740740740741,4,2,51,75,0,1
201306,-74.0740740740741,4,2,46,45,0,1
201387,-74.0740740740741,4,2,46,45,0,1
201467,-74.0740740740741,4,2,50,50,0,1
201630,-74.0740740740741,4,2,46,45,0,1
201711,-74.0740740740741,4,2,50,50,0,1
201792,-74.0740740740741,4,2,51,75,0,1
201873,-74.0740740740741,4,2,47,50,0,1
201954,-74.0740740740741,4,2,50,75,0,1
202035,-74.0740740740741,4,2,51,50,0,1
202116,-74.0740740740741,4,2,53,55,0,1
202197,-74.0740740740741,4,2,47,60,0,1
202278,-74.0740740740741,4,2,50,65,0,1
202359,-74.0740740740741,4,2,53,75,0,1
202441,-66.6666666666667,4,2,55,75,0,1
202602,-66.6666666666667,4,2,48,40,0,1
202684,-66.6666666666667,4,2,55,75,0,1
202846,-66.6666666666667,4,2,48,40,0,1
202927,-66.6666666666667,4,2,55,75,0,1
203008,-66.6666666666667,4,2,48,40,0,1
203089,-66.6666666666667,4,2,55,75,0,1
203251,-66.6666666666667,4,2,48,40,0,1
203333,-66.6666666666667,4,2,55,75,0,1
203495,-66.6666666666667,4,2,48,40,0,1
203576,-66.6666666666667,4,2,56,75,0,1
203657,-66.6666666666667,4,2,48,40,0,1
203738,-66.6666666666667,4,2,55,75,0,1
203900,-66.6666666666667,4,2,50,40,0,1
203981,-66.6666666666667,4,2,55,75,0,1
204143,-66.6666666666667,4,2,50,40,0,1
204225,-66.6666666666667,4,2,55,75,0,1
204305,-66.6666666666667,4,2,50,40,0,1
204386,-66.6666666666667,4,2,55,75,0,1
204548,-66.6666666666667,4,2,50,40,0,1
204630,-66.6666666666667,4,2,55,75,0,1
204792,-66.6666666666667,4,2,50,40,0,1
204873,-66.6666666666667,4,2,56,75,0,1
204954,-66.6666666666667,4,2,50,40,0,1
205035,-66.6666666666667,4,2,58,75,0,1
205197,-66.6666666666667,4,2,51,40,0,1
205279,-66.6666666666667,4,2,58,75,0,1
205441,-66.6666666666667,4,2,51,40,0,1
205522,-66.6666666666667,4,2,58,75,0,1
205603,-66.6666666666667,4,2,51,40,0,1
205683,-66.6666666666667,4,2,63,75,0,1
205846,-66.6666666666667,4,2,51,40,0,1
205927,-66.6666666666667,4,2,63,75,0,1
206089,-66.6666666666667,4,2,51,40,0,1
206170,-66.6666666666667,4,2,62,75,0,1
206251,-66.6666666666667,4,2,63,75,0,1
206332,-66.6666666666667,4,2,62,75,0,1
206495,-66.6666666666667,4,2,51,40,0,1
206575,-66.6666666666667,4,2,62,75,0,1
206738,-66.6666666666667,4,2,51,40,0,1
206819,-66.6666666666667,4,2,63,75,0,1
206981,-66.6666666666667,4,2,0,40,0,1
207143,-66.6666666666667,4,2,58,75,0,1
207305,-66.6666666666667,4,2,65,75,0,1
207467,-66.6666666666667,4,2,0,55,0,1
207629,-66.6666666666667,4,2,62,75,0,1
207792,-66.6666666666667,4,2,53,65,0,1
208116,-66.6666666666667,4,2,63,75,0,1
208279,-66.6666666666667,4,2,53,65,0,1
208441,-66.6666666666667,4,2,53,65,0,1
208603,-66.6666666666667,4,2,70,75,0,1
208765,-66.6666666666667,4,2,53,65,0,1
208927,-66.6666666666667,4,2,68,75,0,1
209089,-66.6666666666667,4,2,55,65,0,1
209170,-66.6666666666667,4,2,55,65,0,1
209251,-66.6666666666667,4,2,67,75,0,1
209414,-66.6666666666667,4,2,55,65,0,1
209495,-66.6666666666667,4,2,55,65,0,1
209575,-66.6666666666667,4,2,63,75,0,1
209738,-66.6666666666667,4,2,55,65,0,1
209819,-66.6666666666667,4,2,55,65,0,1
209900,-66.6666666666667,4,2,65,75,0,1
210062,-66.6666666666667,4,2,55,65,0,1
210143,-66.6666666666667,4,2,55,65,0,1
210224,-66.6666666666667,4,2,65,75,0,1
210305,-66.6666666666667,4,2,0,55,0,1
210387,-66.6666666666667,4,2,0,55,0,1
210468,-66.6666666666667,4,2,0,55,0,1
210549,-66.6666666666667,4,2,56,65,0,1
210630,-66.6666666666667,4,2,56,65,0,1
210711,-66.6666666666667,4,2,67,75,0,1
210792,-66.6666666666667,4,2,65,75,0,1
210873,-66.6666666666667,4,2,63,75,0,1
210954,-66.6666666666667,4,2,0,55,0,1
211035,-66.6666666666667,4,2,0,50,0,1
211116,-66.6666666666667,4,2,0,55,0,1
211197,-66.6666666666667,4,2,58,65,0,1
211278,-66.6666666666667,4,2,0,55,0,1
211521,-66.6666666666667,4,2,63,65,0,1
211684,-66.6666666666667,4,2,58,65,0,1
211765,-66.6666666666667,4,2,58,65,0,1
211846,-66.6666666666667,4,2,62,75,0,1
212008,-66.6666666666667,4,2,58,65,0,1
212089,-66.6666666666667,4,2,58,65,0,1
212170,-66.6666666666667,4,2,63,75,0,1
212251,-66.6666666666667,4,2,0,75,0,1
212332,-66.6666666666667,4,2,59,65,0,1
212414,-66.6666666666667,4,2,59,65,0,1
212494,-66.6666666666667,4,2,65,75,0,1
212576,-66.6666666666667,4,2,0,60,0,1
212657,-66.6666666666667,4,2,59,65,0,1
212738,-66.6666666666667,4,2,59,65,0,1
212819,-83.3333333333333,4,2,51,60,0,0
212981,-83.3333333333333,4,2,50,40,0,0
213062,-83.3333333333333,4,2,51,45,0,0
213143,-83.3333333333333,4,2,53,50,0,0
213224,-83.3333333333333,4,2,55,55,0,0
213305,-83.3333333333333,4,2,60,70,0,0
213468,-83.3333333333333,4,2,3,60,0,0
213629,-83.3333333333333,4,2,51,70,0,0
213792,-83.3333333333333,4,2,51,60,0,0
213873,-83.3333333333333,4,2,50,50,0,0
213954,-83.3333333333333,4,2,51,60,0,0
214035,-83.3333333333333,4,2,53,50,0,0
214116,-83.3333333333333,4,2,55,65,0,0
214197,-83.3333333333333,4,2,51,45,0,0
214278,-83.3333333333333,4,2,55,50,0,0
214359,-83.3333333333333,4,2,60,55,0,0
214441,-83.3333333333333,4,2,63,65,0,0
214521,-83.3333333333333,4,2,55,50,0,0
214602,-83.3333333333333,4,2,60,55,0,0
214683,-83.3333333333333,4,2,63,65,0,0
214765,-83.3333333333333,4,2,64,75,0,0
214819,-83.3333333333333,4,2,65,75,0,0
214873,-83.3333333333333,4,2,66,75,0,0
214927,-83.3333333333333,4,2,67,80,0,0
215089,-83.3333333333333,4,2,3,45,0,0
215197,-83.3333333333333,4,2,66,50,0,0
215251,-83.3333333333333,4,2,67,80,0,0
215414,-83.3333333333333,4,2,3,45,0,0
215575,-83.3333333333333,4,2,65,65,0,0
215738,-83.3333333333333,4,2,3,60,0,0
215900,-83.3333333333333,4,2,63,60,0,0
215981,-83.3333333333333,4,2,62,50,0,0
216062,-83.3333333333333,4,2,63,60,0,0
216143,-83.3333333333333,4,2,62,50,0,0
216224,-83.3333333333333,4,2,58,45,0,0
216305,-83.3333333333333,4,2,53,40,0,0
216386,-83.3333333333333,4,2,51,35,0,0
216467,-83.3333333333333,4,2,53,30,0,0
216548,-83.3333333333333,4,2,51,40,0,0
216629,-83.3333333333333,4,2,50,30,0,0
216711,-83.3333333333333,4,2,62,65,0,0
216873,-83.3333333333333,4,2,51,55,0,0
216954,-83.3333333333333,4,2,53,55,0,0
217035,-83.3333333333333,4,2,55,55,0,0
217116,-83.3333333333333,4,2,58,55,0,0
217197,-83.3333333333333,4,2,63,65,0,0
217360,-83.3333333333333,4,2,55,65,0,0
217521,-83.3333333333333,4,2,65,70,0,0
217684,-83.3333333333333,4,2,55,55,0,0
217765,-83.3333333333333,4,2,58,55,0,0
217846,-83.3333333333333,4,2,62,65,0,0
218008,-83.3333333333333,4,2,3,45,0,0
218170,-83.3333333333333,4,2,58,55,0,0
218333,-83.3333333333333,4,2,55,45,0,0
218414,-83.3333333333333,4,2,58,45,0,0
218494,-83.3333333333333,4,2,60,60,0,0
218657,-83.3333333333333,4,2,3,45,0,0
218818,-83.3333333333333,4,2,51,45,0,0
218900,-83.3333333333333,4,2,50,35,0,0
218981,-83.3333333333333,4,2,51,45,0,0
219062,-83.3333333333333,4,2,50,35,0,0
219143,-83.3333333333333,4,2,51,45,0,0
219224,-83.3333333333333,4,2,53,35,0,0
219305,-83.3333333333333,4,2,55,50,0,0
219386,-83.3333333333333,4,2,51,40,0,0
219467,-83.3333333333333,4,2,55,45,0,0
219522,-83.3333333333333,4,2,58,45,0,0
219576,-83.3333333333333,4,2,59,50,0,0
219629,-83.3333333333333,4,2,60,60,0,0
219710,-83.3333333333333,4,2,51,45,0,0
219791,-83.3333333333333,4,2,56,50,0,0
219873,-83.3333333333333,4,2,60,55,0,0
219954,-83.3333333333333,4,2,63,65,0,0
220035,-83.3333333333333,4,2,56,55,0,0
220116,-83.3333333333333,4,2,60,60,0,0
220197,-83.3333333333333,4,2,63,65,0,0
220278,-83.3333333333333,4,2,67,75,0,0
220359,-83.3333333333333,4,2,60,60,0,0
220440,-83.3333333333333,4,2,63,65,0,0
220522,-83.3333333333333,4,2,67,65,0,0
220602,-83.3333333333333,4,2,65,70,0,0
220683,-83.3333333333333,4,2,58,60,0,0
220764,-83.3333333333333,4,2,62,65,0,0
220846,-83.3333333333333,4,2,63,70,0,0
220927,-83.3333333333333,4,2,65,70,0,0
221008,-83.3333333333333,4,2,58,60,0,0
221089,-83.3333333333333,4,2,62,65,0,0
221170,-83.3333333333333,4,2,63,70,0,0
221251,-83.3333333333333,4,2,65,70,0,0
221332,-83.3333333333333,4,2,58,60,0,0
221413,-83.3333333333333,4,2,62,65,0,0
221495,-83.3333333333333,4,2,63,65,0,0
221575,-83.3333333333333,4,2,65,70,0,0
221656,-83.3333333333333,4,2,66,60,0,0
221737,-83.3333333333333,4,2,67,70,0,0
221792,-83.3333333333333,4,2,68,65,0,0
221846,-83.3333333333333,4,2,69,65,0,0
221900,-83.3333333333333,4,2,70,75,0,0
221981,-83.3333333333333,4,2,68,70,0,0
222062,-83.3333333333333,4,2,67,65,0,0
222143,-83.3333333333333,4,2,65,60,0,0
222224,-83.3333333333333,4,2,63,55,0,0
222305,-83.3333333333333,4,2,65,50,0,0
222386,-83.3333333333333,4,2,63,45,0,0
222467,-83.3333333333333,4,2,62,40,0,0
222548,-83.3333333333333,4,2,58,45,0,0
222629,-83.3333333333333,4,2,53,40,0,0
222710,-83.3333333333333,4,2,58,45,0,0
222792,-83.3333333333333,4,2,60,50,0,0
222873,-83.3333333333333,4,2,62,55,0,0
222954,-83.3333333333333,4,2,58,50,0,0
223035,-83.3333333333333,4,2,62,55,0,0
223116,-83.3333333333333,4,2,65,55,0,0
223197,-83.3333333333333,4,2,51,60,0,0
223359,-83.3333333333333,4,2,50,50,0,0
223441,-83.3333333333333,4,2,51,50,0,0
223522,-83.3333333333333,4,2,53,50,0,0
223603,-83.3333333333333,4,2,55,50,0,0
223683,-83.3333333333333,4,2,60,60,0,0
223846,-83.3333333333333,4,2,3,60,0,0
224008,-83.3333333333333,4,2,51,60,0,0
224170,-83.3333333333333,4,2,51,50,0,0
224251,-83.3333333333333,4,2,50,50,0,0
224333,-83.3333333333333,4,2,51,50,0,0
224414,-83.3333333333333,4,2,53,50,0,0
224494,-83.3333333333333,4,2,55,65,0,0
224575,-83.3333333333333,4,2,51,50,0,0
224656,-83.3333333333333,4,2,55,55,0,0
224737,-83.3333333333333,4,2,60,60,0,0
224818,-83.3333333333333,4,2,63,65,0,0
224900,-83.3333333333333,4,2,55,55,0,0
224981,-83.3333333333333,4,2,60,60,0,0
225062,-83.3333333333333,4,2,63,65,0,0
225143,-83.3333333333333,4,2,64,70,0,0
225197,-83.3333333333333,4,2,65,70,0,0
225251,-83.3333333333333,4,2,66,70,0,0
225305,-83.3333333333333,4,2,67,70,0,0
225468,-83.3333333333333,4,2,3,70,0,0
225576,-83.3333333333333,4,2,66,70,0,0
225630,-83.3333333333333,4,2,67,70,0,0
225792,-83.3333333333333,4,2,3,70,0,0
225954,-83.3333333333333,4,2,65,60,0,0
226116,-83.3333333333333,4,2,3,60,0,0
226278,-83.3333333333333,4,2,63,50,0,0
226360,-83.3333333333333,4,2,62,50,0,0
226441,-83.3333333333333,4,2,63,60,0,0
226495,-83.3333333333333,4,2,62,60,0,0
226549,-83.3333333333333,4,2,63,60,0,0
226603,-83.3333333333333,4,2,62,60,0,0
226657,-83.3333333333333,4,2,63,60,0,0
226711,-83.3333333333333,4,2,62,60,0,0
226765,-83.3333333333333,4,2,63,60,0,0
226846,-83.3333333333333,4,2,62,60,0,0
226927,-83.3333333333333,4,2,63,60,0,0
227008,-83.3333333333333,4,2,65,60,0,0
227089,-83.3333333333333,4,2,67,60,0,0
227251,-83.3333333333333,4,2,51,50,0,0
227333,-83.3333333333333,4,2,53,40,0,0
227414,-83.3333333333333,4,2,55,50,0,0
227495,-83.3333333333333,4,2,58,40,0,0
227575,-83.3333333333333,4,2,68,65,0,0
227738,-83.3333333333333,4,2,55,30,0,0
227819,-83.3333333333333,4,2,58,30,0,0
227900,-83.3333333333333,4,2,67,65,0,0
228062,-83.3333333333333,4,2,55,30,0,0
228143,-83.3333333333333,4,2,58,30,0,0
228224,-83.3333333333333,4,2,65,60,0,0
228387,-83.3333333333333,4,2,51,50,0,0
228468,-83.3333333333333,4,2,55,30,0,0
228548,-83.3333333333333,4,2,67,55,0,0
228711,-83.3333333333333,4,2,51,50,0,0
228792,-83.3333333333333,4,2,55,30,0,0
228873,-83.3333333333333,4,2,63,60,0,0
229035,-83.3333333333333,4,2,3,50,0,0
229197,-83.3333333333333,4,2,51,50,0,0
229278,-83.3333333333333,4,2,50,40,0,0
229359,-83.3333333333333,4,2,51,50,0,0
229440,-83.3333333333333,4,2,50,40,0,0
229521,-83.3333333333333,4,2,51,50,0,0
229603,-83.3333333333333,4,2,53,50,0,0
229683,-83.3333333333333,4,2,56,60,0,0
229764,-83.3333333333333,4,2,51,45,0,0
229846,-83.3333333333333,4,2,56,50,0,0
229927,-83.3333333333333,4,2,58,55,0,0
230008,-83.3333333333333,4,2,60,60,0,0
230089,-83.3333333333333,4,2,51,50,0,0
230170,-83.3333333333333,4,2,56,60,0,0
230251,-83.3333333333333,4,2,60,50,0,0
230332,-83.3333333333333,4,2,63,60,0,0
230413,-83.3333333333333,4,2,56,50,0,0
230494,-83.3333333333333,4,2,60,55,0,0
230576,-83.3333333333333,4,2,63,65,0,0
230656,-83.3333333333333,4,2,67,65,0,0
230737,-83.3333333333333,4,2,60,55,0,0
230818,-83.3333333333333,4,2,63,60,0,0
230873,-83.3333333333333,4,2,65,60,0,0
230927,-83.3333333333333,4,2,67,60,0,0
230981,-83.3333333333333,4,2,65,60,0,0
231062,-83.3333333333333,4,2,58,40,0,0
231143,-83.3333333333333,4,2,62,50,0,0
231197,-83.3333333333333,4,2,63,50,0,0
231251,-83.3333333333333,4,2,64,50,0,0
231305,-83.3333333333333,4,2,65,60,0,0
231386,-83.3333333333333,4,2,58,40,0,0
231467,-83.3333333333333,4,2,62,50,0,0
231549,-83.3333333333333,4,2,65,50,0,0
231629,-83.3333333333333,4,2,70,65,0,0
231710,-83.3333333333333,4,2,65,45,0,0
231791,-83.3333333333333,4,2,67,55,0,0
231846,-83.3333333333333,4,2,68,55,0,0
231900,-83.3333333333333,4,2,69,55,0,0
231954,-83.3333333333333,4,2,70,65,0,0
232035,-83.3333333333333,4,2,65,45,0,0
232116,-83.3333333333333,4,2,74,55,0,0
232170,-83.3333333333333,4,2,75,55,0,0
232224,-83.3333333333333,4,2,76,55,0,0
232278,-83.3333333333333,4,2,77,70,0,0
232359,-83.3333333333333,4,2,75,65,0,0
232440,-83.3333333333333,4,2,74,60,0,0
232521,-83.3333333333333,4,2,70,55,0,0
232602,-83.3333333333333,4,2,65,50,0,0
232683,-83.3333333333333,4,2,63,45,0,0
232764,-83.3333333333333,4,2,62,50,0,0
232846,-83.3333333333333,4,2,58,55,0,0
232927,-83.3333333333333,4,2,74,65,0,0
233008,-83.3333333333333,4,2,70,60,0,0
233089,-83.3333333333333,4,2,65,55,0,0
233170,-83.3333333333333,4,2,63,50,0,0
233251,-83.3333333333333,4,2,62,45,0,0
233305,-83.3333333333333,4,2,63,55,0,0
233360,-83.3333333333333,4,2,62,55,0,0
233413,-83.3333333333333,4,2,58,45,0,0
233468,-83.3333333333333,4,2,53,55,0,0
233522,-83.3333333333333,4,2,50,55,0,0
233575,-83.3333333333333,4,2,51,65,0,0
233738,-83.3333333333333,4,2,50,40,0,0
233819,-83.3333333333333,4,2,51,45,0,0
233900,-83.3333333333333,4,2,53,50,0,0
233981,-83.3333333333333,4,2,55,55,0,0
234062,-83.3333333333333,4,2,60,70,0,0
234225,-83.3333333333333,4,2,3,60,0,0
234386,-83.3333333333333,4,2,51,70,0,0
234549,-83.3333333333333,4,2,51,60,0,0
234630,-83.3333333333333,4,2,50,50,0,0
234711,-83.3333333333333,4,2,51,60,0,0
234792,-83.3333333333333,4,2,53,50,0,0
234873,-83.3333333333333,4,2,55,65,0,0
234954,-83.3333333333333,4,2,51,45,0,0
235035,-83.3333333333333,4,2,55,50,0,0
235116,-83.3333333333333,4,2,60,55,0,0
235198,-83.3333333333333,4,2,63,65,0,0
235278,-83.3333333333333,4,2,55,50,0,0
235359,-83.3333333333333,4,2,60,55,0,0
235440,-83.3333333333333,4,2,63,65,0,0
235522,-83.3333333333333,4,2,64,75,0,0
235576,-83.3333333333333,4,2,65,75,0,0
235630,-83.3333333333333,4,2,66,75,0,0
235684,-83.3333333333333,4,2,67,80,0,0
235846,-83.3333333333333,4,2,3,45,0,0
235954,-83.3333333333333,4,2,66,50,0,0
236008,-83.3333333333333,4,2,67,80,0,0
236171,-83.3333333333333,4,2,3,45,0,0
236332,-83.3333333333333,4,2,65,65,0,0
236495,-83.3333333333333,4,2,3,60,0,0
236657,-83.3333333333333,4,2,63,60,0,0
236738,-83.3333333333333,4,2,62,50,0,0
236819,-83.3333333333333,4,2,63,60,0,0
236900,-83.3333333333333,4,2,62,50,0,0
236981,-83.3333333333333,4,2,58,45,0,0
237062,-83.3333333333333,4,2,53,40,0,0
237143,-83.3333333333333,4,2,51,35,0,0
237224,-83.3333333333333,4,2,53,30,0,0
237305,-83.3333333333333,4,2,51,40,0,0
237387,-83.3333333333333,4,2,50,30,0,0
237468,-83.3333333333333,4,2,62,65,0,0
237630,-83.3333333333333,4,2,51,55,0,0
237711,-83.3333333333333,4,2,53,55,0,0
237792,-83.3333333333333,4,2,55,55,0,0
237873,-83.3333333333333,4,2,58,55,0,0
237954,-83.3333333333333,4,2,63,65,0,0
238117,-83.3333333333333,4,2,55,65,0,0
238197,-83.3333333333333,4,2,58,65,0,0
238278,-83.3333333333333,4,2,65,70,0,0
238441,-83.3333333333333,4,2,55,55,0,0
238522,-83.3333333333333,4,2,58,55,0,0
238603,-83.3333333333333,4,2,62,65,0,0
238765,-83.3333333333333,4,2,3,45,0,0
238927,-83.3333333333333,4,2,58,55,0,0
239090,-83.3333333333333,4,2,3,45,0,0
239251,-83.3333333333333,4,2,60,60,0,0
239414,-83.3333333333333,4,2,3,45,0,0
239575,-83.3333333333333,4,2,51,45,0,0
239657,-83.3333333333333,4,2,50,35,0,0
239738,-83.3333333333333,4,2,51,45,0,0
239819,-83.3333333333333,4,2,50,35,0,0
239900,-83.3333333333333,4,2,51,45,0,0
239981,-83.3333333333333,4,2,53,35,0,0
240062,-83.3333333333333,4,2,55,50,0,0
240143,-83.3333333333333,4,2,51,40,0,0
240224,-83.3333333333333,4,2,55,45,0,0
240305,-83.3333333333333,4,2,58,45,0,0
240386,-83.3333333333333,4,2,60,60,0,0
240467,-83.3333333333333,4,2,51,45,0,0
240548,-83.3333333333333,4,2,55,50,0,0
240630,-83.3333333333333,4,2,60,55,0,0
240711,-83.3333333333333,4,2,63,65,0,0
240792,-83.3333333333333,4,2,56,55,0,0
240873,-83.3333333333333,4,2,60,60,0,0
240954,-83.3333333333333,4,2,63,65,0,0
241035,-83.3333333333333,4,2,67,75,0,0
241116,-83.3333333333333,4,2,60,60,0,0
241197,-83.3333333333333,4,2,63,65,0,0
241279,-83.3333333333333,4,2,67,65,0,0
241359,-83.3333333333333,4,2,65,70,0,0
241440,-83.3333333333333,4,2,58,60,0,0
241521,-83.3333333333333,4,2,62,65,0,0
241603,-83.3333333333333,4,2,63,65,0,0
241684,-83.3333333333333,4,2,65,70,0,0
241765,-83.3333333333333,4,2,58,60,0,0
241846,-83.3333333333333,4,2,62,65,0,0
241927,-83.3333333333333,4,2,63,70,0,0
242008,-83.3333333333333,4,2,65,70,0,0
242089,-83.3333333333333,4,2,58,60,0,0
242170,-83.3333333333333,4,2,62,65,0,0
242251,-83.3333333333333,4,2,63,65,0,0
242332,-83.3333333333333,4,2,65,70,0,0
242413,-83.3333333333333,4,2,66,60,0,0
242494,-83.3333333333333,4,2,67,70,0,0
242549,-83.3333333333333,4,2,68,65,0,0
242603,-83.3333333333333,4,2,69,65,0,0
242657,-83.3333333333333,4,2,70,75,0,0
242738,-83.3333333333333,4,2,68,70,0,0
242819,-83.3333333333333,4,2,67,65,0,0
242900,-83.3333333333333,4,2,65,60,0,0
242981,-83.3333333333333,4,2,63,55,0,0
243062,-83.3333333333333,4,2,65,50,0,0
243143,-83.3333333333333,4,2,63,45,0,0
243224,-83.3333333333333,4,2,62,40,0,0
243305,-83.3333333333333,4,2,58,45,0,0
243386,-83.3333333333333,4,2,53,40,0,0
243467,-83.3333333333333,4,2,58,45,0,0
243522,-83.3333333333333,4,2,60,50,0,0
243576,-83.3333333333333,4,2,61,50,0,0
243630,-83.3333333333333,4,2,62,55,0,0
243711,-83.3333333333333,4,2,58,50,0,0
243792,-83.3333333333333,4,2,62,55,0,0
243873,-83.3333333333333,4,2,65,55,0,0
243954,-83.3333333333333,4,2,51,60,0,0
244116,-83.3333333333333,4,2,50,50,0,0
244198,-83.3333333333333,4,2,51,50,0,0
244279,-83.3333333333333,4,2,53,50,0,0
244360,-83.3333333333333,4,2,55,50,0,0
244440,-83.3333333333333,4,2,60,60,0,0
244603,-83.3333333333333,4,2,3,60,0,0
244765,-83.3333333333333,4,2,51,60,0,0
244927,-83.3333333333333,4,2,51,50,0,0
245008,-83.3333333333333,4,2,50,50,0,0
245090,-83.3333333333333,4,2,51,50,0,0
245171,-83.3333333333333,4,2,53,50,0,0
245251,-83.3333333333333,4,2,55,65,0,0
245332,-83.3333333333333,4,2,51,50,0,0
245413,-83.3333333333333,4,2,55,55,0,0
245494,-83.3333333333333,4,2,60,60,0,0
245575,-83.3333333333333,4,2,63,65,0,0
245657,-83.3333333333333,4,2,55,55,0,0
245738,-83.3333333333333,4,2,60,60,0,0
245819,-83.3333333333333,4,2,63,65,0,0
245900,-83.3333333333333,4,2,64,70,0,0
245954,-83.3333333333333,4,2,65,70,0,0
246008,-83.3333333333333,4,2,66,70,0,0
246062,-83.3333333333333,4,2,67,70,0,0
246225,-83.3333333333333,4,2,3,70,0,0
246333,-83.3333333333333,4,2,66,70,0,0
246387,-83.3333333333333,4,2,67,70,0,0
246549,-83.3333333333333,4,2,3,70,0,0
246711,-83.3333333333333,4,2,65,60,0,0
246873,-83.3333333333333,4,2,3,60,0,0
247035,-83.3333333333333,4,2,63,50,0,0
247117,-83.3333333333333,4,2,62,50,0,0
247198,-83.3333333333333,4,2,63,60,0,0
247252,-83.3333333333333,4,2,62,60,0,0
247306,-83.3333333333333,4,2,63,60,0,0
247360,-83.3333333333333,4,2,62,60,0,0
247414,-83.3333333333333,4,2,63,60,0,0
247468,-83.3333333333333,4,2,62,60,0,0
247522,-83.3333333333333,4,2,63,60,0,0
247603,-83.3333333333333,4,2,62,60,0,0
247684,-83.3333333333333,4,2,63,60,0,0
247765,-83.3333333333333,4,2,65,60,0,0
247846,-83.3333333333333,4,2,67,60,0,0
248008,-83.3333333333333,4,2,51,50,0,0
248090,-83.3333333333333,4,2,53,40,0,0
248171,-83.3333333333333,4,2,55,50,0,0
248252,-83.3333333333333,4,2,58,40,0,0
248332,-83.3333333333333,4,2,75,65,0,0
248495,-83.3333333333333,4,2,55,30,0,0
248576,-83.3333333333333,4,2,58,30,0,0
248657,-83.3333333333333,4,2,74,65,0,0
248819,-83.3333333333333,4,2,55,30,0,0
248900,-83.3333333333333,4,2,58,30,0,0
248981,-83.3333333333333,4,2,74,60,0,0
249144,-83.3333333333333,4,2,56,50,0,0
249224,-83.3333333333333,4,2,60,50,0,0
249305,-83.3333333333333,4,2,75,55,0,0
249468,-83.3333333333333,4,2,56,50,0,0
249549,-83.3333333333333,4,2,60,50,0,0
249630,-83.3333333333333,4,2,75,60,0,0
249792,-83.3333333333333,4,2,3,50,0,0
249954,-83.3333333333333,4,2,51,50,0,0
250035,-83.3333333333333,4,2,50,40,0,0
250116,-83.3333333333333,4,2,51,50,0,0
250197,-83.3333333333333,4,2,50,40,0,0
250278,-83.3333333333333,4,2,51,50,0,0
250359,-83.3333333333333,4,2,53,50,0,0
250440,-83.3333333333333,4,2,56,60,0,0
250521,-83.3333333333333,4,2,51,45,0,0
250603,-83.3333333333333,4,2,56,50,0,0
250684,-83.3333333333333,4,2,58,55,0,0
250765,-83.3333333333333,4,2,60,60,0,0
250846,-83.3333333333333,4,2,51,50,0,0
250927,-83.3333333333333,4,2,56,60,0,0
251008,-83.3333333333333,4,2,60,50,0,0
251089,-83.3333333333333,4,2,63,60,0,0
251170,-83.3333333333333,4,2,56,50,0,0
251251,-83.3333333333333,4,2,60,55,0,0
251333,-83.3333333333333,4,2,63,65,0,0
251413,-83.3333333333333,4,2,67,65,0,0
251494,-83.3333333333333,4,2,60,55,0,0
251576,-83.3333333333333,4,2,63,60,0,0
251630,-83.3333333333333,4,2,65,60,0,0
251684,-83.3333333333333,4,2,67,60,0,0
251738,-83.3333333333333,4,2,65,60,0,0
251819,-83.3333333333333,4,2,58,40,0,0
251900,-83.3333333333333,4,2,62,50,0,0
251981,-83.3333333333333,4,2,63,50,0,0
252062,-83.3333333333333,4,2,65,60,0,0
252143,-83.3333333333333,4,2,58,40,0,0
252224,-83.3333333333333,4,2,62,50,0,0
252306,-83.3333333333333,4,2,65,50,0,0
252386,-83.3333333333333,4,2,70,65,0,0
252467,-83.3333333333333,4,2,65,45,0,0
252548,-83.3333333333333,4,2,67,55,0,0
252630,-83.3333333333333,4,2,68,55,0,0
252711,-83.3333333333333,4,2,70,65,0,0
252792,-83.3333333333333,4,2,65,45,0,0
252873,-83.3333333333333,4,2,74,55,0,0
252927,-83.3333333333333,4,2,75,55,0,0
252981,-83.3333333333333,4,2,76,55,0,0
253035,-83.3333333333333,4,2,77,70,0,0
253116,-83.3333333333333,4,2,75,65,0,0
253197,-83.3333333333333,4,2,74,60,0,0
253278,-83.3333333333333,4,2,70,55,0,0
253359,-83.3333333333333,4,2,65,50,0,0
253440,-83.3333333333333,4,2,63,45,0,0
253521,-83.3333333333333,4,2,62,50,0,0
253603,-83.3333333333333,4,2,58,55,0,0
253684,-83.3333333333333,4,2,74,65,0,0
253765,-83.3333333333333,4,2,70,60,0,0
253846,-83.3333333333333,4,2,65,55,0,0
253927,-83.3333333333333,4,2,63,50,0,0
254008,-83.3333333333333,4,2,62,45,0,0
254062,-83.3333333333333,4,2,63,55,0,0
254117,-83.3333333333333,4,2,62,55,0,0
254170,-83.3333333333333,4,2,58,45,0,0
254225,-83.3333333333333,4,2,53,55,0,0
254279,-83.3333333333333,4,2,50,55,0,0
254657,-100,4,2,0,60,0,0
255630,-100,4,2,0,55,0,0
255954,-100,4,2,0,50,0,0
256278,-100,4,2,0,45,0,0
256603,-100,4,2,0,40,0,0
256927,-100,4,2,0,35,0,0
257251,-100,4,2,0,30,0,0
257576,-100,4,2,0,25,0,0
257900,-100,4,2,0,20,0,0
258224,-100,4,2,0,15,0,0

[Colours]
Combo1 : 49,227,34
Combo2 : 41,225,235
Combo3 : 31,63,190
Combo4 : 231,132,50

[HitObjects]
436,280,21792,6,0,L|444:304,3,25
488,220,22116,6,0,B|468:172|432:132|384:104|332:96|280:96|220:116,1,300,4|0,0:0|0:0,0:0:0:0:
36,16,23414,2,0,B|60:47|60:47|16:68|-14:130|0:200|44:240|124:264|200:216|200:216|244:192|320:156|414:170|440:248|436:324|400:360|320:368,1,800,2|0,0:0|0:0,0:0:0:0:
440,136,26981,2,0,P|480:144|500:164,1,50,0|0,0:0|0:0,0:0:0:0:
424,240,27305,6,0,P|368:224|488:40,1,400,2|2,0:0|0:0,0:0:0:0:
72,136,29576,2,0,P|32:144|12:164,1,50,0|0,0:0|0:0,0:0:0:0:
88,240,29900,6,0,P|144:224|24:40,1,400,2|2,0:0|0:0,0:0:0:0:
213,325,32008,2,0,P|248:332|273:341,2,50,0|0|0,0:0|0:0|0:0,0:0:0:0:
103,247,32495,2,0,P|68:203|172:236,1,300
298,236,33792,2,0,P|430:204|486:60,1,300,2|0,0:0|0:0,0:0:0:0:
232,24,35089,2,0,P|100:56|44:200,1,300,0|0,0:0|0:0,0:0:0:0:
140,268,36224,1,0,0:0:0:0:
220,356,36387,6,0,P|292:372|372:348,1,150,0|0,0:0|0:0,0:0:0:0:
436,283,37035,1,0,0:0:0:0:
413,185,37197,1,0,0:0:0:0:
291,261,37359,2,0,B|269:284,1,25
208,256,37522,2,0,B|186:279,1,25
148,212,37684,6,0,P|156:112|308:0,1,300,2|0,0:0|0:0,0:0:0:0:
433,79,38981,2,0,P|425:179|273:291,1,300,2|0,0:0|0:0,0:0:0:0:
149,241,40116,1,0,0:0:0:0:
87,155,40278,2,0,P|44:212|180:342,1,300
427,246,41576,2,0,P|506:275|446:334,1,200,2|0,0:0|0:0,0:0:0:0:
361,295,42549,5,2,0:2:0:0:
351,271,42630,1,2,0:2:0:0:
349,246,42711,1,2,0:2:0:0:
352,221,42792,1,2,0:2:0:0:
362,198,42873,1,4,0:0:0:0:
496,152,43035,1,2,0:2:0:0:
480,120,43116,1,2,0:2:0:0:
456,96,43197,1,2,0:2:0:0:
424,81,43278,1,2,0:2:0:0:
389,76,43359,6,0,L|265:72,1,100,2|0,0:2|3:0,0:0:0:0:
96,64,43684,1,2,0:3:0:0:
184,112,43846,1,2,0:2:0:0:
204,128,43927,1,2,0:2:0:0:
220,148,44008,1,2,0:2:0:0:
232,172,44089,1,2,0:2:0:0:
236,196,44170,5,2,0:3:0:0:
239,235,44251,1,2,0:2:0:0:
226,272,44332,1,8,0:2:0:0:
200,303,44414,1,2,0:2:0:0:
164,320,44495,1,8,0:2:0:0:
124,322,44576,1,2,0:2:0:0:
86,307,44657,1,2,0:3:0:0:
57,278,44738,1,2,0:2:0:0:
44,238,44819,2,0,L|8:244,2,33.3333333333333,2|0|0,0:2|0:2|0:2,0:0:0:0:
140,224,44981,1,2,0:2:0:0:
252,292,45143,6,0,L|326:326,1,66.6666666666667,2|2,0:3|0:2,0:0:0:0:
356,313,45305,1,2,0:2:0:0:
416,168,45468,1,2,0:3:0:0:
512,172,45630,2,0,P|483:237|460:256,1,100,2|2,0:2|0:2,0:0:0:0:
308,92,45954,1,2,0:2:0:0:
308,92,46035,1,2,0:2:0:0:
308,92,46116,6,0,L|240:68,1,50,2|2,0:2|0:2,0:0:0:0:
156,128,46278,2,0,L|188:168,1,50,2|2,0:3|0:2,0:0:0:0:
104,280,46441,2,0,L|90:209,1,50,2|2,0:2|0:2,0:0:0:0:
12,164,46603,2,0,L|-2:93,1,50,2|2,0:2|0:2,0:0:0:0:
44,16,46765,5,2,0:3:0:0:
156,128,46927,1,8,0:0:0:0:
244,16,47089,1,8,0:0:0:0:
308,176,47251,2,0,P|312:240|292:280,1,100,2|0,0:3|0:2,0:0:0:0:
268,300,47495,1,0,0:2:0:0:
268,300,47576,1,2,0:3:0:0:
156,188,47738,1,0,0:0:0:0:
156,188,47819,1,0,0:0:0:0:
156,188,47900,1,2,0:3:0:0:
84,332,48062,5,4,0:0:0:0:
28,132,48224,2,0,P|40:72|72:28,1,100,2|0,0:2|0:0,0:0:0:0:
451,39,48549,2,0,P|476:82|484:132,1,100,2|0,0:2|0:0,0:0:0:0:
356,116,48873,5,2,0:3:0:0:
340,124,48954,1,2,0:2:0:0:
328,140,49035,1,2,0:2:0:0:
320,160,49116,1,2,0:2:0:0:
320,180,49197,1,2,0:2:0:0:
328,200,49278,1,2,0:2:0:0:
340,216,49359,1,2,0:3:0:0:
356,228,49441,1,2,0:2:0:0:
376,232,49522,2,0,L|412:204,2,33.3333333333333,8|0|0,0:0|0:2|0:2,0:0:0:0:
300,292,49684,5,8,0:0:0:0:
268,316,49765,1,2,0:2:0:0:
252,352,49846,1,2,0:3:0:0:
220,328,49927,1,2,0:2:0:0:
180,320,50008,1,2,0:2:0:0:
140,324,50089,1,2,0:2:0:0:
104,340,50170,1,2,0:2:0:0:
64,340,50251,1,2,0:2:0:0:
32,320,50332,1,2,0:3:0:0:
16,284,50414,1,2,0:2:0:0:
20,244,50495,1,10,0:2:0:0:
44,212,50576,1,2,0:2:0:0:
80,192,50657,5,4,0:0:0:0:
116,176,50738,1,2,0:2:0:0:
144,148,50819,2,0,L|164:96,2,33.3333333333333,2|0|0,0:2|0:2|0:2,0:0:0:0:
204,216,50981,5,2,0:2:0:0:
236,240,51062,1,2,0:2:0:0:
260,272,51143,2,0,L|284:356,1,50,2|0,0:2|0:2,0:0:0:0:
304,144,51305,5,2,0:2:0:0:
336,116,51387,1,2,0:2:0:0:
348,80,51468,2,0,L|360:24,2,33.3333333333333,2|0|0,0:3|0:0|0:0,0:0:0:0:
408,192,51630,5,2,0:2:0:0:
432,224,51711,1,2,0:2:0:0:
460,252,51792,2,0,L|468:316,2,33.3333333333333,2|0|0,0:2|0:0|0:0,0:0:0:0:
392,152,51954,5,2,0:3:0:0:
355,186,52035,1,2,0:2:0:0:
305,195,52116,1,2,0:2:0:0:
255,189,52197,1,2,0:2:0:0:
215,158,52278,1,2,0:2:0:0:
173,185,52359,1,2,0:2:0:0:
152,231,52441,1,2,0:3:0:0:
159,280,52522,1,2,0:2:0:0:
192,317,52603,1,2,0:2:0:0:
240,328,52684,1,2,0:2:0:0:
288,316,52765,2,0,P|307:299|324:280,2,33.3333333333333,2|0|0,0:3|0:0|0:0,0:0:0:0:
184,372,52927,5,2,0:2:0:0:
136,364,53008,1,2,0:2:0:0:
92,344,53089,1,2,0:3:0:0:
52,312,53170,1,2,0:3:0:0:
32,268,53251,5,4,0:0:0:0:
24,116,53414,2,0,L|48:64,1,50,2|2,0:2|0:2,0:0:0:0:
169,51,53576,2,0,L|148:96,1,50,2|2,0:2|0:2,0:0:0:0:
136,194,53738,2,0,P|192:194|248:222,1,100,2|0,0:2|0:0,0:0:0:0:
452,369,54062,1,2,0:3:0:0:
427,260,54224,6,0,L|416:212,1,50,2|2,0:2|0:2,0:0:0:0:
458,137,54387,2,0,L|447:89,1,50,2|2,0:2|0:2,0:0:0:0:
352,48,54549,1,2,0:3:0:0:
312,40,54630,1,2,0:2:0:0:
276,56,54711,1,8,0:0:0:0:
252,88,54792,1,2,0:2:0:0:
240,124,54873,1,8,0:0:0:0:
208,148,54954,1,2,0:2:0:0:
168,156,55035,1,2,0:3:0:0:
136,136,55116,1,2,0:2:0:0:
116,100,55197,6,0,L|108:60,2,33.3333333333333,2|0|0,0:2|0:0|0:0,0:0:0:0:
16,116,55359,2,0,P|20:168|52:236,1,100,2|2,0:2|0:3,0:0:0:0:
100,282,55630,1,2,0:2:0:0:
100,282,55684,1,2,0:2:0:0:
48,364,55846,1,2,0:3:0:0:
144,372,56008,6,0,L|252:384,1,100,2|0,0:2|0:0,0:0:0:0:
364,380,56332,2,0,L|332:336,1,50,2|2,0:2|0:2,0:0:0:0:
260,216,56495,6,0,L|232:176,2,33.3333333333333,2|0|0,0:2|0:0|0:0,0:0:0:0:
356,180,56657,2,0,L|375:207,2,33.3333333333333,2|0|0,0:3|0:0|0:0,0:0:0:0:
272,100,56819,6,0,P|292:68|320:48,1,50,2|2,0:2|0:2,0:0:0:0:
407,70,56981,2,0,P|443:61|477:67,1,50,2|2,0:2|0:2,0:0:0:0:
490,185,57143,1,2,0:3:0:0:
429,274,57305,1,8,0:0:0:0:
400,300,57387,1,2,0:0:0:0:
372,328,57468,1,8,0:0:0:0:
344,356,57549,1,2,0:0:0:0:
312,380,57630,6,0,P|248:376|204:344,1,100,2|2,0:3|0:3,0:0:0:0:
112,316,57873,1,2,0:0:0:0:
112,316,57954,2,0,P|140:268|184:244,1,100,2|2,0:3|0:3,0:0:0:0:
280,260,58197,1,2,0:0:0:0:
280,260,58278,6,0,P|272:192|244:156,1,100,2|4,0:3|0:0,0:0:0:0:
68,84,58603,2,0,L|192:84,1,100,2|0,0:2|0:0,0:0:0:0:
444,84,58927,2,0,L|320:84,1,100,2|0,0:2|0:0,0:0:0:0:
256,192,59251,6,0,L|256:256,1,50,2|0,0:3|0:0,0:0:0:0:
256,312,59414,2,0,L|256:376,1,50,2|0,0:2|0:0,0:0:0:0:
137,373,59576,6,0,P|149:345|149:317,2,33.3333333333333,2|0|0,0:2|0:0|0:0,0:0:0:0:
72,336,59738,2,0,P|48:356|36:376,1,50,2|2,0:0|0:2,0:0:0:0:
196,232,59900,2,0,P|196:196|188:176,2,33.3333333333333,8|0|0,0:2|0:0|0:0,0:0:0:0:
124,212,60062,6,0,P|87:209|62:215,1,50,8|2,0:0|0:2,0:0:0:0:
188,84,60224,2,0,P|173:51|155:31,1,50,2|2,0:3|0:2,0:0:0:0:
324,84,60387,2,0,P|339:51|357:31,1,50,2|2,0:2|0:2,0:0:0:0:
388,212,60549,2,0,P|425:209|450:215,1,50,2|2,0:0|0:2,0:0:0:0:
256,300,60711,2,0,L|256:360,1,50,2|2,0:3|0:2,0:0:0:0:
256,180,60873,2,0,L|256:228,2,33.3333333333333,2|0|0,0:2|0:0|0:0,0:0:0:0:
268,57,61035,5,4,0:0:0:0:
304,37,61116,1,2,0:2:0:0:
344,37,61197,2,0,L|348:1,2,33.3333333333333,2|0|0,0:2|0:0|0:0,0:0:0:0:
328,136,61359,5,2,0:2:0:0:
321,175,61441,1,2,0:2:0:0:
329,214,61522,1,2,0:2:0:0:
347,249,61603,1,2,0:2:0:0:
379,271,61684,1,2,0:2:0:0:
417,281,61765,1,2,0:2:0:0:
456,279,61846,6,0,L|488:263,2,33.3333333333333,2|0|0,0:3|0:0|0:0,0:0:0:0:
364,332,62008,1,2,0:2:0:0:
324,344,62089,1,2,0:2:0:0:
284,352,62170,2,0,L|264:380,2,33.3333333333333,2|0|0,0:2|0:0|0:0,0:0:0:0:
348,248,62332,5,2,0:3:0:0:
358,193,62414,1,2,0:2:0:0:
327,147,62495,1,10,0:2:0:0:
272,139,62576,1,2,0:2:0:0:
228,172,62657,1,8,0:0:0:0:
221,226,62738,1,2,0:2:0:0:
190,271,62819,1,2,0:3:0:0:
139,293,62900,1,0,0:0:0:0:
84,285,62981,1,2,0:2:0:0:
43,247,63062,1,2,0:2:0:0:
29,193,63143,1,2,0:3:0:0:
45,140,63224,1,2,0:2:0:0:
87,104,63305,6,0,L|116:71,2,33.3333333333333,2|0|0,0:3|0:0|0:0,0:0:0:0:
194,77,63468,2,0,L|227:43,2,33.3333333333333,2|0|0,0:3|0:0|0:0,0:0:0:0:
306,50,63630,1,4,0:0:0:0:
446,358,65900,6,0,L|440:316,1,42.5000008106232,2|2,0:0|0:0,0:0:0:0:
352,312,66062,2,0,L|345:269,1,42.5000008106232,2|2,0:0|0:0,0:0:0:0:
412,196,66224,6,0,P|400:144|376:96,1,85.0000016212464,4|0,0:0|0:0,0:0:0:0:
344,52,66468,2,0,P|324:108|296:136,1,85.0000016212464,2|0,0:0|0:0,0:0:0:0:
244,168,66711,1,2,0:0:0:0:
208,32,66873,2,0,P|165:20|115:30,1,85.0000016212464,2|0,0:0|0:0,0:0:0:0:
58,61,67116,2,0,P|32:91|24:148,1,85.0000016212464,2|0,0:0|0:0,0:0:0:0:
40,208,67359,1,2,0:0:0:0:
78,374,67522,6,0,P|126:346|150:302,1,85.0000016212464,2|0,0:0|0:0,0:0:0:0:
210,357,67765,2,0,P|259:366|301:353,1,85.0000016212464,2|0,0:0|0:0,0:0:0:0:
358,319,68008,1,2,0:0:0:0:
504,324,68170,2,0,P|492:260|468:232,1,85.0000016212464,2|0,0:0|0:0,0:0:0:0:
406,225,68414,2,0,L|321:196,1,85.0000016212464,2|0,0:0|0:0,0:0:0:0:
290,129,68657,1,2,0:0:0:0:
472,4,68819,6,0,L|488:96,1,85.0000016212464,2|0,0:0|0:0,0:0:0:0:
452,156,69062,2,0,L|468:248,1,85.0000016212464,2|0,0:0|0:0,0:0:0:0:
428,308,69305,1,2,0:0:0:0:
240,344,69468,2,0,L|323:329,1,85.0000016212464,2|0,0:0|0:0,0:0:0:0:
269,262,69711,2,0,L|324:328,1,85.0000016212464,2|0,0:0|0:0,0:0:0:0:
192,280,69954,1,2,0:0:0:0:
60,232,70116,5,8,2:0:0:0:
139,86,70359,1,2,0:3:0:0:
60,232,70603,2,0,P|60:304|100:356,1,127.50000243187,2|0,0:3|0:0,0:0:0:0:
156,384,70927,1,2,0:0:0:0:
256,256,71089,1,2,0:0:0:0:
356,384,71251,1,2,0:0:0:0:
452,232,71414,6,0,L|468:320,1,85.0000016212464,2|0,0:0|0:0,0:0:0:0:
392,164,71657,2,0,L|408:252,1,85.0000016212464,2|0,0:0|0:0,0:0:0:0:
332,96,71900,1,2,0:0:0:0:
60,232,72062,2,0,L|44:320,1,85.0000016212464,2|0,0:0|0:0,0:0:0:0:
120,164,72305,2,0,L|104:252,1,85.0000016212464,2|0,0:0|0:0,0:0:0:0:
180,96,72549,1,2,0:0:0:0:
256,212,72711,5,8,0:0:0:0:
376,376,72954,1,8,0:0:0:0:
200,331,73197,2,0,P|141:316|67:333,1,127.50000243187,2|0,0:3|0:0,0:0:0:0:
7,380,73522,1,2,0:0:0:0:
103,255,73684,2,0,P|129:204|123:125,1,127.50000243187,2|0,0:0|0:0,0:0:0:0:
100,56,74008,1,8,0:0:0:0:
100,56,74332,5,2,0:0:0:0:
8,156,74495,1,2,0:0:0:0:
8,156,74576,1,2,0:0:0:0:
8,156,74657,2,0,P|64:192|136:188,1,127.50000243187,2|0,0:0|0:0,0:0:0:0:
196,168,74981,1,2,0:3:0:0:
196,168,75305,5,2,0:3:0:0:
323,86,75468,2,0,L|382:51,1,42.5000008106232,2|2,0:3|0:3,0:0:0:0:
424,20,75630,1,8,0:0:0:0:
340,176,75792,2,0,L|408:175,1,42.5000008106232,2|2,0:3|0:3,0:0:0:0:
460,172,75954,1,10,0:0:0:0:
428,196,76035,1,2,0:0:0:0:
404,232,76116,1,2,0:0:0:0:
396,272,76197,1,2,0:0:0:0:
400,316,76278,1,10,0:0:0:0:
356,312,76359,1,2,0:0:0:0:
316,320,76441,1,2,0:0:0:0:
280,344,76522,1,2,0:0:0:0:
248,384,76603,5,6,0:0:0:0:
124,332,76765,1,2,0:0:0:0:
88,314,76846,2,0,P|48:270|32:222,1,100,2|0,0:0|0:0,0:0:0:0:
27,193,77089,1,2,0:0:0:0:
168,192,77251,1,8,0:0:0:0:
264,76,77414,1,2,0:0:0:0:
295,52,77495,2,0,P|343:32|399:28,1,100,2|0,0:0|0:0,0:0:0:0:
430,32,77738,1,2,0:0:0:0:
384,168,77900,5,8,0:0:0:0:
456,300,78062,1,2,0:0:0:0:
425,274,78143,2,0,P|369:258|321:262,1,100,2|0,0:0|0:0,0:0:0:0:
291,278,78387,1,2,0:0:0:0:
144,356,78549,1,8,0:0:0:0:
192,212,78711,1,2,0:0:0:0:
199,172,78792,2,0,P|195:112|175:72,1,100,2|0,0:0|0:0,0:0:0:0:
154,44,79035,1,2,0:0:0:0:
60,220,79197,5,12,0:0:0:0:
304,168,79359,1,2,0:0:0:0:
355,172,79441,2,0,P|411:204|435:252,1,100,2|0,0:0|0:0,0:0:0:0:
449,277,79684,1,2,0:0:0:0:
272,344,79846,1,8,0:0:0:0:
472,176,80008,1,2,0:0:0:0:
488,128,80089,2,0,P|476:60|444:24,1,100,2|0,0:0|0:0,0:0:0:0:
418,8,80332,1,2,0:0:0:0:
256,128,80495,5,8,0:0:0:0:
92,8,80657,1,2,0:0:0:0:
53,36,80738,2,0,P|27:78|24:128,1,100,2|0,0:0|0:0,0:0:0:0:
40,176,80981,2,0,P|64:240|48:332,1,150,2|0,0:0|0:0,0:0:0:0:
40,368,81305,5,2,0:3:0:0:
108,292,81468,1,2,0:0:0:0:
208,280,81630,1,4,3:0:0:0:
304,312,81792,2,0,L|373:386,1,100,4|0,0:0|0:0,0:0:0:0:
440,300,82197,5,2,0:0:0:0:
440,300,82278,2,0,P|476:240|480:184,1,100,2|2,0:3|0:0,0:0:0:0:
468,160,82522,1,2,0:0:0:0:
460,112,82603,1,8,0:3:0:0:
464,64,82684,1,2,0:0:0:0:
484,20,82765,2,0,P|440:56|376:64,1,100,2|8,0:0|0:3,0:0:0:0:
360,60,83008,1,8,0:3:0:0:
324,44,83089,5,8,0:3:0:0:
276,152,83251,1,2,0:3:0:0:
242,126,83332,1,2,0:3:0:0:
218,94,83414,1,2,0:0:0:0:
136,160,83576,1,2,0:3:0:0:
119,120,83657,1,2,0:3:0:0:
114,80,83738,1,2,0:0:0:0:
4,96,83900,1,2,0:3:0:0:
10,53,83981,1,2,0:3:0:0:
25,15,84062,6,0,L|36:132,1,100,2|8,0:0|0:3,0:0:0:0:
44,216,84305,1,8,0:3:0:0:
44,216,84387,2,8,L|55:333,1,100,2|0,0:0|0:0,3:0:0:0:
376,204,84711,1,2,0:0:0:0:
376,204,84792,1,2,0:0:0:0:
376,204,84873,2,0,L|400:148,1,50,8|0,0:3|0:0,0:0:0:0:
468,216,85035,2,0,L|458:315,1,100,8|2,0:3|0:3,0:0:0:0:
312,380,85359,5,2,0:0:0:0:
164,344,85522,2,0,L|154:372,1,25,8|8,0:0|0:0,0:0:0:0:
148,344,85603,2,0,L|138:372,1,25,8|8,0:0|0:0,0:0:0:0:
132,344,85684,1,8,0:0:0:0:
164,216,85846,5,8,0:3:0:0:
164,216,85927,2,0,L|180:168,1,50,2|0,0:3|0:0,0:0:0:0:
248,100,86089,1,8,0:3:0:0:
248,100,86170,2,0,L|280:172,1,50,2|0,0:3|0:0,0:0:0:0:
368,264,86332,1,8,0:3:0:0:
368,264,86414,2,0,L|400:224,1,50,2|0,0:3|0:0,0:0:0:0:
404,72,86576,1,8,0:3:0:0:
404,72,86657,2,0,L|456:96,1,50,2|0,0:3|0:0,0:0:0:0:
260,8,86819,2,0,L|200:6,1,50,2|0,0:3|0:0,0:0:0:0:
121,113,86981,5,2,0:2:0:0:
112,132,87062,1,2,0:2:0:0:
103,149,87143,1,2,0:2:0:0:
94,168,87224,1,2,0:2:0:0:
85,186,87305,1,2,0:2:0:0:
76,204,87387,1,2,0:2:0:0:
66,222,87468,1,2,0:2:0:0:
58,241,87549,1,2,0:2:0:0:
48,259,87630,1,2,0:2:0:0:
40,277,87711,1,2,0:2:0:0:
30,296,87792,1,2,0:2:0:0:
22,314,87873,1,2,0:2:0:0:
12,332,87954,5,2,0:3:0:0:
58,316,88035,1,2,0:3:0:0:
108,313,88116,1,2,0:3:0:0:
157,325,88197,1,2,0:3:0:0:
200,348,88278,6,0,P|256:368|312:360,1,100,6|0,0:0|0:0,0:0:0:0:
400,340,88522,1,2,0:3:0:0:
400,340,88603,2,0,L|460:312,1,50,2|0,0:3|0:0,0:0:0:0:
311,245,88765,2,0,L|265:266,1,50,2|0,0:3|0:0,0:0:0:0:
436,200,88927,1,8,0:3:0:0:
464,172,89008,1,2,0:2:0:0:
476,132,89089,1,2,0:2:0:0:
472,92,89170,1,2,0:2:0:0:
452,56,89251,1,8,0:3:0:0:
420,32,89332,1,2,0:2:0:0:
380,24,89414,1,2,0:2:0:0:
340,28,89495,1,2,0:2:0:0:
308,52,89576,6,0,P|264:78|208:80,1,100,2|0,0:3|0:0,0:0:0:0:
76,36,89819,2,0,P|128:72|144:116,1,100,2|0,0:3|0:0,0:0:0:0:
144,196,90062,1,10,0:3:0:0:
8,353,90224,2,0,P|24:296|76:253,1,100,2|0,0:3|0:0,0:0:0:0:
108,344,90468,1,2,0:2:0:0:
156,348,90549,5,8,3:0:0:0:
204,336,90630,1,2,0:2:0:0:
244,308,90711,1,2,0:2:0:0:
264,264,90792,1,2,0:2:0:0:
264,216,90873,6,0,P|244:160|204:132,1,100,2|0,0:3|0:0,0:0:0:0:
100,112,91116,1,2,0:3:0:0:
100,112,91197,2,0,L|48:112,1,50,2|0,0:3|0:0,0:0:0:0:
224,44,91359,2,0,L|274:44,1,50,2|0,0:3|0:0,0:0:0:0:
348,104,91522,1,8,0:3:0:0:
388,108,91603,1,2,0:2:0:0:
420,136,91684,1,2,0:2:0:0:
432,176,91765,1,2,0:2:0:0:
420,216,91846,1,8,0:3:0:0:
388,240,91927,1,2,0:2:0:0:
364,272,92008,1,2,0:2:0:0:
368,316,92089,1,2,0:2:0:0:
388,348,92170,6,0,L|488:324,1,100,2|2,0:3|0:0,0:0:0:0:
288,292,92414,2,0,L|184:344,1,100,2|2,0:3|0:0,0:0:0:0:
96,372,92657,2,0,L|56:312,1,50,2|0,0:3|0:0,0:0:0:0:
12,240,92819,5,10,0:3:0:0:
4,192,92900,1,2,0:2:0:0:
8,144,92981,1,2,0:2:0:0:
24,96,93062,1,2,0:2:0:0:
56,56,93143,2,0,P|84:24|104:8,1,50,10|0,0:3|0:0,0:0:0:0:
221,51,93305,2,0,P|193:83|173:99,1,50,2|0,0:3|0:0,0:0:0:0:
136,176,93468,6,0,P|164:232|200:264,1,100,6|0,0:3|0:0,0:0:0:0:
288,304,93711,1,2,0:0:0:0:
288,304,93792,2,0,L|360:328,1,50,2|0,0:3|0:0,0:0:0:0:
424,264,93954,2,0,L|457:331,1,50,2|0,0:3|0:0,0:0:0:0:
496,152,94116,1,8,0:3:0:0:
484,132,94197,1,2,0:2:0:0:
476,108,94278,1,2,0:2:0:0:
472,84,94359,1,2,0:2:0:0:
472,60,94441,5,10,0:3:0:0:
432,88,94522,1,2,0:3:0:0:
380,96,94603,1,2,0:3:0:0:
332,92,94684,1,2,0:3:0:0:
288,68,94765,6,0,L|240:24,2,50,8|0|0,0:3|0:0|0:0,0:0:0:0:
184,124,95008,1,2,0:0:0:0:
184,124,95089,2,0,L|136:80,2,50,8|0|0,0:3|0:0|0:0,0:0:0:0:
84,180,95332,1,2,0:0:0:0:
84,180,95414,2,0,L|36:136,2,50,8|0|0,0:3|0:0|0:0,0:0:0:0:
180,228,95657,1,2,0:0:0:0:
180,228,95738,5,8,0:3:0:0:
276,288,95900,1,2,0:2:0:0:
304,328,95981,1,2,0:2:0:0:
332,368,96062,2,0,L|282:364,1,50,4|0,0:3|0:0,0:0:0:0:
384,268,96224,1,0,0:2:0:0:
412,228,96305,2,0,L|472:232,1,50,2|0,0:3|0:0,0:0:0:0:
480,112,96468,1,2,0:0:0:0:
452,72,96549,2,0,L|402:68,1,50,2|0,0:3|0:0,0:0:0:0:
296,144,96711,5,8,0:3:0:0:
280,180,96792,1,2,0:2:0:0:
252,208,96873,1,2,0:2:0:0:
216,228,96954,1,2,0:2:0:0:
176,236,97035,1,8,0:3:0:0:
136,232,97116,1,2,0:2:0:0:
100,212,97197,1,2,0:2:0:0:
72,184,97278,1,2,0:2:0:0:
56,148,97359,6,0,L|54:77,1,50,2|0,0:0|0:0,0:0:0:0:
150,68,97522,2,0,L|157:18,1,50,2|0,0:0|0:0,0:3:0:0:
272,65,97684,2,0,L|287:17,1,50,2|0,0:0|0:0,0:0:0:0:
216,228,97846,2,0,L|222:264,1,25,4|4,0:3|0:3,0:0:0:0:
241,235,97927,2,0,L|247:271,1,25,4|4,0:3|0:3,0:0:0:0:
269,246,98008,6,0,L|282:295,1,50,2|0,0:0|0:0,0:0:0:0:
356,158,98170,2,0,L|369:207,1,50,2|0,0:0|0:0,0:0:0:0:
383,28,98332,1,2,0:0:0:0:
410,42,98414,1,2,0:0:0:0:
433,61,98495,2,0,L|454:32,1,25,4|4,0:3|0:3,0:0:0:0:
453,84,98576,2,0,L|482:58,1,25,4|4,0:3|0:3,0:0:0:0:
467,110,98657,6,0,P|488:169|485:220,1,100,6|0,0:3|0:0,0:0:0:0:
324,244,98900,2,0,P|348:312|376:340,1,100,2|0,0:3|0:0,0:0:0:0:
480,376,99143,2,0,L|412:352,1,50,2|0,0:3|0:0,0:0:0:0:
252,304,99305,1,8,0:3:0:0:
213,297,99387,1,2,0:2:0:0:
172,304,99468,1,2,0:2:0:0:
136,320,99549,1,2,0:2:0:0:
104,340,99630,1,8,0:3:0:0:
64,344,99711,1,2,0:2:0:0:
28,328,99792,1,2,0:2:0:0:
8,292,99873,1,2,0:2:0:0:
8,252,99954,6,0,L|32:141,1,100,2|0,0:3|0:0,0:0:0:0:
132,28,100197,2,0,L|107:138,1,100,2|0,0:3|0:0,0:0:0:0:
168,224,100441,2,0,L|152:292,1,50,2|0,0:3|0:0,0:0:0:0:
200,380,100603,1,8,0:3:0:0:
248,360,100684,1,2,0:2:0:0:
284,324,100765,1,2,0:2:0:0:
304,280,100846,1,2,0:2:0:0:
312,232,100927,2,0,L|308:152,1,50,10|0,0:3|0:0,0:0:0:0:
456,316,101089,2,0,L|458:365,1,50,2|0,0:0|0:0,0:0:0:0:
424,160,101251,6,0,P|396:100|368:76,1,100,2|0,0:3|0:0,0:0:0:0:
264,28,101495,2,0,P|229:63|211:109,1,100,2|0,0:3|0:0,0:0:0:0:
236,224,101738,2,0,L|296:216,1,50,2|0,0:3|0:0,0:0:0:0:
392,180,101900,1,8,0:3:0:0:
424,159,101981,1,2,0:2:0:0:
446,126,102062,1,2,0:2:0:0:
450,86,102143,1,2,0:2:0:0:
431,50,102224,1,8,0:3:0:0:
397,70,102305,1,2,0:2:0:0:
376,104,102387,1,2,0:2:0:0:
374,143,102468,1,2,0:2:0:0:
392,180,102549,6,0,L|451:280,1,100,2|0,0:3|0:0,0:0:0:0:
304,268,102792,2,0,P|236:284|188:328,1,100,2|0,0:3|0:0,0:0:0:0:
372,364,103035,1,2,0:3:0:0:
160,372,103197,1,8,0:3:0:0:
76,200,103359,6,0,L|40:136,1,50,2|0,0:2|0:2,0:0:0:0:
112,28,103522,2,0,L|155:53,1,50,8|2,0:3|0:2,0:0:0:0:
248,188,103684,2,0,L|273:144,1,50,8|8,0:3|0:0,0:0:0:0:
336,52,103846,1,4,0:3:0:0:
368,28,103927,1,2,0:2:0:0:
408,24,104008,1,2,0:2:0:0:
444,44,104089,1,2,0:2:0:0:
464,80,104170,1,8,0:3:0:0:
456,120,104251,1,2,0:2:0:0:
432,152,104332,2,0,L|392:184,1,50,2|2,0:2|0:2,0:0:0:0:
260,276,104495,5,8,0:3:0:0:
252,316,104576,1,2,0:2:0:0:
268,352,104657,1,2,0:2:0:0:
304,372,104738,1,2,0:2:0:0:
344,368,104819,1,8,0:3:0:0:
376,344,104900,1,2,0:2:0:0:
388,304,104981,1,10,0:2:0:0:
376,268,105062,1,2,0:2:0:0:
348,240,105143,6,0,L|292:196,1,50,12|0,0:3|0:0,0:0:0:0:
216,288,105305,2,0,L|255:318,1,50,2|0,0:2|0:0,0:0:0:0:
204,176,105468,2,0,L|148:132,1,50,8|0,0:3|0:0,0:0:0:0:
72,224,105630,2,0,L|111:254,1,50,2|0,0:2|0:0,0:0:0:0:
64,112,105792,6,0,L|8:68,3,50,8|0|0|0,0:3|0:0|0:0|0:0,0:0:0:0:
168,20,106116,2,0,L|244:24,1,50,8|0,0:3|0:0,0:0:0:0:
384,80,106278,2,0,L|334:77,1,50,8|8,0:3|0:3,0:0:0:0:
152,176,106441,1,8,0:3:0:0:
112,208,106522,1,2,0:2:0:0:
92,256,106603,1,2,0:2:0:0:
96,304,106684,1,2,0:2:0:0:
120,348,106765,5,8,0:3:0:0:
156,316,106846,1,2,0:2:0:0:
204,304,106927,1,2,0:2:0:0:
252,308,107008,1,2,0:2:0:0:
296,332,107089,1,8,0:3:0:0:
335,362,107170,1,2,0:2:0:0:
384,356,107251,1,2,0:2:0:0:
416,317,107332,1,2,0:2:0:0:
405,257,107414,5,2,2:0:0:0:
350,233,107495,1,2,2:0:0:0:
297,262,107576,1,2,2:0:0:0:
242,236,107657,1,2,2:0:0:0:
229,177,107738,5,2,2:0:0:0:
265,129,107819,1,2,2:0:0:0:
324,122,107900,1,2,2:0:0:0:
371,158,107981,1,2,2:0:0:0:
429,143,108062,5,2,2:0:0:0:
457,90,108143,1,2,2:0:0:0:
431,35,108224,1,2,2:0:0:0:
372,20,108305,1,2,2:0:0:0:
322,55,108387,6,0,L|318:15,1,25,2|2,0:3|0:3,0:0:0:0:
276,64,108468,2,0,L|280:20,1,25,2|2,0:3|0:3,0:0:0:0:
228,60,108549,2,0,L|240:24,1,25,2|2,0:3|0:3,0:0:0:0:
180,44,108630,2,0,L|200:16,1,25,2|2,0:3|0:3,0:0:0:0:
140,20,108711,5,2,0:0:0:0:
124,68,108792,1,2,0:0:0:0:
108,116,108873,1,2,0:0:0:0:
92,164,108954,1,2,0:0:0:0:
76,212,109035,6,0,L|28:352,1,119.999996337891,4|0,0:0|0:0,0:0:0:0:
247,264,109278,2,0,P|205:303|141:308,1,119.999996337891,2|0,0:0|0:0,0:0:0:0:
288,172,109522,2,0,L|328:220,1,59.9999981689454,2|0,0:0|0:0,0:0:0:0:
432,368,109684,2,0,P|488:316|504:268,1,119.999996337891,4|0,0:3|0:0,0:0:0:0:
435,136,109927,2,0,L|395:276,1,119.999996337891,2|0,0:0|0:0,0:0:0:0:
322,347,110170,2,0,L|326:275,1,59.9999981689454,2|0,0:0|0:0,0:0:0:0:
280,56,110332,6,0,P|212:84|172:132,1,119.999996337891,4|0,0:3|0:0,0:0:0:0:
147,249,110576,2,0,P|119:185|63:145,1,119.999996337891,2|0,0:0|0:0,0:0:0:0:
42,54,110819,2,0,L|114:50,1,59.9999981689454,2|0,0:0|0:0,0:0:0:0:
288,172,110981,2,0,P|352:148|384:96,1,119.999996337891,4|0,0:3|0:0,0:0:0:0:
260,268,111224,2,0,P|216:320|214:381,1,119.999996337891,2|0,0:0|0:0,0:0:0:0:
192,200,111468,2,0,L|176:136,1,59.9999981689454,2|0,0:0|0:0,0:0:0:0:
153,20,111630,6,0,P|101:49|42:53,1,119.999996337891,4|0,0:3|0:0,0:0:0:0:
74,147,111873,2,0,P|50:223|58:287,1,119.999996337891,2|0,0:0|0:0,0:0:0:0:
136,374,112116,2,0,L|152:302,1,59.9999981689454,2|0,0:0|0:0,0:0:0:0:
199,102,112278,2,0,P|254:125|291:178,1,119.999996337891,4|0,0:3|0:0,0:0:0:0:
343,337,112522,2,0,P|415:277|431:233,1,119.999996337891,2|0,0:0|0:0,0:0:0:0:
459,144,112765,2,0,L|439:80,1,59.9999981689454,2|0,0:0|0:0,0:0:0:0:
392,24,112927,5,4,0:3:0:0:
251,254,113170,1,8,0:0:0:0:
74,48,113414,2,0,L|50:176,1,119.999996337891,2|4,0:0|0:3,0:0:0:0:
33,246,113657,1,2,0:0:0:0:
31,259,113738,2,0,L|19:323,1,59.9999981689454,2|0,0:0|0:0,0:0:0:0:
68,282,113900,2,0,L|56:346,1,59.9999981689454,2|0,0:0|0:0,0:0:0:0:
109,312,114062,2,0,L|97:376,1,59.9999981689454,2|0,0:0|0:0,0:0:0:0:
145,334,114224,6,0,P|205:370|269:370,1,119.999996337891,4|0,0:3|0:0,0:0:0:0:
332,276,114468,2,0,P|316:208|272:156,1,119.999996337891,2|0,0:0|0:0,0:0:0:0:
210,246,114711,1,2,0:0:0:0:
442,296,114873,2,0,L|461:160,1,119.999996337891,4|0,0:3|0:0,0:0:0:0:
396,24,115116,2,0,L|377:142,1,119.999996337891,2|0,0:0|0:0,0:0:0:0:
272,44,115359,1,2,0:0:0:0:
272,44,115522,6,0,L|156:92,1,119.999996337891,4|0,0:3|0:0,0:0:0:0:
220,116,115765,2,0,L|104:67,1,119.999996337891,2|0,0:0|0:0,0:0:0:0:
136,132,116008,2,0,L|88:15,1,119.999996337891,2|4,0:0|0:3,0:0:0:0:
168,280,116332,1,2,0:0:0:0:
168,280,116495,2,0,P|100:308|64:348,1,119.999996337891,2|0,0:0|0:0,0:0:0:0:
312,288,116819,6,0,L|296:144,1,119.999996337891,4|0,0:3|0:0,0:0:0:0:
320,384,117143,1,2,0:0:0:0:
476,380,117305,1,2,0:0:0:0:
476,380,117387,1,2,0:0:0:0:
476,380,117468,2,0,P|468:308|448:264,1,119.999996337891,4|0,0:3|0:0,0:0:0:0:
63,265,117792,2,0,P|40:320|36:380,1,119.999996337891,2|0,0:0|0:0,0:0:0:0:
256,272,118116,5,4,0:3:0:0:
184,144,118278,1,2,0:3:0:0:
144,120,118359,1,2,0:3:0:0:
96,116,118441,1,10,0:3:0:0:
328,144,118603,1,2,0:3:0:0:
368,120,118684,1,2,0:3:0:0:
416,116,118765,5,6,0:0:0:0:
404,164,118846,1,2,0:0:0:0:
412,212,118927,1,2,0:0:0:0:
440,252,119008,1,2,0:0:0:0:
452,300,119089,1,10,0:0:0:0:
436,344,119170,1,2,0:0:0:0:
392,364,119251,1,2,0:0:0:0:
344,352,119332,1,2,0:0:0:0:
316,312,119414,5,6,0:0:0:0:
240,104,119576,1,2,0:0:0:0:
240,104,119657,2,0,P|256:168|244:244,1,119.999996337891,2|0,0:0|0:0,0:0:0:0:
159,335,119900,2,0,L|146:277,1,59.9999981689454,2|0,0:0|0:0,0:0:0:0:
117,169,120062,1,4,0:3:0:0:
368,128,120224,1,2,0:0:0:0:
368,128,120305,2,0,P|424:80|444:28,1,119.999996337891,2|0,0:0|0:0,0:0:0:0:
445,186,120549,2,0,L|445:250,1,59.9999981689454,2|0,0:0|0:0,0:0:0:0:
360,380,120711,5,4,0:3:0:0:
192,224,120873,1,2,0:0:0:0:
192,224,120954,2,0,P|268:240|306:273,1,119.999996337891,2|0,0:0|0:0,0:0:0:0:
368,128,121197,2,0,L|345:62,1,59.9999981689454,2|0,0:0|0:0,0:0:0:0:
227,41,121359,1,4,0:3:0:0:
68,140,121522,1,2,0:0:0:0:
68,140,121603,2,0,P|36:200|36:264,1,119.999996337891,2|0,0:0|0:0,0:0:0:0:
72,384,121846,2,0,L|140:364,1,59.9999981689454,2|0,0:0|0:0,0:0:0:0:
288,320,122008,6,0,P|352:320|408:356,1,119.999996337891,4|0,0:3|0:0,0:0:0:0:
220,204,122251,2,0,P|204:260|156:316,1,119.999996337891,2|0,0:0|0:0,0:0:0:0:
352,232,122495,2,0,L|392:180,1,59.9999981689454,2|0,0:0|0:0,0:0:0:0:
511,34,122657,6,0,P|504:96|480:152,1,119.999996337891,4|0,0:3|0:0,0:0:0:0:
352,232,122900,2,0,P|332:176|276:128,1,119.999996337891,2|0,0:0|0:0,0:0:0:0:
160,56,123143,1,2,0:0:0:0:
160,56,123224,1,2,0:0:0:0:
160,56,123305,5,4,0:3:0:0:
59,320,123549,1,2,0:0:0:0:
16,68,123792,2,0,P|36:128|76:172,1,119.999996337891,2|4,0:0|0:3,0:0:0:0:
288,276,124116,1,2,0:0:0:0:
288,276,124197,1,2,0:0:0:0:
288,276,124278,2,0,P|268:216|228:172,1,119.999996337891,0|0,0:0|0:0,0:0:0:0:
168,308,124603,5,8,0:3:0:0:
380,360,124765,1,2,0:3:0:0:
320,152,124927,1,8,0:3:0:0:
260,384,125089,1,2,0:3:0:0:
156,96,125251,5,8,0:3:0:0:
400,260,125414,1,2,0:3:0:0:
168,308,125576,1,8,0:3:0:0:
348,12,125738,1,2,0:3:0:0:
208,156,125900,6,0,P|148:184|96:192,1,119.999996337891,2|0,0:0|0:0,0:0:0:0:
304,156,126143,1,2,0:0:0:0:
304,156,126224,2,0,P|364:184|416:192,1,119.999996337891,2|0,0:0|0:0,0:0:0:0:
180,300,126468,1,2,0:0:0:0:
180,300,126549,2,0,P|120:340|88:388,1,119.999996337891,2|0,0:0|0:0,0:0:0:0:
332,300,126792,1,2,0:0:0:0:
332,300,126873,2,0,P|392:340|424:388,1,119.999996337891,2|0,0:0|0:0,0:0:0:0:
256,364,127116,1,2,0:0:0:0:
240,312,127197,5,6,0:0:0:0:
244,260,127278,1,2,0:0:0:0:
280,220,127359,1,2,0:0:0:0:
332,208,127441,1,2,0:0:0:0:
384,212,127522,1,2,0:0:0:0:
436,192,127603,1,2,0:0:0:0:
460,144,127684,1,2,0:0:0:0:
452,92,127765,1,2,0:0:0:0:
412,52,127846,1,2,0:0:0:0:
360,52,127927,1,2,0:0:0:0:
312,76,128008,1,2,0:0:0:0:
280,120,128089,1,2,0:0:0:0:
236,148,128170,1,2,0:0:0:0:
184,152,128251,1,2,0:0:0:0:
136,124,128332,1,2,0:0:0:0:
112,76,128414,1,2,0:0:0:0:
116,24,128495,1,6,2:0:0:0:
48,136,128657,6,0,L|8:120,1,29.9999990844727,8|2,0:0|0:0,0:0:0:0:
38,167,128738,2,0,L|-2:151,1,29.9999990844727,8|2,0:0|0:0,0:0:0:0:
28,200,128819,1,8,0:0:0:0:
144,200,128981,6,0,L|184:192,1,29.9999990844727,8|2,0:0|0:0,0:0:0:0:
151,234,129062,2,0,L|191:226,1,29.9999990844727,8|2,0:0|0:0,0:0:0:0:
159,267,129143,1,8,0:0:0:0:
32,339,129305,6,0,L|108:359,1,59.9999981689454,8|8,0:0|0:0,0:0:0:0:
248,372,129468,2,0,L|284:384,7,29.9999990844727,2|2|2|2|2|2|2|2,0:0|0:0|0:0|0:0|0:0|0:0|0:0|0:0,0:0:0:0:
212,336,129792,5,4,2:0:0:0:
212,336,131089,6,0,P|356:284|500:344,1,300,2|0,0:0|0:0,0:0:0:0:
440,216,132224,1,2,0:0:0:0:
412,108,132387,6,0,B|400:64|432:24|432:24|356:48|308:104|296:184,1,300,2|0,0:0|0:0,0:0:0:0:
288,360,133684,2,0,P|180:272|160:112,1,300,2|0,0:0|0:0,0:0:0:0:
324,104,134981,6,0,P|376:208|272:152,1,300,2|0,0:0|0:0,0:0:0:0:
120,16,136278,2,0,P|52:108|56:304,1,300,2|0,0:0|0:0,0:0:0:0:
112,380,137414,1,2,0:0:0:0:
200,244,137576,6,0,P|256:296|272:376,1,150,2|0,0:0|0:0,0:0:0:0:
352,284,138224,2,0,P|404:228|484:212,1,150,2|0,0:0|0:0,0:0:0:0:
360,144,138873,2,0,P|304:92|288:12,1,150,2|0,0:0|0:0,0:0:0:0:
436,16,139522,1,2,0:0:0:0:
208,124,139846,1,2,0:2:0:0:
184,132,139927,1,2,0:2:0:0:
160,132,140008,1,2,0:2:0:0:
136,128,140089,1,2,0:2:0:0:
112,116,140170,5,4,0:2:0:0:
168,16,140332,1,2,0:2:0:0:
136,196,140495,1,2,0:2:0:0:
132,220,140576,1,2,0:2:0:0:
124,244,140657,1,2,0:2:0:0:
112,268,140738,1,2,0:2:0:0:
100,288,140819,1,2,0:2:0:0:
84,308,140900,1,2,0:2:0:0:
64,324,140981,1,2,0:2:0:0:
44,340,141062,1,2,0:2:0:0:
20,352,141143,6,0,L|0:308,2,33.3333333333333,2|0|0,0:2|0:0|0:0,0:0:0:0:
124,352,141305,2,0,L|137:382,2,33.3333333333333,2|0|0,0:2|0:0|0:0,0:0:0:0:
192,268,141468,6,0,P|252:252|312:260,1,100,2|0,0:2|0:0,0:0:0:0:
336,276,141711,1,2,0:2:0:0:
340,324,141792,2,0,P|312:332|284:344,1,50,2|0,0:2|0:0,0:0:0:0:
424,360,141954,2,0,L|464:384,2,33.3333333333333,2|0|0,0:2|0:0|0:0,0:0:0:0:
480,300,142116,6,0,P|492:260|492:240,1,50,2|0,0:2|0:0,0:0:0:0:
424,168,142278,2,0,P|412:207|412:228,1,50,2|0,0:2|0:0,0:0:0:0:
484,81,142441,1,2,0:0:0:0:
436,65,142522,1,2,0:0:0:0:
386,70,142603,1,10,0:0:0:0:
345,99,142684,1,2,0:0:0:0:
323,144,142765,5,4,0:2:0:0:
312,376,142927,2,0,L|260:344,1,50,2|0,0:2|0:0,0:0:0:0:
168,252,143089,6,0,L|208:224,2,33.3333333333333,2|0|0,0:2|0:0|0:0,0:0:0:0:
121,334,143251,2,0,L|121:378,2,33.3333333333333,2|0|0,0:2|0:0|0:0,0:0:0:0:
73,252,143414,6,0,P|33:264|9:276,1,50,2|0,0:2|0:0,0:0:0:0:
40,160,143576,2,0,P|64:124|72:104,1,50,2|0,0:2|0:0,0:0:0:0:
212,12,143738,6,0,L|256:8,2,33.3333333333333,2|0|0,0:2|0:0|0:0,0:0:0:0:
112,32,143900,2,0,L|100:-4,2,33.3333333333333,2|0|0,0:2|0:0|0:0,0:0:0:0:
176,109,144062,6,0,L|144:173,2,50,2|0|0,0:2|0:0|0:0,0:0:0:0:
237,88,144305,1,2,0:0:0:0:
300,68,144387,2,0,L|322:23,2,50,2|0|0,0:2|0:0|0:0,0:0:0:0:
335,122,144630,1,2,0:0:0:0:
364,180,144711,2,0,L|332:244,2,50,2|0|0,0:2|0:0|0:0,0:0:0:0:
428,172,144954,1,2,0:0:0:0:
464,208,145035,1,2,0:0:0:0:
476,256,145116,1,2,0:0:0:0:
464,304,145197,1,2,0:0:0:0:
428,340,145278,1,2,0:0:0:0:
380,352,145359,5,4,0:2:0:0:
244,356,145522,2,0,L|280:336,2,33.3333333333333,2|0|0,0:0|0:0|0:0,0:0:0:0:
148,368,145684,1,2,0:2:0:0:
120,364,145765,1,2,0:2:0:0:
92,348,145846,1,2,0:2:0:0:
76,324,145927,1,2,0:2:0:0:
68,296,146008,1,2,0:2:0:0:
72,268,146089,1,2,0:2:0:0:
84,240,146170,1,2,0:2:0:0:
108,220,146251,1,2,0:2:0:0:
136,212,146332,2,0,L|176:204,2,33.3333333333333,2|0|0,0:0|0:0|0:0,0:0:0:0:
64,144,146495,2,0,L|28:140,2,33.3333333333333,2|2|2,0:3|0:3|0:3,0:0:0:0:
156,116,146657,5,4,2:0:0:0:
284,60,146819,2,0,L|264:32,2,33.3333333333333,0|0|0,0:0|0:0|0:0,0:0:0:0:
356,112,146981,1,2,0:2:0:0:
376,128,147062,1,2,0:2:0:0:
400,136,147143,1,2,0:2:0:0:
424,140,147224,1,2,0:2:0:0:
448,140,147305,5,2,0:2:0:0:
440,180,147387,1,2,0:2:0:0:
432,220,147468,1,2,0:2:0:0:
424,260,147549,1,2,0:2:0:0:
416,300,147630,2,0,L|404:356,1,50,2|0,0:2|0:0,0:0:0:0:
300,312,147792,2,0,L|288:376,1,50,2|2,0:3|0:3,0:0:0:0:
176,328,147954,5,4,0:0:0:0:
196,184,148116,2,0,L|205:134,2,50,2|0|0,0:0|0:0|0:0,0:0:0:0:
88,264,148359,1,2,0:0:0:0:
88,264,148441,2,0,L|76:196,1,50,2|2,0:3|0:3,0:0:0:0:
5,96,148603,2,0,L|13:152,1,50,4|0,2:0|0:0,0:0:0:0:
124,92,148765,1,2,0:3:0:0:
160,56,148846,1,2,0:2:0:0:
208,44,148927,1,2,0:2:0:0:
256,44,149008,1,2,0:2:0:0:
304,60,149089,1,2,0:2:0:0:
340,92,149170,1,2,0:2:0:0:
364,136,149251,6,0,L|372:188,3,50,0|0|8|8,0:0|0:0|0:3|0:3,0:0:0:0:
452,248,149576,2,0,L|448:214,5,33.3333333333333,2|2|2|8|2|2,0:0|0:0|0:0|0:3|0:0|0:0,0:0:0:0:
366,294,149900,6,0,L|370:342,2,33.3333333333333,8|2|2,0:3|0:0|0:0,0:0:0:0:
278,282,150062,2,0,L|295:328,2,33.3333333333333,2|2|2,0:0|0:0|0:0,0:0:0:0:
190,306,150224,2,0,L|209:333,2,33.3333333333333,8|2|2,0:3|0:0|0:0,0:0:0:0:
120,360,150387,2,0,L|145:381,2,33.3333333333333,2|2|2,0:0|0:0|0:0,0:0:0:0:
40,316,150549,5,4,0:0:0:0:
24,200,150711,1,2,0:0:0:0:
20,152,150792,1,2,0:0:0:0:
16,104,150873,1,2,0:0:0:0:
164,228,151035,1,2,0:0:0:0:
168,276,151116,1,2,0:0:0:0:
172,324,151197,1,8,0:3:0:0:
284,124,151359,1,2,0:0:0:0:
280,76,151441,1,2,0:0:0:0:
276,28,151522,1,2,0:0:0:0:
460,216,151684,2,0,L|468:292,1,59.9999981689454,2|2,0:0|0:0,0:0:0:0:
368,308,151846,5,8,0:3:0:0:
327,333,151927,1,2,0:0:0:0:
282,349,152008,1,2,0:0:0:0:
234,355,152089,1,2,0:0:0:0:
187,351,152170,1,2,0:0:0:0:
141,337,152251,1,2,0:0:0:0:
100,313,152332,1,2,0:0:0:0:
76,268,152414,1,2,0:0:0:0:
72,220,152495,1,8,0:3:0:0:
88,176,152576,1,2,0:0:0:0:
128,148,152657,1,2,0:0:0:0:
176,148,152738,1,2,0:0:0:0:
220,172,152819,2,0,L|240:96,2,59.9999981689454,2|2|2,0:0|0:0|0:0,0:0:0:0:
210,253,153062,1,2,0:0:0:0:
210,253,153143,6,0,P|270:265|338:257,1,119.999996337891,4|2,0:3|0:0,0:0:0:0:
386,237,153387,1,2,0:0:0:0:
432,196,153468,1,2,0:0:0:0:
233,66,153630,1,2,0:0:0:0:
224,128,153711,1,2,0:0:0:0:
236,188,153792,1,8,0:3:0:0:
445,74,153954,1,2,0:0:0:0:
396,36,154035,1,2,0:0:0:0:
338,16,154116,1,2,0:0:0:0:
176,12,154278,2,0,L|104:36,1,59.9999981689454,2|2,0:0|0:0,0:0:0:0:
44,116,154441,5,8,0:3:0:0:
24,160,154522,1,2,0:0:0:0:
16,207,154603,1,2,0:0:0:0:
21,254,154684,1,2,0:0:0:0:
38,298,154765,2,0,L|88:364,1,59.9999981689454,2|0,0:0|0:0,0:0:0:0:
182,295,154927,2,0,L|164:219,1,59.9999981689454,2|0,0:0|0:0,0:0:0:0:
132,116,155089,6,0,L|109:74,2,39.9999987792969,2|2|2,0:0|0:0|0:0,0:0:0:0:
216,88,155251,2,0,L|204:41,2,39.9999987792969,2|2|2,0:0|0:0|0:0,0:0:0:0:
307,95,155414,2,0,L|308:47,2,39.9999987792969,2|2|2,0:0|0:0|0:0,0:0:0:0:
380,144,155576,2,0,L|393:98,2,39.9999987792969,2|2|2,0:0|0:0|0:0,0:0:0:0:
428,219,155738,5,4,0:3:0:0:
456,384,155900,1,2,0:0:0:0:
448,336,155981,1,2,0:0:0:0:
440,288,156062,1,2,0:0:0:0:
256,284,156224,1,2,0:0:0:0:
244,236,156305,1,2,0:0:0:0:
232,188,156387,1,8,0:3:0:0:
52,184,156549,1,2,0:0:0:0:
40,136,156630,1,2,0:0:0:0:
28,88,156711,1,2,0:0:0:0:
88,324,156873,2,0,L|104:396,1,59.9999981689454,2|2,0:0|0:0,0:0:0:0:
224,360,157035,5,8,0:3:0:0:
272,372,157116,1,2,0:0:0:0:
320,368,157197,1,2,0:0:0:0:
364,348,157278,1,2,0:0:0:0:
388,308,157359,1,2,0:0:0:0:
392,260,157441,1,2,0:0:0:0:
372,216,157522,1,2,0:0:0:0:
336,184,157603,1,2,0:0:0:0:
292,168,157684,1,8,0:3:0:0:
252,140,157765,1,2,0:0:0:0:
236,96,157846,1,2,0:0:0:0:
244,48,157927,1,2,0:0:0:0:
280,20,158008,1,2,0:0:0:0:
328,20,158089,1,2,0:0:0:0:
368,48,158170,1,2,0:0:0:0:
380,96,158251,1,2,0:0:0:0:
368,144,158332,5,4,0:3:0:0:
268,236,158495,1,2,0:0:0:0:
212,260,158576,1,2,0:0:0:0:
152,260,158657,1,2,0:0:0:0:
368,144,158819,1,2,0:0:0:0:
424,120,158900,1,2,0:0:0:0:
484,120,158981,1,8,0:3:0:0:
188,156,159143,1,2,0:0:0:0:
166,100,159224,1,2,0:0:0:0:
165,40,159305,1,2,0:0:0:0:
448,228,159468,2,0,P|463:259|473:304,1,59.9999981689454,2|2,0:0|0:0,0:0:0:0:
356,352,159630,6,0,L|332:304,7,29.9999990844727,2|0|2|0|2|0|2|0,0:0|0:0|0:0|0:0|0:0|0:0|0:0|0:0,0:0:0:0:
268,340,159954,2,0,L|244:292,7,29.9999990844727,2|0|2|0|2|0|2|0,0:0|0:0|0:0|0:0|0:0|0:0|0:0|0:0,0:0:0:0:
184,356,160278,6,0,L|143:329,2,39.9999987792969,2|2|2,0:0|0:0|0:0,0:0:0:0:
164,252,160441,2,0,L|111:227,2,39.9999987792969,2|2|2,0:0|0:0|0:0,0:0:0:0:
120,156,160603,2,0,L|71:152,2,39.9999987792969,2|2|2,0:0|0:0|0:0,0:0:0:0:
56,72,160765,2,0,L|7:81,2,39.9999987792969,2|2|2,0:0|0:0|0:0,0:0:0:0:
152,32,160927,5,4,0:3:0:0:
308,36,161089,2,0,L|284:100,1,59.9999981689454,2|2,0:0|0:0,0:0:0:0:
248,204,161251,1,2,0:0:0:0:
400,352,161414,2,0,L|424:288,1,59.9999981689454,2|2,0:0|0:0,0:0:0:0:
464,184,161576,1,8,0:3:0:0:
208,80,161738,2,0,L|184:144,1,59.9999981689454,2|2,0:0|0:0,0:0:0:0:
164,252,161900,6,0,L|148:216,2,39.9999987792969,2|0|0,0:0|0:0|0:0,0:0:0:0:
196,344,162062,2,0,L|155:330,2,39.9999987792969,2|0|0,0:0|0:0|0:0,0:0:0:0:
293,371,162224,1,8,0:3:0:0:
337,383,162305,1,2,0:0:0:0:
385,379,162387,1,2,0:0:0:0:
430,361,162468,1,2,0:0:0:0:
467,335,162549,1,2,0:0:0:0:
457,290,162630,1,2,0:0:0:0:
433,249,162711,1,2,0:0:0:0:
400,216,162792,1,2,0:0:0:0:
358,190,162873,5,8,0:3:0:0:
400,168,162954,1,2,0:0:0:0:
433,135,163035,1,2,0:0:0:0:
457,94,163116,1,2,0:0:0:0:
467,49,163197,1,2,0:0:0:0:
430,23,163278,1,2,0:0:0:0:
385,5,163359,1,2,0:0:0:0:
337,1,163441,1,2,0:0:0:0:
293,13,163522,5,4,0:3:0:0:
180,52,163684,2,0,L|112:80,1,59.9999981689454,2|2,0:0|0:0,0:0:0:0:
12,116,163846,1,2,0:0:0:0:
224,180,164008,2,0,L|279:202,1,59.9999981689454,2|2,0:0|0:0,0:0:0:0:
392,248,164170,1,8,0:3:0:0:
208,316,164332,2,0,L|140:344,1,59.9999981689454,2|2,0:0|0:0,0:0:0:0:
40,352,164495,6,0,L|4:311,2,39.9999987792969,2|0|0,0:0|0:0|0:0,0:0:0:0:
48,240,164657,2,0,L|31:190,2,39.9999987792969,2|0|0,0:0|0:0|0:0,0:0:0:0:
104,132,164819,5,8,0:3:0:0:
120,88,164900,1,2,0:0:0:0:
156,56,164981,1,2,0:0:0:0:
200,36,165062,1,2,0:0:0:0:
248,32,165143,2,0,P|280:36|320:52,1,59.9999981689454,2|2,0:0|0:0,0:0:0:0:
304,188,165305,2,0,P|276:168|256:148,1,59.9999981689454,2|2,0:0|0:0,0:0:0:0:
444,168,165468,6,0,L|476:143,2,39.9999987792969,2|2|2,0:0|0:0|0:0,0:0:0:0:
448,264,165630,2,0,L|486:265,2,39.9999987792969,2|2|2,0:0|0:0|0:0,0:0:0:0:
384,337,165792,2,0,L|410:363,2,39.9999987792969,2|2|2,0:0|0:0|0:0,0:0:0:0:
288,348,165954,2,0,L|290:385,2,39.9999987792969,2|2|2,0:0|0:0|0:0,0:0:0:0:
211,291,166116,5,4,0:3:0:0:
90,147,166278,1,2,0:0:0:0:
60,184,166359,1,2,0:0:0:0:
53,232,166441,1,2,0:0:0:0:
177,372,166603,1,2,0:0:0:0:
224,379,166684,1,2,0:0:0:0:
269,361,166765,1,8,0:3:0:0:
344,188,166927,1,2,0:0:0:0:
326,143,167008,1,2,0:0:0:0:
288,113,167089,6,0,L|248:93,2,39.9999987792969,2|0|0,0:0|0:0|0:0,0:0:0:0:
208,216,167251,2,0,L|168:212,2,39.9999987792969,2|0|0,0:0|0:0|0:0,0:0:0:0:
316,300,167414,5,4,0:3:0:0:
476,256,167576,1,2,0:0:0:0:
496,200,167657,1,2,0:0:0:0:
492,140,167738,1,2,0:0:0:0:
188,88,167900,1,2,0:0:0:0:
160,140,167981,1,2,0:0:0:0:
160,200,168062,1,8,0:3:0:0:
384,372,168224,1,2,0:0:0:0:
400,312,168305,1,2,0:0:0:0:
388,252,168387,6,0,P|376:224|356:200,2,39.9999987792969,2|0|0,0:0|0:0|0:0,0:0:0:0:
276,168,168549,2,0,P|257:192|246:221,2,39.9999987792969,2|0|0,0:0|0:0|0:0,0:0:0:0:
275,298,168711,5,2,0:0:0:0:
239,353,168792,1,0,0:0:0:0:
180,383,168873,1,2,0:0:0:0:
114,384,168954,1,2,0:0:0:0:
54,356,169035,1,2,0:0:0:0:
15,302,169116,1,0,0:0:0:0:
3,237,169197,1,2,0:0:0:0:
23,174,169278,1,2,0:0:0:0:
70,128,169359,1,2,0:0:0:0:
134,111,169441,1,0,0:0:0:0:
199,118,169522,1,2,0:0:0:0:
252,156,169603,1,2,0:0:0:0:
282,214,169684,6,0,L|293:259,2,39.9999987792969,2|2|2,0:0|0:0|0:0,0:0:0:0:
347,320,169846,2,0,L|327:368,2,39.9999987792969,2|2|2,0:0|0:0|0:0,0:0:0:0:
440,240,170008,5,10,0:3:0:0:
489,188,170089,1,2,2:0:0:0:
509,118,170170,1,2,0:0:0:0:
499,46,170251,1,2,0:0:0:0:
442,1,170332,5,8,0:3:0:0:
369,6,170414,1,2,0:0:0:0:
307,43,170495,1,2,0:0:0:0:
277,108,170576,1,2,0:0:0:0:
268,179,170657,6,0,L|276:211,7,29.9999990844727,2|2|2|2|2|2|2|2,0:3|0:3|0:3|0:3|0:3|0:3|0:3|0:3,0:0:0:0:
216,180,170981,5,2,2:0:0:0:
180,173,171062,1,2,2:0:0:0:
154,198,171143,1,2,2:0:0:0:
160,233,171224,1,2,2:0:0:0:
196,248,171305,5,4,0:0:0:0:
204,384,171549,1,2,0:0:0:0:
80,332,171792,1,2,0:0:0:0:
108,248,171954,5,2,0:0:0:0:
56,124,172197,1,2,0:0:0:0:
120,4,172441,1,2,0:0:0:0:
144,92,172603,5,8,0:0:0:0:
252,172,172846,1,2,0:0:0:0:
260,36,173089,1,2,0:0:0:0:
320,104,173251,5,2,0:0:0:0:
444,164,173495,1,2,0:0:0:0:
472,300,173738,1,2,0:3:0:0:
400,352,173900,5,4,0:0:0:0:
264,352,174143,1,2,0:0:0:0:
332,236,174387,1,2,0:0:0:0:
248,264,174549,5,2,0:0:0:0:
284,136,174792,1,2,0:0:0:0:
216,20,175035,1,2,0:0:0:0:
204,108,175197,5,8,0:0:0:0:
84,168,175441,1,8,0:0:0:0:
96,32,175684,1,8,0:0:0:0:
40,300,176008,5,2,0:0:0:0:
112,268,176170,1,10,0:3:0:0:
192,280,176332,1,2,0:0:0:0:
256,328,176495,6,0,L|256:220,1,100,4|0,0:3|0:0,0:0:0:0:
256,192,176738,2,0,L|256:69,1,100,2|0,0:0|0:0,0:0:0:0:
256,60,176981,1,2,0:0:0:0:
176,140,177143,6,0,L|56:148,1,100,2|0,0:0|0:0,0:0:0:0:
156,66,177387,2,0,L|256:60,1,100,2|0,0:0|0:0,0:0:0:0:
336,140,177630,1,8,0:3:0:0:
336,140,177711,1,8,0:3:0:0:
336,140,177792,2,0,P|396:148|432:172,1,100,4|0,0:3|0:0,0:0:0:0:
472,120,178035,2,0,L|476:232,1,100,2|0,0:0|0:0,0:0:0:0:
476,284,178278,6,0,L|480:396,1,100,2|0,0:0|0:0,0:0:0:0:
396,344,178603,1,2,0:0:0:0:
340,252,178765,1,2,0:0:0:0:
288,344,178927,1,8,0:3:0:0:
288,344,179008,1,8,0:3:0:0:
288,344,179089,1,4,0:3:0:0:
180,344,179251,2,0,L|68:344,1,100,4|0,0:3|0:0,0:0:0:0:
44,208,179576,5,8,0:3:0:0:
44,208,179657,1,8,0:3:0:0:
44,208,179738,1,4,0:3:0:0:
152,208,179900,2,0,L|264:208,1,100,4|0,3:0|0:0,0:0:0:0:
373,134,180224,6,0,L|448:142,1,50,8|8,3:0|3:0,0:0:0:0:
268,88,180387,2,0,L|240:36,1,50,8|0,0:3|0:0,0:0:0:0:
324,228,180549,2,0,L|347:272,1,50,2|0,0:0|0:0,0:0:0:0:
160,92,180711,2,0,L|132:40,1,50,8|0,0:3|0:0,0:0:0:0:
228,264,180873,2,0,L|251:308,1,50,2|0,0:0|0:0,0:0:0:0:
84,180,181035,5,2,0:3:0:0:
76,152,181116,1,2,0:0:0:0:
64,124,181197,1,2,0:0:0:0:
56,96,181278,1,2,0:3:0:0:
48,68,181359,5,2,0:0:0:0:
24,112,181441,1,2,0:0:0:0:
16,160,181522,1,2,0:3:0:0:
20,208,181603,1,2,0:0:0:0:
36,256,181684,6,0,P|52:296|80:336,1,75,10|0,0:0|0:0,0:0:0:0:
152,380,182008,6,0,P|200:324|264:304,1,119.999996337891,4|0,0:3|0:0,0:0:0:0:
288,296,182251,1,2,0:0:0:0:
288,296,182332,1,2,0:0:0:0:
480,288,182495,1,2,0:0:0:0:
480,288,182576,1,2,0:0:0:0:
360,148,182738,1,2,0:0:0:0:
360,148,182819,1,2,0:0:0:0:
484,20,182981,5,6,0:3:0:0:
256,100,183143,1,2,0:0:0:0:
256,100,183224,1,2,0:0:0:0:
28,20,183387,1,2,0:0:0:0:
28,20,183468,1,2,0:0:0:0:
32,288,183630,5,6,0:3:0:0:
152,148,183792,1,2,0:0:0:0:
152,148,183873,1,2,0:0:0:0:
256,340,184035,1,2,0:0:0:0:
256,340,184116,1,2,0:0:0:0:
256,28,184278,5,6,0:3:0:0:
424,144,184441,1,2,0:0:0:0:
424,144,184522,1,2,0:0:0:0:
388,348,184684,1,2,0:0:0:0:
388,348,184765,1,2,0:0:0:0:
256,204,184927,6,0,P|200:232|156:300,1,119.999996337891,4|0,0:3|0:0,0:0:0:0:
44,364,185170,2,0,P|24:280|40:216,1,119.999996337891,2|0,0:0|0:0,0:0:0:0:
112,96,185414,2,0,L|164:128,1,59.9999981689454,2|0,0:0|0:0,0:0:0:0:
340,292,185576,6,0,P|384:252|404:188,1,119.999996337891,4|0,0:3|0:0,0:0:0:0:
172,292,185819,2,0,P|128:252|108:188,1,119.999996337891,2|0,0:0|0:0,0:0:0:0:
256,100,186062,2,0,L|256:240,1,119.999996337891,2|4,0:0|0:3,0:0:0:0:
256,324,186387,6,0,L|256:384,1,59.9999981689454,2|0,0:0|0:0,0:0:0:0:
212,312,186549,2,0,L|212:372,1,59.9999981689454,2|0,0:0|0:0,0:0:0:0:
172,292,186711,2,0,L|172:352,1,59.9999981689454,2|0,0:0|0:0,0:0:0:0:
136,268,186873,1,10,0:0:0:0:
104,240,186954,1,2,0:0:0:0:
80,204,187035,1,2,0:0:0:0:
68,164,187116,1,2,0:0:0:0:
64,124,187197,1,10,0:0:0:0:
76,84,187278,1,2,0:0:0:0:
104,52,187359,1,2,0:0:0:0:
144,36,187441,1,2,0:0:0:0:
184,40,187522,1,10,0:0:0:0:
220,60,187603,1,2,0:0:0:0:
244,96,187684,1,2,0:0:0:0:
280,116,187765,1,2,0:0:0:0:
320,116,187846,5,2,0:0:0:0:
300,80,187927,1,2,0:0:0:0:
264,60,188008,1,2,0:0:0:0:
220,60,188089,1,2,0:0:0:0:
184,84,188170,5,10,0:0:0:0:
168,124,188251,1,2,0:0:0:0:
172,164,188332,1,10,0:0:0:0:
196,200,188414,1,2,0:0:0:0:
232,220,188495,1,10,0:0:0:0:
272,220,188576,1,2,0:0:0:0:
308,200,188657,1,10,0:0:0:0:
332,164,188738,1,2,0:0:0:0:
368,144,188819,1,10,0:0:0:0:
408,144,188900,1,2,0:0:0:0:
444,164,188981,1,10,0:0:0:0:
468,200,189062,1,2,0:0:0:0:
472,240,189143,1,10,0:0:0:0:
452,276,189224,1,2,0:0:0:0:
416,300,189305,1,10,0:0:0:0:
372,300,189387,1,2,0:0:0:0:
324,276,189468,6,0,L|296:216,3,59.9999981689454,8|8|8|8,0:0|0:0|0:0|0:0,0:0:0:0:
168,184,189792,2,0,L|205:129,1,59.9999981689454,8|8,0:0|0:0,0:0:0:0:
128,56,189954,2,0,L|187:28,1,59.9999981689454,8|8,0:0|0:0,0:0:0:0:
308,36,190116,1,2,0:0:0:0:
308,88,190197,1,2,0:0:0:0:
328,140,190278,1,2,0:0:0:0:
364,180,190359,1,2,0:0:0:0:
416,192,190441,1,2,0:0:0:0:
464,168,190522,1,2,0:0:0:0:
472,116,190603,1,2,0:0:0:0:
444,72,190684,1,2,0:0:0:0:
396,108,190765,5,4,0:3:0:0:
280,232,190927,1,2,0:0:0:0:
220,227,191008,1,2,0:0:0:0:
164,203,191089,1,8,0:3:0:0:
114,73,191251,1,2,0:0:0:0:
171,89,191332,1,2,0:0:0:0:
224,116,191414,1,4,0:3:0:0:
181,327,191576,1,2,0:0:0:0:
122,314,191657,1,2,0:0:0:0:
75,276,191738,5,2,0:3:0:0:
112,248,191819,1,2,0:3:0:0:
160,244,191900,1,2,0:3:0:0:
208,252,191981,1,2,0:3:0:0:
252,276,192062,5,12,0:3:0:0:
388,368,192224,1,2,0:0:0:0:
436,380,192305,1,2,0:0:0:0:
484,376,192387,2,0,L|420:312,1,67.5000002574921,4|0,0:3|0:0,0:0:0:0:
404,216,192549,2,0,L|340:160,1,67.5000002574921,2|0,0:0|0:0,0:0:0:0:
344,56,192711,5,4,0:3:0:0:
160,84,192873,1,2,0:0:0:0:
116,96,192954,1,2,0:0:0:0:
84,132,193035,2,0,L|144:168,1,67.5000002574921,4|0,0:3|0:0,0:0:0:0:
220,360,193197,2,0,L|160:328,1,67.5000002574921,2|0,0:0|0:0,0:0:0:0:
4,236,193359,5,4,0:3:0:0:
168,4,193522,1,2,0:0:0:0:
212,24,193603,1,2,0:0:0:0:
240,64,193684,2,0,L|264:140,1,67.5000002574921,4|0,0:3|0:0,0:0:0:0:
236,232,193846,2,0,L|304:268,1,67.5000002574921,2|0,0:0|0:0,0:0:0:0:
336,372,194008,5,4,0:3:0:0:
448,208,194170,1,2,0:0:0:0:
464,164,194251,1,2,0:0:0:0:
476,116,194332,2,0,L|480:48,1,67.5000002574921,4|0,0:3|0:0,0:0:0:0:
368,232,194495,2,0,L|364:300,1,67.5000002574921,2|0,0:0|0:0,0:0:0:0:
496,372,194657,5,4,0:3:0:0:
264,296,194819,1,2,0:0:0:0:
216,288,194900,1,2,0:0:0:0:
168,292,194981,2,0,L|92:304,1,67.5000002574921,4|0,0:3|0:0,0:0:0:0:
208,144,195143,2,0,L|252:84,1,67.5000002574921,2|0,0:0|0:0,0:0:0:0:
68,24,195305,6,0,P|95:81|88:158,1,135.000000514984,4|0,0:3|0:0,0:0:0:0:
65,253,195549,2,0,P|61:321|90:382,1,135.000000514984,2|0,0:0|0:0,0:0:0:0:
231,355,195792,2,0,L|267:291,1,67.5000002574921,2|0,0:0|0:0,0:0:0:0:
344,139,195954,6,0,P|371:87|440:52,1,135.000000514984,6|0,2:3|0:0,0:0:0:0:
344,139,196197,2,0,P|403:137|468:184,1,135.000000514984,2|0,0:3|0:0,0:0:0:0:
344,140,196441,2,0,P|375:190|368:264,1,135.000000514984,2|4,0:3|0:3,0:0:0:0:
129,332,196765,2,0,L|121:264,1,67.5000002574921
116,220,196927,1,2,2:0:0:0:
110,173,197008,1,2,2:0:0:0:
105,126,197089,1,2,2:0:0:0:
99,79,197170,1,2,2:0:0:0:
94,32,197251,5,4,0:3:0:0:
216,236,197414,1,2,0:0:0:0:
216,236,197495,2,0,P|268:296|324:320,1,135.000000514984,2|0,0:0|0:0,0:0:0:0:
452,312,197738,2,0,L|428:248,1,67.5000002574921,2|0,0:0|0:0,0:0:0:0:
392,136,197900,5,4,0:3:0:0:
208,344,198062,1,2,0:0:0:0:
208,344,198143,2,0,P|144:372|64:368,1,135.000000514984,2|0,0:0|0:0,0:0:0:0:
159,198,198387,2,0,L|216:236,1,67.5000002574921,2|0,0:0|0:0,0:0:0:0:
392,328,198549,6,0,P|452:312|436:248,1,135.000000514984,6|0,0:3|0:0,0:0:0:0:
360,144,198792,2,0,P|376:84|312:60,1,135.000000514984,2|0,0:3|0:0,0:0:0:0:
188,92,199035,2,0,P|144:48|88:84,1,135.000000514984,2|4,0:3|0:3,0:0:0:0:
112,340,199359,1,2,0:0:0:0:
112,340,199522,6,0,P|192:335|244:287,1,135.000000514984,2|0,0:0|0:0,0:0:0:0:
412,44,199846,2,0,P|331:48|279:96,1,135.000000514984,4|0,0:3|0:0,0:0:0:0:
384,176,200170,2,0,L|416:248,1,67.5000002574921,2|0,0:0|0:0,0:0:0:0:
448,312,200332,1,2,0:0:0:0:
448,312,200414,1,2,0:0:0:0:
448,312,200495,6,0,P|372:296|312:312,1,135.000000514984,4|0,0:3|0:0,0:0:0:0:
112,340,200819,2,0,P|164:282|175:202,1,135.000000514984,2|0,0:0|0:0,0:0:0:0:
96,48,201143,2,0,P|172:24|236:36,1,135.000000514984,4|8,0:3|0:3,0:0:0:0:
268,48,201387,1,8,0:3:0:0:
300,84,201468,1,8,0:3:0:0:
349,265,201630,5,2,0:3:0:0:
373,313,201711,1,2,0:3:0:0:
421,333,201792,1,2,0:3:0:0:
473,317,201873,1,2,0:3:0:0:
501,273,201954,1,2,0:3:0:0:
493,221,202035,1,2,0:3:0:0:
453,185,202116,1,2,0:3:0:0:
401,185,202197,1,2,0:3:0:0:
357,217,202278,2,0,L|344:284,1,67.5000002574921,2|2,0:3|0:3,0:0:0:0:
375,110,202441,6,0,P|315:54|243:42,1,150.000005722046,4|0,0:3|0:0,0:0:0:0:
153,217,202684,2,0,P|145:313|105:373,1,150.000005722046,2|0,0:0|0:0,0:0:0:0:
64,136,202927,2,0,L|83:59,1,75.0000028610231,2|0,0:0|0:0,0:0:0:0:
252,196,203089,6,0,P|336:216|423:203,1,150.000005722046,4|0,0:3|0:0,0:0:0:0:
483,323,203332,2,0,P|399:303|312:316,1,150.000005722046,2|0,0:0|0:0,0:0:0:0:
183,339,203576,2,0,L|174:262,1,75.0000028610231,2|0,0:0|0:0,0:0:0:0:
157,112,203738,6,0,P|91:122|17:172,1,150.000005722046,4|0,0:3|0:0,0:0:0:0:
244,108,203981,2,0,P|309:97|383:47,1,150.000005722046,2|0,0:0|0:0,0:0:0:0:
459,143,204224,2,0,L|475:239,1,75.0000028610231,2|0,0:0|0:0,0:0:0:0:
440,368,204387,6,0,P|400:304|328:268,1,150.000005722046,4|0,0:3|0:0,0:0:0:0:
169,221,204630,2,0,P|245:205|329:137,1,150.000005722046,2|0,0:0|0:0,0:0:0:0:
88,276,204873,2,0,L|79:202,1,75.0000028610231,2|0,0:0|0:0,0:0:0:0:
167,26,205035,6,0,P|250:44|323:98,1,150.000005722046,4|0,0:3|0:0,0:0:0:0:
169,221,205278,2,0,P|93:205|9:137,1,150.000005722046,2|0,0:0|0:0,0:0:0:0:
346,247,205522,2,0,L|374:343,1,75.0000028610231,2|0,0:0|0:0,0:0:0:0:
118,356,205684,6,0,P|128:283|169:221,1,150.000005722046,4|0,0:3|0:0,0:0:0:0:
256,139,205927,2,0,P|332:147|412:107,1,150.000005722046,2|0,0:0|0:0,0:0:0:0:
458,18,206170,2,0,L|362:10,1,75.0000028610231,2|0,0:0|0:0,0:0:0:0:
112,96,206332,6,0,P|112:184|152:240,1,150.000005722046,4|0,0:3|0:0,0:0:0:0:
367,233,206576,2,0,P|404:169|400:96,1,150.000005722046,2|0,0:0|0:0,0:0:0:0:
256,232,206819,2,0,L|256:384,1,150.000005722046,2|4,0:0|0:3,0:0:0:0:
256,64,207143,1,2,0:0:0:0:
324,276,207305,2,0,P|256:312|188:276,1,150.000005722046,2|0,0:0|0:0,0:0:0:0:
324,192,207630,5,8,0:0:0:0:
229,353,207792,1,8,0:0:0:0:
66,258,207954,1,8,0:0:0:0:
159,95,208116,1,8,0:0:0:0:
143,360,208278,5,8,0:0:0:0:
428,151,208441,1,8,0:0:0:0:
76,151,208603,1,8,0:0:0:0:
361,360,208765,1,8,0:0:0:0:
256,24,208927,5,4,0:0:0:0:
56,256,209089,1,2,2:0:0:0:
20,208,209170,1,8,0:0:0:0:
8,148,209251,1,8,0:0:0:0:
144,24,209414,1,8,0:0:0:0:
180,72,209495,1,2,0:0:0:0:
196,128,209576,1,2,0:0:0:0:
316,128,209738,1,2,0:0:0:0:
332,72,209819,1,2,0:0:0:0:
368,24,209900,1,8,0:0:0:0:
504,148,210062,1,8,0:0:0:0:
492,208,210143,1,8,0:0:0:0:
456,256,210224,5,2,2:0:0:0:
396,268,210305,1,2,2:0:0:0:
340,244,210387,1,2,2:0:0:0:
316,188,210468,1,2,2:0:0:0:
316,128,210549,5,2,2:0:0:0:
264,156,210630,1,2,2:0:0:0:
236,208,210711,1,2,2:0:0:0:
232,268,210792,1,2,2:0:0:0:
244,328,210873,1,2,2:0:0:0:
212,376,210954,1,2,2:0:0:0:
152,380,211035,1,2,2:0:0:0:
116,332,211116,1,2,2:0:0:0:
128,272,211197,1,2,2:0:0:0:
168,228,211278,1,2,2:0:0:0:
188,172,211359,1,2,2:0:0:0:
184,112,211441,1,2,2:0:0:0:
148,64,211522,5,12,2:0:0:0:
42,179,211684,2,0,L|4:205,1,37.5000014305115,8|8,2:0|2:0,0:0:0:0:
55,213,211765,2,0,L|25:257,1,37.5000014305115,8|8,2:0|2:0,0:0:0:0:
87,235,211846,1,8,2:0:0:0:
271,142,212008,2,0,L|326:154,1,37.5000014305115,8|8,2:0|2:0,0:0:0:0:
262,105,212089,2,0,L|321:87,1,37.5000014305115,8|8,2:0|2:0,0:0:0:0:
236,76,212170,5,10,0:0:0:0:
260,32,212251,1,2,2:0:0:0:
308,12,212332,1,2,2:0:0:0:
360,12,212414,1,2,2:0:0:0:
408,32,212495,1,2,0:0:0:0:
448,68,212576,1,2,0:0:0:0:
464,116,212657,1,2,0:0:0:0:
464,168,212738,1,2,0:0:0:0:
448,216,212819,6,0,P|428:292|432:360,1,119.999996337891,4|2,0:0|0:0,0:0:0:0:
372,292,213062,1,2,0:0:0:0:
336,272,213143,1,2,0:0:0:0:
296,268,213224,1,2,0:0:0:0:
256,280,213305,1,2,0:0:0:0:
116,360,213468,1,2,0:3:0:0:
124,128,213630,1,2,0:0:0:0:
32,252,213792,5,2,0:0:0:0:
64,276,213873,1,2,0:0:0:0:
104,288,213954,1,2,0:0:0:0:
144,288,214035,1,2,0:0:0:0:
184,276,214116,1,2,0:3:0:0:
216,248,214197,1,2,0:0:0:0:
236,212,214278,1,2,0:0:0:0:
272,188,214359,1,2,0:0:0:0:
312,180,214441,1,2,0:0:0:0:
352,188,214522,1,2,0:0:0:0:
388,208,214603,1,2,0:0:0:0:
408,244,214684,1,2,0:0:0:0:
412,284,214765,2,0,L|408:340,2,39.9999987792969,2|0|0,0:3|0:0|0:0,0:0:0:0:
424,176,214927,6,0,P|448:112|492:68,1,119.999996337891,2|2,0:0|0:0,0:0:0:0:
360,76,215197,1,2,0:0:0:0:
360,76,215251,2,0,P|288:104|220:108,1,119.999996337891,2|2,0:0|0:3,0:0:0:0:
80,24,215576,1,2,0:0:0:0:
4,184,215738,1,2,0:0:0:0:
200,176,215900,5,2,0:0:0:0:
240,186,215981,1,2,0:0:0:0:
265,219,216062,1,2,0:3:0:0:
266,260,216143,1,2,0:0:0:0:
238,292,216224,1,2,0:0:0:0:
196,299,216305,1,2,0:0:0:0:
156,283,216387,1,2,0:0:0:0:
115,270,216468,1,2,0:0:0:0:
77,289,216549,1,2,0:0:0:0:
63,329,216630,1,2,0:0:0:0:
83,373,216711,5,6,0:3:0:0:
292,364,216873,1,2,0:0:0:0:
336,348,216954,1,2,0:0:0:0:
376,320,217035,1,2,0:0:0:0:
404,280,217116,1,2,0:0:0:0:
412,232,217197,1,2,0:0:0:0:
356,44,217359,1,2,0:3:0:0:
468,120,217522,1,2,0:0:0:0:
256,164,217684,1,2,0:0:0:0:
256,164,217765,1,2,0:0:0:0:
256,164,217846,6,0,P|204:200|180:260,1,119.999996337891,2|2,0:0|0:3,0:0:0:0:
172,384,218170,1,2,0:0:0:0:
96,152,218332,1,2,0:0:0:0:
108,112,218414,1,2,0:0:0:0:
132,80,218495,2,0,P|180:40|252:24,1,119.999996337891,2|2,0:0|0:3,0:0:0:0:
428,24,218819,5,2,0:0:0:0:
460,44,218900,1,2,0:0:0:0:
476,76,218981,1,2,0:0:0:0:
472,112,219062,1,2,0:0:0:0:
456,144,219143,1,2,0:0:0:0:
424,160,219224,1,2,0:0:0:0:
388,156,219305,1,2,0:3:0:0:
356,136,219387,1,2,0:0:0:0:
340,104,219468,2,0,L|328:60,2,39.9999987792969,2|2|2,0:0|0:0|0:0,0:0:0:0:
364,204,219630,5,2,0:0:0:0:
368,252,219711,1,2,0:0:0:0:
360,300,219792,1,2,0:0:0:0:
340,344,219873,1,2,0:0:0:0:
304,376,219954,5,2,0:3:0:0:
276,336,220035,1,2,0:0:0:0:
232,316,220116,1,2,0:0:0:0:
184,312,220197,1,2,0:0:0:0:
136,324,220278,1,2,0:3:0:0:
88,320,220359,1,2,0:0:0:0:
56,284,220441,1,2,0:0:0:0:
52,236,220522,1,2,0:0:0:0:
80,196,220603,5,2,0:3:0:0:
132,208,220684,1,2,0:0:0:0:
184,192,220765,1,2,0:0:0:0:
216,148,220846,1,2,0:0:0:0:
220,96,220927,5,2,0:3:0:0:
264,128,221008,1,2,0:0:0:0:
288,176,221089,1,2,0:0:0:0:
296,228,221170,1,2,0:0:0:0:
288,280,221251,5,2,0:3:0:0:
338,261,221332,1,2,0:0:0:0:
375,221,221414,1,2,0:0:0:0:
392,169,221495,1,2,0:0:0:0:
386,115,221576,1,2,0:3:0:0:
359,67,221657,1,2,0:0:0:0:
314,36,221738,2,0,L|264:17,2,39.9999987792969,2|2|2,0:0|0:0|0:0,0:0:0:0:
187,72,221900,6,0,L|138:133,1,59.9999981689454,4|2,0:3|0:0,0:0:0:0:
263,190,222062,2,0,L|251:267,1,59.9999981689454,8|2,0:3|0:0,0:0:0:0:
386,115,222224,1,10,0:3:0:0:
405,57,222305,1,2,0:0:0:0:
462,36,222387,5,2,0:0:0:0:
503,79,222468,1,2,0:0:0:0:
509,138,222549,1,2,0:3:0:0:
478,189,222630,1,2,0:0:0:0:
421,209,222711,1,2,0:0:0:0:
364,190,222792,1,2,0:0:0:0:
304,181,222873,1,2,0:3:0:0:
250,207,222954,1,2,0:0:0:0:
225,261,223035,1,2,0:0:0:0:
237,319,223116,1,2,0:0:0:0:
277,361,223197,5,6,0:3:0:0:
132,320,223359,1,2,0:0:0:0:
92,308,223441,1,2,0:0:0:0:
52,312,223522,1,2,0:0:0:0:
60,272,223603,1,2,0:0:0:0:
52,232,223684,1,2,0:0:0:0:
160,216,223846,1,2,0:3:0:0:
40,64,224008,1,2,0:0:0:0:
172,108,224170,5,2,0:0:0:0:
212,108,224251,1,2,0:0:0:0:
252,104,224332,1,2,0:0:0:0:
292,84,224414,1,2,0:0:0:0:
328,60,224495,1,2,0:3:0:0:
368,44,224576,1,2,0:0:0:0:
408,48,224657,1,2,0:0:0:0:
432,84,224738,1,2,0:0:0:0:
420,124,224819,1,2,0:0:0:0:
384,148,224900,1,2,0:0:0:0:
344,156,224981,1,2,0:0:0:0:
308,180,225062,1,2,0:0:0:0:
288,216,225143,2,0,L|296:288,2,39.9999987792969,0|2|2,0:3|0:0|0:0,0:0:0:0:
252,104,225305,6,0,P|220:44|152:12,1,119.999996337891,2|2,0:0|0:0,0:0:0:0:
128,136,225576,1,2,0:0:0:0:
128,136,225630,2,0,L|106:271,1,119.999996337891,2|2,0:0|0:3,0:0:0:0:
0,307,225954,1,2,0:0:0:0:
130,368,226116,1,2,0:0:0:0:
271,344,226278,2,0,L|330:368,1,59.9999981689454,2|2,0:0|0:0,0:0:0:0:
416,332,226441,6,0,L|436:368,2,39.9999987792969,2|2|2,0:3|0:0|0:0,0:0:0:0:
344,260,226603,2,0,L|306:246,2,39.9999987792969,2|2|2,0:0|0:0|0:0,0:0:0:0:
440,240,226765,1,2,0:0:0:0:
472,204,226846,1,2,0:0:0:0:
488,160,226927,1,2,0:0:0:0:
488,112,227008,1,2,0:0:0:0:
472,68,227089,1,2,0:3:0:0:
300,160,227251,1,2,0:0:0:0:
260,184,227332,1,2,0:0:0:0:
212,188,227414,1,2,0:0:0:0:
164,180,227495,1,2,0:0:0:0:
120,156,227576,5,2,0:0:0:0:
168,320,227738,2,0,L|192:388,1,59.9999981689454,4|0,0:3|0:0,0:0:0:0:
144,240,227900,1,2,0:3:0:0:
92,112,228062,6,0,L|21:98,1,59.9999981689454,4|0,0:3|0:0,0:0:0:0:
176,120,228224,1,6,0:3:0:0:
324,148,228387,6,0,L|370:93,1,59.9999981689454,4|0,0:3|0:0,0:0:0:0:
264,208,228549,1,2,0:0:0:0:
92,112,228711,5,4,0:3:0:0:
99,70,228792,1,2,0:0:0:0:
115,33,228873,1,2,0:0:0:0:
256,108,229035,1,12,0:3:0:0:
428,112,229197,1,2,0:0:0:0:
421,70,229278,1,2,0:0:0:0:
405,33,229359,5,2,0:3:0:0:
380,72,229441,1,2,0:0:0:0:
376,120,229522,1,2,0:0:0:0:
388,168,229603,1,2,0:0:0:0:
412,212,229684,1,2,0:3:0:0:
452,240,229765,1,2,0:0:0:0:
484,276,229846,1,2,0:0:0:0:
492,324,229927,1,2,0:0:0:0:
468,364,230008,1,2,0:3:0:0:
424,376,230089,1,2,0:0:0:0:
380,360,230170,1,2,0:0:0:0:
356,316,230251,1,2,0:0:0:0:
360,268,230332,5,2,0:3:0:0:
316,292,230414,1,2,0:0:0:0:
272,304,230495,1,2,0:0:0:0:
220,304,230576,1,2,0:0:0:0:
176,288,230657,1,2,0:3:0:0:
132,268,230738,1,2,0:0:0:0:
104,228,230819,2,0,L|52:252,2,39.9999987792969,8|8|8,0:0|0:0|0:0,0:0:0:0:
192,160,230981,5,2,0:3:0:0:
220,120,231062,1,2,0:0:0:0:
228,72,231143,2,0,L|216:24,2,39.9999987792969,8|8|8,0:0|0:0|0:0,0:0:0:0:
256,180,231305,5,2,0:3:0:0:
272,228,231387,1,2,0:0:0:0:
308,260,231468,1,2,0:0:0:0:
360,268,231549,1,2,0:0:0:0:
408,272,231630,1,2,0:3:0:0:
448,300,231711,1,2,0:0:0:0:
476,336,231792,2,0,L|480:384,2,39.9999987792969,8|8|8,0:0|0:0|0:0,0:0:0:0:
465,230,231954,5,2,0:3:0:0:
437,190,232035,1,0,0:0:0:0:
429,142,232116,2,0,L|401:190,2,39.9999987792969,8|8|8,0:0|0:0|0:0,0:0:0:0:
476,24,232278,5,2,0:3:0:0:
438,78,232359,1,2,0:0:0:0:
374,98,232441,1,2,0:0:0:0:
310,79,232522,1,2,0:0:0:0:
267,28,232603,5,2,0:3:0:0:
201,38,232684,1,2,0:0:0:0:
162,91,232765,1,2,0:0:0:0:
173,155,232846,1,2,0:0:0:0:
219,201,232927,1,2,0:3:0:0:
280,225,233008,1,2,0:0:0:0:
300,287,233089,1,2,0:0:0:0:
279,349,233170,1,2,0:0:0:0:
219,377,233251,2,0,L|181:389,2,39.9999987792969,2|2|2,0:3|0:0|0:0,0:0:0:0:
98,300,233414,2,0,L|59:288,2,39.9999987792969,2|2|2,0:0|0:0|0:0,0:0:0:0:
200,236,233576,6,0,P|160:172|156:120,1,119.999996337891,6|2,2:0|0:0,0:0:0:0:
164,80,233819,1,2,0:0:0:0:
128,112,233900,1,2,0:0:0:0:
84,136,233981,1,2,0:0:0:0:
36,144,234062,1,2,0:0:0:0:
52,12,234224,1,2,0:3:0:0:
68,214,234387,1,2,0:0:0:0:
164,80,234549,5,2,0:0:0:0:
212,72,234630,1,2,0:0:0:0:
256,88,234711,1,2,0:0:0:0:
284,128,234792,1,2,0:0:0:0:
296,172,234873,1,10,0:0:0:0:
336,144,234954,1,2,0:0:0:0:
380,128,235035,1,2,0:0:0:0:
428,128,235116,1,2,0:0:0:0:
476,140,235197,1,2,0:0:0:0:
464,92,235278,1,2,0:0:0:0:
428,60,235359,1,2,0:0:0:0:
384,44,235441,1,2,0:0:0:0:
336,48,235522,2,0,L|348:4,2,39.9999987792969,2|8|8,0:3|0:0|0:0,0:0:0:0:
296,172,235684,6,0,P|284:244|300:320,1,119.999996337891,2|2,0:0|0:0,0:0:0:0:
388,376,235954,1,2,0:0:0:0:
388,376,236008,2,0,P|436:332|456:264,1,119.999996337891,2|2,0:0|0:3,0:0:0:0:
72,151,236332,2,0,P|25:195|5:263,1,119.999996337891,2|2,0:0|0:0,0:0:0:0:
84,360,236657,1,2,0:0:0:0:
116,324,236738,1,2,0:0:0:0:
136,280,236819,5,2,0:3:0:0:
172,312,236900,1,2,0:0:0:0:
216,332,236981,1,2,0:0:0:0:
264,344,237062,1,2,0:0:0:0:
312,340,237143,1,2,0:0:0:0:
352,316,237224,1,2,0:0:0:0:
364,268,237305,1,2,0:0:0:0:
344,224,237387,1,2,0:0:0:0:
300,204,237468,5,2,0:3:0:0:
96,208,237630,2,0,L|160:172,1,59.9999981689454,2|2,0:0|0:0,0:0:0:0:
260,120,237792,1,8,0:0:0:0:
301,112,237873,1,2,0:0:0:0:
342,112,237954,2,0,P|412:133|459:169,1,119.999996337891,2|2,0:0|0:3,0:0:0:0:
478,189,238197,1,2,0:0:0:0:
499,224,238278,1,2,0:0:0:0:
445,355,238441,1,2,0:0:0:0:
445,355,238522,1,2,0:0:0:0:
445,355,238603,6,0,P|377:339|297:351,1,119.999996337891,8|8,0:3|0:3,0:0:0:0:
67,355,238927,2,0,P|135:339|215:351,1,119.999996337891,2|0,0:0|0:0,0:0:0:0:
256,124,239251,2,0,L|256:-4,1,119.999996337891,2|2,0:0|0:3,0:0:0:0:
172,220,239576,1,2,0:0:0:0:
140,256,239657,1,2,0:0:0:0:
92,264,239738,1,2,0:0:0:0:
48,240,239819,1,2,0:0:0:0:
32,196,239900,1,2,0:0:0:0:
48,152,239981,1,2,0:0:0:0:
92,122,240062,5,2,0:3:0:0:
144,132,240143,1,2,0:0:0:0:
197,122,240224,1,2,0:0:0:0:
240,90,240305,1,2,0:0:0:0:
269,43,240387,1,2,0:0:0:0:
311,9,240468,1,2,0:0:0:0:
364,0,240549,1,2,0:0:0:0:
417,9,240630,1,2,0:0:0:0:
461,39,240711,5,2,0:3:0:0:
489,84,240792,1,2,0:0:0:0:
496,137,240873,1,2,0:0:0:0:
481,188,240954,1,2,0:0:0:0:
446,229,241035,1,2,0:3:0:0:
397,253,241116,1,2,0:0:0:0:
341,257,241197,1,2,0:0:0:0:
289,240,241278,1,2,0:0:0:0:
250,202,241359,5,2,0:3:0:0:
195,207,241441,1,2,0:0:0:0:
149,236,241522,1,2,0:0:0:0:
126,284,241603,1,2,0:0:0:0:
124,337,241684,5,2,0:3:0:0:
73,319,241765,1,2,0:0:0:0:
34,280,241846,1,2,0:0:0:0:
14,229,241927,1,2,0:0:0:0:
16,175,242008,5,2,0:3:0:0:
66,194,242089,1,2,0:0:0:0:
118,180,242170,1,2,0:0:0:0:
153,139,242251,1,2,0:0:0:0:
155,85,242332,1,2,0:3:0:0:
126,38,242414,1,2,0:0:0:0:
73,26,242495,2,0,L|33:38,2,39.9999987792969,2|2|2,0:0|0:0|0:0,0:0:0:0:
229,27,242657,5,2,0:3:0:0:
296,51,242738,1,2,0:0:0:0:
331,113,242819,1,2,0:0:0:0:
336,184,242900,1,2,0:0:0:0:
301,247,242981,1,2,0:0:0:0:
306,318,243062,1,2,0:0:0:0:
358,367,243143,1,2,0:0:0:0:
429,367,243224,1,2,0:0:0:0:
481,317,243305,1,2,0:3:0:0:
482,244,243387,1,2,0:0:0:0:
446,181,243468,6,0,L|486:199,2,39.9999987792969,8|8|8,0:0|0:0|0:0,0:0:0:0:
331,139,243630,1,2,0:0:0:0:
291,125,243711,1,2,0:0:0:0:
249,126,243792,1,2,0:0:0:0:
208,136,243873,1,2,0:0:0:0:
171,160,243954,5,6,0:3:0:0:
66,221,244116,1,2,0:0:0:0:
94,253,244197,1,2,0:0:0:0:
130,273,244278,1,2,0:0:0:0:
170,277,244359,1,2,0:0:0:0:
210,265,244441,2,0,P|274:253|338:269,1,119.999996337891,2|2,0:0|0:3,0:0:0:0:
468,364,244765,1,2,0:0:0:0:
292,336,244927,5,2,0:0:0:0:
244,332,245008,1,2,0:0:0:0:
200,312,245089,1,2,0:0:0:0:
168,276,245170,1,2,0:0:0:0:
156,228,245251,1,2,0:3:0:0:
164,180,245332,1,2,0:0:0:0:
188,140,245414,1,2,0:0:0:0:
204,96,245495,1,2,0:0:0:0:
196,48,245576,1,2,0:0:0:0:
160,16,245657,1,2,0:0:0:0:
112,12,245738,1,2,0:0:0:0:
72,36,245819,1,2,0:0:0:0:
52,80,245900,6,0,L|20:48,2,39.9999987792969,2|8|8,0:3|0:0|0:0,0:0:0:0:
128,156,246062,2,0,P|172:184|252:192,1,119.999996337891,2|2,0:0|0:0,0:0:0:0:
360,176,246332,1,2,0:0:0:0:
360,176,246387,2,0,P|432:184|500:220,1,119.999996337891,2|10,0:0|0:0,0:0:0:0:
152,376,246711,2,0,P|108:316|96:244,1,119.999996337891,2|0,0:0|0:0,0:0:0:0:
208,76,247035,6,0,L|272:108,1,59.9999981689454,2|2,0:0|0:0,0:0:0:0:
416,200,247197,2,0,L|428:256,2,39.9999987792969,2|2|2,0:3|0:0|0:0,0:0:0:0:
328,208,247359,2,0,L|320:260,2,39.9999987792969,2|2|2,0:0|0:0|0:0,0:0:0:0:
360,116,247522,2,0,L|356:44,1,59.9999981689454,2|2,0:0|0:0,0:0:0:0:
472,132,247684,5,4,0:3:0:0:
488,188,247765,1,4,0:3:0:0:
504,244,247846,1,4,0:3:0:0:
328,208,248008,1,8,0:3:0:0:
344,264,248089,1,8,0:3:0:0:
360,320,248170,6,0,L|288:332,1,59.9999981689454,4|2,0:3|0:0,0:0:0:0:
184,208,248332,1,2,0:0:0:0:
152,320,248495,6,0,L|224:332,1,59.9999981689454,4|2,0:3|0:0,0:0:0:0:
328,208,248657,1,2,0:0:0:0:
256,176,248819,6,0,L|256:116,1,59.9999981689454,4|8,0:3|0:3,0:0:0:0:
256,40,248981,2,0,P|188:40|128:56,1,119.999996337891,2|2,0:0|0:0,0:0:0:0:
60,100,249224,1,2,0:0:0:0:
60,100,249305,2,0,P|120:136|160:176,1,119.999996337891,2|2,0:0|0:0,0:0:0:0:
200,244,249549,1,2,0:0:0:0:
200,244,249630,2,0,P|136:268|96:312,1,119.999996337891,2|0,0:0|0:0,0:0:0:0:
320,360,249954,1,2,0:0:0:0:
368,348,250035,1,2,0:0:0:0:
404,316,250116,1,2,0:0:0:0:
416,268,250197,1,2,0:0:0:0:
408,220,250278,1,2,0:3:0:0:
384,180,250359,1,2,0:0:0:0:
352,144,250441,5,2,0:3:0:0:
344,96,250522,1,2,0:0:0:0:
372,60,250603,1,10,0:0:0:0:
420,56,250684,1,2,0:0:0:0:
459,83,250765,5,2,0:0:0:0:
464,132,250846,1,2,0:0:0:0:
432,168,250927,1,10,0:0:0:0:
384,180,251008,1,2,0:0:0:0:
340,164,251089,1,2,0:3:0:0:
304,132,251170,1,2,0:0:0:0:
272,96,251251,1,10,0:0:0:0:
224,84,251332,1,2,0:0:0:0:
176,84,251414,1,10,0:0:0:0:
132,104,251495,1,2,0:0:0:0:
96,136,251576,2,0,L|56:104,2,39.9999987792969,2|8|8,0:3|0:0|0:0,0:0:0:0:
200,208,251738,5,2,0:3:0:0:
240,252,251819,1,2,0:3:0:0:
240,312,251900,1,2,0:3:0:0:
200,360,251981,1,2,0:3:0:0:
140,372,252062,1,2,0:3:0:0:
88,344,252143,1,2,0:3:0:0:
60,292,252224,1,2,0:3:0:0:
72,232,252305,1,2,0:3:0:0:
116,188,252387,1,2,0:3:0:0:
164,152,252468,1,2,0:3:0:0:
176,92,252549,1,2,0:3:0:0:
148,40,252630,1,2,0:3:0:0:
88,24,252711,1,2,0:3:0:0:
36,52,252792,1,2,0:3:0:0:
16,108,252873,2,0,L|20:160,2,39.9999987792969,2|2|2,0:0|0:0|0:0,0:0:0:0:
60,252,253035,5,2,0:3:0:0:
119,302,253116,1,2,0:3:0:0:
196,308,253197,1,2,0:3:0:0:
263,269,253278,1,2,0:3:0:0:
296,198,253359,1,2,0:3:0:0:
336,130,253441,1,2,0:3:0:0:
411,109,253522,1,2,0:3:0:0:
479,146,253603,1,2,0:3:0:0:
499,221,253684,1,2,0:3:0:0:
474,294,253765,1,2,0:3:0:0:
410,339,253846,1,2,0:3:0:0:
332,348,253927,1,2,0:3:0:0:
259,318,254008,6,0,L|217:295,2,39.9999987792969,2|2|2,0:0|0:0|0:0,0:0:0:0:
120,356,254170,2,0,L|104:312,2,39.9999987792969,2|0|2,0:0|0:0|0:0,0:0:0:0:
256,128,254657,5,4,0:0:0:0:
256,192,254738,12,0,260170,0:0:0:0:
