osu file format v14

[General]
AudioFilename: Akasha.mp3
AudioLeadIn: 0
PreviewTime: 105143
Countdown: 0
SampleSet: Soft
StackLeniency: 0.8
Mode: 0
LetterboxInBreaks: 1
WidescreenStoryboard: 0

[Editor]
Bookmarks: 124927
DistanceSpacing: 1
BeatDivisor: 4
GridSize: 4
TimelineZoom: 3.599999

[Metadata]
Title:Akasha
TitleUnicode:Akasha
Artist:xi
ArtistUnicode:xi
Creator:Jemmmmy
Version:Extreme
Source:
Tags:100sec Records Stream Energy Limitless Space World M3 27 2011 Urushi38 Minakami Yuki mtbbsben cdhsausageboy Evil_Twilight Kagami yuki _Gezo_
BeatmapID:433168
BeatmapSetID:118768

[Difficulty]
HPDrainRate:5
CircleSize:4.5
OverallDifficulty:9.5
ApproachRate:9.2
SliderMultiplier:1.92
SliderTickRate:1

[Events]
//Background and Video events
0,0,"Grand_Universe_by_ANTIFAN_REAL.jpg",0,0
//Break Periods
2,63830,65330
2,129992,139276
//Storyboard Layer 0 (Background)
//Storyboard Layer 1 (Fail)
//Storyboard Layer 2 (Pass)
//Storyboard Layer 3 (Foreground)
//Storyboard Sound Samples

[TimingPoints]
1360,324.324324324324,4,2,0,30,1,0
42873,-100,4,2,0,60,0,0
109035,-100,4,2,0,65,0,1
129792,-100,4,2,0,60,0,0
150549,-100,4,2,0,65,0,1
171305,-100,4,2,0,60,0,0
182008,-100,4,2,0,65,0,1
212819,-100,4,2,0,60,0,0

[Colours]
Combo1 : 49,227,34
Combo2 : 41,225,235
Combo3 : 31,63,190
Combo4 : 231,132,50

[HitObjects]
76,156,42549,5,0,0:0:0:0:
76,176,42630,1,0,0:0:0:0:
76,196,42711,1,0,0:0:0:0:
76,216,42792,1,0,0:0:0:0:
76,236,42873,1,4,0:3:0:0:
164,176,43035,1,0,0:0:0:0:
164,156,43116,1,0,0:0:0:0:
164,136,43197,1,0,0:0:0:0:
164,116,43278,1,0,0:0:0:0:
164,96,43359,5,0,0:0:0:0:
330,8,43684,1,4,0:3:0:0:
418,44,43846,1,0,0:0:0:0:
430,59,43927,1,0,0:0:0:0:
440,76,44008,1,8,0:0:0:0:
445,94,44089,1,0,0:0:0:0:
447,113,44170,1,4,0:3:0:0:
446,132,44251,1,0,0:0:0:0:
441,150,44332,1,8,0:0:0:0:
432,168,44414,1,0,0:0:0:0:
422,184,44495,1,8,0:0:0:0:
415,202,44576,1,0,0:0:0:0:
411,221,44657,1,4,0:3:0:0:
411,240,44738,1,0,0:0:0:0:
413,259,44819,1,0,0:0:0:0:
419,277,44900,1,0,0:0:0:0:
428,294,44981,5,0,0:0:0:0:
492,368,45143,1,4,0:3:0:0:
396,380,45305,1,0,0:0:0:0:
308,344,45468,1,4,0:3:0:0:
264,260,45630,1,0,0:0:0:0:
176,228,45792,1,8,0:0:0:0:
88,260,45954,5,0,0:0:0:0:
71,269,46035,1,0,0:0:0:0:
53,276,46116,1,0,0:0:0:0:
34,279,46197,1,0,0:0:0:0:
20,269,46278,1,4,0:3:0:0:
12,252,46359,1,0,0:0:0:0:
8,233,46441,1,0,0:0:0:0:
7,214,46522,1,0,0:0:0:0:
10,195,46603,1,0,0:0:0:0:
15,177,46684,1,0,0:0:0:0:
25,160,46765,5,4,0:3:0:0:
100,100,46927,1,8,0:0:0:0:
188,136,47089,1,8,0:0:0:0:
180,40,47251,5,4,0:3:0:0:
328,164,47576,1,4,0:3:0:0:
188,136,47900,1,4,0:3:0:0:
268,80,48062,1,8,0:3:0:0:
364,80,48224,1,0,0:0:0:0:
332,268,48549,1,0,0:0:0:0:
144,296,48873,5,4,0:3:0:0:
162,292,48954,1,0,0:0:0:0:
182,292,49035,1,8,0:0:0:0:
201,295,49116,1,0,0:0:0:0:
219,301,49197,1,8,0:0:0:0:
236,309,49278,1,0,0:0:0:0:
252,320,49359,1,4,0:3:0:0:
267,333,49441,1,0,0:0:0:0:
282,343,49522,1,8,0:0:0:0:
299,353,49603,1,0,0:0:0:0:
317,360,49684,1,8,0:0:0:0:
335,366,49765,1,0,0:0:0:0:
354,371,49846,1,4,0:3:0:0:
373,373,49927,1,0,0:0:0:0:
392,376,50008,5,0,0:0:0:0:
393,356,50089,1,0,0:0:0:0:
396,338,50170,1,0,0:0:0:0:
403,319,50251,1,0,0:0:0:0:
411,302,50332,1,4,0:3:0:0:
422,286,50414,1,0,0:0:0:0:
435,272,50495,1,8,0:0:0:0:
450,260,50576,1,0,0:0:0:0:
466,250,50657,5,4,0:3:0:0:
512,160,50819,1,0,0:0:0:0:
493,154,50900,1,0,0:0:0:0:
474,152,50981,1,8,0:0:0:0:
452,60,51143,1,0,0:0:0:0:
433,65,51224,1,0,0:0:0:0:
416,74,51305,1,0,0:0:0:0:
344,12,51468,1,4,0:3:0:0:
332,27,51549,1,0,0:0:0:0:
322,43,51630,1,8,0:0:0:0:
314,61,51711,1,0,0:0:0:0:
309,79,51792,1,0,0:0:0:0:
307,98,51873,1,0,0:0:0:0:
307,117,51954,5,4,0:3:0:0:
290,134,52035,1,0,0:0:0:0:
270,148,52116,1,8,0:0:0:0:
249,159,52197,1,0,0:0:0:0:
226,167,52278,1,8,0:0:0:0:
203,171,52359,1,0,0:0:0:0:
179,172,52441,1,4,0:3:0:0:
155,169,52522,1,0,0:0:0:0:
132,163,52603,1,0,0:0:0:0:
110,153,52684,1,0,0:0:0:0:
90,140,52765,5,4,0:3:0:0:
84,158,52846,1,0,0:0:0:0:
78,177,52927,1,8,0:0:0:0:
71,195,53008,1,0,0:0:0:0:
65,213,53089,1,4,0:3:0:0:
59,231,53170,1,4,0:3:0:0:
53,250,53251,5,4,2:3:0:0:
140,292,53414,1,0,0:0:0:0:
143,310,53495,1,0,0:0:0:0:
147,329,53576,1,0,0:0:0:0:
151,348,53657,1,0,0:0:0:0:
155,367,53738,1,0,0:0:0:0:
256,204,54062,1,4,0:3:0:0:
292,116,54224,5,8,0:0:0:0:
296,97,54305,1,0,0:0:0:0:
293,78,54387,1,8,0:0:0:0:
283,62,54468,1,0,0:0:0:0:
267,51,54549,1,4,0:3:0:0:
249,47,54630,1,0,0:0:0:0:
230,50,54711,1,8,0:0:0:0:
214,60,54792,1,0,0:0:0:0:
203,76,54873,1,8,0:0:0:0:
198,94,54954,1,0,0:0:0:0:
203,113,55035,1,4,0:3:0:0:
205,136,55116,1,0,0:0:0:0:
204,160,55197,1,0,0:0:0:0:
200,184,55278,1,0,0:0:0:0:
191,206,55359,5,0,0:0:0:0:
113,150,55522,1,4,0:3:0:0:
96,242,55684,1,0,0:0:0:0:
144,323,55846,1,4,0:3:0:0:
232,355,56008,1,0,0:0:0:0:
320,322,56170,1,8,0:0:0:0:
247,265,56332,5,0,0:0:0:0:
251,256,56414,1,0,0:0:0:0:
256,248,56495,1,0,0:0:0:0:
260,239,56576,1,0,0:0:0:0:
263,230,56657,1,4,0:3:0:0:
267,221,56738,1,0,0:0:0:0:
270,212,56819,1,8,0:0:0:0:
272,203,56900,1,0,0:0:0:0:
274,193,56981,1,8,0:0:0:0:
276,184,57062,1,0,0:0:0:0:
277,174,57143,5,4,0:3:0:0:
264,79,57305,1,8,0:0:0:0:
354,112,57468,1,8,0:0:0:0:
443,77,57630,1,4,0:3:0:0:
427,268,57954,1,4,0:3:0:0:
369,23,58278,5,4,0:3:0:0:
354,112,58441,1,8,0:3:0:0:
277,170,58603,1,0,0:0:0:0:
184,1,58927,1,0,0:0:0:0:
32,117,59251,1,4,0:3:0:0:
38,123,59332,1,0,0:0:0:0:
45,131,59414,1,8,0:0:0:0:
50,138,59495,1,0,0:0:0:0:
55,147,59576,1,8,0:0:0:0:
59,155,59657,1,0,0:0:0:0:
61,165,59738,5,4,0:3:0:0:
52,181,59819,1,0,0:0:0:0:
49,200,59900,1,8,0:0:0:0:
53,219,59981,1,0,0:0:0:0:
63,235,60062,1,8,0:0:0:0:
78,247,60143,1,0,0:0:0:0:
96,253,60224,1,4,0:3:0:0:
115,253,60305,1,0,0:0:0:0:
133,246,60387,5,0,0:0:0:0:
148,234,60468,1,0,0:0:0:0:
166,228,60549,1,0,0:0:0:0:
185,227,60630,1,0,0:0:0:0:
203,233,60711,1,4,0:3:0:0:
218,244,60792,1,0,0:0:0:0:
229,260,60873,1,0,0:0:0:0:
235,278,60954,1,0,0:0:0:0:
235,297,61035,5,0,0:0:0:0:
259,313,61116,1,0,0:0:0:0:
285,324,61197,1,8,0:0:0:0:
313,332,61278,1,0,0:0:0:0:
342,335,61359,1,8,0:0:0:0:
370,335,61441,1,0,0:0:0:0:
399,330,61522,1,0,0:0:0:0:
426,321,61603,1,0,0:0:0:0:
452,308,61684,5,0,0:0:0:0:
443,280,61765,1,0,0:0:0:0:
430,255,61846,1,4,0:3:0:0:
413,231,61927,1,0,0:0:0:0:
393,211,62008,1,8,0:0:0:0:
370,193,62089,1,0,0:0:0:0:
345,180,62170,1,8,0:0:0:0:
317,170,62251,1,0,0:0:0:0:
268,172,62332,5,4,0:3:0:0:
255,192,62414,1,0,0:0:0:0:
242,212,62495,1,8,0:0:0:0:
229,232,62576,1,0,0:0:0:0:
216,252,62657,1,8,0:0:0:0:
203,272,62738,1,0,0:0:0:0:
190,293,62819,1,4,0:3:0:0:
177,313,62900,1,0,0:0:0:0:
144,348,62981,5,8,0:0:0:0:
115,329,63062,1,0,0:0:0:0:
91,307,63143,1,4,0:3:0:0:
71,280,63224,1,0,0:0:0:0:
56,249,63305,1,4,0:3:0:0:
47,217,63387,1,0,0:0:0:0:
45,184,63468,1,4,0:3:0:0:
48,150,63549,1,4,0:3:0:0:
60,120,63630,1,4,0:0:0:0:
392,40,65900,5,0,0:0:0:0:
417,52,65981,1,0,0:0:0:0:
439,71,66062,1,0,0:0:0:0:
456,94,66143,1,0,0:0:0:0:
467,121,66224,5,4,0:0:0:0:
468,216,66387,1,0,0:0:0:0:
468,216,66468,1,0,0:0:0:0:
388,164,66630,1,0,0:0:0:0:
388,164,66711,1,0,0:0:0:0:
436,300,66873,1,0,0:0:0:0:
312,372,67116,1,0,0:0:0:0:
272,232,67359,1,0,0:0:0:0:
116,348,67522,5,0,0:0:0:0:
80,260,67684,1,0,0:0:0:0:
80,260,67765,1,0,0:0:0:0:
20,336,67927,1,0,0:0:0:0:
20,336,68008,1,0,0:0:0:0:
176,248,68170,1,0,0:0:0:0:
108,120,68414,1,0,0:0:0:0:
224,32,68657,1,0,0:0:0:0:
368,128,68819,5,0,0:0:0:0:
424,208,68981,1,0,0:0:0:0:
424,208,69062,1,0,0:0:0:0:
464,120,69224,1,0,0:0:0:0:
464,120,69305,1,0,0:0:0:0:
336,252,69468,1,0,0:0:0:0:
456,328,69711,1,0,0:0:0:0:
320,380,69954,1,0,0:0:0:0:
248,228,70116,5,0,0:0:0:0:
204,60,70359,1,0,0:0:0:0:
32,72,70603,1,0,0:0:0:0:
32,72,70927,5,0,0:0:0:0:
40,168,71089,1,0,0:0:0:0:
132,144,71251,1,0,0:0:0:0:
124,288,71414,5,0,0:0:0:0:
188,360,71576,1,0,0:0:0:0:
188,360,71657,1,0,0:0:0:0:
216,268,71819,1,0,0:0:0:0:
216,268,71900,1,0,0:0:0:0:
332,348,72062,1,0,0:0:0:0:
464,384,72305,1,0,0:0:0:0:
476,240,72549,1,0,0:0:0:0:
344,204,72711,5,0,0:0:0:0:
352,32,72954,1,0,0:0:0:0:
484,144,73197,1,0,0:0:0:0:
484,144,73522,5,0,0:0:0:0:
372,120,73684,1,0,0:0:0:0:
372,120,74008,5,0,0:0:0:0:
208,220,74332,1,0,0:0:0:0:
196,124,74495,1,0,0:0:0:0:
193,100,74576,1,0,0:0:0:0:
190,76,74657,1,0,0:0:0:0:
128,300,74981,1,0,0:0:0:0:
36,236,75143,1,0,0:0:0:0:
100,384,75305,5,0,0:0:0:0:
192,356,75468,1,0,0:0:0:0:
215,352,75549,1,0,0:0:0:0:
239,351,75630,1,0,0:0:0:0:
280,264,75792,1,0,0:0:0:0:
299,278,75873,1,0,0:0:0:0:
316,294,75954,5,0,0:0:0:0:
335,280,76035,1,0,0:0:0:0:
353,264,76116,1,0,0:0:0:0:
368,245,76197,1,0,0:0:0:0:
380,224,76278,1,0,0:0:0:0:
389,202,76359,1,0,0:0:0:0:
394,179,76441,1,0,0:0:0:0:
395,155,76522,1,0,0:0:0:0:
393,131,76603,5,4,0:0:0:0:
332,32,76765,1,0,0:0:0:0:
332,32,76846,1,0,0:0:0:0:
280,132,77008,1,0,0:0:0:0:
280,132,77089,1,0,0:0:0:0:
432,40,77251,1,0,0:0:0:0:
504,164,77495,1,0,0:0:0:0:
508,308,77738,1,0,0:0:0:0:
340,340,77900,5,0,0:0:0:0:
232,304,78062,1,0,0:0:0:0:
232,304,78143,1,0,0:0:0:0:
316,224,78305,1,0,0:0:0:0:
316,224,78387,1,0,0:0:0:0:
116,336,78549,1,0,0:0:0:0:
144,196,78792,1,0,0:0:0:0:
84,64,79035,1,8,0:3:0:0:
36,256,79197,5,4,0:0:0:0:
116,336,79359,1,0,0:0:0:0:
116,336,79441,1,0,0:0:0:0:
232,304,79603,1,0,0:0:0:0:
232,304,79684,1,0,0:0:0:0:
256,116,79846,1,0,0:0:0:0:
356,220,80089,1,0,0:0:0:0:
355,69,80332,1,0,0:0:0:0:
379,71,80414,1,0,0:0:0:0:
402,78,80495,5,0,0:0:0:0:
500,184,80738,1,0,0:0:0:0:
464,324,80981,1,0,0:0:0:0:
220,52,81305,5,0,0:0:0:0:
108,104,81468,1,0,0:0:0:0:
136,224,81630,1,8,0:3:0:0:
138,22,81792,5,4,0:0:0:0:
84,300,82278,1,0,0:0:0:0:
216,152,82603,1,0,0:0:0:0:
233,135,82684,1,0,0:0:0:0:
251,119,82765,1,0,0:0:0:0:
332,156,82927,5,8,0:3:0:0:
339,133,83008,1,8,0:3:0:0:
346,110,83089,1,4,0:0:0:0:
439,49,83251,1,0,0:0:0:0:
432,72,83332,1,0,0:0:0:0:
425,95,83414,1,0,0:0:0:0:
396,232,83576,1,0,0:0:0:0:
403,209,83657,1,0,0:0:0:0:
410,186,83738,1,0,0:0:0:0:
503,125,83900,1,0,0:0:0:0:
496,148,83981,1,0,0:0:0:0:
489,171,84062,1,0,0:0:0:0:
460,328,84224,5,8,0:3:0:0:
436,333,84305,1,8,0:3:0:0:
413,338,84387,1,4,0:0:0:0:
300,364,84549,1,2,0:3:0:0:
296,186,84873,5,8,0:3:0:0:
280,204,84954,1,8,0:3:0:0:
264,222,85035,1,4,0:0:0:0:
186,308,85197,1,2,0:3:0:0:
76,336,85359,1,0,0:0:0:0:
104,224,85522,1,8,0:3:0:0:
109,200,85603,1,8,0:3:0:0:
111,176,85684,1,4,0:0:0:0:
96,64,85846,5,8,0:3:0:0:
92,49,85927,1,8,0:3:0:0:
184,80,86089,1,8,0:3:0:0:
180,65,86170,1,8,0:3:0:0:
272,96,86332,1,8,0:3:0:0:
268,81,86414,1,8,0:3:0:0:
360,112,86576,1,8,0:3:0:0:
356,97,86657,1,8,0:3:0:0:
448,124,86819,1,8,0:3:0:0:
444,109,86900,1,8,0:3:0:0:
468,116,86981,5,0,0:0:0:0:
476,138,87062,1,0,0:0:0:0:
479,162,87143,1,0,0:0:0:0:
478,186,87224,1,0,0:0:0:0:
473,209,87305,1,0,0:0:0:0:
462,231,87387,1,0,0:0:0:0:
448,250,87468,1,0,0:0:0:0:
430,266,87549,1,0,0:0:0:0:
410,278,87630,5,0,0:0:0:0:
381,275,87711,1,0,0:0:0:0:
353,275,87792,1,0,0:0:0:0:
324,280,87873,1,0,0:0:0:0:
297,290,87954,1,0,0:0:0:0:
271,303,88035,1,0,0:0:0:0:
248,319,88116,1,0,0:0:0:0:
227,339,88197,1,0,0:0:0:0:
210,362,88278,5,4,0:0:0:0:
157,281,88441,1,0,0:0:0:0:
133,285,88522,1,0,0:0:0:0:
110,292,88603,1,0,0:3:0:0:
16,358,88765,1,0,0:0:0:0:
44,232,88927,5,8,0:3:0:0:
59,213,89008,1,0,0:0:0:0:
71,192,89089,1,0,0:0:0:0:
80,170,89170,1,0,0:0:0:0:
86,147,89251,1,0,0:3:0:0:
89,123,89332,1,0,0:0:0:0:
88,99,89414,1,0,0:0:0:0:
84,76,89495,1,0,0:0:0:0:
76,53,89576,5,8,0:3:0:0:
89,47,89657,1,0,0:0:0:0:
103,43,89738,1,0,0:0:0:0:
136,48,89819,1,0,0:0:0:0:
149,42,89900,1,0,0:3:0:0:
162,37,89981,1,0,0:0:0:0:
196,40,90062,1,0,0:0:0:0:
209,34,90143,1,0,0:0:0:0:
222,29,90224,5,8,0:3:0:0:
251,45,90305,1,0,0:0:0:0:
282,57,90387,1,0,0:0:0:0:
315,65,90468,1,0,0:0:0:0:
348,68,90549,1,0,0:3:0:0:
382,67,90630,1,0,0:0:0:0:
415,61,90711,1,0,0:0:0:0:
447,50,90792,1,0,0:0:0:0:
477,36,90873,5,8,0:3:0:0:
508,148,91035,1,0,0:0:0:0:
506,171,91116,1,0,0:0:0:0:
500,195,91197,1,0,0:3:0:0:
393,237,91359,1,0,0:0:0:0:
316,148,91522,5,8,0:3:0:0:
297,142,91603,1,0,0:0:0:0:
278,138,91684,1,0,0:0:0:0:
259,136,91765,1,0,0:0:0:0:
240,136,91846,1,0,0:3:0:0:
221,138,91927,1,0,0:0:0:0:
203,143,92008,1,0,0:0:0:0:
191,111,92089,1,0,0:0:0:0:
179,80,92170,5,8,0:3:0:0:
101,187,92332,1,0,0:0:0:0:
100,211,92414,1,0,0:0:0:0:
97,235,92495,1,0,0:3:0:0:
90,258,92576,1,0,0:0:0:0:
81,280,92657,1,0,0:0:0:0:
69,301,92738,1,0,0:0:0:0:
54,320,92819,5,8,0:3:0:0:
75,347,92900,1,0,0:0:0:0:
106,358,92981,1,0,0:0:0:0:
140,361,93062,1,0,0:0:0:0:
173,354,93143,1,0,0:0:0:0:
203,341,93224,1,0,0:0:0:0:
236,336,93305,1,0,0:0:0:0:
270,339,93387,1,0,0:0:0:0:
301,350,93468,5,4,0:0:0:0:
396,380,93630,1,0,0:0:0:0:
409,366,93711,1,0,0:0:0:0:
417,331,93792,1,0,0:0:0:0:
430,317,93873,1,0,0:0:0:0:
434,282,93954,1,0,0:0:0:0:
447,268,94035,1,0,0:0:0:0:
455,234,94116,5,8,0:3:0:0:
424,220,94197,1,0,0:0:0:0:
404,192,94278,1,0,0:0:0:0:
404,160,94359,1,0,0:0:0:0:
416,128,94441,5,0,0:0:0:0:
440,100,94522,1,0,0:0:0:0:
440,60,94603,1,0,0:0:0:0:
412,32,94684,1,0,0:0:0:0:
364,28,94765,5,8,0:3:0:0:
344,41,94846,1,0,0:0:0:0:
324,55,94927,1,0,0:0:0:0:
281,48,95008,1,0,0:0:0:0:
241,36,95089,5,0,0:0:0:0:
230,57,95170,1,0,0:0:0:0:
219,79,95251,1,0,0:0:0:0:
178,94,95332,1,0,0:0:0:0:
137,112,95414,5,8,0:3:0:0:
137,135,95495,1,0,0:0:0:0:
139,160,95576,1,0,0:0:0:0:
111,193,95657,1,0,0:0:0:0:
80,224,95738,5,0,0:0:0:0:
0,300,95900,1,0,0:0:0:0:
0,323,95981,1,0,0:0:0:0:
7,346,96062,1,4,0:0:0:0:
133,380,96224,1,0,0:0:0:0:
132,356,96305,1,0,0:0:0:0:
125,333,96387,1,0,0:0:0:0:
80,224,96549,1,0,0:0:0:0:
19,116,96711,5,8,0:3:0:0:
47,110,96792,1,0,0:0:0:0:
73,99,96873,1,0,0:0:0:0:
97,82,96954,1,0,0:0:0:0:
117,62,97035,1,0,0:0:0:0:
148,75,97116,1,0,0:0:0:0:
181,81,97197,1,0,0:0:0:0:
214,79,97278,1,0,0:0:0:0:
246,69,97359,1,8,0:3:0:0:
326,14,97522,5,0,0:0:0:0:
336,29,97603,1,0,0:0:0:0:
343,47,97684,1,0,0:0:0:0:
438,59,97846,1,0,0:0:0:0:
433,80,97927,1,0,0:0:0:0:
424,100,98008,1,8,0:3:0:0:
483,175,98170,1,0,0:0:0:0:
463,187,98251,1,0,0:0:0:0:
440,196,98332,1,0,0:0:0:0:
455,291,98495,1,0,0:0:0:0:
429,291,98576,1,0,0:0:0:0:
402,287,98657,5,4,0:0:0:0:
296,328,98819,1,0,0:0:0:0:
278,344,98900,1,0,0:0:0:0:
266,364,98981,1,0,0:0:0:0:
260,228,99143,1,0,0:0:0:0:
177,303,99305,1,8,0:3:0:0:
148,301,99387,1,0,0:0:0:0:
119,304,99468,1,0,0:0:0:0:
92,312,99549,1,0,0:0:0:0:
66,325,99630,1,0,0:0:0:0:
43,343,99711,1,0,0:0:0:0:
24,321,99792,1,0,0:0:0:0:
11,295,99873,1,0,0:0:0:0:
4,268,99954,5,8,0:3:0:0:
64,168,100116,1,0,0:0:0:0:
70,144,100197,1,0,0:0:0:0:
71,121,100278,1,0,0:0:0:0:
60,8,100441,1,0,0:0:0:0:
159,63,100603,1,8,0:3:0:0:
175,86,100684,1,0,0:0:0:0:
189,111,100765,1,0,0:0:0:0:
199,138,100846,1,0,0:0:0:0:
206,166,100927,1,0,0:0:0:0:
210,195,101008,1,0,0:0:0:0:
210,223,101089,1,0,0:0:0:0:
206,252,101170,1,0,0:0:0:0:
200,280,101251,5,8,0:3:0:0:
120,364,101414,1,0,0:0:0:0:
140,377,101495,1,0,0:0:0:0:
162,383,101576,1,0,0:0:0:0:
264,328,101738,1,0,0:0:0:0:
380,347,101900,1,8,0:3:0:0:
405,334,101981,1,0,0:0:0:0:
427,316,102062,1,0,0:0:0:0:
446,294,102143,1,0,0:0:0:0:
459,268,102224,1,0,0:0:0:0:
450,241,102305,1,0,0:0:0:0:
444,213,102387,1,0,0:0:0:0:
441,184,102468,1,0,0:0:0:0:
442,155,102549,5,8,0:3:0:0:
500,52,102711,1,0,0:0:0:0:
479,39,102792,1,0,0:0:0:0:
456,32,102873,1,0,0:0:0:0:
348,68,103035,1,0,0:0:0:0:
264,148,103197,1,8,0:3:0:0:
240,37,103359,1,0,0:0:0:0:
218,26,103441,1,0,0:0:0:0:
195,20,103522,5,0,0:0:0:0:
168,41,103603,1,0,0:0:0:0:
138,56,103684,1,0,0:0:0:0:
106,65,103765,1,0,0:0:0:0:
73,68,103846,5,4,0:0:0:0:
62,83,103927,1,0,0:0:0:0:
52,100,104008,1,0,0:0:0:0:
45,118,104089,1,0,0:0:0:0:
39,136,104170,1,0,0:0:0:0:
35,155,104251,1,0,0:0:0:0:
33,174,104332,1,0,0:0:0:0:
33,193,104414,1,0,0:0:0:0:
34,212,104495,1,0,0:0:0:0:
51,221,104576,1,0,0:0:0:0:
67,232,104657,1,0,0:0:0:0:
81,245,104738,1,0,0:0:0:0:
94,259,104819,1,0,0:0:0:0:
106,274,104900,1,0,0:0:0:0:
115,291,104981,1,0,0:0:0:0:
123,309,105062,1,0,0:0:0:0:
128,327,105143,5,4,0:0:0:0:
232,384,105305,1,8,0:0:0:0:
346,341,105468,1,8,0:0:0:0:
263,296,105630,1,8,0:0:0:0:
226,209,105792,1,8,0:0:0:0:
252,119,105954,1,8,0:0:0:0:
330,65,106116,1,0,0:0:0:0:
359,81,106197,1,0,0:0:0:0:
382,106,106278,1,4,0:0:0:0:
397,136,106359,1,0,0:0:0:0:
402,169,106441,5,8,0:3:0:0:
396,187,106522,1,0,0:0:0:0:
392,206,106603,1,0,0:0:0:0:
392,225,106684,1,0,0:0:0:0:
394,244,106765,1,8,0:3:0:0:
399,263,106846,1,0,0:0:0:0:
407,280,106927,1,0,0:0:0:0:
418,296,107008,1,0,0:0:0:0:
431,311,107089,1,8,0:3:0:0:
445,323,107170,1,0,0:0:0:0:
462,333,107251,1,0,0:0:0:0:
479,340,107332,1,0,0:0:0:0:
498,345,107414,5,8,0:3:0:0:
470,364,107495,1,0,0:0:0:0:
439,376,107576,1,0,0:0:0:0:
406,381,107657,1,0,0:0:0:0:
358,377,107738,5,8,0:3:0:0:
326,369,107819,1,0,0:0:0:0:
292,366,107900,1,0,0:0:0:0:
259,369,107981,1,0,0:0:0:0:
247,322,108062,5,8,0:3:0:0:
223,298,108143,1,0,0:0:0:0:
196,279,108224,1,0,0:0:0:0:
166,265,108305,1,0,0:0:0:0:
178,218,108387,6,0,L|176:176,7,24,0|0|0|0|0|0|0|0,3:0|3:0|3:0|3:0|3:0|3:0|3:0|3:0,0:0:0:0:
160,148,108711,5,2,0:0:0:0:
129,117,108792,1,2,0:0:0:0:
89,104,108873,1,2,0:0:0:0:
46,109,108954,1,2,0:0:0:0:
11,133,109035,5,4,0:0:0:0:
68,244,109197,1,0,0:0:0:0:
68,228,109278,1,0,0:0:0:0:
144,316,109441,1,0,0:0:0:0:
144,300,109522,1,0,0:0:0:0:
236,176,109684,1,0,0:0:0:0:
360,160,109846,1,0,0:0:0:0:
348,168,109927,1,0,0:0:0:0:
460,172,110089,1,0,0:0:0:0:
448,180,110170,1,0,0:0:0:0:
396,292,110332,5,8,0:3:0:0:
272,268,110495,1,0,0:0:0:0:
260,276,110576,1,0,0:0:0:0:
124,280,110738,1,0,0:0:0:0:
120,292,110819,1,0,0:0:0:0:
12,148,110981,1,0,0:0:0:0:
132,108,111143,1,0,0:0:0:0:
136,92,111224,1,0,0:0:0:0:
260,48,111387,1,0,0:0:0:0:
252,36,111468,1,0,0:0:0:0:
452,192,111630,5,8,0:3:0:0:
348,124,111792,1,0,0:0:0:0:
336,116,111873,1,0,0:0:0:0:
340,248,112035,1,0,0:0:0:0:
328,256,112116,1,0,0:0:0:0:
100,268,112278,1,0,0:0:0:0:
204,336,112441,1,0,0:0:0:0:
216,344,112522,1,0,0:0:0:0:
212,212,112684,1,0,0:0:0:0:
224,204,112765,1,0,0:0:0:0:
56,136,112927,5,8,0:0:0:0:
180,16,113170,1,0,0:0:0:0:
344,76,113414,1,0,0:0:0:0:
344,76,113738,5,0,0:0:0:0:
460,76,113900,1,0,0:0:0:0:
288,160,114062,1,0,0:0:0:0:
404,160,114224,5,4,0:0:0:0:
472,252,114387,1,0,0:0:0:0:
472,252,114468,1,0,0:0:0:0:
404,344,114630,1,0,0:0:0:0:
404,344,114711,1,0,0:0:0:0:
256,244,114873,1,0,0:0:0:0:
188,152,115035,1,0,0:0:0:0:
188,152,115116,1,0,0:0:0:0:
256,60,115278,1,0,0:0:0:0:
256,60,115359,1,0,0:0:0:0:
160,248,115522,5,4,0:0:0:0:
8,356,115765,1,0,0:0:0:0:
4,168,116008,1,0,0:0:0:0:
4,168,116332,5,0,0:0:0:0:
52,60,116495,1,0,0:0:0:0:
168,44,116657,1,2,0:3:0:0:
120,152,116819,1,4,0:0:0:0:
120,152,117143,5,0,0:0:0:0:
116,268,117305,1,0,0:0:0:0:
118,291,117387,1,0,0:0:0:0:
120,315,117468,1,0,0:0:0:0:
228,276,117630,1,0,0:0:0:0:
340,296,117792,1,0,0:0:0:0:
416,384,117954,1,0,0:0:0:0:
472,284,118116,5,0,0:0:0:0:
436,176,118278,1,0,0:0:0:0:
429,152,118359,1,0,0:0:0:0:
428,129,118441,1,0,0:0:0:0:
316,108,118603,1,0,0:0:0:0:
322,84,118684,1,0,0:0:0:0:
332,63,118765,5,0,0:0:0:0:
301,48,118846,1,0,0:0:0:0:
269,40,118927,1,0,0:0:0:0:
235,39,119008,1,0,0:0:0:0:
202,46,119089,1,0,0:0:0:0:
171,58,119170,1,0,0:0:0:0:
138,63,119251,1,0,0:0:0:0:
104,62,119332,1,0,0:0:0:0:
72,55,119414,5,4,0:0:0:0:
132,156,119576,1,0,0:0:0:0:
132,156,119657,1,0,0:0:0:0:
20,128,119819,1,0,0:0:0:0:
20,128,119900,1,0,0:0:0:0:
76,340,120062,1,0,0:0:0:0:
144,248,120224,1,0,0:0:0:0:
144,248,120305,1,0,0:0:0:0:
164,360,120468,1,0,0:0:0:0:
164,360,120549,1,0,0:0:0:0:
244,232,120711,5,8,0:3:0:0:
344,288,120873,1,0,0:0:0:0:
344,288,120954,1,0,0:0:0:0:
444,232,121116,1,0,0:0:0:0:
444,232,121197,1,0,0:0:0:0:
512,104,121359,1,0,0:0:0:0:
412,48,121522,1,0,0:0:0:0:
412,48,121603,1,0,0:0:0:0:
312,104,121765,1,0,0:0:0:0:
312,104,121846,1,0,0:0:0:0:
144,24,122008,5,4,0:0:0:0:
196,124,122170,1,0,0:0:0:0:
196,124,122251,1,0,0:0:0:0:
168,236,122414,1,0,0:0:0:0:
168,236,122495,1,0,0:0:0:0:
13,193,122657,1,0,0:0:0:0:
36,304,122819,1,0,0:0:0:0:
36,304,122900,1,0,0:0:0:0:
136,364,123062,1,0,0:0:0:0:
136,364,123143,1,0,0:0:0:0:
256,304,123305,5,4,0:0:0:0:
452,360,123549,1,0,0:0:0:0:
508,168,123792,1,0,0:0:0:0:
360,288,124116,1,0,0:0:0:0:
284,200,124278,1,0,0:0:0:0:
168,216,124441,1,0,0:0:0:0:
92,128,124603,5,8,0:0:0:0:
113,14,124765,1,8,0:0:0:0:
284,200,124927,1,8,0:0:0:0:
305,86,125089,1,8,0:0:0:0:
168,216,125251,5,8,0:0:0:0:
189,102,125413,1,8,0:0:0:0:
360,288,125575,1,8,0:0:0:0:
381,174,125737,1,8,0:0:0:0:
399,379,125900,5,4,0:0:0:0:
271,351,126062,1,0,0:0:0:0:
247,349,126143,1,0,0:0:0:0:
223,353,126224,1,0,0:0:0:0:
98,304,126387,1,0,0:0:0:0:
122,302,126468,1,0,0:0:0:0:
146,306,126549,1,0,0:0:0:0:
231,226,126711,1,0,0:0:0:0:
207,224,126792,1,0,0:0:0:0:
183,228,126873,1,0,0:0:0:0:
63,193,127035,1,4,0:0:0:0:
87,191,127116,1,0,0:0:0:0:
111,195,127197,5,0,0:0:0:0:
124,181,127278,1,0,0:0:0:0:
136,166,127359,1,0,0:0:0:0:
144,149,127441,1,0,0:0:0:0:
150,130,127522,1,0,0:0:0:0:
152,111,127603,1,0,0:0:0:0:
151,92,127684,5,0,0:0:0:0:
165,67,127765,1,0,0:0:0:0:
183,45,127846,1,0,0:0:0:0:
206,28,127927,1,0,0:0:0:0:
232,15,128008,1,0,0:0:0:0:
260,8,128089,1,0,0:0:0:0:
289,7,128170,1,0,0:0:0:0:
317,12,128251,1,0,0:0:0:0:
344,23,128332,1,0,0:0:0:0:
368,39,128414,1,0,0:0:0:0:
388,59,128495,5,0,0:0:0:0:
433,166,128657,1,0,0:0:0:0:
439,193,128738,1,0,0:0:0:0:
446,221,128819,1,0,0:0:0:0:
331,222,128981,1,0,0:0:0:0:
338,250,129062,1,0,0:0:0:0:
345,278,129143,1,0,0:0:0:0:
230,272,129305,1,0,0:0:0:0:
237,300,129387,1,0,0:0:0:0:
244,328,129468,1,0,0:0:0:0:
128,328,129630,1,0,0:0:0:0:
135,356,129711,1,0,0:0:0:0:
142,384,129792,5,4,0:0:0:0:
104,176,139846,5,0,0:0:0:0:
118,205,139927,1,0,0:0:0:0:
107,236,140008,1,0,0:0:0:0:
89,265,140089,1,0,0:0:0:0:
88,298,140170,1,4,3:2:0:0:
164,356,140332,1,0,0:0:0:0:
248,312,140495,1,0,0:0:0:0:
265,304,140576,1,0,0:0:0:0:
284,299,140657,1,0,0:0:0:0:
302,295,140738,1,0,0:0:0:0:
322,294,140819,1,0,0:0:0:0:
341,295,140900,1,0,0:0:0:0:
360,298,140981,1,0,0:0:0:0:
378,303,141062,1,0,0:0:0:0:
396,310,141143,5,0,0:0:0:0:
429,305,141224,1,0,0:0:0:0:
459,291,141305,1,0,0:0:0:0:
483,268,141387,1,0,0:0:0:0:
499,238,141468,1,0,0:0:0:0:
408,208,141630,1,0,0:0:0:0:
402,189,141711,1,0,0:0:0:0:
400,170,141792,1,0,0:0:0:0:
400,151,141873,1,0,0:0:0:0:
403,132,141954,1,0,0:0:0:0:
409,114,142035,1,0,0:0:0:0:
417,96,142116,5,0,0:0:0:0:
403,70,142197,1,0,0:0:0:0:
384,48,142278,1,0,0:0:0:0:
361,31,142359,1,0,0:0:0:0:
335,20,142441,1,0,0:0:0:0:
307,14,142522,1,0,0:0:0:0:
278,15,142603,1,8,0:3:0:0:
250,22,142684,1,0,0:0:0:0:
224,34,142765,5,4,3:2:0:0:
144,88,142927,1,0,0:0:0:0:
133,73,143008,1,0,0:0:0:0:
124,56,143089,5,0,0:0:0:0:
97,74,143170,1,0,0:0:0:0:
75,100,143251,1,0,0:0:0:0:
59,129,143332,1,0,0:0:0:0:
51,162,143414,5,0,0:0:0:0:
66,173,143495,1,0,0:0:0:0:
83,182,143576,1,0,0:0:0:0:
101,189,143657,1,0,0:0:0:0:
120,193,143738,5,0,0:0:0:0:
89,206,143819,1,0,0:0:0:0:
63,226,143900,1,0,0:0:0:0:
42,253,143981,1,0,0:0:0:0:
29,284,144062,5,0,0:0:0:0:
49,296,144143,1,0,0:0:0:0:
70,309,144224,1,0,0:0:0:0:
106,310,144305,1,0,0:0:0:0:
144,307,144387,5,0,0:0:0:0:
163,319,144468,1,0,0:0:0:0:
184,332,144549,1,0,0:0:0:0:
221,333,144630,1,0,0:0:0:0:
258,330,144711,5,0,0:0:0:0:
277,341,144792,1,0,0:0:0:0:
298,354,144873,1,0,0:0:0:0:
335,355,144954,1,0,0:0:0:0:
372,352,145035,5,0,0:0:0:0:
391,363,145116,1,0,0:0:0:0:
412,376,145197,1,8,0:3:0:0:
449,377,145278,1,0,0:0:0:0:
488,372,145359,5,4,3:2:0:0:
508,276,145522,1,0,0:0:0:0:
507,256,145603,1,0,0:0:0:0:
506,237,145684,1,0,0:0:0:0:
502,218,145765,1,0,0:0:0:0:
498,200,145846,1,0,0:0:0:0:
492,181,145927,1,0,0:0:0:0:
485,164,146008,1,0,0:0:0:0:
476,146,146089,1,0,0:0:0:0:
466,130,146170,1,0,0:0:0:0:
455,114,146251,1,0,0:0:0:0:
443,99,146332,5,0,0:0:0:0:
415,118,146414,1,0,0:0:0:0:
392,142,146495,1,8,0:3:0:0:
377,172,146576,1,8,0:3:0:0:
370,205,146657,5,4,3:2:0:0:
368,300,146819,1,0,0:0:0:0:
348,320,146900,1,0,0:0:0:0:
320,320,146981,1,0,0:0:0:0:
298,338,147062,1,0,0:0:0:0:
268,340,147143,1,0,0:0:0:0:
244,356,147224,1,0,0:0:0:0:
217,351,147305,1,0,0:0:0:0:
192,365,147387,1,0,0:0:0:0:
164,360,147468,1,0,0:0:0:0:
137,371,147549,1,0,0:0:0:0:
111,361,147630,5,0,0:0:0:0:
103,323,147711,1,0,0:0:0:0:
88,288,147792,1,8,3:0:0:0:
66,256,147873,1,8,3:0:0:0:
39,229,147954,5,4,3:2:0:0:
140,200,148116,1,0,0:0:0:0:
150,173,148197,1,0,0:0:0:0:
155,144,148278,1,0,0:0:0:0:
155,116,148359,1,0,0:0:0:0:
149,87,148441,1,8,0:3:0:0:
139,61,148522,1,8,0:3:0:0:
123,37,148603,5,4,3:2:0:0:
98,58,148684,1,0,0:0:0:0:
76,84,148765,1,0,0:0:0:0:
59,113,148846,1,0,0:0:0:0:
46,144,148927,1,0,0:0:0:0:
39,177,149008,1,0,0:0:0:0:
36,210,149089,1,8,0:3:0:0:
39,244,149170,1,8,0:3:0:0:
48,276,149251,1,4,0:0:0:0:
103,357,149414,5,8,0:3:0:0:
113,372,149495,1,8,0:3:0:0:
195,353,149657,1,8,0:3:0:0:
205,368,149738,1,8,0:3:0:0:
295,341,149900,1,8,0:3:0:0:
305,356,149981,1,8,0:3:0:0:
387,337,150143,1,8,0:3:0:0:
397,352,150224,1,8,0:3:0:0:
480,320,150387,1,8,0:3:0:0:
472,288,150468,1,8,0:3:0:0:
464,256,150549,5,4,0:0:0:0:
416,84,150711,1,0,0:0:0:0:
422,111,150792,1,0,0:0:0:0:
429,139,150873,1,0,0:0:0:0:
312,76,151035,1,0,0:0:0:0:
312,105,151116,1,0,0:0:0:0:
311,133,151197,1,0,0:0:0:0:
200,56,151359,1,0,0:0:0:0:
192,84,151441,1,0,0:0:0:0:
184,110,151522,1,0,0:0:0:0:
84,20,151684,1,0,0:0:0:0:
70,45,151765,1,0,0:0:0:0:
55,68,151846,5,8,3:2:0:0:
61,90,151927,1,0,0:0:0:0:
66,114,152008,1,0,0:0:0:0:
68,138,152089,1,0,0:0:0:0:
67,162,152170,1,0,0:0:0:0:
64,186,152251,1,0,0:0:0:0:
59,209,152332,1,0,0:0:0:0:
51,232,152414,1,0,0:0:0:0:
41,254,152495,5,0,0:0:0:0:
50,286,152576,1,0,0:0:0:0:
65,316,152657,1,0,0:0:0:0:
85,342,152738,1,0,0:0:0:0:
111,364,152819,1,0,0:0:0:0:
140,380,152900,1,0,0:0:0:0:
172,391,152981,1,0,0:0:0:0:
205,394,153062,1,0,0:0:0:0:
239,391,153143,5,8,3:2:0:0:
360,360,153305,1,0,0:0:0:0:
387,349,153387,1,0,0:0:0:0:
413,338,153468,1,0,0:0:0:0:
366,255,153630,1,0,0:0:0:0:
388,238,153711,1,0,0:0:0:0:
412,221,153792,1,0,0:0:0:0:
349,151,153954,1,0,0:0:0:0:
367,128,154035,1,0,0:0:0:0:
385,105,154116,1,0,0:0:0:0:
300,58,154278,1,0,0:0:0:0:
311,32,154359,1,0,0:0:0:0:
323,5,154441,5,8,3:2:0:0:
343,16,154522,1,0,0:0:0:0:
366,25,154603,1,0,0:0:0:0:
389,30,154684,1,0,0:0:0:0:
413,32,154765,1,0,0:0:0:0:
437,30,154846,1,0,0:0:0:0:
461,25,154927,1,0,0:0:0:0:
483,17,155008,1,0,0:0:0:0:
504,6,155089,5,0,0:0:0:0:
508,44,155170,1,0,0:0:0:0:
508,82,155251,1,0,0:0:0:0:
503,120,155332,1,0,0:0:0:0:
494,158,155414,1,0,0:0:0:0:
481,194,155495,1,0,0:0:0:0:
464,228,155576,1,0,0:0:0:0:
443,260,155657,1,0,0:0:0:0:
418,289,155738,5,4,0:0:0:0:
290,373,155900,1,0,0:0:0:0:
318,365,155981,1,0,0:0:0:0:
344,352,156062,1,0,0:0:0:0:
202,337,156224,1,0,0:0:0:0:
227,323,156305,1,0,0:0:0:0:
248,303,156387,1,0,0:0:0:0:
106,325,156549,1,0,0:0:0:0:
126,304,156630,1,0,0:0:0:0:
142,280,156711,1,0,0:0:0:0:
12,338,156873,1,0,0:0:0:0:
27,314,156954,1,0,0:0:0:0:
35,286,157035,5,8,3:2:0:0:
24,264,157116,1,0,0:0:0:0:
15,242,157197,1,0,0:0:0:0:
8,219,157278,1,0,0:0:0:0:
3,195,157359,1,0,0:0:0:0:
0,171,157441,1,0,0:0:0:0:
0,147,157522,1,0,0:0:0:0:
1,124,157603,1,0,0:0:0:0:
5,100,157684,5,0,0:0:0:0:
35,76,157765,1,0,0:0:0:0:
68,56,157846,1,0,0:0:0:0:
103,40,157927,1,0,0:0:0:0:
139,27,158008,1,0,0:0:0:0:
176,19,158089,1,0,0:0:0:0:
214,14,158170,1,0,0:0:0:0:
253,13,158251,1,0,0:0:0:0:
291,16,158332,5,4,0:0:0:0:
408,64,158495,1,0,0:0:0:0:
426,42,158576,1,0,0:0:0:0:
441,17,158657,1,0,0:0:0:0:
412,160,158819,1,0,0:0:0:0:
439,150,158900,1,0,0:0:0:0:
464,135,158981,1,0,0:0:0:0:
374,250,159143,1,0,0:0:0:0:
402,255,159224,1,0,0:0:0:0:
431,255,159305,1,0,0:0:0:0:
292,301,159468,1,0,0:0:0:0:
315,319,159549,1,0,0:0:0:0:
340,333,159630,5,8,0:0:0:0:
328,348,159711,1,8,0:0:0:0:
288,344,159792,5,8,0:0:0:0:
276,359,159873,1,8,0:0:0:0:
240,352,159954,5,0,0:0:0:0:
217,360,160035,1,0,0:0:0:0:
194,366,160116,1,0,0:0:0:0:
170,370,160197,1,0,0:0:0:0:
146,372,160278,5,2,0:0:0:0:
143,329,160359,1,2,0:0:0:0:
131,288,160441,1,2,0:0:0:0:
110,250,160522,1,2,0:0:0:0:
82,218,160603,1,2,0:0:0:0:
51,247,160684,1,2,0:0:0:0:
27,283,160765,1,2,0:0:0:0:
11,323,160846,1,2,0:0:0:0:
5,366,160927,5,4,0:0:0:0:
143,329,161089,1,0,0:0:0:0:
171,322,161170,1,0,0:0:0:0:
199,314,161251,1,0,0:0:0:0:
216,219,161414,1,0,0:0:0:0:
244,212,161495,1,0,0:0:0:0:
271,204,161576,1,8,3:2:0:0:
323,339,161738,1,0,0:0:0:0:
351,332,161819,1,0,0:0:0:0:
378,324,161900,1,0,0:0:0:0:
379,208,162062,1,0,0:0:0:0:
407,201,162143,1,0,0:0:0:0:
434,193,162224,5,8,3:2:0:0:
461,173,162305,1,0,0:0:0:0:
483,148,162387,1,0,0:0:0:0:
499,118,162468,1,0,0:0:0:0:
508,87,162549,1,0,0:0:0:0:
480,68,162630,1,0,0:0:0:0:
448,56,162711,1,0,0:0:0:0:
415,51,162792,1,0,0:0:0:0:
382,55,162873,1,8,3:2:0:0:
349,64,162954,1,0,0:0:0:0:
316,67,163035,1,0,0:0:0:0:
283,66,163116,1,0,0:0:0:0:
250,60,163197,5,0,0:0:0:0:
226,96,163278,1,0,0:0:0:0:
212,137,163359,1,0,0:0:0:0:
208,180,163441,1,0,0:0:0:0:
215,223,163522,5,8,3:2:0:0:
257,330,163684,1,0,0:0:0:0:
266,357,163765,1,0,0:0:0:0:
276,384,163846,1,0,0:0:0:0:
155,304,164008,1,0,0:0:0:0:
149,332,164089,1,0,0:0:0:0:
144,360,164170,1,8,3:2:0:0:
81,230,164332,1,0,0:0:0:0:
62,251,164414,1,0,0:0:0:0:
44,273,164495,1,0,0:0:0:0:
53,128,164657,1,0,0:0:0:0:
25,137,164738,1,0,0:0:0:0:
0,147,164819,5,8,3:2:0:0:
0,123,164900,1,0,0:0:0:0:
1,99,164981,1,0,0:0:0:0:
9,77,165062,1,0,0:0:0:0:
23,57,165143,1,0,0:0:0:0:
40,41,165224,1,0,0:0:0:0:
61,29,165305,1,0,0:0:0:0:
84,22,165387,1,0,0:0:0:0:
108,20,165468,5,8,3:2:0:0:
139,42,165549,1,0,0:0:0:0:
175,55,165630,1,0,0:0:0:0:
214,56,165711,1,0,0:0:0:0:
251,46,165792,1,0,0:0:0:0:
287,34,165873,1,0,0:0:0:0:
325,31,165954,1,0,0:0:0:0:
363,39,166035,1,0,0:0:0:0:
397,55,166116,5,4,0:0:0:0:
455,131,166278,1,0,0:0:0:0:
465,158,166359,1,0,0:0:0:0:
474,185,166441,1,0,0:0:0:0:
379,204,166603,1,0,0:0:0:0:
388,232,166684,1,0,0:0:0:0:
398,259,166765,1,0,0:0:0:0:
305,283,166927,1,0,0:0:0:0:
314,311,167008,1,0,0:0:0:0:
324,338,167089,5,0,0:0:0:0:
294,354,167170,1,0,0:0:0:0:
262,362,167251,1,0,0:0:0:0:
228,363,167332,1,0,0:0:0:0:
196,355,167414,5,4,0:0:0:0:
110,310,167576,1,0,0:0:0:0:
87,292,167657,1,0,0:0:0:0:
69,270,167738,1,0,0:0:0:0:
116,186,167900,1,0,0:0:0:0:
112,158,167981,1,0,0:0:0:0:
115,129,168062,1,0,0:0:0:0:
205,97,168224,1,0,0:0:0:0:
222,74,168305,1,0,0:0:0:0:
244,57,168387,5,0,0:0:0:0:
268,80,168468,1,0,0:0:0:0:
286,108,168549,1,8,3:2:0:0:
298,139,168630,1,0,0:0:0:0:
303,172,168711,5,2,3:2:0:0:
305,201,168792,1,2,0:0:0:0:
311,229,168873,1,2,0:0:0:0:
320,256,168954,1,2,0:0:0:0:
334,282,169035,1,2,0:0:0:0:
351,305,169116,1,2,0:0:0:0:
371,325,169197,1,2,0:0:0:0:
395,342,169278,1,2,0:0:0:0:
420,356,169359,5,2,0:0:0:0:
448,362,169441,1,2,0:0:0:0:
475,353,169522,1,2,0:0:0:0:
494,332,169603,1,2,0:0:0:0:
500,304,169684,1,2,0:0:0:0:
491,277,169765,1,2,0:0:0:0:
470,257,169846,1,2,0:0:0:0:
443,251,169927,1,2,0:0:0:0:
410,286,170008,5,2,0:0:0:0:
386,309,170089,1,2,0:0:0:0:
357,327,170170,1,0,0:0:0:0:
326,338,170251,1,0,0:0:0:0:
304,381,170332,5,2,0:0:0:0:
271,380,170414,1,2,0:0:0:0:
238,373,170495,1,0,0:0:0:0:
208,358,170576,1,0,0:0:0:0:
164,380,170657,6,0,L|124:376,7,24,0|0|0|0|0|0|0|0,3:0|3:0|3:0|3:0|3:0|3:0|3:0|3:0,0:0:0:0:
90,376,170981,5,0,0:0:0:0:
73,346,171062,1,0,0:0:0:0:
63,313,171143,1,0,0:0:0:0:
63,279,171224,1,0,0:0:0:0:
75,235,171305,5,4,0:0:0:0:
39,127,171549,1,0,0:0:0:0:
152,147,171792,1,0,0:0:0:0:
223,118,171954,5,0,0:0:0:0:
304,36,172197,1,0,0:0:0:0:
332,147,172441,1,0,0:0:0:0:
408,140,172603,5,0,0:0:0:0:
437,251,172846,1,0,0:0:0:0:
465,362,173089,1,0,0:0:0:0:
389,369,173251,5,0,0:0:0:0:
361,258,173495,1,0,0:0:0:0:
332,147,173738,1,8,0:3:0:0:
211,65,173900,5,4,3:2:0:0:
147,160,174143,1,0,0:0:0:0:
214,253,174387,1,0,0:0:0:0:
173,318,174549,5,0,0:0:0:0:
65,358,174792,1,0,0:0:0:0:
80,243,175035,1,0,0:0:0:0:
49,172,175197,5,0,0:0:0:0:
97,67,175441,1,0,0:0:0:0:
212,65,175684,1,0,0:0:0:0:
212,65,176008,5,0,0:0:0:0:
306,50,176170,1,8,0:3:0:0:
401,35,176332,1,8,0:3:0:0:
496,20,176495,5,4,3:2:0:0:
493,164,176738,1,0,0:0:0:0:
393,267,176981,1,0,0:0:0:0:
360,176,177143,5,0,0:0:0:0:
246,265,177387,1,0,0:0:0:0:
228,122,177630,1,8,0:3:0:0:
228,122,177711,1,8,0:3:0:0:
228,122,177792,5,4,3:2:0:0:
120,217,178035,1,0,0:0:0:0:
70,352,178278,1,0,0:0:0:0:
70,352,178603,5,0,0:0:0:0:
161,322,178765,1,0,0:0:0:0:
256,331,178927,5,8,0:3:0:0:
256,331,179008,1,8,0:3:0:0:
256,331,179089,1,4,3:2:0:0:
217,243,179251,1,2,0:3:0:0:
359,343,179576,5,8,0:3:0:0:
359,343,179657,1,8,0:3:0:0:
359,343,179738,1,4,3:2:0:0:
344,247,179900,1,2,0:3:0:0:
465,370,180224,5,8,0:3:0:0:
466,346,180305,1,8,0:3:0:0:
467,322,180386,1,8,0:3:0:0:
344,248,180549,1,8,0:3:0:0:
343,272,180630,1,8,0:3:0:0:
341,295,180711,1,8,0:3:0:0:
208,336,180873,1,8,0:3:0:0:
208,312,180954,1,8,0:3:0:0:
208,288,181035,5,4,3:2:0:0:
178,299,181116,1,0,0:0:0:0:
146,291,181197,1,8,0:3:0:0:
124,266,181278,1,8,0:3:0:0:
121,233,181359,1,0,0:0:0:0:
138,204,181441,1,8,0:3:0:0:
168,191,181522,1,8,0:3:0:0:
200,197,181603,1,0,0:0:0:0:
223,220,181684,1,0,0:0:0:0:
256,24,182008,5,4,0:0:0:0:
164,92,182170,1,0,0:0:0:0:
56,56,182332,1,0,0:0:0:0:
76,168,182495,1,0,0:0:0:0:
80,192,182576,1,0,0:0:0:0:
76,216,182657,1,0,0:0:0:0:
56,328,182819,1,0,0:0:0:0:
164,292,182981,5,8,3:2:0:0:
256,360,183143,1,0,0:0:0:0:
279,366,183224,1,0,0:0:0:0:
303,367,183305,1,0,0:0:0:0:
404,308,183468,1,0,0:0:0:0:
288,256,183630,5,8,3:2:0:0:
232,156,183792,1,0,0:0:0:0:
222,133,183873,1,0,0:0:0:0:
216,110,183954,1,0,0:0:0:0:
332,104,184116,1,0,0:0:0:0:
492,224,184278,5,4,0:0:0:0:
404,308,184441,1,0,0:0:0:0:
389,326,184522,1,0,0:0:0:0:
378,348,184603,1,0,0:0:0:0:
264,340,184765,1,0,0:0:0:0:
152,360,184927,5,8,3:2:0:0:
76,276,185089,1,0,0:0:0:0:
61,257,185170,1,0,0:0:0:0:
51,235,185251,1,0,0:0:0:0:
144,168,185414,1,0,0:0:0:0:
146,143,185495,1,0,0:0:0:0:
155,121,185576,5,4,0:0:0:0:
328,140,185819,1,0,0:0:0:0:
472,44,186062,1,0,0:0:0:0:
472,44,186387,5,0,0:0:0:0:
487,138,186549,1,0,0:0:0:0:
473,232,186711,1,0,0:0:0:0:
418,310,186873,5,4,0:0:0:0:
279,347,187035,1,8,0:0:0:0:
316,207,187197,1,8,0:0:0:0:
177,245,187359,1,8,0:0:0:0:
75,143,187521,1,8,0:0:0:0:
215,105,187683,1,8,0:0:0:0:
45,281,187846,1,0,0:0:0:0:
177,245,188008,5,0,0:0:0:0:
201,247,188089,1,0,0:0:0:0:
225,247,188170,1,4,0:0:0:0:
264,334,188332,1,0,0:0:0:0:
282,321,188414,1,0,0:0:0:0:
301,307,188495,1,0,0:0:0:0:
383,356,188657,1,0,0:0:0:0:
393,333,188738,1,0,0:0:0:0:
400,311,188819,1,0,0:0:0:0:
495,305,188981,1,0,0:0:0:0:
490,282,189062,1,0,0:0:0:0:
482,259,189143,1,0,0:0:0:0:
468,124,189305,1,0,0:0:0:0:
462,100,189387,1,0,0:0:0:0:
460,76,189468,5,4,0:0:0:0:
443,58,189549,1,2,0:0:0:0:
424,43,189630,1,2,0:0:0:0:
403,32,189711,1,2,0:0:0:0:
380,24,189792,1,2,0:0:0:0:
357,20,189873,1,2,0:0:0:0:
333,20,189954,1,2,0:0:0:0:
309,24,190035,1,2,0:0:0:0:
286,32,190116,5,2,0:0:0:0:
257,48,190197,1,2,0:0:0:0:
226,61,190278,1,2,0:0:0:0:
193,68,190359,1,2,0:0:0:0:
160,71,190441,1,2,0:0:0:0:
126,69,190522,1,2,0:0:0:0:
93,62,190603,1,2,0:0:0:0:
62,50,190684,1,2,0:0:0:0:
32,34,190765,5,6,0:0:0:0:
44,148,190927,1,8,3:2:0:0:
47,176,191008,1,8,3:2:0:0:
50,205,191089,1,8,3:2:0:0:
136,280,191251,1,8,3:2:0:0:
132,251,191332,1,8,3:2:0:0:
129,222,191414,1,8,3:2:0:0:
68,320,191576,1,8,0:0:0:0:
71,348,191657,1,8,0:0:0:0:
74,377,191738,5,0,0:0:0:0:
109,363,191819,1,0,0:0:0:0:
147,355,191900,1,0,0:0:0:0:
185,354,191981,1,0,0:0:0:0:
223,360,192062,5,4,0:0:0:0:
336,380,192224,1,0,0:0:0:0:
359,378,192305,1,0,0:0:0:0:
383,373,192386,1,0,0:0:0:0:
280,272,192549,1,0,0:0:0:0:
392,240,192711,5,8,3:2:0:0:
464,153,192873,1,0,0:0:0:0:
475,130,192954,1,0,0:0:0:0:
483,108,193035,1,0,0:0:0:0:
342,147,193198,1,0,0:0:0:0:
244,92,193359,5,8,3:2:0:0:
128,76,193522,1,0,0:0:0:0:
104,78,193603,1,0,0:0:0:0:
80,83,193684,1,0,0:0:0:0:
144,180,193846,1,0,0:0:0:0:
256,204,194008,5,8,3:2:0:0:
162,274,194171,1,0,0:0:0:0:
147,293,194252,1,0,0:0:0:0:
134,313,194333,1,0,0:0:0:0:
247,336,194495,1,0,0:0:0:0:
56,376,194657,5,8,3:2:0:0:
20,268,194819,1,0,0:0:0:0:
16,244,194900,1,0,0:0:0:0:
16,220,194981,1,0,0:0:0:0:
44,108,195143,1,0,0:0:0:0:
120,228,195305,5,8,3:2:0:0:
170,126,195467,1,0,0:0:0:0:
184,106,195548,1,0,0:0:0:0:
202,90,195629,1,0,0:0:0:0:
301,30,195791,1,0,0:0:0:0:
300,176,195954,5,0,3:2:0:0:
464,120,196197,1,0,0:0:0:0:
504,288,196441,1,0,0:0:0:0:
468,376,196603,1,8,3:2:0:0:
384,332,196765,1,0,0:0:0:0:
292,356,196927,1,0,0:0:0:0:
258,358,197008,1,0,0:0:0:0:
225,353,197089,1,0,0:0:0:0:
193,342,197170,1,0,0:0:0:0:
164,325,197251,5,4,0:0:0:0:
88,240,197414,1,0,0:0:0:0:
106,224,197495,1,0,0:0:0:0:
128,216,197576,1,0,0:0:0:0:
240,252,197738,1,0,0:0:0:0:
216,140,197900,5,8,3:2:0:0:
222,26,198063,1,0,0:0:0:0:
246,28,198144,1,0,0:0:0:0:
268,37,198225,1,0,0:0:0:0:
321,142,198387,1,0,0:0:0:0:
388,48,198549,5,4,0:0:0:0:
216,140,198792,1,0,0:0:0:0:
224,336,199035,1,0,0:0:0:0:
68,112,199359,5,0,0:0:0:0:
28,200,199522,1,0,0:0:0:0:
100,288,199684,1,0,0:0:0:0:
140,200,199847,1,4,0:0:0:0:
140,200,200170,5,0,0:0:0:0:
220,116,200332,1,0,0:0:0:0:
230,137,200413,1,0,0:0:0:0:
241,158,200494,1,0,0:0:0:0:
224,360,200819,5,0,0:0:0:0:
336,340,200981,1,8,3:2:0:0:
359,342,201062,1,8,3:2:0:0:
383,345,201143,1,4,0:0:0:0:
472,256,201305,1,8,3:2:0:0:
448,253,201386,1,8,3:2:0:0:
425,251,201467,1,8,0:3:0:0:
336,160,201630,1,8,3:2:0:0:
359,162,201711,1,8,3:2:0:0:
383,165,201792,5,8,0:3:0:0:
404,139,201873,1,0,0:0:0:0:
413,107,201954,1,8,0:3:0:0:
407,74,202035,1,8,0:3:0:0:
387,48,202116,1,0,0:0:0:0:
357,32,202197,1,8,0:3:0:0:
324,31,202278,1,8,0:3:0:0:
294,45,202359,1,0,0:0:0:0:
272,70,202440,5,4,0:0:0:0:
228,196,202603,1,0,0:0:0:0:
226,210,202684,1,0,0:0:0:0:
225,224,202765,1,0,0:0:0:0:
112,132,202927,1,0,0:0:0:0:
44,336,203089,5,8,3:2:0:0:
126,234,203251,1,0,0:0:0:0:
128,220,203332,1,0,0:0:0:0:
129,205,203413,1,0,0:0:0:0:
236,316,203576,1,0,0:0:0:0:
352,172,203738,5,8,3:2:0:0:
428,284,203900,1,0,0:0:0:0:
437,311,203981,1,0,0:0:0:0:
443,339,204062,1,0,0:0:0:0:
504,220,204224,1,0,0:0:0:0:
320,332,204387,5,8,3:2:0:0:
217,243,204549,1,0,0:0:0:0:
201,218,204630,1,0,0:0:0:0:
188,193,204711,1,0,0:0:0:0:
160,324,204873,1,0,0:0:0:0:
184,76,205035,5,4,0:0:0:0:
308,28,205197,1,0,0:0:0:0:
340,20,205278,1,0,0:0:0:0:
374,21,205359,1,0,0:0:0:0:
460,124,205522,1,0,0:0:0:0:
456,332,205684,5,8,3:2:0:0:
396,212,205846,1,0,0:0:0:0:
377,184,205927,1,0,0:0:0:0:
351,162,206008,1,0,0:0:0:0:
220,180,206170,1,0,0:0:0:0:
239,208,206251,1,0,0:0:0:0:
265,230,206332,5,4,0:0:0:0:
308,28,206576,1,0,0:0:0:0:
108,56,206819,1,0,0:0:0:0:
64,140,206981,1,8,3:2:0:0:
156,172,207143,1,0,0:0:0:0:
124,264,207305,1,0,0:0:0:0:
220,280,207468,1,0,0:0:0:0:
196,368,207630,5,4,0:0:0:0:
290,355,207792,1,8,0:0:0:0:
373,309,207954,1,8,0:0:0:0:
434,234,208116,1,8,0:0:0:0:
464,144,208278,1,8,0:0:0:0:
375,107,208440,1,8,0:0:0:0:
280,106,208602,1,8,0:0:0:0:
191,140,208765,5,0,0:0:0:0:
195,163,208846,1,0,0:0:0:0:
200,187,208927,1,4,3:2:0:0:
304,276,209089,1,0,0:0:0:0:
299,252,209170,1,0,0:0:0:0:
294,228,209251,1,0,0:0:0:0:
100,200,209414,1,0,0:0:0:0:
105,224,209495,1,0,0:0:0:0:
109,247,209576,1,8,3:2:0:0:
213,336,209738,1,0,0:0:0:0:
208,312,209819,1,0,0:0:0:0:
203,288,209900,1,0,0:0:0:0:
12,268,210062,1,0,0:0:0:0:
17,292,210143,1,0,0:0:0:0:
21,315,210224,5,4,0:0:0:0:
40,316,210305,1,2,0:0:0:0:
58,320,210386,1,2,0:0:0:0:
77,325,210467,1,2,0:0:0:0:
95,332,210548,1,2,0:0:0:0:
111,342,210629,1,2,0:0:0:0:
127,352,210710,1,2,0:0:0:0:
142,365,210791,1,2,0:0:0:0:
156,379,210873,5,2,0:0:0:0:
186,364,210954,1,2,0:0:0:0:
218,354,211035,1,2,0:0:0:0:
251,347,211116,1,2,0:0:0:0:
284,344,211197,1,2,0:0:0:0:
318,345,211278,1,2,0:0:0:0:
351,351,211359,1,2,0:0:0:0:
383,360,211440,1,2,0:0:0:0:
414,373,211521,5,6,0:0:0:0:
430,343,211603,1,2,0:0:0:0:
441,312,211684,1,0,3:2:0:0:
448,279,211765,1,0,3:2:0:0:
410,250,211846,5,2,0:3:0:0:
409,217,211928,1,2,0:0:0:0:
403,184,212009,1,0,3:2:0:0:
392,152,212090,1,0,3:2:0:0:
345,143,212170,5,2,0:3:0:0:
328,114,212252,1,2,0:0:0:0:
306,88,212333,1,0,3:2:0:0:
281,66,212414,1,0,3:2:0:0:
236,85,212495,5,2,0:3:0:0:
207,69,212577,1,2,0:0:0:0:
176,58,212658,1,0,3:2:0:0:
143,52,212739,1,0,3:2:0:0:
104,80,212819,5,4,3:2:0:0:
44,176,212981,1,0,0:0:0:0:
36,198,213062,1,0,0:0:0:0:
32,222,213143,1,0,0:0:0:0:
32,246,213224,1,0,0:0:0:0:
35,270,213305,1,0,0:0:0:0:
116,352,213468,1,8,3:2:0:0:
152,244,213630,1,0,0:0:0:0:
244,176,213792,5,0,0:0:0:0:
265,165,213873,1,0,0:0:0:0:
288,158,213954,1,0,0:0:0:0:
312,154,214035,1,0,0:0:0:0:
336,154,214116,5,8,3:2:0:0:
367,142,214197,1,0,0:0:0:0:
395,124,214278,1,0,0:0:0:0:
419,100,214359,1,0,0:0:0:0:
439,74,214441,1,0,0:0:0:0:
412,52,214522,1,0,0:0:0:0:
383,37,214603,1,0,0:0:0:0:
350,28,214684,1,0,0:0:0:0:
317,25,214765,5,8,3:2:0:0:
276,50,214846,1,0,0:0:0:0:
257,94,214927,1,0,0:0:0:0:
165,24,215089,1,0,0:0:0:0:
71,91,215251,1,0,0:0:0:0:
128,192,215414,1,8,3:2:0:0:
71,293,215576,1,0,0:0:0:0:
165,360,215738,1,0,0:0:0:0:
272,312,215900,1,0,0:0:0:0:
295,308,215981,1,0,0:0:0:0:
319,308,216062,1,8,3:2:0:0:
343,312,216143,1,0,0:0:0:0:
365,321,216224,1,0,0:0:0:0:
386,333,216305,1,0,0:0:0:0:
404,348,216386,5,0,0:0:0:0:
434,333,216468,1,0,0:0:0:0:
459,311,216549,1,0,0:0:0:0:
478,283,216630,1,0,0:0:0:0:
489,252,216711,1,8,3:2:0:0:
464,140,216873,1,0,0:0:0:0:
452,108,216954,1,0,0:0:0:0:
448,75,217035,1,0,0:0:0:0:
450,41,217116,1,0,0:0:0:0:
459,9,217197,1,0,0:0:0:0:
356,60,217359,5,8,3:2:0:0:
326,76,217440,1,0,0:0:0:0:
294,86,217521,1,0,0:0:0:0:
284,184,217684,1,0,0:0:0:0:
251,174,217765,1,0,0:0:0:0:
222,159,217846,1,0,0:0:0:0:
188,48,218008,5,4,0:0:0:0:
76,20,218170,1,0,0:0:0:0:
188,48,218332,1,0,0:0:0:0:
108,132,218494,1,0,0:0:0:0:
132,244,218657,1,8,3:2:0:0:
20,212,218819,1,0,0:0:0:0:
22,192,218900,1,0,0:0:0:0:
23,173,218981,1,0,0:0:0:0:
23,154,219062,1,0,0:0:0:0:
23,135,219143,1,0,0:0:0:0:
22,116,219224,1,0,0:0:0:0:
20,97,219305,5,4,3:2:0:0:
35,67,219386,1,0,0:0:0:0:
58,42,219467,1,0,0:0:0:0:
87,25,219548,1,0,0:0:0:0:
119,17,219629,1,0,0:0:0:0:
153,17,219710,1,0,0:0:0:0:
185,26,219791,1,0,0:0:0:0:
213,44,219872,1,0,0:0:0:0:
235,69,219954,1,8,3:2:0:0:
256,43,220035,1,0,0:0:0:0:
283,23,220116,1,0,0:0:0:0:
314,11,220197,1,0,0:0:0:0:
347,8,220278,1,0,0:0:0:0:
380,14,220359,1,0,0:0:0:0:
410,29,220440,1,0,0:0:0:0:
435,51,220521,1,0,0:0:0:0:
451,97,220603,5,8,3:2:0:0:
438,117,220684,1,0,0:0:0:0:
425,138,220765,1,8,0:0:0:0:
377,133,220846,1,8,0:0:0:0:
331,127,220927,5,8,0:0:0:0:
319,148,221008,1,0,0:0:0:0:
305,167,221089,1,8,0:0:0:0:
257,166,221170,1,8,0:0:0:0:
209,165,221251,5,8,3:2:0:0:
197,186,221332,1,0,0:0:0:0:
184,205,221413,1,8,0:0:0:0:
136,200,221495,1,8,0:0:0:0:
89,193,221576,5,8,0:0:0:0:
76,213,221657,1,0,0:0:0:0:
63,232,221738,1,8,0:0:0:0:
45,277,221819,1,8,0:0:0:0:
60,323,221900,5,8,3:2:0:0:
93,342,221981,1,0,0:0:0:0:
129,356,222062,1,2,3:2:0:0:
167,362,222143,1,0,0:0:0:0:
205,361,222224,1,2,3:2:0:0:
242,351,222305,1,0,0:0:0:0:
277,335,222386,1,0,0:0:0:0:
307,312,222467,1,0,0:0:0:0:
331,280,222549,1,8,3:2:0:0:
346,244,222630,1,0,0:0:0:0:
349,205,222711,5,0,0:0:0:0:
324,196,222792,1,0,0:0:0:0:
296,184,222873,5,8,0:3:0:0:
301,155,222954,1,0,0:0:0:0:
313,129,223035,1,8,0:3:0:0:
332,108,223116,1,0,0:0:0:0:
357,93,223197,5,4,0:0:0:0:
474,156,223359,1,0,0:0:0:0:
484,134,223440,1,0,0:0:0:0:
490,111,223521,1,0,0:0:0:0:
492,87,223602,1,0,0:0:0:0:
490,63,223683,5,0,0:0:0:0:
387,10,223846,1,8,3:2:0:0:
292,75,224008,1,0,0:0:0:0:
188,28,224170,1,0,0:0:0:0:
169,22,224251,1,0,0:0:0:0:
151,17,224332,1,0,0:0:0:0:
132,11,224413,1,0,0:0:0:0:
114,6,224494,5,8,3:2:0:0:
84,22,224576,1,0,0:0:0:0:
61,46,224657,1,0,0:0:0:0:
48,77,224738,1,0,0:0:0:0:
45,110,224819,1,0,0:0:0:0:
58,141,224900,1,0,0:0:0:0:
64,174,224981,1,0,0:0:0:0:
63,207,225062,1,0,0:0:0:0:
55,240,225143,1,8,3:2:0:0:
101,254,225224,1,0,0:0:0:0:
138,283,225305,5,0,0:0:0:0:
57,336,225468,1,0,0:0:0:0:
141,381,225630,1,0,0:0:0:0:
222,331,225792,1,8,3:2:0:0:
221,235,225954,1,0,0:0:0:0:
147,173,226116,1,0,0:0:0:0:
149,77,226278,1,0,0:0:0:0:
167,70,226359,1,0,0:0:0:0:
185,64,226440,1,8,3:2:0:0:
203,58,226521,1,0,0:0:0:0:
221,52,226602,1,0,0:0:0:0:
239,46,226683,1,0,0:0:0:0:
258,40,226764,1,0,0:0:0:0:
276,33,226845,1,0,0:0:0:0:
294,27,226926,1,0,0:0:0:0:
324,41,227007,1,0,0:0:0:0:
353,57,227088,5,8,3:2:0:0:
463,34,227251,1,0,0:0:0:0:
466,67,227332,1,0,0:0:0:0:
469,100,227413,1,0,0:0:0:0:
472,134,227494,1,0,0:0:0:0:
475,167,227575,1,0,0:0:0:0:
380,153,227738,5,8,3:2:0:0:
383,187,227819,1,0,0:0:0:0:
386,220,227900,1,0,0:0:0:0:
291,206,228062,1,0,0:0:0:0:
294,239,228143,1,0,0:0:0:0:
297,273,228224,1,0,0:0:0:0:
201,260,228387,1,4,0:0:0:0:
204,293,228468,1,0,0:0:0:0:
207,327,228549,1,0,0:0:0:0:
111,316,228711,1,0,0:0:0:0:
62,233,228873,1,0,0:0:0:0:
129,165,229035,1,8,3:2:0:0:
75,85,229197,5,0,0:0:0:0:
97,75,229278,1,0,0:0:0:0:
120,70,229359,1,0,0:0:0:0:
144,70,229440,1,0,0:0:0:0:
168,73,229521,1,0,0:0:0:0:
207,73,229603,1,0,0:0:0:0:
242,57,229684,5,8,3:2:0:0:
268,46,229765,1,0,0:0:0:0:
297,40,229846,1,0,0:0:0:0:
325,39,229927,1,0,0:0:0:0:
354,42,230008,1,0,0:0:0:0:
382,49,230089,1,0,0:0:0:0:
408,61,230170,1,0,0:0:0:0:
432,76,230251,1,0,0:0:0:0:
454,95,230332,1,8,3:2:0:0:
450,124,230413,1,0,0:0:0:0:
448,153,230494,1,0,0:0:0:0:
448,181,230575,1,0,0:0:0:0:
451,210,230656,1,0,0:0:0:0:
456,238,230737,1,0,0:0:0:0:
463,266,230818,1,0,0:0:0:0:
472,294,230899,1,0,0:0:0:0:
484,320,230980,5,8,3:2:0:0:
461,338,231062,1,0,0:0:0:0:
437,354,231143,1,8,0:0:0:0:
397,335,231224,1,8,0:0:0:0:
357,316,231305,5,8,0:0:0:0:
331,330,231387,1,0,0:0:0:0:
304,341,231468,1,8,0:0:0:0:
266,320,231549,1,8,0:0:0:0:
230,295,231630,5,8,3:2:0:0:
202,305,231712,1,0,0:0:0:0:
174,312,231793,1,8,0:0:0:0:
142,283,231873,1,8,0:0:0:0:
109,254,231954,5,8,0:0:0:0:
79,258,232036,1,0,0:0:0:0:
50,260,232117,1,12,0:0:0:0:
16,233,232197,1,8,0:0:0:0:
8,190,232278,5,12,0:0:0:0:
16,147,232359,1,8,0:0:0:0:
34,108,232440,1,2,3:2:0:0:
59,73,232521,1,8,0:0:0:0:
91,44,232602,1,2,3:2:0:0:
128,22,232683,1,8,0:0:0:0:
169,8,232764,1,8,0:0:0:0:
211,2,232845,1,8,0:0:0:0:
255,5,232927,5,8,3:2:0:0:
268,46,233008,1,8,0:0:0:0:
272,88,233089,1,8,0:3:0:0:
268,131,233170,1,8,0:3:0:0:
255,172,233251,1,8,0:0:0:0:
234,210,233332,1,8,0:3:0:0:
206,243,233413,1,8,0:3:0:0:
172,269,233494,1,8,0:0:0:0:
133,287,233575,5,8,3:2:0:0:
18,301,233738,1,0,0:0:0:0:
22,324,233819,1,0,0:0:0:0:
32,346,233900,1,0,0:0:0:0:
47,365,233981,1,0,0:0:0:0:
65,380,234062,1,0,0:0:0:0:
180,382,234224,1,8,3:2:0:0:
271,311,234387,1,0,0:0:0:0:
386,307,234549,1,0,0:0:0:0:
402,316,234630,1,0,0:0:0:0:
418,327,234711,1,0,0:0:0:0:
431,341,234792,1,0,0:0:0:0:
442,357,234873,5,8,3:2:0:0:
462,336,234954,1,0,0:0:0:0:
480,313,235035,1,0,0:0:0:0:
494,288,235116,1,0,0:0:0:0:
504,261,235197,1,0,0:0:0:0:
511,233,235278,1,0,0:0:0:0:
512,204,235359,1,0,0:0:0:0:
512,176,235440,1,0,0:0:0:0:
506,147,235521,1,8,3:2:0:0:
497,120,235602,1,0,0:0:0:0:
484,94,235683,5,0,0:0:0:0:
369,84,235846,1,0,0:0:0:0:
406,192,236008,1,0,0:0:0:0:
293,170,236170,1,8,3:2:0:0:
193,227,236332,1,0,0:0:0:0:
156,336,236495,1,0,0:0:0:0:
77,251,236657,1,0,0:0:0:0:
69,228,236738,1,0,0:0:0:0:
65,204,236819,1,8,3:2:0:0:
62,180,236900,1,0,0:0:0:0:
61,156,236981,1,0,0:0:0:0:
63,132,237062,1,0,0:0:0:0:
67,109,237143,5,0,0:0:0:0:
98,96,237224,1,0,0:0:0:0:
125,76,237305,1,0,0:0:0:0:
146,50,237386,1,0,0:0:0:0:
161,20,237467,1,8,3:2:0:0:
266,69,237630,1,0,0:0:0:0:
293,76,237711,1,0,0:0:0:0:
322,80,237792,1,0,0:0:0:0:
351,79,237873,1,0,0:0:0:0:
379,75,237954,1,0,0:0:0:0:
485,30,238116,1,8,3:2:0:0:
492,57,238197,1,0,0:0:0:0:
492,86,238278,1,0,0:0:0:0:
471,200,238441,1,0,0:0:0:0:
464,228,238522,1,0,0:0:0:0:
464,257,238603,1,0,0:0:0:0:
487,369,238765,5,4,0:0:0:0:
375,338,238927,1,0,0:0:0:0:
260,351,239089,1,0,0:0:0:0:
187,261,239251,1,0,0:0:0:0:
247,162,239414,1,8,3:2:0:0:
236,47,239576,5,0,0:0:0:0:
217,41,239657,1,0,0:0:0:0:
199,36,239738,1,0,0:0:0:0:
180,34,239819,1,0,0:0:0:0:
160,33,239900,1,0,0:0:0:0:
141,33,239981,1,0,0:0:0:0:
122,36,240062,5,8,3:2:0:0:
107,60,240143,1,0,0:0:0:0:
94,86,240224,1,0,0:0:0:0:
83,113,240305,1,0,0:0:0:0:
76,140,240386,1,0,0:0:0:0:
71,169,240467,1,0,0:0:0:0:
69,197,240548,1,0,0:0:0:0:
70,226,240629,1,0,0:0:0:0:
74,255,240711,5,8,3:2:0:0:
103,255,240792,1,0,0:0:0:0:
131,258,240873,1,0,0:0:0:0:
159,266,240954,1,0,0:0:0:0:
185,277,241035,1,0,0:0:0:0:
210,293,241116,1,0,0:0:0:0:
232,311,241197,1,0,0:0:0:0:
251,332,241278,1,0,0:0:0:0:
268,356,241359,5,8,3:2:0:0:
294,345,241440,1,0,0:0:0:0:
321,334,241521,1,8,0:0:0:0:
333,292,241603,1,8,0:0:0:0:
339,249,241684,5,8,0:0:0:0:
365,239,241765,1,0,0:0:0:0:
392,228,241846,1,8,0:0:0:0:
404,185,241928,1,8,0:0:0:0:
407,142,242008,5,8,3:2:0:0:
434,131,242089,1,0,0:0:0:0:
460,120,242170,1,8,0:0:0:0:
472,78,242252,1,8,0:0:0:0:
477,35,242332,5,8,0:0:0:0:
440,12,242413,1,0,0:0:0:0:
398,2,242494,1,0,0:0:0:0:
355,5,242575,1,0,0:0:0:0:
316,22,242657,5,8,3:2:0:0:
302,63,242738,1,0,0:0:0:0:
296,106,242819,1,0,0:0:0:0:
298,149,242900,1,0,0:0:0:0:
308,191,242981,1,0,0:0:0:0:
326,230,243062,1,0,0:0:0:0:
345,269,243143,1,0,0:0:0:0:
345,311,243224,1,0,0:0:0:0:
327,350,243305,5,8,3:2:0:0:
301,371,243386,1,0,0:0:0:0:
269,380,243467,1,0,0:0:0:0:
236,376,243548,1,0,0:0:0:0:
207,359,243629,1,0,0:0:0:0:
187,333,243710,1,0,0:0:0:0:
179,300,243791,1,0,0:0:0:0:
185,267,243872,1,0,0:0:0:0:
203,239,243953,5,4,0:0:0:0:
258,137,244116,1,0,0:0:0:0:
235,130,244197,1,0,0:0:0:0:
211,127,244278,1,0,0:0:0:0:
188,130,244359,1,0,0:0:0:0:
165,138,244440,1,0,0:0:0:0:
85,221,244603,1,8,3:2:0:0:
51,110,244765,1,0,0:0:0:0:
131,27,244927,1,0,0:0:0:0:
153,19,245008,1,0,0:0:0:0:
177,14,245089,1,0,0:0:0:0:
201,12,245170,1,0,0:0:0:0:
225,12,245251,5,8,3:2:0:0:
257,22,245332,1,0,0:0:0:0:
290,27,245413,1,0,0:0:0:0:
323,27,245494,1,0,0:0:0:0:
356,22,245576,1,0,0:0:0:0:
390,22,245657,1,0,0:0:0:0:
422,31,245738,1,0,0:0:0:0:
450,49,245819,1,0,0:0:0:0:
472,74,245900,1,8,3:2:0:0:
487,105,245981,1,0,0:0:0:0:
492,138,246062,5,0,0:0:0:0:
377,130,246224,1,0,0:0:0:0:
397,244,246387,1,0,0:0:0:0:
286,211,246549,1,4,0:0:0:0:
306,325,246712,1,0,0:0:0:0:
197,289,246873,1,0,0:0:0:0:
105,358,247035,1,0,0:0:0:0:
98,339,247116,1,0,0:0:0:0:
92,321,247197,1,8,3:2:0:0:
86,303,247278,1,0,0:0:0:0:
80,285,247359,1,0,0:0:0:0:
73,267,247440,1,0,0:0:0:0:
67,249,247521,1,0,0:0:0:0:
61,230,247602,1,0,0:0:0:0:
55,212,247683,1,0,0:0:0:0:
61,174,247764,1,0,0:0:0:0:
72,137,247845,5,8,3:2:0:0:
125,34,248008,1,2,3:2:0:0:
136,61,248089,1,2,3:2:0:0:
144,88,248170,1,8,0:3:0:0:
154,115,248251,1,0,0:0:0:0:
190,138,248332,1,4,0:0:0:0:
201,166,248413,1,0,0:0:0:0:
210,193,248494,1,2,0:3:0:0:
221,220,248575,1,2,0:3:0:0:
262,224,248657,1,0,0:0:0:0:
273,251,248738,1,0,0:0:0:0:
282,278,248819,1,2,0:3:0:0:
293,306,248900,1,2,0:3:0:0:
330,324,248981,5,4,0:0:0:0:
375,177,249305,1,0,0:0:0:0:
499,86,249630,1,0,0:0:0:0:
491,307,249954,1,0,0:0:0:0:
473,314,250035,1,0,0:0:0:0:
455,321,250116,1,0,0:0:0:0:
437,328,250197,1,0,0:0:0:0:
419,335,250278,1,4,0:3:0:0:
385,334,250359,1,0,0:0:0:0:
351,326,250441,5,0,0:0:0:0:
318,319,250522,1,0,0:0:0:0:
284,316,250603,1,4,0:3:0:0:
251,316,250684,1,0,0:0:0:0:
217,320,250765,1,0,0:0:0:0:
185,328,250846,1,0,0:0:0:0:
153,339,250927,1,0,0:0:0:0:
122,353,251008,1,0,0:0:0:0:
94,371,251089,1,4,0:3:0:0:
61,363,251170,1,0,0:0:0:0:
36,342,251251,1,0,0:0:0:0:
22,312,251332,1,0,0:0:0:0:
23,278,251413,1,4,0:3:0:0:
39,249,251494,1,0,0:0:0:0:
66,230,251575,1,0,0:0:0:0:
99,225,251656,1,0,0:0:0:0:
131,234,251737,5,12,0:0:0:0:
148,258,251819,1,8,0:0:0:0:
165,281,251900,1,2,0:0:0:0:
204,264,251981,1,2,0:0:0:0:
244,250,252062,5,8,0:0:0:0:
261,273,252144,1,8,0:0:0:0:
278,297,252225,1,2,0:0:0:0:
317,279,252306,1,2,0:0:0:0:
357,263,252387,5,8,0:0:0:0:
374,286,252469,1,8,0:0:0:0:
391,309,252550,1,2,0:0:0:0:
430,292,252631,1,2,0:0:0:0:
463,265,252711,1,2,0:0:0:0:
483,227,252792,1,2,0:0:0:0:
493,185,252873,1,2,0:0:0:0:
494,142,252954,1,2,0:0:0:0:
485,100,253035,5,12,0:0:0:0:
445,82,253116,1,8,0:0:0:0:
404,68,253197,1,10,3:2:0:0:
362,58,253278,1,8,0:0:0:0:
319,52,253359,1,10,3:2:0:0:
276,49,253440,1,8,0:0:0:0:
233,50,253521,1,8,0:0:0:0:
190,54,253602,1,8,0:0:0:0:
148,63,253684,5,8,0:0:0:0:
115,90,253765,1,8,0:0:0:0:
101,130,253846,1,8,0:0:0:0:
108,173,253927,1,8,0:0:0:0:
135,206,254008,1,8,0:0:0:0:
175,221,254089,1,8,0:0:0:0:
217,214,254170,1,8,0:0:0:0:
250,188,254251,1,8,0:0:0:0:
256,343,254657,5,4,0:0:0:0:
