osu file format v14

[General]
AudioFilename: Akasha.mp3
AudioLeadIn: 0
PreviewTime: 105143
Countdown: 0
SampleSet: Soft
StackLeniency: 0.7
Mode: 0
LetterboxInBreaks: 1
WidescreenStoryboard: 0

[Editor]
DistanceSpacing: 1.1
BeatDivisor: 4
GridSize: 4
TimelineZoom: 1

[Metadata]
Title:Akasha
TitleUnicode:Akasha
Artist:xi
ArtistUnicode:xi
Creator:Jemmmmy
Version:Basic
Source:
Tags:100sec Records Stream Energy Limitless Space World M3 27 2011 Urushi38 Minakami Yuki mtbbsben cdhsausageboy Evil_Twilight Kagami yuki _Gezo_
BeatmapID:366640
BeatmapSetID:118768

[Difficulty]
HPDrainRate:3
CircleSize:3
OverallDifficulty:3
ApproachRate:4
SliderMultiplier:1
SliderTickRate:1

[Events]
//Background and Video events
0,0,"Grand_Universe_by_ANTIFAN_REAL.jpg",0,0
//Break Periods
2,63829,64904
2,129992,138850
2,171505,180363
2,213019,221877
//Storyboard Layer 0 (Background)
//Storyboard Layer 1 (Fail)
//Storyboard Layer 2 (Pass)
//Storyboard Layer 3 (Foreground)
//Storyboard Sound Samples

[TimingPoints]
1360,324.324324324324,4,2,0,30,1,0
22116,-200,4,2,2,40,0,0
42873,-100,4,2,0,60,0,0
109035,-100,4,2,0,60,0,1
129792,-100,4,2,0,60,0,0
140170,-100,4,2,0,60,0,0
171305,-100,4,2,0,60,0,0
181684,-100,4,2,0,60,0,1
202278,-100,4,2,0,60,0,0
202441,-100,4,2,0,60,0,1
212819,-100,4,2,0,60,0,0
255630,-100,4,2,0,55,0,0
255954,-100,4,2,0,50,0,0
256278,-100,4,2,0,45,0,0
256603,-100,4,2,0,40,0,0
256927,-100,4,2,0,35,0,0
257251,-100,4,2,0,30,0,0
257576,-100,4,2,0,25,0,0
257900,-100,4,2,0,20,0,0
258224,-100,4,2,0,15,0,0

[Colours]
Combo1 : 49,227,34
Combo2 : 41,225,235
Combo3 : 31,63,190
Combo4 : 231,132,50

[HitObjects]
448,94,22116,6,0,P|474:190|445:289,1,200,0|2,0:0|0:0,0:0:0:0:
352,237,24711,2,0,P|256:211|157:240,1,200
64,284,27305,2,0,P|37:189|64:94,1,200,0|2,0:0|0:0,0:0:0:0:
256,44,29900,2,0,L|256:252,1,200,0|2,0:0|0:0,0:0:0:0:
92,208,32495,6,0,P|100:296|192:360,1,200,0|2,0:0|0:0,0:0:0:0:
327,358,35089,2,0,P|407:304|420:208,1,200
319,247,37684,2,0,P|256:183|195:251,1,200,0|2,0:0|0:0,0:0:0:0:
110,306,40278,2,0,P|96:249|165:125,1,200,0|2,0:0|0:0,0:0:0:0:
256,44,42873,6,0,P|360:120|392:240,1,250,4|0,0:0|0:0,0:0:0:0:
332,364,44170,2,0,P|256:380|176:356,2,150,8|8|8,0:0|0:0|0:0,0:0:0:0:
436,324,45468,6,0,P|436:276|408:216,1,100,8|0,0:0|0:0,0:0:0:0:
504,164,46116,2,0,P|470:130|407:107,1,100
332,164,46764,2,0,P|256:160|200:104,1,150,12|8,0:0|0:0,0:0:0:0:
100,80,47575,2,0,P|100:140|120:184,1,100,8|0,0:0|0:0,0:0:0:0:
172,268,48224,2,0,P|184:324|176:368,1,100
280,332,48873,6,0,P|336:312|400:324,1,100
432,320,49359,2,0,P|404:260|376:228,1,100
344,196,49846,2,0,P|404:168|460:168,1,100
492,168,50332,1,0,0:0:0:0:
424,80,50656,38,0,P|368:60|312:64,1,100,2|0,0:0|0:0,0:0:0:0:
220,80,51305,2,0,P|168:100|128:144,1,100,2|0,0:0|0:0,0:0:0:0:
112,240,51954,2,0,P|144:308|224:332,2,150,2|0|0,0:0|0:0|0:0,0:0:0:0:
220,224,53251,6,0,B|296:224|328:288|328:288|432:252|400:148,1,300,4|0,0:0|0:0,0:0:0:0:
312,104,54549,2,0,P|220:88|168:48,2,150
396,36,55846,2,0,P|408:148|288:208,1,250,2|0,0:0|0:0,0:0:0:0:
140,172,57143,2,0,P|140:256|188:316,1,150
280,268,57954,1,0,0:0:0:0:
368,332,58278,2,0,P|416:348|464:336,2,100
280,268,59251,6,0,P|252:216|256:112,2,150,8|0|0,0:0|0:0|0:0,0:0:0:0:
412,172,60710,1,0,0:0:0:0:
412,172,61035,2,0,P|420:104|448:64,1,100,2|0,0:0|0:0,0:0:0:0:
332,68,61683,2,0,P|312:120|320:184,1,100,2|0,0:0|0:0,0:0:0:0:
204,164,62332,2,0,P|204:114|185:68,1,100,2|0,0:0|0:0,0:0:0:0:
76,80,62980,2,0,P|97:124|99:174,1,100,2|0,0:0|0:0,0:0:0:0:
72,280,63629,1,4,0:0:0:0:
148,232,66224,6,0,P|96:256|8:228,2,150,6|0|8,0:0|0:0|0:0,0:0:0:0:
256,212,67522,2,0,P|250:269|182:331,2,150,2|0|8,2:0|0:0|2:0,0:0:0:0:
300,112,68819,2,0,P|346:145|366:235,2,150,2|0|8,2:0|0:0|2:0,0:0:0:0:
216,180,70116,2,0,P|188:124|188:96,2,75,8|8|0,0:0|0:0|0:0,0:0:0:0:
336,364,71414,6,0,P|404:316|420:232,2,150,0|0|8,0:0|0:0|0:0,0:0:0:0:
312,256,72711,2,0,P|268:192|180:172,2,150,0|0|8,0:0|0:0|0:0,0:0:0:0:
204,280,74008,2,0,P|112:240|96:128,1,200
176,80,74981,1,8,0:0:0:0:
280,44,75305,2,0,P|324:56|364:96,1,100,0|8,0:0|0:0,0:0:0:0:
448,164,75954,2,0,P|400:200|340:204,1,100,0|8,0:0|0:0,0:0:0:0:
268,264,76603,6,0,P|260:320|176:388,2,150,4|0|8,0:0|0:0|0:0,0:0:0:0:
160,276,77900,2,0,P|103:282|16:219,2,150,4|0|8,0:0|0:0|0:0,0:0:0:0:
112,176,79197,2,0,P|108:104|124:64,1,100,4|0,0:0|0:0,0:0:0:0:
208,20,79846,2,0,P|272:52|298:86,1,100
256,176,80495,2,0,P|352:164|396:116,2,150,0|0|0,0:0|0:0|0:0,0:0:0:0:
148,160,81792,6,0,P|164:228|244:276,2,150,4|0|8,0:0|0:0|0:0,0:0:0:0:
168,52,83089,2,0,P|219:26|280:33,1,100,0|8,0:0|0:0,0:0:0:0:
368,48,83738,2,0,P|412:83|431:141,1,100,0|8,0:0|0:0,0:0:0:0:
428,232,84387,2,0,P|412:288|294:376,1,200,4|0,0:0|0:0,0:0:0:0:
195,361,85359,1,8,0:0:0:0:
92,324,85684,6,0,P|52:272|44:228,1,100,2|8,0:0|0:0,0:0:0:0:
88,140,86332,2,0,P|153:131|195:146,1,100,2|8,0:0|0:0,0:0:0:0:
240,236,86981,2,0,P|308:336|384:224,1,300
316,140,88278,6,0,P|384:72|496:48,2,200,4|0|4,0:0|0:0|0:0,0:0:0:0:
252,232,89900,2,0,P|208:272|144:284,1,100,8|0,0:0|0:0,0:0:0:0:
60,292,90548,1,8,0:0:0:0:
56,184,90872,6,0,P|132:172|236:76,2,200,2|0|0,0:0|0:0|0:0,0:0:0:0:
48,72,92494,2,0,P|96:32|144:24,1,100,8|0,0:0|0:0,0:0:0:0:
240,16,93143,1,8,0:0:0:0:
328,80,93467,6,0,P|384:40|512:36,2,200,4|0|0,0:0|0:0|0:0,0:0:0:0:
284,176,95089,1,8,0:0:0:0:
244,280,95413,2,0,P|304:288|352:264,1,100,0|8,0:0|0:0,0:0:0:0:
416,192,96062,6,0,P|448:280|388:372,1,200,4|0,0:0|0:0,0:0:0:0:
288,360,97035,1,8,0:0:0:0:
188,316,97359,2,0,L|108:252,1,100,2|8,0:0|0:0,0:0:0:0:
208,208,98008,2,0,L|128:144,1,100,2|8,0:0|0:0,0:0:0:0:
232,104,98657,6,0,L|152:40,2,100,4|8|0,0:0|0:0|0:0,0:0:0:0:
324,168,99629,1,8,0:0:0:0:
432,176,99954,2,0,P|416:120|376:76,2,100,2|8|0,0:0|0:0|0:0,0:0:0:0:
376,272,100927,1,8,0:0:0:0:
316,364,101251,2,0,P|376:384|428:380,2,100,2|8|0,0:0|0:0|0:0,0:0:0:0:
212,328,102224,1,8,0:0:0:0:
116,276,102549,2,0,P|104:320|112:380,2,100,2|8|0,0:0|0:0|0:0,0:0:0:0:
216,228,103521,1,8,0:0:0:0:
164,132,103846,6,0,P|256:96|356:140,2,200,4|0|4,0:0|0:0|0:0,0:0:0:0:
68,188,105467,2,0,L|52:296,2,100,8|0|8,0:0|0:0|0:0,0:0:0:0:
92,80,106441,2,0,P|156:32|300:24,1,200
380,44,107413,1,8,0:0:0:0:
448,132,107737,2,0,L|488:236,1,100,2|8,0:0|0:0,0:0:0:0:
376,216,108386,2,0,L|416:320,1,100,2|8,0:0|0:0,0:0:0:0:
304,312,109035,6,0,P|256:360|168:368,2,150,4|0|8,0:0|0:0|0:0,0:0:0:0:
200,276,110332,2,0,P|134:258|83:186,2,150,2|0|8,0:0|0:0|0:0,0:0:0:0:
188,168,111630,2,0,P|170:102|207:22,2,150,2|0|8,0:0|0:0|0:0,0:0:0:0:
276,104,112927,2,0,P|332:120|380:112,2,100,0|8|0,0:0|0:0|0:0,0:0:0:0:
192,32,113900,1,8,0:0:0:0:
84,52,114224,6,0,P|28:100|8:208,2,150,6|0|8,0:0|0:0|0:0,0:0:0:0:
116,156,115522,1,0,0:0:0:0:
64,252,115846,1,8,0:0:0:0:
172,276,116170,6,0,L|272:276,1,100,2|8,0:0|0:0,0:0:0:0:
376,312,116819,2,0,P|384:248|368:208,2,100,4|8|4,0:0|0:0|0:0,0:0:0:0:
272,276,117791,1,8,0:0:0:0:
168,292,118116,2,0,P|172:224|200:184,1,100,4|8,0:0|0:0,0:0:0:0:
276,132,118764,2,0,P|228:96|168:92,1,100,4|8,0:0|0:0,0:0:0:0:
79,94,119414,6,0,L|51:177,2,75,4|0|0,0:0|0:0|0:0,0:0:0:0:
129,71,120062,2,0,L|152:0,2,75,0|0|0,0:0|0:0|0:0,0:0:0:0:
176,100,120711,2,0,L|148:183,2,75,0|0|0,0:0|0:0|0:0,0:0:0:0:
226,77,121359,2,0,L|250:6,2,75,0|0|0,0:0|0:0|0:0,0:0:0:0:
263,118,122008,6,0,P|312:144|376:144,2,100,4|8|0,0:0|0:0|0:0,0:0:0:0:
336,36,122981,1,8,0:0:0:0:
440,68,123305,2,0,P|468:124|468:176,1,100,0|8,0:0|0:0,0:0:0:0:
500,268,123954,2,0,P|450:267|404:247,1,100,0|8,0:0|0:0,0:0:0:0:
312,184,124603,6,0,P|284:240|176:272,2,150,2|0|8,0:0|0:0|0:0,0:0:0:0:
200,160,125900,2,0,L|80:104,1,100,2|8,0:0|0:0,0:0:0:0:
20,180,126549,2,0,L|120:228,1,100,2|8,0:0|0:0,0:0:0:0:
200,160,127197,6,0,P|336:88|456:164,1,300,0|8,0:0|0:0,0:0:0:0:
384,244,128494,2,0,L|304:316,1,100,2|8,0:0|0:0,0:0:0:0:
216,252,129143,2,0,L|136:324,1,100,2|8,0:0|0:0,0:0:0:0:
44,264,129792,1,6,0:0:0:0:
408,296,140170,6,0,B|348:256|276:300|276:300|188:268,1,200,4|0,1:0|0:0,0:0:0:0:
116,240,141142,1,8,0:0:0:0:
24,300,141467,2,0,B|-12:212|52:156|52:156|56:84,1,200
120,28,142440,1,8,0:0:0:0:
232,40,142765,6,0,B|224:100|176:120|176:120|224:156|236:204,1,200,4|0,0:0|0:0,0:0:0:0:
272,300,143737,1,8,0:0:0:0:
372,340,144062,2,0,P|380:284|356:228,1,100,0|8,0:0|0:0,0:0:0:0:
448,168,144710,2,0,P|403:133|343:125,1,100,0|8,0:0|0:0,0:0:0:0:
252,132,145359,6,0,P|184:240|36:188,1,300,4|8,0:0|0:0,0:0:0:0:
140,144,146657,2,0,P|208:36|356:88,1,300,4|8,0:0|0:0,0:0:0:0:
448,136,147953,6,0,P|416:188|424:252,1,100,4|8,0:0|0:0,0:0:0:0:
304,232,148602,2,0,P|318:291|369:330,1,100,4|8,0:0|0:0,0:0:0:0:
240,348,149251,2,0,P|168:344|128:324,1,100,0|8,0:0|0:0,0:0:0:0:
196,236,149899,2,0,P|181:165|190:121,1,100,0|8,0:0|0:0,0:0:0:0:
288,96,150548,6,0,P|344:88|400:40,2,100,0|8|0,0:0|0:0|0:0,0:0:0:0:
184,64,151521,1,8,0:0:0:0:
76,72,151846,2,0,B|80:132|124:168|180:168|180:168|248:228|184:308,1,300,2|8,0:0|0:0,0:0:0:0:
100,360,153143,6,0,P|48:328|24:280,2,100,0|8|0,0:0|0:0|0:0,0:0:0:0:
208,372,154115,1,8,0:0:0:0:
308,328,154441,2,0,B|280:272|228:268|228:268|224:200|288:128|368:160,1,300,2|8,0:0|0:0,0:0:0:0:
460,188,155738,6,0,P|436:240|400:272,2,100,4|8|0,0:0|0:0|0:0,0:0:0:0:
412,88,156710,1,8,0:0:0:0:
312,44,157035,2,0,B|300:128|344:168|344:168|292:248|164:200,1,300,2|8,0:0|0:0,0:0:0:0:
88,180,158332,6,0,P|52:120|52:84,2,100,0|8|0,0:0|0:0|0:0,0:0:0:0:
195,210,159305,1,8,0:0:0:0:
168,104,159630,2,0,B|256:92|292:164|292:164|396:136|384:28,1,300,4|8,0:0|0:0,0:0:0:0:
496,52,160926,6,0,P|488:108|456:172,1,100,2|8,0:0|0:0,0:0:0:0:
392,224,161575,2,0,P|348:256|268:256,1,100,0|8,0:0|0:0,0:0:0:0:
196,252,162224,2,0,P|136:220|104:176,2,100,0|8|0,0:0|0:0|0:0,0:0:0:0:
304,264,163197,1,8,0:0:0:0:
396,320,163521,6,0,P|404:260|376:200,1,100,2|8,0:0|0:0,0:0:0:0:
420,116,164170,2,0,P|360:116|304:152,1,100,0|8,0:0|0:0,0:0:0:0:
220,96,164819,2,0,P|216:152|248:208,2,100,0|8|0,0:0|0:0|0:0,0:0:0:0:
316,44,165791,1,8,0:0:0:0:
424,56,166116,6,0,P|472:84|504:144,2,100,4|8|0,0:0|0:0|0:0,0:0:0:0:
316,44,167088,1,8,0:0:0:0:
364,144,167413,2,0,P|376:208|364:260,2,100,4|8|0,0:0|0:0|0:0,0:0:0:0:
316,44,168386,1,8,0:0:0:0:
260,140,168710,2,0,P|223:193|177:222,2,100,6|8|0,0:0|0:0|0:0,0:0:0:0:
316,44,169683,1,8,0:0:0:0:
208,52,170007,6,0,L|108:88|108:88,1,100,2|8,0:0|0:0,0:0:0:0:
112,196,170656,2,0,L|12:232|12:232,1,100,2|8,0:0|0:0,0:0:0:0:
12,340,171305,1,6,0:0:0:0:
76,104,181683,6,0,P|140:104|180:128,1,100,0|12,0:0|0:0,0:0:0:0:
224,24,182332,2,0,P|269:69|280:114,1,100,0|8,0:0|0:0,0:0:0:0:
384,72,182980,2,0,P|384:136|360:176,1,100,0|8,0:0|0:0,0:0:0:0:
464,220,183629,2,0,P|418:265|373:276,1,100,0|8,0:0|0:0,0:0:0:0:
296,340,184278,6,0,P|276:288|224:256,1,100,2|8,0:0|0:0,0:0:0:0:
284,160,184926,2,0,P|228:151|175:180,1,100,0|8,0:0|0:0,0:0:0:0:
116,84,185575,2,0,P|80:127|79:188,1,100,0|8,0:0|0:0,0:0:0:0:
112,272,186224,1,0,0:0:0:0:
112,272,186548,1,8,0:0:0:0:
112,272,186873,6,0,P|176:264|264:336,2,150,2|0|8,0:0|0:0|0:0,0:0:0:0:
24,208,188170,2,0,P|84:168|136:168,1,100,0|8,0:0|0:0,0:0:0:0:
220,160,188818,2,0,P|244:100|288:68,1,100,0|8,0:0|0:0,0:0:0:0:
356,144,189468,2,0,P|464:208|352:244,1,300,2|8,0:0|0:0,0:0:0:0:
248,228,190764,2,0,P|232:304|192:340,1,100,0|8,0:0|0:0,0:0:0:0:
136,244,191413,2,0,P|70:286|17:283,1,100,0|8,0:0|0:0,0:0:0:0:
44,180,192062,6,0,P|72:96|152:56,2,150,4|0|8,0:0|0:0|0:0,0:0:0:0:
152,156,193359,2,0,P|220:116|236:28,2,150,2|0|8,0:0|0:0|0:0,0:0:0:0:
248,212,194657,2,0,L|400:168,2,150,2|0|8,0:0|0:0|0:0,0:0:0:0:
324,292,195953,2,0,L|220:320,1,100,0|8,0:0|0:0,0:0:0:0:
128,368,196602,2,0,P|120:304|144:260,1,100,0|8,0:0|0:0,0:0:0:0:
204,192,197251,6,0,P|160:180|128:148,2,75,4|0|0,0:0|0:0|0:0,0:0:0:0:
196,136,197900,2,0,P|173:96|173:51,2,75,0|0|0,0:0|0:0|0:0,0:0:0:0:
231,93,198549,2,0,P|286:137|303:184,1,100,4|0,0:0|0:0,0:0:0:0:
339,258,199197,2,0,P|395:262|447:234,1,100,0|8,0:0|0:0,0:0:0:0:
470,141,199845,6,0,P|406:141|370:161,1,100,4|8,0:0|0:0,0:0:0:0:
269,126,200494,2,0,P|269:190|289:226,1,100,4|8,0:0|0:0,0:0:0:0:
256,327,201143,2,0,P|320:327|356:307,1,100,4|8,0:0|0:0,0:0:0:0:
459,330,201791,2,0,P|459:266|439:230,1,100,4|8,0:0|0:0,0:0:0:0:
334,215,202440,6,0,L|390:155,2,75,6|0|0,0:0|0:0|0:0,0:0:0:0:
278,207,203089,2,0,L|310:295,2,75
222,195,203737,2,0,L|278:135,2,75,2|0|0,0:0|0:0|0:0,0:0:0:0:
166,187,204387,2,0,L|198:275,2,75
110,175,205035,5,4,0:0:0:0:
7,369,205684,1,0,0:0:0:0:
0,152,206332,2,0,P|28:108|80:84,1,100,0|8,0:0|0:0,0:0:0:0:
156,148,206980,2,0,P|204:168|256:160,1,100,0|8,0:0|0:0,0:0:0:0:
288,60,207629,6,0,P|332:84|360:126,1,100,2|8,0:0|0:0,0:0:0:0:
464,124,208278,2,0,P|453:176|419:220,1,100,0|8,0:0|0:0,0:0:0:0:
460,320,208927,2,0,P|406:323|354:302,1,100,0|8,0:0|0:0,0:0:0:0:
272,248,209576,2,0,P|220:220|160:220,1,100,0|8,0:0|0:0,0:0:0:0:
76,248,210224,6,0,P|140:356|316:364,1,300,4|8,0:0|0:0,0:0:0:0:
404,328,211521,2,0,P|452:276|464:232,1,100,0|8,0:0|0:0,0:0:0:0:
404,156,212170,2,0,P|333:158|293:181,1,100,0|8,0:0|0:0,0:3:0:0:
304,280,212819,1,4,0:0:0:0:
256,204,223197,6,0,P|336:164|364:48,1,200,4|0,0:0|0:0,0:0:0:0:
256,88,224169,1,8,0:0:0:0:
160,144,224494,2,0,B|132:100|144:60|144:60|84:32|36:92,1,200
12,200,225467,1,8,0:0:0:0:
56,300,225791,6,0,P|112:280|172:276,1,100,0|8,0:0|0:0,0:0:0:0:
168,168,226440,2,0,P|221:193|266:233,1,100,0|8,0:0|0:0,0:0:0:0:
336,148,227089,2,0,P|356:204|340:304,2,150,2|0|8,0:0|0:0|0:0,0:0:0:0:
248,80,228386,6,0,P|304:44|432:84,1,200,4|0,0:0|0:0,0:0:0:0:
452,184,229359,1,8,0:0:0:0:
344,156,229683,2,0,P|296:192|248:328,1,200
356,324,230656,1,8,0:0:0:0:
416,232,230981,6,0,B|360:208|344:156|344:156|224:180,1,200,2|0,0:0|0:0,0:0:0:0:
160,232,231953,1,8,0:0:0:0:
108,328,232278,2,0,P|60:264|56:224,1,100,0|8,0:0|0:0,0:0:0:0:
80,140,232926,2,0,P|128:100|144:56,1,100,0|8,0:0|0:0,0:0:0:0:
252,68,233575,6,0,P|272:116|336:148,2,100,4|8|0,0:0|0:0|0:0,0:0:0:0:
360,48,234548,1,8,0:0:0:0:
432,132,234872,2,0,P|408:184|424:248,1,100,0|8,0:0|0:0,0:0:0:0:
300,236,235521,2,0,P|319:289|372:332,1,100,0|8,0:0|0:0,0:0:0:0:
252,360,236170,6,0,P|212:312|216:172,1,200
308,128,237142,1,8,0:0:0:0:
216,64,237468,2,0,P|160:76|104:152,2,150,0|0|8,0:0|0:0|0:0,0:0:0:0:
324,40,238765,6,0,B|380:52|408:20|408:20|460:56|452:144,1,200,4|0,0:0|0:0,0:0:0:0:
432,224,239737,1,8,0:0:0:0:
376,316,240062,2,0,P|328:280|308:228,1,100,0|8,0:0|0:0,0:0:0:0:
200,244,240710,2,0,P|177:288|136:316,1,100,0|8,0:0|0:0,0:0:0:0:
80,224,241359,6,0,P|112:164|112:112,1,100,2|8,0:0|0:0,0:0:0:0:
116,24,242007,2,0,P|180:40|216:88,1,100,0|8,0:0|0:0,0:0:0:0:
308,62,242656,2,0,P|347:31|396:24,1,100,2|8,0:0|0:0,0:0:0:0:
397,133,243305,2,0,P|405:182|432:224,1,100,0|8,0:0|0:0,0:0:0:0:
356,304,243954,6,0,B|292:300|256:204|256:204|220:300|144:304,1,300,4|8,0:0|0:0,0:0:0:0:
88,216,245251,2,0,P|48:268|48:324,1,100,2|8,0:0|0:0,0:0:0:0:
153,303,245899,2,0,P|168:352|208:388,1,100,0|8,0:0|0:0,0:0:0:0:
310,386,246549,2,0,P|345:350|358:302,1,100,4|8,0:0|0:0,0:0:0:0:
468,300,247197,2,0,P|457:252|424:216,1,100,0|8,0:0|0:0,0:0:0:0:
320,176,247846,6,0,P|368:124|460:116,2,150,6|0|8,0:0|0:0|0:0,0:0:0:0:
244,256,249143,2,0,P|162:121|50:160,1,300
31,263,250440,2,0,P|28:323|57:377,1,100,2|8,0:0|0:0,0:0:0:0:
136,296,251089,2,0,P|176:340|234:357,1,100,0|8,0:0|0:0,0:0:0:0:
236,248,251737,6,0,P|296:250|350:221,1,100,2|8,0:0|0:0,0:0:0:0:
276,140,252387,2,0,P|324:100|332:44,1,100,0|8,0:0|0:0,0:0:0:0:
228,48,253034,1,2,0:0:0:0:
120,72,253359,1,8,0:0:0:0:
68,168,253683,1,2,0:0:0:0:
92,276,254007,1,8,0:0:0:0:
256,124,254656,5,6,0:0:0:0:
256,192,254980,12,6,260170,0:0:0:0:
