osu file format v14

[General]
AudioFilename: Akasha.mp3
AudioLeadIn: 0
PreviewTime: 105143
Countdown: 0
SampleSet: Soft
StackLeniency: 0.7
Mode: 0
LetterboxInBreaks: 1
WidescreenStoryboard: 0

[Editor]
DistanceSpacing: 1.4
BeatDivisor: 4
GridSize: 4
TimelineZoom: 1

[Metadata]
Title:Akasha
TitleUnicode:Akasha
Artist:xi
ArtistUnicode:xi
Creator:Jemmmmy
Version:Advanced
Source:
Tags:100sec Records Stream Energy Limitless Space World M3 27 2011 Urushi38 Minakami Yuki mtbbsben cdhsausageboy Evil_Twilight Kagami yuki _Gezo_
BeatmapID:468841
BeatmapSetID:118768

[Difficulty]
HPDrainRate:4
CircleSize:3.7
OverallDifficulty:5
ApproachRate:6
SliderMultiplier:1.2
SliderTickRate:1

[Events]
//Background and Video events
0,0,"Grand_Universe_by_ANTIFAN_REAL.jpg",0,0
//Break Periods
2,63830,64850
2,129992,139120
2,171505,180634
2,213019,222147
//Storyboard Layer 0 (Background)
//Storyboard Layer 1 (Fail)
//Storyboard Layer 2 (Pass)
//Storyboard Layer 3 (Foreground)
//Storyboard Sound Samples

[TimingPoints]
1360,324.324324324324,4,2,0,30,1,0
22116,-200,4,2,2,30,0,0
42873,-100,4,2,0,60,0,0
109035,-100,4,2,0,60,0,1
129792,-100,4,2,0,60,0,0
140170,-100,4,2,0,60,0,0
171305,-100,4,2,0,60,0,0
181684,-100,4,2,0,60,0,1
202278,-100,4,2,0,60,0,0
202441,-100,4,2,0,60,0,1
212819,-100,4,2,0,60,0,0
255630,-100,4,2,0,55,0,0
255954,-100,4,2,0,50,0,0
256278,-100,4,2,0,45,0,0
256603,-100,4,2,0,40,0,0
256927,-100,4,2,0,35,0,0
257251,-100,4,2,0,30,0,0
257576,-100,4,2,0,25,0,0
257900,-100,4,2,0,20,0,0
258224,-100,4,2,0,15,0,0

[Colours]
Combo1 : 49,227,34
Combo2 : 41,225,235
Combo3 : 31,63,190
Combo4 : 231,132,50

[HitObjects]
128,288,22116,6,0,B|168:264|208:264|244:288|244:288|272:308|324:308|368:288,2,240,4|2|0,0:0|0:0|0:0,0:0:0:0:
72,232,26008,2,0,P|48:168|64:52,1,180
140,48,27305,6,0,P|256:72|380:44,1,240,0|2,0:0|0:0,0:0:0:0:
372,336,29900,2,0,P|256:312|132:340,1,240,0|2,0:0|0:0,0:0:0:0:
216,148,32495,6,0,P|256:84|292:152,1,180
256,224,33792,2,0,P|364:252|492:216,1,240,2|0,0:0|0:0,0:0:0:0:
256,224,36387,2,0,P|148:252|20:216,1,240
256,84,38981,2,0,L|256:264,1,180,2|0,0:0|0:0,0:0:0:0:
312,328,40278,2,0,P|356:352|336:248,1,240,0|2,0:0|0:0,0:0:0:0:
168,88,42873,6,0,P|128:136|120:216,1,120,4|0,0:3|0:0,0:0:0:0:
172,228,43359,2,0,L|196:360,1,120,0|8,0:0|0:3,0:0:0:0:
256,372,43846,1,0,0:0:0:0:
360,328,44170,2,0,L|380:240,1,60,8|0,0:3|0:0,0:0:0:0:
416,220,44495,2,0,L|436:132,1,60,0|8,0:0|0:3,0:0:0:0:
468,108,44819,2,0,L|488:20,2,60,0|0|8,0:0|0:0|0:3,0:0:0:0:
352,44,45468,6,0,P|296:60|212:32,2,120,8|0|0,0:3|0:0|0:0,0:0:0:0:
408,12,46278,2,0,L|432:144,1,120,8|0,0:3|0:0,0:0:0:0:
432,196,46765,2,0,L|500:228,2,60,8|0|0,0:3|0:0|0:0,0:0:0:0:
372,168,47251,1,8,0:3:0:0:
348,296,47576,1,8,0:3:0:0:
252,205,47900,2,0,P|220:273|228:337,1,120,8|0,0:3|0:0,0:0:0:0:
106,381,48549,2,0,P|82:309|86:249,1,120,0|8,0:0|0:3,0:0:0:0:
95,200,49035,1,0,0:0:0:0:
139,75,49359,6,0,L|167:-5,1,60,8|0,0:3|0:0,0:0:0:0:
225,19,49684,2,0,L|230:84,1,60,0|8,0:0|0:3,0:0:0:0:
295,83,50008,2,0,L|323:3,1,60
380,19,50333,2,0,L|390:96,1,60,8|0,0:3|0:0,0:0:0:0:
428,130,50657,6,0,P|452:194|444:266,1,120,4|0,0:3|0:0,0:0:0:0:
342,321,51305,2,0,P|318:257|326:185,1,120
195,251,51954,2,0,L|155:315,2,60,8|0|0,0:3|0:0|0:0,0:0:0:0:
82,182,52603,2,0,L|113:131,2,60,8|0|0,0:3|0:0|0:0,0:0:0:0:
65,245,53089,1,0,0:0:0:0:
66,310,53251,6,0,P|110:362|180:373,1,120,4|0,0:0|0:0,0:0:0:0:
223,363,53738,2,0,P|283:343|347:355,1,120,0|8,0:0|0:3,0:0:0:0:
398,377,54224,1,0,0:0:0:0:
498,290,54549,2,0,P|446:254|374:250,1,120,8|0,0:3|0:0,0:0:0:0:
380,115,55197,2,0,P|317:126|264:174,1,120,0|8,0:0|0:3,0:0:0:0:
256,223,55684,1,0,0:0:0:0:
268,287,55846,6,0,L|288:355,2,60,8|0|0,0:3|0:0|0:0,0:0:0:0:
136,299,56495,2,0,L|152:359,2,60,0|8|0,0:0|0:3|0:0,0:0:0:0:
116,235,56981,1,0,0:0:0:0:
101,171,57143,2,0,L|65:31,1,120,8|0,0:3|0:0,0:0:0:0:
129,22,57630,1,8,0:3:0:0:
259,6,57954,1,8,0:3:0:0:
204,126,58278,1,8,0:3:0:0:
310,205,58603,1,8,0:3:0:0:
438,177,58927,6,0,L|470:309,1,120,0|8,0:0|0:3,0:0:0:0:
478,358,59414,1,0,0:0:0:0:
364,356,59738,2,0,L|288:352,1,60,8|0,0:3|0:0,0:0:0:0:
272,294,60062,2,0,L|196:290,1,60,0|8,0:0|0:3,0:0:0:0:
179,233,60387,2,0,L|103:229,1,60
99,166,60711,2,0,L|23:162,1,60,8|0,0:3|0:0,0:0:0:0:
20,99,61035,5,8,0:3:0:0:
77,65,61197,2,0,L|61:1,2,60,0|0|0,0:0|0:0|0:0,0:0:0:0:
143,66,61684,1,0,0:0:0:0:
206,82,61846,2,0,L|222:17,2,60,8|0|0,0:3|0:0|0:0,0:0:0:0:
257,123,62332,2,0,L|289:247,1,120,8|0,0:3|0:0,0:0:0:0:
350,219,62819,1,8,0:3:0:0:
412,199,62981,2,0,L|444:323,1,120
452,380,63468,1,8,0:3:0:0:
386,380,63630,5,4,0:0:0:0:
444,161,65900,6,0,L|468:241,1,60
407,257,66224,2,0,L|399:349,2,90,4|0|0,0:0|0:0|0:0,0:0:0:0:
349,223,66873,2,0,P|261:203|157:231,1,180,2|0,0:0|0:0,0:0:0:0:
123,264,67522,2,0,L|103:360,2,90,2|0|0,0:0|0:0|0:0,0:0:0:0:
86,208,68170,2,0,P|70:96|98:24,1,180,2|0,0:0|0:0,0:0:0:0:
151,5,68819,6,0,P|195:-3|259:9,2,90,2|0|0,0:0|0:0|0:0,0:0:0:0:
158,70,69468,2,0,P|142:114|154:170,2,90,2|0|0,0:0|0:0|0:0,0:0:0:0:
217,99,70116,2,0,L|341:247,1,180,2|0,0:0|0:0,0:0:0:0:
422,334,70927,1,0,0:0:0:0:
464,284,71089,2,0,P|477:247|480:212,1,60
437,175,71414,6,0,L|429:63,2,90,2|0|0,0:0|0:0|0:0,0:0:0:0:
373,156,72062,2,0,L|341:252,2,90,2|0|0,0:0|0:0|0:0,0:0:0:0:
311,132,72711,2,0,P|227:112|127:144,1,180,2|0,0:0|0:0,0:0:0:0:
57,241,73522,2,0,L|61:325,2,60,0|0|0,0:0|0:0|0:0,0:0:0:0:
49,175,74008,6,0,P|61:111|97:55,1,120,2|0,0:0|0:0,0:0:0:0:
146,30,74495,1,0,0:0:0:0:
211,27,74657,1,2,0:0:0:0:
315,107,74981,1,0,0:0:0:0:
419,26,75305,6,0,L|439:106,1,60
384,128,75630,2,0,L|404:208,1,60,0|0,0:0|0:0,0:0:0:0:
346,226,75954,2,0,L|366:306,1,60
305,321,76279,2,0,L|325:401,1,60,0|0,0:0|0:0,0:0:0:0:
253,377,76603,6,0,P|209:369|145:385,2,90,4|0|0,0:0|0:0|0:0,0:0:0:0:
241,312,77251,2,0,P|213:220|225:124,1,180,2|0,0:0|0:0,0:0:0:0:
260,84,77900,2,0,P|312:80|356:60,2,90,2|0|0,0:0|0:0|0:0,0:0:0:0:
194,74,78549,2,0,P|98:58|18:82,1,180,2|0,0:0|0:0,0:0:0:0:
7,145,79197,6,0,L|-1:253,2,90,4|0|0,0:0|0:0|0:0,0:0:0:0:
71,158,79846,2,0,B|99:194|99:194|79:234|83:285|111:338,1,180,2|0,0:0|0:0,0:0:0:0:
160,358,80495,2,0,L|176:242,2,90,2|0|0,0:0|0:0|0:0,0:0:0:0:
286,319,81305,2,0,L|277:381,2,60,0|0|0,0:0|0:0|0:0,0:0:0:0:
314,258,81792,6,0,P|414:238|494:266,2,180,4|0|0,0:0|0:0|0:0,0:0:0:0:
286,320,82927,1,0,0:0:0:0:
220,322,83089,2,0,L|184:258,1,60,4|0,0:0|0:0,0:0:0:0:
125,284,83414,2,0,L|113:211,1,60
51,209,83738,2,0,L|64:136,1,60
5,113,84063,2,0,L|43:50,1,60
93,30,84387,6,0,P|165:10|273:30,1,180,4|0,0:0|0:0,0:0:0:0:
270,93,85035,2,0,P|198:113|90:93,1,180,2|0,0:0|0:0,0:0:0:0:
60,151,85684,2,0,L|64:239,1,60,2|0,0:0|0:0,0:0:0:0:
100,265,86008,2,0,L|134:204,1,60,2|0,0:0|0:0,0:0:0:0:
181,252,86332,2,0,L|185:340,1,60,2|0,0:0|0:0,0:0:0:0:
229,359,86656,2,0,L|255:304,1,60,2|0,0:0|0:0,0:0:0:0:
306,347,86981,6,0,P|422:303|470:198,1,240,4|0,0:0|0:0,0:0:0:0:
338,218,87954,2,0,P|337:175|342:154,1,60
366,97,88278,6,0,L|382:1,2,90,4|0|0,0:0|0:0|0:0,0:0:0:0:
308,129,88927,2,0,P|252:149|180:117,1,120,8|0,0:3|0:0,0:0:0:0:
131,116,89414,1,0,0:0:0:0:
79,157,89576,2,0,P|47:213|43:249,2,90,8|0|0,0:3|0:0|0:0,0:0:0:0:
69,91,90224,1,8,0:3:0:0:
176,13,90549,1,0,0:0:0:0:
292,74,90873,6,0,L|300:178,2,90,8|0|0,0:3|0:0|0:0,0:0:0:0:
333,22,91522,1,8,0:3:0:0:
451,80,91846,1,0,0:0:0:0:
482,207,92170,2,0,P|491:246|502:319,2,90,8|0|0,0:3|0:0|0:0,0:0:0:0:
418,227,92819,2,0,L|402:303,1,60,8|0,0:3|0:0,0:0:0:0:
339,281,93143,2,0,L|323:357,1,60
260,347,93468,6,0,L|163:368,2,90,4|0|0,0:0|0:0|0:0,0:0:0:0:
275,282,94116,1,8,0:3:0:0:
270,149,94441,1,0,0:0:0:0:
138,147,94765,2,0,L|114:223,2,60,8|0|0,0:3|0:0|0:0,0:0:0:0:
162,85,95251,1,0,0:0:0:0:
98,92,95414,2,0,L|20:109,1,60,8|0,0:3|0:0,0:0:0:0:
14,165,95738,2,0,L|6:233,1,60
46,277,96062,6,0,L|74:385,2,90,4|0|0,0:0|0:0|0:0,0:0:0:0:
76,218,96711,1,8,0:3:0:0:
164,119,97035,1,0,0:0:0:0:
189,248,97359,2,0,L|199:309,1,60,8|0,0:3|0:0,0:0:0:0:
261,283,97684,2,0,L|282:343,1,60
334,301,98008,2,0,L|365:355,1,60,8|0,0:3|0:0,0:0:0:0:
413,307,98333,2,0,L|453:354,1,60
485,296,98657,6,0,P|497:248|493:188,2,90,4|0|0,0:0|0:0|0:0,0:0:0:0:
452,354,99305,2,0,P|384:366|316:346,1,120,8|0,0:3|0:0,0:0:0:0:
271,335,99792,1,0,0:0:0:0:
207,318,99954,2,0,P|151:318|107:338,2,90,8|0|0,0:3|0:0|0:0,0:0:0:0:
257,274,100603,2,0,P|281:226|289:154,1,120,8|0,0:3|0:0,0:0:0:0:
280,95,101089,1,0,0:0:0:0:
341,117,101251,6,0,P|405:113|433:97,2,90,4|0|0,0:0|0:0|0:0,0:0:0:0:
280,95,101900,2,0,P|220:83|148:99,1,120,8|0,0:3|0:0,0:0:0:0:
108,130,102387,1,0,0:0:0:0:
81,190,102549,2,0,L|53:294,2,90,8|0|0,0:3|0:0|0:0,0:0:0:0:
146,186,103197,1,8,0:3:0:0:
144,318,103522,2,0,L|212:322,1,60
266,299,103846,6,0,P|318:295|430:363,1,180,4|0,0:0|0:0,0:0:0:0:
399,295,104495,2,0,P|411:203|463:131,1,180,8|0,0:3|0:0,0:0:0:0:
505,85,105143,1,8,0:0:0:0:
399,5,105468,1,8,0:0:0:0:
274,47,105792,1,8,0:0:0:0:
235,173,106116,1,8,0:0:0:0:
169,58,106441,6,0,P|129:86|101:170,1,120,4|0,0:0|0:0,0:0:0:0:
186,249,107089,2,0,P|198:313|166:381,1,120,8|0,0:3|0:0,0:0:0:0:
114,373,107576,1,0,0:0:0:0:
59,336,107738,2,0,L|35:260,1,60,8|0,0:3|0:0,0:0:0:0:
56,214,108062,2,0,L|32:138,1,60
58,93,108387,6,0,P|114:61|234:93,1,180,8|0,0:3|0:0,0:0:0:0:
272,124,109035,6,0,L|376:128,2,90,4|0|0,0:0|0:0|0:0,0:0:0:0:
249,186,109684,2,0,L|159:182,2,90,8|0|0,0:3|0:0|0:0,0:0:0:0:
289,237,110332,2,0,L|385:241,2,90,8|0|0,0:3|0:0|0:0,0:0:0:0:
251,292,110981,2,0,L|147:288,2,90,8|0|0,0:3|0:0|0:0,0:0:0:0:
288,347,111630,6,0,P|372:367|472:343,1,180,8|0,0:3|0:0,0:0:0:0:
497,292,112278,2,0,P|509:252|505:188,2,90,8|0|0,0:3|0:0|0:0,0:0:0:0:
430,289,112927,2,0,P|378:245|354:181,2,120,8|0|8,0:3|0:0|0:3,0:0:0:0:
474,160,113900,2,0,L|498:88,1,60
438,66,114224,6,0,L|358:10,2,90,4|0|0,0:0|0:0|0:0,0:0:0:0:
377,92,114873,2,0,L|282:66,2,90,8|0|0,0:3|0:0|0:0,0:0:0:0:
352,136,115522,2,0,P|328:212|348:312,1,180,4|0,0:0|0:0,0:0:0:0:
372,369,116170,2,0,L|304:385,1,60,8|0,0:3|0:0,0:0:0:0:
262,340,116495,2,0,L|194:356,1,60
137,351,116819,6,0,L|17:327,2,120,4|0|8,0:0|0:0|0:3,0:0:0:0:
183,227,117792,2,0,P|213:227|251:211,1,60
289,172,118116,2,0,L|341:224,1,60,4|0,0:0|0:0,0:0:0:0:
353,152,118441,2,0,L|419:183,1,60
411,111,118765,2,0,L|484:117,2,60,8|0|0,0:3|0:0|0:0,0:0:0:0:
350,84,119251,1,0,0:0:0:0:
307,32,119414,6,0,L|195:24,2,90,4|0|0,0:0|0:0|0:0,0:0:0:0:
350,84,120062,2,0,L|439:90,2,90,8|0|0,0:3|0:0|0:0,0:0:0:0:
299,127,120711,2,0,L|187:119,2,90,8|0|0,0:3|0:0|0:0,0:0:0:0:
335,181,121359,2,0,L|424:187,2,90,8|0|0,0:3|0:0|0:0,0:0:0:0:
295,234,122008,2,0,P|227:270|103:258,1,180,4|0,0:0|0:0,0:0:0:0:
77,222,122657,2,0,L|57:118,2,90,8|0|0,0:3|0:0|0:0,0:0:0:0:
61,286,123305,5,8,0:3:0:0:
161,372,123630,1,0,0:0:0:0:
251,275,123954,1,8,0:3:0:0:
348,364,124279,1,0,0:0:0:0:
451,282,124603,6,0,L|471:142,1,120,8|0,0:3|0:0,0:0:0:0:
402,166,125089,2,0,L|422:26,1,120
359,18,125576,2,0,P|331:46|319:86,1,60
288,120,125900,6,0,L|244:64,1,60,4|0,0:0|0:0,0:0:0:0:
217,129,126224,2,0,L|160:86,1,60,0|0,0:0|0:0,0:0:0:0:
152,157,126549,2,0,L|85:130,1,60,8|0,0:3|0:0,0:0:0:0:
98,200,126873,2,0,L|27:191,1,60,0|0,0:0|0:0,0:0:0:0:
57,255,127197,6,0,P|129:327|229:319,1,180,4|0,0:0|0:0,0:0:0:0:
246,280,127846,2,0,L|318:300,1,60,8|0,0:3|0:0,0:0:0:0:
358,258,128170,2,0,L|430:278,1,60
477,250,128495,6,0,P|461:182|477:106,1,120,4|0,0:0|0:0,0:0:0:0:
496,73,128981,1,0,0:0:0:0:
436,45,129143,2,0,P|364:21|296:29,1,120,8|0,0:3|0:0,0:0:0:0:
261,51,129630,1,0,0:0:0:0:
226,107,129792,1,4,0:0:0:0:
454,313,140170,6,0,P|396:297|338:307,1,120,4|0,0:0|0:0,0:0:0:0:
210,342,140819,2,0,P|151:351|94:336,1,120,0|0,0:0|0:0,0:0:0:0:
48,287,141305,1,0,0:0:0:0:
48,220,141468,2,0,L|64:88,1,120
171,26,142116,2,0,L|156:145,1,120
148,210,142603,1,0,0:0:0:0:
208,183,142765,6,0,P|276:159|336:167,1,120,4|0,0:0|0:0,0:0:0:0:
284,289,143414,2,0,P|349:320|385:368,1,120
439,382,143900,1,0,0:0:0:0:
490,341,144062,2,0,L|498:257,1,60
430,271,144387,2,0,L|438:187,1,60
370,199,144711,2,0,L|378:115,1,60
309,131,145036,2,0,L|317:47,1,60
249,65,145359,6,0,P|213:45|77:69,2,180,4|0|0,0:0|0:0|0:0,0:0:0:0:
295,113,146495,1,0,0:0:0:0:
286,178,146657,2,0,L|262:366,2,180,4|0|0,0:0|0:0|0:0,0:0:0:0:
349,159,147792,1,0,0:0:0:0:
409,185,147954,6,0,L|445:249,1,60,4|0,0:0|0:0,0:0:0:0:
383,357,148441,2,0,L|353:304,2,60,0|0|0,0:0|0:0|0:0,0:0:0:0:
251,359,149089,1,0,0:0:0:0:
251,359,149251,2,0,L|187:339,1,60,4|0,0:0|0:0,0:0:0:0:
208,276,149576,2,0,L|142:261,1,60
160,198,149900,2,0,L|93:189,1,60,4|0,0:0|0:0,0:0:0:0:
112,125,150225,2,0,L|45:122,1,60,4|0,0:0|0:0,0:0:0:0:
59,57,150549,5,4,0:0:0:0:
117,26,150711,1,0,0:0:0:0:
182,31,150873,1,0,0:0:0:0:
264,133,151197,1,8,0:3:0:0:
329,133,151359,1,0,0:0:0:0:
389,106,151522,1,0,0:0:0:0:
487,18,151846,2,0,P|508:68|503:150,1,120,8|0,0:3|0:0,0:0:0:0:
456,255,152495,2,0,P|422:298|349:334,1,120,8|0,0:3|0:0,0:0:0:0:
253,260,153143,5,4,0:0:0:0:
187,258,153305,1,0,0:0:0:0:
127,288,153468,1,0,0:0:0:0:
30,377,153792,1,8,0:3:0:0:
11,313,153954,1,0,0:0:0:0:
21,247,154116,1,0,0:0:0:0:
113,152,154441,2,0,P|137:88|133:12,1,120,8|0,0:3|0:0,0:0:0:0:
269,38,155089,2,0,P|271:97|293:153,1,120,8|0,0:3|0:0,0:0:0:0:
392,240,155738,5,4,0:0:0:0:
425,183,155900,1,0,0:0:0:0:
439,118,156062,1,0,0:0:0:0:
352,18,156387,1,8,0:3:0:0:
286,23,156549,1,0,0:0:0:0:
230,58,156711,1,0,0:0:0:0:
145,159,157035,2,0,L|137:235,1,60,8|0,0:3|0:0,0:0:0:0:
80,250,157359,2,0,L|72:326,1,60
137,292,157684,2,0,P|201:292|265:328,1,120,8|0,0:3|0:0,0:0:0:0:
363,383,158332,6,0,L|379:315,1,60,4|0,0:0|0:0,0:0:0:0:
425,279,158657,1,0,0:0:0:0:
376,156,158981,2,0,L|392:88,1,60,8|0,0:3|0:0,0:0:0:0:
448,67,159306,1,0,0:0:0:0:
323,23,159630,6,0,L|255:15,1,60,8|0,0:3|0:0,0:0:0:0:
204,46,159954,2,0,L|136:38,1,60,0|0,0:0|0:0,0:0:0:0:
97,85,160278,2,0,L|57:149,1,60,8|0,0:3|0:0,0:0:0:0:
84,199,160603,2,0,L|44:263,1,60,0|0,0:0|0:0,0:0:0:0:
64,314,160927,5,4,0:0:0:0:
108,362,161089,1,0,0:0:0:0:
173,362,161251,1,0,0:0:0:0:
300,327,161576,1,8,0:3:0:0:
352,286,161738,1,0,0:0:0:0:
359,220,161900,1,0,0:0:0:0:
296,103,162224,2,0,P|252:59|184:35,1,120,8|0,0:3|0:0,0:0:0:0:
116,140,162873,2,0,P|168:188|232:204,1,120,8|0,0:3|0:0,0:0:0:0:
342,171,163522,5,4,0:0:0:0:
402,145,163684,1,0,0:0:0:0:
466,156,163846,1,0,0:0:0:0:
507,281,164170,1,8,0:3:0:0:
468,334,164332,1,0,0:0:0:0:
410,366,164494,1,0,0:0:0:0:
281,334,164819,2,0,P|221:322|157:338,1,120,8|0,0:3|0:0,0:0:0:0:
147,203,165468,2,0,P|87:215|23:199,1,120,8|0,0:3|0:0,0:0:0:0:
99,90,166116,6,0,L|131:22,1,60,4|0,0:0|0:0,0:0:0:0:
189,23,166441,1,0,0:0:0:0:
267,128,166765,2,0,L|328:85,1,60,8|0,0:3|0:0,0:0:0:0:
382,93,167090,1,0,0:0:0:0:
401,223,167414,6,0,L|417:303,1,60,8|0,0:3|0:0,0:0:0:0:
464,322,167738,1,0,0:0:0:0:
344,378,168062,2,0,L|332:319,1,60,8|0,0:3|0:0,0:0:0:0:
286,272,168386,1,0,0:0:0:0:
183,355,168711,6,0,L|115:367,2,60,4|0|0,0:0|0:0|0:0,0:0:0:0:
217,298,169197,1,0,0:0:0:0:
171,250,169359,2,0,L|103:262,2,60,8|0|0,0:3|0:0|0:0,0:0:0:0:
190,187,169845,1,0,0:0:0:0:
147,136,170008,6,0,L|287:108,1,120,4|0,0:0|0:0,0:0:0:0:
330,110,170495,1,0,0:0:0:0:
394,125,170657,2,0,P|453:205|474:365,1,240,8|4,0:3|0:0,0:0:0:0:
117,127,181684,6,0,L|101:251,1,120,0|4,0:0|0:0,0:0:0:0:
148,292,182170,1,0,0:0:0:0:
213,301,182332,2,0,P|269:293|313:305,2,90,2|0|0,0:0|0:0|0:0,0:0:0:0:
173,354,182981,2,0,P|117:362|73:350,2,90,2|0|0,0:0|0:0|0:0,0:0:0:0:
149,292,183630,2,0,L|165:152,1,120,2|0,0:0|0:0,0:0:0:0:
178,108,184116,1,0,0:0:0:0:
234,74,184278,6,0,L|330:58,2,90,6|0|0,0:0|0:0|0:0,0:0:0:0:
278,122,184927,2,0,L|373:139,2,90,2|0|0,0:0|0:0|0:0,0:0:0:0:
306,181,185576,2,0,P|322:229|304:320,2,120,4|0|0,0:0|0:0|0:0,0:0:0:0:
196,252,186549,1,8,0:0:0:0:
255,369,186873,6,0,P|307:385|374:370,1,120,4|0,0:0|0:0,0:0:0:0:
420,329,187359,2,0,P|440:277|432:211,1,120,2|0,0:0|0:0,0:0:0:0:
395,159,187846,1,2,0:0:0:0:
279,94,188170,5,4,0:0:0:0:
173,173,188495,1,8,0:0:0:0:
164,41,188819,1,8,0:0:0:0:
52,112,189144,1,8,0:0:0:0:
58,243,189468,6,0,L|62:367,1,120,4|0,0:0|0:0,0:0:0:0:
119,330,189954,1,0,0:0:0:0:
182,314,190116,2,0,P|241:309|306:330,1,120,8|0,0:0|0:0,0:0:0:0:
353,363,190603,1,0,0:0:0:0:
413,337,190765,6,0,L|421:273,1,60,4|0,0:0|0:0,0:0:0:0:
358,253,191089,2,0,L|366:189,1,60
308,159,191414,2,0,L|316:95,1,60
261,61,191738,2,0,L|269:-3,1,60,2|0,0:0|0:0,0:0:0:0:
334,5,192062,6,0,L|430:1,2,90,4|0|0,0:0|0:0|0:0,0:0:0:0:
326,70,192711,1,2,0:0:0:0:
435,143,193035,1,0,0:0:0:0:
407,271,193359,6,0,L|427:387,2,90,2|0|0,0:0|0:0|0:0,0:0:0:0:
347,241,194008,1,2,0:0:0:0:
288,358,194332,1,0,0:0:0:0:
196,262,194657,2,0,P|155:264|96:294,2,90,2|0|0,0:0|0:0|0:0,0:0:0:0:
261,262,195305,2,0,P|305:258|347:241,2,90,10|0|0,0:0|0:0|0:0,0:0:0:0:
226,205,195954,6,0,L|210:81,2,120,2|0|0,0:0|0:0|0:0,0:0:0:0:
306,310,196927,2,0,L|386:330,1,60
397,267,197251,6,0,L|493:259,2,90,2|0|0,0:0|0:0|0:0,0:0:0:0:
416,203,197900,2,0,L|495:148,2,90,2|0|0,0:0|0:0|0:0,0:0:0:0:
401,138,198549,2,0,P|377:86|317:38,2,120,6|0|0,0:0|0:0|0:0,0:0:0:0:
270,158,199522,1,0,0:0:0:0:
201,270,199846,2,0,P|149:302|81:310,1,120,4|0,0:0|0:0,0:0:0:0:
64,250,200332,1,0,0:0:0:0:
18,203,200495,2,8,P|32:143|74:89,1,120,2|8,0:0|0:0,0:0:0:0:
175,22,201143,6,0,L|251:26,1,60,4|0,0:0|0:0,0:0:0:0:
238,91,201468,2,0,L|314:95,1,60
309,159,201792,2,0,L|385:163,1,60,8|0,0:0|0:0,0:0:0:0:
380,227,202117,2,0,L|456:231,1,60
458,293,202441,6,0,P|457:330|442:385,2,90,4|0|0,0:0|0:0|0:0,0:0:0:0:
395,313,203089,2,0,P|359:325|271:321,1,120,2|0,0:0|0:0,0:0:0:0:
229,277,203576,1,0,0:0:0:0:
177,318,203738,2,0,P|121:334|69:326,2,90,2|0|0,0:0|0:0|0:0,0:0:0:0:
165,252,204387,2,0,P|153:188|173:108,1,120,2|0,0:0|0:0,0:0:0:0:
205,84,204873,1,0,0:0:0:0:
259,46,205035,6,0,L|159:22,2,90,2|0|0,0:0|0:0|0:0,0:0:0:0:
323,30,205684,2,0,L|410:51,2,90,2|0|0,0:0|0:0|0:0,0:0:0:0:
302,92,206332,2,0,L|322:232,1,120,2|0,0:0|0:0,0:0:0:0:
381,189,206819,2,0,L|401:329,1,120
449,349,207305,1,8,0:0:0:0:
320,318,207630,6,0,P|261:311|192:327,1,120,4|0,0:0|0:0,0:0:0:0:
145,356,208116,2,0,P|113:316|101:232,1,120,2|0,0:0|0:0,0:0:0:0:
109,184,208603,1,2,0:0:0:0:
145,128,208765,1,0,0:0:0:0:
205,102,208927,6,0,L|201:30,1,60,2|0,0:0|0:0,0:0:0:0:
262,66,209251,2,0,L|289:12,1,60,0|0,0:0|0:0,0:0:0:0:
329,64,209576,2,0,L|389:24,1,60,2|0,0:0|0:0,0:0:0:0:
386,96,209900,2,0,L|445:92,1,60,0|0,0:0|0:0,0:0:0:0:
423,153,210224,6,0,P|443:200|443:281,2,120,4|0|0,0:0|0:0|0:0,0:0:0:0:
305,213,211197,2,0,L|281:297,1,60
236,311,211522,6,0,L|232:383,2,60,4|0|0,0:0|0:0|0:0,0:0:0:0:
178,278,212008,1,0,0:0:0:0:
119,248,212170,2,0,L|115:320,2,60,2|0|0,0:0|0:0|0:0,0:0:0:0:
61,216,212656,1,0,0:0:0:0:
2,185,212819,1,4,0:0:0:0:
448,16,223197,6,0,L|432:160,1,120,4|0,0:0|0:0,0:0:0:0:
382,176,223684,2,0,L|366:320,1,120
322,341,224170,1,8,0:0:0:0:
221,254,224495,2,0,P|169:242|101:254,1,120,8|0,0:0|0:0,0:0:0:0:
60,302,224981,1,0,0:0:0:0:
15,253,225143,2,0,L|-1:169,1,60
17,129,225468,1,8,0:0:0:0:
114,40,225792,6,0,P|179:28|233:41,1,120,8|0,0:0|0:0,0:0:0:0:
267,94,226278,1,0,0:0:0:0:
282,158,226441,2,0,L|282:242,2,60,8|0|0,0:0|0:0|0:0,0:0:0:0:
329,112,226927,1,0,0:0:0:0:
394,104,227089,6,0,P|450:117|494:164,1,120,8|0,0:0|0:0,0:0:0:0:
505,225,227575,1,8,0:0:0:0:
376,254,227900,1,8,0:0:0:0:
298,360,228224,2,0,P|238:376|170:344,2,120,4|0|0,0:0|0:0|0:0,0:0:0:0:
244,239,229197,1,0,0:0:0:0:
184,210,229359,2,0,L|128:230,1,60
67,201,229684,6,0,L|39:137,1,60,8|0,0:0|0:0,0:0:0:0:
108,154,230008,2,0,L|80:90,1,60
148,110,230332,2,0,L|120:46,1,60,8|0,0:0|0:0,0:0:0:0:
189,64,230656,2,0,L|161:0,1,60
231,14,230981,6,0,L|351:22,1,120,8|0,0:0|0:0,0:0:0:0:
334,86,231468,1,0,0:0:0:0:
316,149,231630,2,0,L|436:157,1,120,8|0,0:0|0:0,0:0:0:0:
416,220,232117,1,0,0:0:0:0:
392,281,232278,2,0,L|364:349,2,60,8|0|0,0:0|0:0|0:0,0:0:0:0:
262,308,232927,2,0,L|234:376,2,60,0|0|0,0:0|0:0|0:0,0:0:0:0:
242,245,233413,1,0,0:0:0:0:
175,240,233576,6,0,L|51:252,1,120,4|0,0:0|0:0,0:0:0:0:
12,201,234062,1,0,0:0:0:0:
61,78,234387,1,0,0:0:0:0:
117,43,234549,2,0,P|161:27|185:27,1,60
225,66,234873,6,0,L|349:66,1,120,8|0,0:0|0:0,0:0:0:0:
391,113,235359,1,0,0:0:0:0:
343,159,235522,2,0,L|223:159,1,120,8|0,0:0|0:0,0:0:0:0:
163,186,236008,1,0,0:0:0:0:
137,246,236170,6,0,L|125:334,2,60,8|0|0,0:0|0:0|0:0,0:0:0:0:
201,262,236657,1,0,0:0:0:0:
264,279,236819,2,0,L|252:367,2,60,8|0|0,0:0|0:0|0:0,0:0:0:0:
328,294,237305,1,0,0:0:0:0:
391,312,237468,6,0,L|407:184,1,120,8|0,0:0|0:0,0:0:0:0:
470,207,237954,1,8,0:0:0:0:
466,75,238278,1,8,0:0:0:0:
352,7,238603,1,8,0:0:0:0:
238,73,238927,1,8,0:0:0:0:
217,203,239251,6,0,L|201:355,1,120
166,376,239738,1,8,0:0:0:0:
37,344,240062,2,0,L|21:260,1,60,8|0,0:0|0:0,0:0:0:0:
71,236,240387,2,0,L|77:150,1,60
137,155,240711,2,0,L|165:74,1,60,8|0,0:0|0:0,0:0:0:0:
220,81,241036,2,0,L|268:10,1,60
317,43,241359,6,0,P|385:31|453:51,1,120,8|0,0:0|0:0,0:0:0:0:
472,95,241846,1,0,0:0:0:0:
431,146,242008,2,0,P|363:158|295:138,1,120,8|0,0:0|0:0,0:0:0:0:
254,117,242495,1,0,0:0:0:0:
189,132,242657,6,0,L|125:192,1,60,8|0,0:0|0:0,0:0:0:0:
188,222,242981,2,0,L|162:305,1,60
234,292,243305,2,0,L|253:377,1,60,8|0,0:0|0:0,0:0:0:0:
309,330,243629,2,0,L|369:394,1,60
404,336,243954,5,4,0:0:0:0:
464,310,244116,1,0,0:0:0:0:
491,250,244278,2,0,L|503:178,2,60,0|0|0,0:0|0:0|0:0,0:0:0:0:
360,229,244927,1,0,0:0:0:0:
334,168,245089,1,0,0:0:0:0:
334,102,245251,6,0,P|290:62|218:50,1,120,8|0,0:0|0:0,0:0:0:0:
115,111,245900,2,0,P|159:151|231:163,1,120,8|0,0:0|0:0,0:0:0:0:
282,152,246387,1,0,0:0:0:0:
300,215,246549,2,0,L|324:287,1,60,4|0,0:0|0:0,0:0:0:0:
221,360,247035,1,0,0:0:0:0:
158,337,247197,2,0,L|110:373,2,60,0|0|0,0:0|0:0|0:0,0:0:0:0:
199,285,247684,1,0,0:0:0:0:
187,219,247846,6,0,L|167:79,1,120,8|0,0:0|0:0,0:0:0:0:
186,36,248332,1,8,0:0:0:0:
314,4,248657,1,8,0:0:0:0:
430,66,248981,1,8,0:0:0:0:
476,189,249305,1,8,0:0:0:0:
427,311,249630,2,0,P|375:343|275:359,2,120,8|8|8,0:0|0:0|0:0,0:0:0:0:
462,255,250441,6,0,L|458:191,1,60,4|0,0:0|0:0,0:0:0:0:
392,185,250765,2,0,L|371:124,1,60,8|0,0:0|0:0,0:0:0:0:
308,143,251089,2,0,L|272:89,1,60,8|0,0:0|0:0,0:0:0:0:
214,120,251413,2,0,L|165:77,1,60,8|0,0:0|0:0,0:0:0:0:
117,122,251738,5,8,0:0:0:0:
101,186,251900,2,0,L|81:278,2,60,0|0|0,0:0|0:0|0:0,0:0:0:0:
166,198,252387,1,8,0:0:0:0:
187,260,252549,2,0,L|215:349,2,60,0|0|0,0:0|0:0|0:0,0:0:0:0:
251,248,253035,6,0,P|315:236|387:256,1,120,8|0,0:0|0:0,0:0:0:0:
419,288,253522,1,0,0:0:0:0:
464,240,253684,2,0,P|492:168|484:116,1,120,8|0,0:0|0:0,0:0:0:0:
445,76,254170,1,0,0:0:0:0:
381,59,254332,6,0,L|249:59,1,120,8|4,0:0|0:0,0:0:0:0:
256,192,254819,12,0,260170,0:0:0:0:
