osu file format v12

[General]
AudioFilename: Akasha.mp3
AudioLeadIn: 0
PreviewTime: 149251
Countdown: 0
SampleSet: Soft
StackLeniency: 0.7
Mode: 0
LetterboxInBreaks: 1
WidescreenStoryboard: 0

[Editor]
DistanceSpacing: 1.3
BeatDivisor: 4
GridSize: 4

[Metadata]
Title:Akasha
TitleUnicode:Akasha
Artist:xi
ArtistUnicode:xi
Creator:Evil_Twilight
Version:ExTra
Source:
Tags:littlecar3370 is god
BeatmapID:324784
BeatmapSetID:128201

[Difficulty]
HPDrainRate:7
CircleSize:4
OverallDifficulty:8
ApproachRate:9
SliderMultiplier:1.6
SliderTickRate:1

[Events]
//Background and Video events
0,0,"BG.jpg",0,0
//Break Periods
2,171505,173138
2,174100,175732
//Storyboard Layer 0 (Background)
//Storyboard Layer 1 (Fail)
//Storyboard Layer 2 (Pass)
//Storyboard Layer 3 (Foreground)
//Storyboard Sound Samples
//Background Colour Transformations
3,100,163,162,255

[TimingPoints]
1360,324.324324324324,4,2,0,40,1,0
22116,-200,4,2,0,40,0,0
42549,-100,4,2,0,40,0,0
42873,-100,4,2,1,60,0,1
42954,-100,4,2,1,60,0,0
53251,-100,4,2,1,60,0,1
53332,-100,4,2,1,60,0,0
63630,-100,4,2,1,60,0,1
63711,-100,4,2,1,60,0,0
74981,-133.333333333333,4,2,1,60,0,0
75305,-100,4,2,1,60,0,0
88278,-100,4,2,1,60,0,1
88359,-100,4,2,1,60,0,0
98657,-100,4,2,1,60,0,1
98738,-100,4,2,1,60,0,0
109035,-100,4,1,1,60,0,1
117792,-133.333333333333,4,1,1,60,0,1
118116,-100,4,1,1,60,0,0
119414,-100,4,1,1,60,0,1
129792,-200,4,2,1,40,0,0
139846,-100,4,2,1,40,0,0
150549,-100,4,2,1,60,0,1
159630,-100,4,2,1,60,0,0
160927,-100,4,2,1,60,0,1
171305,-100,4,2,1,60,0,0
181684,-200,4,1,1,60,0,0
182008,-66.6666666666667,4,1,1,60,0,1
182332,-200,4,1,1,60,0,1
182575,-80,4,1,1,60,0,1
182981,-200,4,1,1,60,0,1
183224,-80,4,1,1,60,0,1
183630,-200,4,1,1,60,0,1
183873,-80,4,1,1,60,0,1
184278,-133.333333333333,4,1,1,60,0,1
184522,-100,4,1,1,60,0,1
185170,-80,4,1,1,60,0,1
185819,-66.6666666666667,4,1,1,60,0,1
186549,-100,4,1,1,60,0,1
190765,-100,4,1,1,60,0,0
192062,-100,4,1,1,60,0,1
200819,-133.333333333333,4,1,1,60,0,1
201143,-100,4,1,1,60,0,0
202441,-100,4,1,1,60,0,1
211522,-100,4,1,1,60,0,0
212819,-100,4,2,1,60,0,1
221900,-100,4,2,1,60,0,0
223197,-100,4,2,1,60,0,1
232278,-100,4,2,1,60,0,0
233576,-100,4,2,1,60,0,1
242657,-100,4,2,1,60,0,0
243954,-100,4,2,1,60,0,1
254332,-133.333333333333,4,2,1,60,0,0
254576,-133.333333333333,4,2,1,10,0,0
254657,-100,4,2,1,60,0,1
255630,-100,4,2,1,50,0,1
256278,-100,4,2,1,45,0,1
256927,-100,4,2,1,40,0,1
257576,-100,4,2,1,35,0,1
258224,-100,4,2,1,30,0,1
258873,-100,4,2,1,25,0,1
259522,-100,4,2,1,20,0,1
260170,-100,4,2,1,15,0,1
260819,-100,4,2,1,10,0,0

[Colours]
Combo1 : 255,177,140
Combo2 : 117,199,208
Combo3 : 255,185,185
Combo4 : 111,183,255

[HitObjects]
196,40,21792,1,0,0:0:0:0:
222,70,21873,1,0,0:0:0:0:
230,108,21954,1,0,0:0:0:0:
218,145,22035,1,0,0:0:0:0:
198,179,22116,6,0,B|234:134|329:130|296:196|375:202|431:144,1,240,4|0,0:1|0:0,0:0:0:0:
480,108,23414,2,0,B|418:151|455:222|455:222|476:293|500:393|369:431|168:366|343:318|359:250|159:167|80:288|80:288|109:234|94:150|37:131,1,880,2|2,0:0|0:0,0:0:0:0:
64,56,27143,1,0,0:0:0:0:
132,100,27305,6,0,B|196:158|309:128|333:43,1,240,2|0,0:0|0:0,0:0:0:0:
380,116,28603,2,0,B|342:178|373:235|412:235|427:285|399:348,1,240,0|2,0:0|0:0,0:0:0:0:
328,368,29738,1,0,0:0:0:0:
264,320,29900,6,0,P|205:317|146:354,2,120,2|2|0,0:0|0:0|0:0,0:0:0:0:
328,368,31197,2,0,B|265:336|256:242|301:193,1,200,2|0,0:0|0:0,0:0:0:0:
332,172,32170,1,2,0:0:0:0:
372,168,32332,1,0,0:0:0:0:
412,180,32495,6,0,B|462:150|479:90|451:24,1,160,2|0,0:0|0:0,0:0:0:0:
380,12,33468,1,0,0:0:0:0:
328,72,33792,2,0,B|284:113|201:103|229:48|156:29|100:65,1,240,2|0,0:0|0:0,0:0:0:0:
48,120,35089,6,0,P|46:183|76:236,1,120,2|2,0:0|0:0,0:0:0:0:
180,180,36062,2,0,P|202:167|228:164,1,40,2|0,0:0|0:0,0:0:0:0:
232,244,36387,2,0,B|287:221|347:240|374:286,1,160,2|2,0:0|0:0,0:0:0:0:
392,364,37197,1,0,0:0:0:0:
448,308,37359,2,0,P|461:300|484:296,2,26.6666666666667,2|0|0,0:0|0:0|0:0,0:0:0:0:
448,308,37684,6,0,B|469:251|438:211|438:211|393:186|377:133|410:83,1,240,2|0,0:0|0:0,0:0:0:0:
444,20,38981,2,0,B|418:95|309:122|238:54,1,240,2|2,0:0|0:0,0:0:0:0:
164,52,40116,1,0,0:0:0:0:
124,120,40278,2,0,P|79:90|1:101,2,120,2|2|0,0:0|0:0|0:0,0:0:0:0:
176,184,41576,6,0,B|229:220|318:194|343:127,1,200,2|0,0:0|0:0,0:0:0:0:
396,68,42549,1,2,0:0:0:0:
385,106,42630,1,2,0:0:0:0:
394,144,42711,1,2,0:0:0:0:
418,175,42792,1,2,0:0:0:0:
426,214,42873,6,0,P|438:256|426:298,1,80,4|0,1:0|0:0,0:0:0:0:
428,371,43197,2,0,P|446:363|466:363,1,40,2|0,0:0|0:0,0:0:0:0:
360,332,43360,2,0,B|312:354|251:338|222:285,1,160,2|8,0:0|0:0,0:0:0:0:
200,208,43846,1,2,0:0:0:0:
185,170,43927,1,0,0:0:0:0:
159,138,44008,1,2,0:0:0:0:
123,121,44089,1,2,0:0:0:0:
83,118,44170,5,10,0:0:0:0:
152,40,44332,1,2,3:0:0:0:
152,40,44495,1,0,0:0:0:0:
252,120,44657,1,10,0:0:0:0:
290,131,44738,1,2,0:0:0:0:
329,131,44819,1,2,0:0:0:0:
364,114,44900,1,0,0:0:0:0:
392,85,44981,1,2,0:0:0:0:
496,104,45143,1,8,0:0:0:0:
304,28,45305,1,2,0:0:0:0:
348,228,45468,5,8,0:0:0:0:
276,304,45630,2,0,P|234:303|201:280,1,80,2|0,0:0|0:0,0:0:0:0:
132,208,45954,1,2,0:0:0:0:
91,207,46035,1,2,0:0:0:0:
56,228,46116,1,2,0:0:0:0:
38,263,46197,1,0,0:0:0:0:
44,302,46278,1,10,0:0:0:0:
71,331,46359,1,2,0:0:0:0:
108,343,46441,1,2,0:0:0:0:
145,329,46522,1,2,0:0:0:0:
175,303,46603,1,2,0:0:0:0:
194,269,46684,1,2,0:0:0:0:
225,244,46765,6,0,P|258:224|300:225,1,80,10|2,0:0|3:0,0:0:0:0:
352,284,47089,1,2,0:0:0:0:
452,260,47251,2,0,B|499:231|518:167|488:105,1,160,10|10,0:0|0:0,0:0:0:0:
398,11,47738,2,0,P|398:51|419:83,1,80,0|8,0:0|0:0,0:0:0:0:
424,164,48062,5,2,0:0:0:0:
386,150,48143,1,2,0:0:0:0:
346,146,48224,1,2,0:0:0:0:
307,155,48305,1,2,0:0:0:0:
267,163,48387,1,2,0:0:0:0:
227,159,48468,1,0,0:0:0:0:
189,145,48549,2,0,B|237:173|250:244|223:292,1,160,2|8,0:0|0:0,0:0:0:0:
194,311,48954,1,2,0:0:0:0:
156,325,49035,1,2,0:0:0:0:
116,322,49116,1,2,0:0:0:0:
81,301,49197,1,2,0:0:0:0:
59,267,49278,1,2,0:0:0:0:
48,228,49359,5,10,0:0:0:0:
56,188,49441,1,0,0:0:0:0:
73,151,49522,2,0,P|80:131|79:103,1,40,2|0,3:0|0:0,0:0:0:0:
158,36,49684,2,0,P|151:55|151:75,1,40,2|0,3:0|0:0,0:0:0:0:
194,142,49846,5,10,0:0:0:0:
233,147,49927,1,2,0:0:0:0:
272,142,50008,1,2,0:0:0:0:
305,120,50089,1,0,0:0:0:0:
371,75,50170,5,2,0:0:0:0:
410,70,50251,1,2,0:0:0:0:
449,75,50332,1,10,0:0:0:0:
482,97,50413,1,0,0:0:0:0:
505,174,50495,5,2,0:0:0:0:
511,213,50576,1,2,0:0:0:0:
494,249,50657,2,0,P|472:281|466:331,1,80,10|2,0:0|0:0,0:0:0:0:
404,372,50900,1,2,0:0:0:0:
388,292,50981,2,0,P|356:270|306:264,1,80,2|2,0:0|0:0,0:0:0:0:
244,300,51224,1,2,0:0:0:0:
176,340,51305,2,0,P|136:333|104:310,1,80,2|10,0:0|0:0,0:0:0:0:
68,240,51549,1,2,0:0:0:0:
81,161,51630,5,2,0:0:0:0:
111,135,51711,1,0,0:0:0:0:
150,128,51792,1,0,0:0:0:0:
188,139,51873,1,0,0:0:0:0:
228,172,51954,5,10,0:0:0:0:
264,185,52035,1,2,0:0:0:0:
303,186,52116,1,2,0:0:0:0:
339,169,52197,1,0,0:0:0:0:
362,136,52278,1,2,0:0:0:0:
362,95,52359,1,2,0:0:0:0:
342,59,52441,1,10,0:0:0:0:
305,42,52522,1,0,0:0:0:0:
264,43,52603,1,2,0:0:0:0:
229,60,52684,1,2,0:0:0:0:
210,96,52765,1,10,0:0:0:0:
208,136,52846,1,2,0:0:0:0:
228,172,52927,1,2,0:0:0:0:
264,185,53008,1,0,0:0:0:0:
296,209,53089,1,10,0:0:0:0:
320,240,53170,1,2,0:0:0:0:
328,278,53251,6,0,P|363:295|403:293,1,80,4|0,1:0|0:0,0:0:0:0:
460,236,53575,2,0,P|478:227|498:228,1,40,2|0,0:0|0:0,0:0:0:0:
280,344,53738,2,0,B|251:291|190:275|142:297,1,160,2|8,0:0|0:0,0:0:0:0:
104,368,54224,1,2,0:0:0:0:
106,327,54305,1,0,0:0:0:0:
95,289,54386,1,2,0:0:0:0:
71,256,54467,1,2,0:0:0:0:
65,216,54548,5,10,0:0:0:0:
104,148,54710,1,2,3:0:0:0:
104,148,54873,1,0,0:0:0:0:
208,224,55035,1,10,0:0:0:0:
246,235,55116,1,2,0:0:0:0:
285,235,55197,1,2,0:0:0:0:
320,218,55278,1,0,0:0:0:0:
348,189,55359,1,2,0:0:0:0:
256,56,55521,1,8,0:0:0:0:
348,189,55684,1,2,0:0:0:0:
492,124,55846,5,8,0:0:0:0:
440,212,56008,2,0,P|418:245|418:284,1,80,2|0,0:0|0:0,0:0:0:0:
492,356,56332,1,2,0:0:0:0:
463,327,56413,1,2,0:0:0:0:
428,307,56494,1,2,0:0:0:0:
388,303,56575,1,0,0:0:0:0:
348,311,56656,1,10,0:0:0:0:
314,332,56737,1,2,0:0:0:0:
276,348,56819,1,2,0:0:0:0:
236,355,56900,1,2,0:0:0:0:
197,345,56981,1,2,0:0:0:0:
167,318,57062,1,2,0:0:0:0:
146,283,57143,6,0,P|116:257|75:251,1,80,10|2,0:0|3:0,0:0:0:0:
15,302,57467,1,2,0:0:0:0:
15,198,57629,2,0,B|62:169|81:105|51:43,1,160,10|10,0:0|0:0,0:0:0:0:
193,12,58116,2,0,P|166:41|160:80,1,80,0|8,0:0|0:0,0:0:0:0:
200,148,58440,5,2,0:0:0:0:
236,164,58521,1,2,0:0:0:0:
275,165,58602,1,2,0:0:0:0:
311,149,58683,1,2,0:0:0:0:
345,127,58765,1,2,0:0:0:0:
384,128,58846,1,0,0:0:0:0:
418,147,58927,2,0,B|445:187|439:259|393:291,1,160,2|8,0:0|0:0,0:0:0:0:
356,305,59332,1,2,0:0:0:0:
316,300,59413,1,2,0:0:0:0:
280,282,59494,1,2,0:0:0:0:
248,257,59575,1,2,0:0:0:0:
209,247,59656,1,2,0:0:0:0:
169,251,59737,5,10,0:0:0:0:
133,269,59819,1,0,0:0:0:0:
109,301,59900,2,0,P|109:320|116:339,1,40,2|0,3:0|0:0,0:0:0:0:
32,272,60062,2,0,P|31:252|24:233,1,40,2|0,3:0|0:0,0:0:0:0:
100,204,60224,5,10,0:0:0:0:
82,169,60305,1,2,0:0:0:0:
73,130,60386,1,2,0:0:0:0:
83,92,60467,1,0,0:0:0:0:
58,14,60549,5,2,0:0:0:0:
97,16,60630,1,2,0:0:0:0:
136,28,60711,1,10,0:0:0:0:
163,56,60792,1,0,0:0:0:0:
151,135,60873,5,2,0:0:0:0:
189,146,60954,1,2,0:0:0:0:
227,135,61035,2,0,P|259:113|309:107,1,80,10|2,0:0|0:0,0:0:0:0:
376,132,61278,1,2,0:0:0:0:
380,212,61359,2,0,P|412:234|451:241,1,80,2|2,0:0|0:0,0:0:0:0:
480,316,61602,1,2,0:0:0:0:
400,312,61683,2,0,P|360:319|328:342,1,80,2|10,0:0|0:0,0:0:0:0:
252,368,61927,1,2,0:0:0:0:
268,288,62008,5,2,0:0:0:0:
296,259,62089,1,0,0:0:0:0:
304,219,62170,1,0,0:0:0:0:
298,179,62251,1,0,0:0:0:0:
270,135,62332,5,10,0:0:0:0:
232,119,62413,1,2,0:0:0:0:
192,113,62494,1,2,0:0:0:0:
157,132,62575,1,0,0:0:0:0:
130,161,62656,1,2,0:0:0:0:
96,183,62737,1,2,0:0:0:0:
55,182,62819,1,10,0:0:0:0:
20,161,62900,1,0,0:0:0:0:
2,112,62981,5,2,0:0:0:0:
21,77,63062,1,2,0:0:0:0:
56,58,63143,1,10,0:0:0:0:
95,62,63224,1,2,0:0:0:0:
125,87,63305,1,2,0:0:0:0:
141,123,63386,1,0,0:0:0:0:
130,161,63467,1,10,0:0:0:0:
121,200,63548,1,2,0:0:0:0:
134,250,63630,5,4,1:0:0:0:
168,336,65900,5,0,0:0:0:0:
220,328,65981,1,0,0:0:0:0:
272,320,66062,1,0,0:0:0:0:
324,312,66143,1,0,0:0:0:0:
376,300,66224,6,0,P|357:267|361:218,1,80,4|0,1:0|0:0,0:0:0:0:
376,192,66468,2,0,P|400:141|393:73,1,120,2|2,0:0|0:0,0:0:0:0:
328,36,66873,6,0,P|285:35|246:64,1,80,2|0,0:0|0:0,0:0:0:0:
236,88,67116,2,0,P|186:112|112:100,1,120,2|2,0:0|0:0,0:0:0:0:
44,92,67522,6,0,P|68:123|71:171,1,80,2|0,0:0|0:0,0:0:0:0:
68,204,67765,2,0,P|73:264|112:313,1,120,2|2,0:0|0:0,0:0:0:0:
168,260,68170,6,0,P|198:232|244:228,1,80,2|0,0:0|0:0,0:0:0:0:
272,248,68414,2,0,P|323:274|392:267,1,120,2|2,0:0|0:0,0:0:0:0:
448,224,68819,6,0,P|466:189|461:143,1,80,2|0,0:0|0:0,0:0:0:0:
436,120,69062,2,0,P|407:71|408:4,1,120,2|2,0:0|0:0,0:0:0:0:
360,76,69468,6,0,P|319:76|276:50,1,80,2|0,0:0|0:0,0:0:0:0:
252,36,69711,2,0,P|193:35|129:73,1,120,2|2,0:0|0:0,0:0:0:0:
100,132,70116,6,0,P|100:172|128:208,1,80,2|0,0:0|0:0,0:0:0:0:
160,216,70359,2,0,P|182:248|182:287,1,80,2|0,0:0|0:0,0:0:0:0:
172,328,70603,2,0,B|207:282|267:269|325:296,1,160,2|0,0:0|0:0,0:0:0:0:
416,260,71089,1,2,0:0:0:0:
396,360,71251,1,0,0:0:0:0:
316,292,71414,6,0,P|297:255|303:208,1,80,2|0,0:0|0:0,0:0:0:0:
324,188,71657,2,0,P|350:134|346:62,1,120,2|2,0:0|0:0,0:0:0:0:
288,24,72062,6,0,P|251:20|204:44,1,80,2|0,0:0|0:0,0:0:0:0:
180,60,72305,2,0,P|120:55|70:23,1,120,2|2,0:0|0:0,0:0:0:0:
52,100,72711,6,0,P|73:133|73:172,1,80,2|0,0:0|0:0,0:0:0:0:
60,212,72954,2,0,P|60:251|81:284,1,80,2|0,0:0|0:0,0:0:0:0:
116,304,73197,2,0,B|167:323|231:297|251:246,1,160,2|0,0:0|0:0,0:0:0:0:
216,176,73684,2,0,P|190:124|204:48,1,120,2|0,0:0|0:0,0:0:0:0:
224,36,74008,6,0,B|272:6|341:22|372:67,1,160,2|0,0:0|0:0,0:0:0:0:
447,71,74495,2,0,P|441:52|439:33,1,40,2|0,0:0|0:0,0:0:0:0:
500,132,74657,2,0,P|501:193|469:243,1,120,2|0,0:0|0:0,0:0:0:0:
436,260,74981,6,2,P|391:262|346:232,1,90.0000034332277,2|0,0:0|0:0,0:0:0:0:
320,220,75305,6,0,P|337:256|329:308,1,80,2|0,0:0|0:0,0:0:0:0:
320,320,75549,1,0,0:0:0:0:
296,336,75630,2,0,P|256:338|220:321,1,80,2|0,0:0|0:0,0:0:0:0:
200,301,75873,1,0,0:0:0:0:
191,274,75954,5,2,0:0:0:0:
188,246,76035,1,2,0:0:0:0:
196,219,76116,1,2,0:0:0:0:
213,197,76197,1,2,0:0:0:0:
243,171,76278,5,2,0:0:0:0:
265,137,76359,1,2,0:0:0:0:
276,98,76441,1,2,0:0:0:0:
271,58,76522,1,2,0:0:0:0:
231,24,76603,6,0,P|191:21|151:47,1,80,4|0,1:0|0:0,0:0:0:0:
132,72,76846,2,0,P|97:91|58:87,1,80,2|0,0:0|0:0,0:0:0:0:
24,68,77089,1,2,0:0:0:0:
80,164,77251,6,0,P|100:198|96:252,1,80,2|0,0:0|0:0,0:0:0:0:
88,272,77495,2,0,P|88:311|108:345,1,80,2|0,0:0|0:0,0:0:0:0:
140,360,77738,1,2,0:0:0:0:
208,272,77900,6,0,P|241:247|292:250,1,80,2|0,0:0|0:0,0:0:0:0:
308,268,78143,2,0,P|341:292|392:289,1,80,2|0,0:0|0:0,0:0:0:0:
416,276,78387,1,2,0:0:0:0:
380,168,78549,6,0,P|382:128|406:97,1,80,2|0,0:0|0:0,0:0:0:0:
440,72,78792,2,0,P|400:69|369:45,1,80,2|0,0:0|0:0,0:0:0:0:
348,12,79035,1,2,1:2:0:0:
272,96,79197,6,0,P|240:72|201:69,1,80,2|0,1:2|0:0,0:0:0:0:
168,96,79441,2,0,P|136:119|97:122,1,80,2|0,0:0|0:0,0:0:0:0:
60,108,79684,1,2,0:0:0:0:
96,216,79846,6,0,P|56:218|25:242,1,80,2|0,0:0|0:0,0:0:0:0:
8,280,80089,2,0,P|10:319|34:350,1,80,2|0,0:0|0:0,0:0:0:0:
72,364,80332,1,2,0:0:0:0:
160,292,80495,6,0,P|195:270|240:272,1,80,2|0,0:0|0:0,0:0:0:0:
268,284,80738,2,0,P|246:249|248:204,1,80,2|0,0:0|0:0,0:0:0:0:
264,176,80981,2,0,B|293:130|293:67|260:16,1,160,2|0,0:0|0:0,0:0:0:0:
196,64,81468,2,0,P|156:63|116:29,1,80,2|0,0:0|0:0,0:0:0:0:
332,104,81792,6,0,B|359:52|426:35|480:71,1,160,2|0,1:2|0:0,0:0:0:0:
500,140,82278,1,2,0:0:0:0:
448,200,82441,2,0,P|444:240|461:275,1,80
487,305,82684,1,0,0:0:0:0:
493,344,82765,1,2,0:0:0:0:
465,373,82846,1,0,0:0:0:0:
425,369,82927,1,0,1:0:0:0:
391,346,83008,1,0,1:0:0:0:
374,309,83089,1,2,1:2:0:0:
272,312,83251,5,2,0:0:0:0:
292,276,83332,1,0,0:0:0:0:
296,236,83413,1,2,0:0:0:0:
384,180,83576,5,2,0:0:0:0:
355,149,83657,1,0,0:0:0:0:
319,133,83738,1,2,0:0:0:0:
292,32,83900,5,2,0:0:0:0:
253,50,83981,1,0,0:0:0:0:
227,79,84062,1,2,0:0:0:0:
124,76,84224,5,2,1:2:0:0:
129,118,84305,1,0,0:0:0:0:
148,152,84387,6,0,B|179:198|163:269|119:299,1,160,2|0,1:2|0:0,0:0:0:0:
44,308,84873,2,0,P|22:303|3:288,1,40,2|0,1:2|0:0,0:0:0:0:
192,260,85035,2,0,B|238:229|309:245|339:289,1,160,2|2,1:2|0:0,0:0:0:0:
436,320,85522,5,2,1:2:0:0:
416,288,85603,1,0,1:0:0:0:
412,248,85684,1,2,1:2:0:0:
506,95,85846,5,2,1:2:0:0:
488,128,85927,1,0,1:0:0:0:
456,152,86008,1,2,1:2:0:0:
277,150,86170,5,2,1:2:0:0:
315,149,86251,1,0,1:0:0:0:
352,164,86332,1,2,1:2:0:0:
436,320,86495,5,2,1:2:0:0:
416,288,86576,1,0,1:0:0:0:
412,248,86657,1,2,1:2:0:0:
456,152,86819,5,2,1:2:0:0:
420,56,86981,5,2,1:2:0:0:
387,32,87062,1,2,0:0:0:0:
349,18,87143,1,2,0:0:0:0:
309,24,87224,1,2,0:0:0:0:
276,46,87305,1,2,0:0:0:0:
258,82,87387,1,2,0:0:0:0:
226,106,87468,1,2,0:0:0:0:
186,104,87549,1,2,0:0:0:0:
150,85,87630,1,2,0:0:0:0:
114,67,87711,1,2,0:0:0:0:
74,65,87792,1,2,0:0:0:0:
36,79,87873,1,2,0:0:0:0:
9,109,87954,1,2,0:0:0:0:
4,148,88035,1,2,0:0:0:0:
16,185,88116,1,2,0:0:0:0:
44,213,88197,1,2,0:0:0:0:
82,223,88278,6,0,P|115:202|166:201,1,80,4|0,1:0|0:0,0:0:0:0:
228,236,88522,2,0,P|252:289|245:348,1,120,2|2,0:0|0:0,0:0:0:0:
168,372,88927,5,10,0:0:0:0:
140,369,89008,1,0,0:0:0:0:
117,352,89089,1,2,0:0:0:0:
300,288,89251,1,10,0:0:0:0:
328,291,89332,1,0,0:0:0:0:
351,308,89413,1,2,0:0:0:0:
367,330,89495,1,0,0:0:0:0:
388,347,89576,5,10,0:0:0:0:
426,358,89657,1,0,0:0:0:0:
464,346,89738,1,0,0:0:0:0:
485,312,89819,1,2,0:0:0:0:
486,272,89900,1,8,0:0:0:0:
473,233,89981,1,0,0:0:0:0:
445,203,90062,1,2,0:0:0:0:
434,164,90143,1,0,0:0:0:0:
442,124,90224,1,10,0:0:0:0:
437,84,90305,1,0,0:0:0:0:
417,48,90387,1,0,0:0:0:0:
384,25,90468,1,2,0:0:0:0:
344,25,90549,1,8,0:0:0:0:
252,72,90711,1,2,0:0:0:0:
212,72,90792,1,0,0:0:0:0:
179,49,90873,6,0,P|137:50|97:85,1,80,2|0,0:0|0:0,0:0:0:0:
28,56,91116,2,0,P|29:119|71:168,1,120,2|2,0:0|0:0,0:0:0:0:
160,120,91522,5,10,0:0:0:0:
171,158,91603,1,2,0:0:0:0:
165,197,91684,1,2,0:0:0:0:
145,231,91765,1,0,0:0:0:0:
116,258,91846,1,10,0:0:0:0:
106,296,91927,1,2,0:0:0:0:
119,333,92008,1,2,0:0:0:0:
147,360,92089,1,0,0:0:0:0:
183,377,92170,6,0,P|243:372|287:329,1,120,10|2,0:0|0:0,0:0:0:0:
272,252,92495,2,0,P|278:211|307:173,1,80,8|2,0:0|0:0,0:0:0:0:
400,152,92819,1,10,0:0:0:0:
439,156,92900,1,2,0:0:0:0:
471,179,92981,1,2,0:0:0:0:
487,215,93062,1,2,0:0:0:0:
494,254,93143,1,10,0:0:0:0:
487,293,93224,1,2,0:0:0:0:
459,321,93305,1,2,0:0:0:0:
421,335,93387,1,2,0:0:0:0:
381,330,93468,6,0,P|344:311|297:312,1,80,4|0,1:0|0:0,0:0:0:0:
269,326,93711,1,0,0:0:0:0:
238,351,93792,2,0,P|211:358|185:355,1,40,10|2,0:0|0:0,0:0:0:0:
164,337,93954,2,0,P|137:329|111:333,1,40,0|2,0:0|0:0,0:0:0:0:
87,344,94116,1,8,0:0:0:0:
47,337,94197,1,0,0:0:0:0:
22,305,94278,1,0,0:0:0:0:
23,265,94359,1,0,0:0:0:0:
40,228,94441,1,10,0:0:0:0:
44,188,94522,1,2,0:0:0:0:
29,150,94603,1,2,0:0:0:0:
36,110,94684,1,0,0:0:0:0:
64,82,94765,5,10,0:0:0:0:
101,68,94846,1,2,0:0:0:0:
140,67,94927,1,2,0:0:0:0:
176,82,95008,1,0,0:0:0:0:
234,135,95089,5,10,0:0:0:0:
271,149,95170,1,2,0:0:0:0:
310,150,95251,1,2,0:0:0:0:
346,135,95332,1,0,0:0:0:0:
413,90,95414,5,10,0:0:0:0:
385,117,95495,1,2,0:0:0:0:
367,152,95576,1,2,0:0:0:0:
365,191,95657,1,0,0:0:0:0:
393,265,95738,5,10,0:0:0:0:
391,304,95819,1,2,0:0:0:0:
373,339,95900,1,2,0:0:0:0:
345,366,95981,1,2,0:0:0:0:
268,343,96062,6,0,P|223:310|154:305,1,120,6|2,0:0|0:0,0:0:0:0:
36,280,96387,2,0,P|74:270|103:243,1,80,8|2,0:0|0:0,0:0:0:0:
64,148,96711,1,10,0:0:0:0:
100,48,96873,1,2,0:0:0:0:
135,30,96954,1,2,0:0:0:0:
174,31,97035,1,10,0:0:0:0:
245,106,97197,1,2,0:0:0:0:
280,124,97278,1,2,0:0:0:0:
319,123,97359,6,0,L|367:101,1,40,10|0,0:0|0:0,0:0:0:0:
404,42,97522,2,0,L|439:80,1,40,8|0,0:0|0:0,0:0:0:0:
508,91,97684,2,0,L|482:137,1,40,10|0,0:0|0:0,0:0:0:0:
496,205,97846,2,0,L|444:194,1,40,8|0,0:0|0:0,0:0:0:0:
383,228,98008,2,0,L|376:175,1,40,10|0,0:0|0:0,0:0:0:0:
411,115,98170,2,0,L|359:104,1,40,8|8,0:0|0:0,0:0:0:0:
313,52,98332,2,0,L|287:98,1,40,10|0,0:0|0:0,0:0:0:0:
221,124,98495,2,0,L|256:162,1,40,8|0,0:0|0:0,0:0:0:0:
305,213,98657,6,0,P|301:276|268:324,1,120,4|2,1:0|0:0,0:0:0:0:
198,286,98981,2,0,P|164:263|121:260,1,80,8|2,0:0|0:0,0:0:0:0:
31,302,99305,5,10,0:0:0:0:
56,270,99387,1,2,0:0:0:0:
65,231,99468,1,2,0:0:0:0:
58,191,99549,1,0,0:0:0:0:
41,154,99630,1,10,0:0:0:0:
30,115,99711,1,2,0:0:0:0:
38,75,99792,1,2,0:0:0:0:
65,45,99873,1,0,0:0:0:0:
102,31,99954,6,0,P|143:32|185:56,1,80,10|0,0:0|0:0,0:0:0:0:
240,100,100197,2,0,P|308:98|359:60,1,120,2|2,0:0|0:0,0:0:0:0:
423,37,100603,1,10,0:0:0:0:
391,62,100684,1,2,0:0:0:0:
371,96,100765,1,2,0:0:0:0:
368,135,100846,1,2,0:0:0:0:
380,173,100927,1,10,0:0:0:0:
480,152,101089,1,2,0:0:0:0:
444,248,101251,6,0,P|446:290|418:334,1,80,10|0,0:0|0:0,0:0:0:0:
356,356,101495,2,0,P|296:348|246:300,1,120,2|2,0:0|0:0,0:0:0:0:
280,208,101900,5,10,0:0:0:0:
294,170,101981,1,2,0:0:0:0:
286,130,102062,1,2,0:0:0:0:
255,103,102143,1,0,0:0:0:0:
215,97,102224,1,10,0:0:0:0:
178,113,102305,1,2,0:0:0:0:
137,117,102387,1,2,0:0:0:0:
99,102,102468,1,0,0:0:0:0:
67,77,102549,6,0,P|87:111|84:167,1,80,10|0,0:0|0:0,0:0:0:0:
60,224,102792,2,0,P|64:287|104:340,1,120,2|2,0:0|0:0,0:0:0:0:
200,340,103197,1,8,0:0:0:0:
280,272,103359,5,2,0:0:0:0:
392,336,103522,1,10,0:0:0:0:
452,224,103684,1,2,0:0:0:0:
356,92,103846,5,4,1:0:0:0:
292,44,104008,1,8,0:0:0:0:
216,64,104170,1,8,0:0:0:0:
172,132,104332,1,8,0:0:0:0:
196,208,104495,1,8,0:0:0:0:
172,284,104657,1,8,0:0:0:0:
100,320,104819,1,8,0:0:0:0:
28,284,104981,1,8,0:0:0:0:
20,180,105143,5,4,1:0:0:0:
84,100,105305,1,8,0:0:0:0:
188,104,105468,1,8,0:0:0:0:
240,192,105630,1,8,0:0:0:0:
296,280,105792,1,8,0:0:0:0:
396,300,105954,1,8,0:0:0:0:
488,252,106116,1,8,0:0:0:0:
496,148,106278,1,8,0:0:0:0:
416,48,106441,5,4,1:0:0:0:
379,32,106522,1,8,0:0:0:0:
339,39,106603,1,8,0:0:0:0:
312,69,106684,1,10,0:0:0:0:
306,108,106765,1,8,0:0:0:0:
282,140,106846,1,8,0:0:0:0:
243,151,106927,1,10,0:0:0:0:
204,141,107008,1,8,0:0:0:0:
164,141,107089,1,10,0:0:0:0:
131,164,107170,1,8,0:0:0:0:
111,198,107251,1,8,0:0:0:0:
118,237,107332,1,10,0:0:0:0:
139,271,107414,1,8,0:0:0:0:
174,289,107495,1,8,0:0:0:0:
213,287,107576,1,10,0:0:0:0:
248,268,107657,1,8,0:0:0:0:
287,262,107738,6,10,L|331:274,1,40
438,250,107900,2,10,L|400:240,1,40
256,292,108062,2,10,L|300:304,1,40
472,224,108224,2,10,L|428:212,1,40
408,136,108387,6,2,L|384:128,1,20
376,92,108468,2,2,L|351:97,1,20
332,64,108549,2,2,L|313:80,1,20
280,60,108630,2,2,L|272:84,1,20
236,92,108711,5,2,0:0:0:0:
209,121,108792,1,2,0:0:0:0:
170,132,108873,1,2,0:0:0:0:
130,123,108954,1,0,0:0:0:0:
96,101,109035,6,2,P|112:138|108:184,1,80,6|0,0:0|0:0,0:0:0:0:
56,236,109278,2,2,P|40:273|44:319,1,80,2|0,0:0|0:0,0:0:0:0:
104,364,109522,1,2,0:0:0:0:
212,300,109684,6,2,P|246:278|297:283,1,80,2|0,0:0|0:0,0:0:0:0:
348,328,109927,2,2,P|382:350|433:345,1,80,2|0,0:0|0:0,0:0:0:0:
476,292,110170,1,2,0:0:0:0:
424,176,110332,6,2,P|407:141|416:92,1,80,2|0,0:0|0:0,0:0:0:0:
428,24,110576,2,2,P|396:46|346:46,1,80,2|0,0:0|0:0,0:0:0:0:
284,20,110819,1,2,0:0:0:0:
176,88,110981,6,2,P|144:65|94:65,1,80,2|0,0:0|0:0,0:0:0:0:
36,100,111224,2,2,P|24:137|35:175,1,80,2|0,0:0|0:0,0:0:0:0:
112,204,111468,1,2,0:0:0:0:
99,332,111630,6,2,P|67:308|28:306,1,80,2|0,0:0|0:0,0:0:0:0:
160,276,111873,2,2,P|192:252|231:250,1,80,2|0,0:0|0:0,0:0:0:0:
288,308,112116,1,2,0:0:0:0:
416,300,112278,6,0,P|435:266|432:218,1,80,2|2,0:0|0:0,0:0:0:0:
457,81,112522,2,0,P|456:121|476:156,1,80,2|2,0:0|0:0,0:0:0:0:
396,160,112765,1,2,0:0:0:0:
296,76,112927,6,2,P|263:53|212:53,1,80,2|0,0:0|0:0,0:0:0:0:
148,24,113170,2,2,P|144:64|170:108,1,80,2|0,0:0|0:0,0:0:0:0:
236,132,113414,2,2,B|260:184|234:248|176:266,1,160,2|0,0:0|0:0,0:0:0:0:
64,312,113900,1,2,0:0:0:0:
80,184,114062,1,0,0:0:0:0:
182,264,114224,6,2,P|221:260|260:282,1,80,6|0,0:0|0:0,0:0:0:0:
312,336,114468,2,2,P|351:339|390:317,1,80,2|0,0:0|0:0,0:0:0:0:
420,248,114711,1,2,0:0:0:0:
435,120,114873,6,2,P|471:101|510:104,1,80,2|0,0:0|0:0,0:0:0:0:
388,56,115116,2,2,P|352:37|313:40,1,80,2|0,0:0|0:0,0:0:0:0:
244,76,115359,1,2,0:0:0:0:
131,140,115522,6,2,P|91:136|60:112,1,80,6|0,0:0|0:0,0:0:0:0:
4,240,115765,2,2,P|35:215|74:212,1,80,2|0,0:0|0:0,0:0:0:0:
132,268,116008,2,2,B|159:320|228:335|280:307,1,160,2|0,0:0|0:0,0:0:0:0:
328,224,116495,2,2,P|376:181|442:176,1,120,2|0,0:0|0:0,0:0:0:0:
464,192,116819,6,2,B|416:159|402:95|428:44,1,160,6|0,0:0|0:0,0:0:0:0:
344,44,117305,2,2,P|353:26|356:6,1,40,2|0,0:0|0:0,0:0:0:0:
348,124,117468,2,2,P|297:90|234:94,1,120,2|0,0:0|0:0,0:0:0:0:
216,124,117792,6,2,P|181:143|123:137,1,90.0000034332277,2|0,0:0|0:0,0:0:0:0:
96,124,118116,6,2,P|120:158|116:212,1,80,6|0,0:0|0:0,0:0:0:0:
109,220,118359,1,0,0:0:0:0:
94,244,118441,2,2,P|96:283|119:315,1,80,2|0,0:0|0:0,0:0:0:0:
143,329,118684,1,0,0:0:0:0:
182,337,118765,5,2,0:0:0:0:
220,328,118846,1,0,0:0:0:0:
253,306,118927,1,0,0:0:0:0:
271,270,119008,1,0,0:0:0:0:
298,241,119089,5,2,0:0:0:0:
343,216,119170,1,0,0:0:0:0:
394,216,119251,1,0,0:0:0:0:
441,238,119332,1,0,0:0:0:0:
466,284,119414,6,2,P|471:240|496:212,1,80,6|0,0:0|0:0,0:0:0:0:
460,140,119657,1,2,0:0:0:0:
360,112,119819,2,0,P|355:90|341:66,1,40,0|2,0:0|0:0,0:0:0:0:
252,32,120062,6,2,P|212:36|180:58,1,80,2|0,0:0|0:0,0:0:0:0:
164,136,120305,1,2,0:0:0:0:
128,232,120468,2,0,P|102:246|72:248,1,40,0|2,0:0|0:0,0:0:0:0:
20,320,120711,6,2,P|65:323|100:356,1,80,2|0,0:0|0:0,0:0:0:0:
168,372,120954,1,2,0:0:0:0:
228,288,121116,2,0,P|256:284|280:266,1,40,0|2,0:0|0:0,0:0:0:0:
352,336,121359,6,2,P|384:358|423:359,1,80,2|0,0:0|0:0,0:0:0:0:
484,304,121603,1,2,0:0:0:0:
440,208,121765,2,0,P|441:185|457:154,1,40,0|2,0:0|0:0,0:0:0:0:
400,25,122008,6,2,P|396:64|372:96,1,80,6|0,0:0|0:0,0:0:0:0:
292,112,122251,1,2,0:0:0:0:
184,44,122414,2,0,P|162:34|140:32,1,40,0|2,0:0|0:0,0:0:0:0:
32,120,122657,6,2,P|26:160|41:197,1,80,2|0,0:0|0:0,0:0:0:0:
116,220,122900,1,2,0:0:0:0:
272,184,123062,2,0,P|283:204|284:232,1,40,0|2,0:0|0:0,0:0:0:0:
284,364,123305,6,2,P|317:338|357:332,1,80,6|0,0:0|0:0,0:0:0:0:
510,336,123549,2,2,P|473:322|448:292,1,80,2|0,0:0|0:0,0:0:0:0:
368,228,123792,2,2,B|412:198|431:134|402:72,1,160,2|0,0:0|0:0,0:0:0:0:
340,40,124197,1,0,0:0:0:0:
288,100,124278,2,2,P|227:97|176:55,1,120,2|0,0:0|0:0,0:0:0:0:
164,24,124603,5,6,0:0:0:0:
80,88,124765,1,0,0:0:0:0:
108,188,124927,1,0,0:0:0:0:
208,208,125089,1,2,0:0:0:0:
296,152,125251,1,0,0:0:0:0:
396,172,125413,1,0,0:0:0:0:
424,272,125575,1,2,0:0:0:0:
340,336,125737,1,0,0:0:0:0:
236,316,125900,1,6,0:0:0:0:
148,260,126062,5,0,0:0:0:0:
108,256,126143,1,0,0:0:0:0:
72,272,126224,1,2,0:0:0:0:
120,152,126387,5,0,0:0:0:0:
143,120,126468,1,0,0:0:0:0:
147,81,126549,1,2,0:0:0:0:
224,184,126711,5,0,0:0:0:0:
240,220,126792,1,0,0:0:0:0:
271,243,126873,1,2,0:0:0:0:
384,180,127035,1,0,0:0:0:0:
416,156,127116,1,0,0:0:0:0:
456,152,127197,5,6,0:0:0:0:
489,173,127278,1,0,0:0:0:0:
497,211,127359,1,0,0:0:0:0:
487,250,127441,1,0,0:0:0:0:
463,282,127522,1,0,0:0:0:0:
424,292,127603,1,0,0:0:0:0:
401,324,127684,1,2,0:0:0:0:
387,361,127765,1,0,0:0:0:0:
350,377,127846,1,2,0:0:0:0:
310,372,127927,1,0,0:0:0:0:
274,354,128008,1,0,0:0:0:0:
255,318,128089,1,0,0:0:0:0:
235,283,128170,1,2,0:0:0:0:
203,258,128251,1,0,0:0:0:0:
163,253,128332,1,0,0:0:0:0:
127,272,128414,1,0,0:0:0:0:
94,295,128495,6,0,P|100:275|101:255,1,40,2|0,0:0|0:0,0:0:0:0:
52,149,128657,2,0,P|53:168|60:188,1,40
140,180,128819,1,2,0:0:0:0:
170,154,128900,1,0,0:0:0:0:
208,142,128981,1,0,0:0:0:0:
247,148,129062,1,0,0:0:0:0:
284,161,129143,6,0,P|310:158|335:148,1,40,2|0,0:0|0:0,0:0:0:0:
412,50,129305,2,0,P|404:68|400:88,1,40
420,188,129468,1,2,0:0:0:0:
459,222,129549,1,0,0:0:0:0:
475,271,129630,1,0,0:0:0:0:
482,322,129711,1,0,0:0:0:0:
465,371,129792,6,0,B|410:403|342:374|370:339|310:302|244:339,1,240,6|2,1:0|0:0,0:0:0:0:
200,272,131089,2,0,B|186:328|122:368|47:369|4:320,1,240,2|2,0:0|0:0,0:0:0:0:
4,240,132224,1,2,0:0:0:0:
64,184,132387,2,2,P|45:123|1:91,2,120,2|2|2,0:0|0:0|0:0,0:0:0:0:
96,112,133684,6,0,B|127:78|170:85|170:85|194:37|262:15|319:48,1,240,2|2,0:0|0:0,0:0:0:0:
380,76,134981,2,0,B|424:64|439:35|439:35|409:94|418:156|464:196,1,240,2|2,0:0|0:0,0:0:0:0:
380,216,136278,2,0,B|424:245|442:319|408:369|408:369|369:383|334:347,1,240,2|2,0:0|0:0,0:0:0:0:
320,280,137414,1,2,0:0:0:0:
256,232,137576,6,0,P|179:231|112:287,1,160,2|2,0:0|0:0,0:0:0:0:
0,168,138873,2,0,P|77:169|144:113,1,160,2|2,0:0|0:0,0:0:0:0:
312,40,139846,6,0,P|300:56|295:75,1,40,2|2,0:0|0:0,0:0:0:0:
452,140,140008,2,0,P|463:123|468:104,1,40,2|2,0:0|0:0,0:0:0:0:
380,92,140170,6,0,B|342:132|362:196|395:212|395:212|407:242,1,160,4|2,1:0|0:0,0:0:0:0:
394,271,140576,1,2,0:0:0:0:
367,300,140657,1,2,0:0:0:0:
328,308,140738,1,2,0:0:0:0:
288,301,140819,1,2,0:0:0:0:
253,280,140900,1,0,0:0:0:0:
230,247,140981,1,2,0:0:0:0:
192,232,141062,1,2,0:0:0:0:
152,229,141143,1,2,0:0:0:0:
113,239,141224,1,2,0:0:0:0:
84,267,141305,1,2,0:0:0:0:
79,307,141387,1,0,0:0:0:0:
104,337,141468,6,0,B|141:296|145:231|103:177,1,160,2|0,0:0|0:0,0:0:0:0:
80,162,141873,1,0,0:0:0:0:
72,122,141954,1,2,0:0:0:0:
87,85,142035,1,2,0:0:0:0:
122,65,142116,1,2,0:0:0:0:
161,65,142197,1,0,0:0:0:0:
195,85,142278,1,0,0:0:0:0:
234,77,142359,1,0,0:0:0:0:
270,59,142441,1,2,0:0:0:0:
309,64,142522,1,2,0:0:0:0:
340,88,142603,2,0,P|335:72|336:48,1,40,10|0,0:0|0:0,0:0:0:0:
336,165,142765,6,0,B|366:112|433:99|488:137,1,160,4|2,1:0|0:0,0:0:0:0:
499,160,143170,1,2,0:0:0:0:
503,199,143251,1,2,0:0:0:0:
493,237,143332,1,2,0:0:0:0:
473,272,143414,2,0,P|437:288|397:284,1,80,2|2,0:0|0:0,0:0:0:0:
362,265,143657,1,2,0:0:0:0:
332,238,143738,1,2,0:0:0:0:
292,229,143819,1,2,0:0:0:0:
257,248,143900,1,2,0:0:0:0:
242,285,143981,1,0,0:0:0:0:
255,322,144062,1,2,0:0:0:0:
140,270,144224,5,0,0:0:0:0:
109,243,144305,1,2,0:0:0:0:
69,236,144387,1,2,0:0:0:0:
340,198,144549,5,0,0:0:0:0:
375,176,144630,1,2,0:0:0:0:
415,176,144712,1,2,0:0:0:0:
204,130,144873,5,0,0:0:0:0:
165,114,144954,1,2,0:0:0:0:
126,121,145036,1,2,0:0:0:0:
272,54,145197,5,8,0:0:0:0:
313,45,145278,1,2,0:0:0:0:
350,58,145360,5,4,1:0:0:0:
452,30,145522,1,2,0:0:0:0:
431,64,145603,1,2,0:0:0:0:
426,103,145684,1,2,0:0:0:0:
439,140,145765,1,2,0:0:0:0:
469,166,145846,1,2,0:0:0:0:
481,204,145927,1,0,0:0:0:0:
478,243,146008,1,2,0:0:0:0:
458,277,146089,1,2,0:0:0:0:
421,293,146170,1,2,0:0:0:0:
381,291,146251,1,2,0:0:0:0:
345,271,146332,1,2,0:0:0:0:
332,232,146414,1,0,0:0:0:0:
339,192,146495,2,0,P|334:170|312:141,1,40,8|0,0:0|0:0,0:0:0:0:
190,106,146657,5,4,1:0:0:0:
66,140,146819,1,2,0:0:0:0:
86,174,146900,1,2,0:0:0:0:
92,213,146981,1,2,0:0:0:0:
85,252,147062,1,2,0:0:0:0:
64,286,147143,1,2,0:0:0:0:
99,267,147224,1,0,0:0:0:0:
138,272,147305,1,2,0:0:0:0:
175,286,147387,1,2,0:0:0:0:
205,312,147468,1,2,0:0:0:0:
236,335,147549,1,2,0:0:0:0:
274,345,147630,1,2,0:0:0:0:
313,340,147711,1,0,0:0:0:0:
346,318,147792,2,0,P|353:298|355:277,1,40,8|0,0:0|0:0,0:0:0:0:
288,121,147954,5,8,0:0:0:0:
288,121,148116,1,8,0:0:0:0:
346,318,148441,2,0,P|353:298|355:277,1,40,8|0,0:0|0:0,0:0:0:0:
288,121,148603,5,8,0:0:0:0:
288,121,148765,1,8,0:0:0:0:
346,318,149089,2,0,P|353:298|355:277,1,40,8|0,0:0|0:0,0:0:0:0:
288,121,149251,5,8,0:0:0:0:
394,45,149414,1,8,0:0:0:0:
442,61,149496,1,8,0:0:0:0:
194,209,149657,1,8,0:0:0:0:
146,193,149739,1,8,0:0:0:0:
18,195,149900,5,8,0:0:0:0:
0,242,149981,1,0,0:0:0:0:
7,293,150062,1,0,0:0:0:0:
36,335,150143,1,0,0:0:0:0:
84,354,150224,6,0,L|136:344,1,40,8|0,0:0|0:0,0:0:0:0:
223,232,150387,2,0,L|184:240,1,40,0|0,0:0|0:0,0:0:0:0:
320,300,150549,1,4,0:0:0:0:
412,212,150711,5,2,0:0:0:0:
440,204,150792,1,2,0:0:0:0:
468,196,150873,1,10,0:0:0:0:
308,180,151035,5,2,0:0:0:0:
328,159,151116,1,2,0:0:0:0:
348,138,151197,1,10,0:0:0:0:
200,204,151359,5,2,0:0:0:0:
206,175,151440,1,2,0:0:0:0:
213,147,151521,1,10,0:0:0:0:
108,268,151684,5,2,0:0:0:0:
98,239,151765,1,2,0:0:0:0:
90,212,151846,5,10,0:0:0:0:
66,179,151927,1,2,0:0:0:0:
39,149,152008,1,2,0:0:0:0:
36,109,152089,1,2,0:0:0:0:
49,71,152170,1,10,0:0:0:0:
80,46,152251,1,0,0:0:0:0:
119,42,152332,1,2,0:0:0:0:
157,55,152414,1,0,0:0:0:0:
180,86,152495,6,0,L|232:96,1,40,10|2,0:0|0:0,0:0:0:0:
375,64,152657,2,0,L|336:72,1,40,2|2,0:0|0:0,0:0:0:0:
156,112,152819,2,0,L|208:122,1,40,10|2,0:0|0:0,0:0:0:0:
400,88,152981,2,0,L|360:95,1,40,2|2,0:0|0:0,0:0:0:0:
136,136,153143,1,4,0:0:0:0:
174,257,153305,5,2,0:0:0:0:
148,252,153387,1,2,0:0:0:0:
120,244,153468,1,10,0:0:0:0:
284,96,153630,5,2,0:0:0:0:
256,92,153712,1,2,0:0:0:0:
228,84,153793,1,10,0:0:0:0:
210,377,153954,5,2,0:0:0:0:
184,372,154036,1,2,0:0:0:0:
156,364,154117,1,10,0:0:0:0:
336,216,154278,5,2,0:0:0:0:
308,212,154360,1,2,0:0:0:0:
280,204,154441,5,10,0:0:0:0:
247,180,154522,1,2,0:0:0:0:
221,149,154603,1,2,0:0:0:0:
185,131,154684,1,2,0:0:0:0:
145,128,154765,1,10,0:0:0:0:
108,143,154846,1,0,0:0:0:0:
86,176,154927,1,2,0:0:0:0:
82,215,155008,1,2,0:0:0:0:
95,252,155089,6,0,L|109:292,1,40,10|2,0:0|0:0,0:0:0:0:
212,320,155251,2,0,L|198:282,1,40,2|2,0:0|0:0,0:0:0:0:
260,192,155414,2,0,L|273:229,1,40,10|2,0:0|0:0,0:0:0:0:
376,264,155576,2,0,L|362:226,1,40,2|2,0:0|0:0,0:0:0:0:
416,132,155738,1,4,0:0:0:0:
344,24,155900,5,2,0:0:0:0:
316,21,155981,1,2,0:0:0:0:
290,32,156062,1,10,0:0:0:0:
344,206,156224,5,2,0:0:0:0:
347,178,156305,1,2,0:0:0:0:
336,152,156386,1,10,0:0:0:0:
162,212,156549,5,2,0:0:0:0:
190,215,156630,1,2,0:0:0:0:
216,204,156711,1,10,0:0:0:0:
164,30,156873,5,2,0:0:0:0:
161,58,156954,1,2,0:0:0:0:
172,84,157035,5,10,0:0:0:0:
202,110,157116,1,2,0:0:0:0:
241,116,157197,1,2,0:0:0:0:
278,103,157278,1,2,0:0:0:0:
312,82,157359,1,10,0:0:0:0:
352,76,157441,1,0,0:0:0:0:
391,83,157522,1,2,0:0:0:0:
421,109,157603,1,2,0:0:0:0:
433,147,157684,6,0,L|425:187,1,40,10|2,0:0|0:0,0:0:0:0:
328,312,157846,2,0,L|336:272,1,40,2|2,0:0|0:0,0:0:0:0:
464,132,158008,2,0,L|456:172,1,40,10|2,0:0|0:0,0:0:0:0:
300,328,158170,2,0,L|308:288,1,40,2|2,0:0|0:0,0:0:0:0:
496,120,158332,1,4,0:0:0:0:
384,232,158495,5,2,0:0:0:0:
356,224,158576,1,2,0:0:0:0:
328,216,158657,1,10,0:0:0:0:
272,372,158819,5,2,0:0:0:0:
244,364,158900,1,2,0:0:0:0:
216,356,158981,1,10,0:0:0:0:
328,84,159143,5,2,0:0:0:0:
300,76,159224,1,2,0:0:0:0:
272,68,159305,1,10,0:0:0:0:
196,224,159468,5,2,0:0:0:0:
168,216,159549,1,2,0:0:0:0:
140,208,159630,6,0,P|126:187|112:176,1,40,10|2,0:0|0:0,0:0:0:0:
177,41,159792,2,0,P|177:61|184:80,1,40,10|2,0:0|0:0,0:0:0:0:
316,152,159954,2,0,P|325:134|329:114,1,40,10|2,0:0|0:0,0:0:0:0:
506,122,160116,2,0,P|489:133|476:148,1,40,2|2,0:0|0:0,0:0:0:0:
448,296,160278,5,10,0:0:0:0:
413,335,160359,1,10,0:0:0:0:
361,344,160441,1,10,0:0:0:0:
311,328,160522,1,2,0:0:0:0:
287,281,160603,1,10,0:0:0:0:
248,246,160684,1,10,0:0:0:0:
197,233,160765,1,10,0:0:0:0:
149,253,160846,1,2,0:0:0:0:
121,296,160927,1,4,0:0:0:0:
104,168,161089,5,2,0:0:0:0:
122,132,161170,1,2,0:0:0:0:
121,93,161251,1,10,0:0:0:0:
288,45,161414,5,2,0:0:0:0:
268,80,161495,1,2,0:0:0:0:
248,117,161576,1,10,0:0:0:0:
287,265,161738,5,2,0:0:0:0:
306,230,161819,1,2,0:0:0:0:
340,209,161900,1,10,0:0:0:0:
180,245,162062,5,2,0:0:0:0:
161,282,162143,1,2,0:0:0:0:
142,318,162224,5,10,0:0:0:0:
144,357,162305,1,2,0:0:0:0:
178,377,162387,1,2,0:0:0:0:
217,373,162468,1,2,0:0:0:0:
247,347,162549,1,10,0:0:0:0:
268,313,162630,1,0,0:0:0:0:
303,294,162711,1,2,0:0:0:0:
342,296,162792,1,2,0:0:0:0:
369,324,162873,6,0,L|407:340,1,40,10|2,0:0|0:0,0:0:0:0:
496,169,163035,2,0,L|459:152,1,40,2|2,0:0|0:0,0:0:0:0:
476,270,163197,2,0,L|512:286,1,40,10|2,0:0|0:0,0:0:0:0:
443,52,163359,2,0,L|406:35,1,40,2|2,0:0|0:0,0:0:0:0:
292,76,163522,1,4,0:0:0:0:
292,76,163603,1,0,0:0:0:0:
292,76,163684,5,2,0:0:0:0:
253,86,163765,1,2,0:0:0:0:
213,83,163846,1,10,0:0:0:0:
26,39,164008,5,2,0:0:0:0:
54,68,164089,1,2,0:0:0:0:
72,104,164170,1,10,0:0:0:0:
134,284,164332,5,2,0:0:0:0:
145,245,164413,1,2,0:0:0:0:
168,212,164494,1,10,0:0:0:0:
292,76,164657,5,2,0:0:0:0:
253,86,164738,1,2,0:0:0:0:
213,83,164819,5,10,0:0:0:0:
179,60,164900,1,2,0:0:0:0:
139,51,164981,1,2,0:0:0:0:
102,66,165062,1,2,0:0:0:0:
80,99,165143,1,10,0:0:0:0:
76,138,165224,1,0,0:0:0:0:
87,176,165305,1,2,0:0:0:0:
115,204,165387,1,2,0:0:0:0:
147,227,165468,6,0,P|148:248|141:266,1,40,10|2,0:0|0:0,0:0:0:0:
240,192,165630,2,0,L|247:148,1,40,2|2,0:0|0:0,0:0:0:0:
215,334,165792,2,0,L|208:373,1,40,10|2,0:0|0:0,0:0:0:0:
308,297,165954,2,0,P|307:278|314:259,1,40,2|2,0:0|0:0,0:0:0:0:
405,181,166116,1,4,0:0:0:0:
405,181,166197,1,0,0:0:0:0:
405,181,166278,5,10,0:0:0:0:
425,161,166359,1,2,0:0:0:0:
435,134,166441,1,10,0:0:0:0:
252,240,166603,5,10,0:0:0:0:
259,267,166684,1,2,0:0:0:0:
277,289,166766,1,10,0:0:0:0:
284,88,166927,5,10,0:0:0:0:
257,80,167008,1,2,0:0:0:0:
229,85,167090,1,10,0:0:0:0:
148,204,167251,5,10,0:0:0:0:
148,204,167332,1,2,0:0:0:0:
148,204,167414,2,0,P|130:217|112:224,1,40,4|0,0:0|0:0,0:0:0:0:
74,225,167576,5,10,0:0:0:0:
37,210,167657,1,2,0:0:0:0:
13,179,167738,1,10,0:0:0:0:
304,272,167900,5,10,0:0:0:0:
309,311,167981,1,2,0:0:0:0:
294,347,168062,1,10,0:0:0:0:
248,44,168224,5,10,0:0:0:0:
279,20,168305,1,2,0:0:0:0:
317,15,168386,1,10,0:0:0:0:
216,160,168549,5,10,0:0:0:0:
216,160,168630,1,2,0:0:0:0:
216,160,168711,5,12,0:0:0:0:
255,166,168792,1,8,0:0:0:0:
292,151,168873,1,10,0:0:0:0:
323,126,168954,1,10,0:0:0:0:
358,106,169035,1,10,0:0:0:0:
397,100,169116,1,8,0:0:0:0:
433,115,169197,1,10,0:0:0:0:
459,145,169278,1,10,0:0:0:0:
465,184,169359,5,10,0:0:0:0:
456,223,169441,1,8,0:0:0:0:
423,246,169522,1,10,0:0:0:0:
412,284,169603,1,10,0:0:0:0:
415,323,169684,1,10,0:0:0:0:
406,362,169765,1,8,0:0:0:0:
370,379,169846,1,10,0:0:0:0:
330,373,169927,1,10,0:0:0:0:
298,348,170008,5,2,0:0:0:0:
253,320,170089,1,2,0:0:0:0:
201,312,170170,1,2,0:0:0:0:
150,323,170251,1,0,0:0:0:0:
74,348,170332,5,2,0:0:0:0:
33,314,170414,1,2,0:0:0:0:
20,263,170495,1,2,0:0:0:0:
29,211,170576,1,0,0:0:0:0:
58,167,170657,6,0,L|52:137,1,20,2|2,0:0|0:0,0:0:0:0:
92,135,170738,2,0,L|101:106,1,20,2|2,0:0|0:0,0:0:0:0:
137,124,170819,2,0,L|159:103,1,20,2|2,0:0|0:0,0:0:0:0:
180,139,170900,2,0,L|210:132,1,20,2|2,0:0|0:0,0:0:0:0:
229,162,170981,5,2,0:0:0:0:
277,180,171062,1,2,0:0:0:0:
328,176,171143,1,2,0:0:0:0:
373,150,171224,1,0,0:0:0:0:
396,103,171305,5,4,1:0:0:0:
96,60,173738,5,8,0:0:0:0:
96,60,173900,1,4,1:0:0:0:
292,204,176332,5,8,0:0:0:0:
292,204,176495,1,4,1:0:0:0:
112,324,177630,5,8,0:0:0:0:
112,324,177792,1,4,1:0:0:0:
368,264,178927,6,0,L|379:225,1,40,8|0,0:0|0:0,0:0:0:0:
360,148,179089,1,8,0:0:0:0:
399,337,179251,1,8,0:0:0:0:
136,212,179576,6,0,L|124:173,1,40,8|0,0:0|0:0,0:0:0:0:
144,96,179738,1,8,0:0:0:0:
105,285,179900,1,8,0:0:0:0:
368,264,180224,6,0,L|412:248,1,40,8|0,0:0|0:0,0:0:0:0:
484,276,180387,1,8,0:0:0:0:
136,212,180549,6,0,L|100:181,1,40,8|0,0:0|0:0,0:0:0:0:
22,183,180712,1,8,0:0:0:0:
360,148,180873,6,0,L|373:110,1,40,8|0,0:0|0:0,0:0:0:0:
444,65,181036,1,8,0:0:0:0:
152,104,181197,5,8,0:0:0:0:
146,52,181278,1,8,0:0:0:0:
104,20,181359,1,8,0:0:0:0:
51,22,181441,1,8,0:0:0:0:
9,53,181522,1,8,0:0:0:0:
2,104,181603,1,8,0:0:0:0:
21,146,181684,6,2,P|20:178|3:208,1,60,2|0,0:0|0:0,0:0:0:0:
48,360,182008,6,2,P|54:300|87:252,1,120.000004577637,6|2,0:0|0:0,0:0:0:0:
256,216,182332,6,2,P|232:208|220:196,1,40,2|0,0:0|0:0,0:0:0:0:
72,28,182576,2,2,P|106:63|119:111,1,100,2|0,0:0|0:0,0:0:0:0:
140,188,182819,1,2,0:0:0:0:
220,60,182981,6,2,P|241:50|262:47,1,40,2|0,0:0|0:0,0:0:0:0:
459,186,183224,2,2,P|410:182|368:156,1,100,2|0,0:0|0:0,0:0:0:0:
408,16,183468,1,2,0:0:0:0:
256,136,183630,6,2,P|263:155|264:180,1,40,2|0,0:0|0:0,0:0:0:0:
356,368,183873,2,2,P|358:318|380:274,1,100,2|0,0:0|0:0,0:0:0:0:
224,324,184116,1,2,0:0:0:0:
64,236,184278,6,2,P|31:239|-2:260,1,60.0000022888184,2|0,0:0|0:0,0:0:0:0:
136,92,184522,2,2,P|153:56|156:8,1,80,2|0,0:0|0:0,0:0:0:0:
220,216,184765,1,2,0:0:0:0:
436,192,184927,6,2,P|475:196|509:217,1,80,2|0,0:0|0:0,0:0:0:0:
324,80,185170,2,2,P|281:48|217:49,1,100,2|0,0:0|0:0,0:0:0:0:
480,40,185414,1,2,0:0:0:0:
356,272,185576,6,2,P|354:323|384:376,1,100,6|0,0:0|0:0,0:0:0:0:
144,320,185819,2,2,P|94:290|24:292,1,120.000004577637,2|0,0:0|0:0,0:0:0:0:
216,144,186062,2,2,P|220:40|272:132,1,240.000009155274,2|2,0:0|0:0,0:0:0:0:
364,196,186549,6,2,P|407:198|443:172,1,80,2|0,0:0|0:0,0:0:0:0:
447,140,186792,1,0,0:0:0:0:
429,103,186873,5,6,0:0:0:0:
215,46,187035,1,0,0:0:0:0:
272,260,187197,1,0,0:0:0:0:
338,13,187359,1,2,0:0:0:0:
182,170,187522,1,0,0:0:0:0:
396,227,187684,1,0,0:0:0:0:
308,136,187846,1,2,0:0:0:0:
182,170,188008,5,0,0:0:0:0:
148,148,188089,1,0,0:0:0:0:
108,152,188170,1,6,0:0:0:0:
212,255,188332,5,0,0:0:0:0:
180,281,188413,1,0,0:0:0:0:
172,320,188494,1,2,0:0:0:0:
302,253,188657,5,0,0:0:0:0:
317,291,188738,1,0,0:0:0:0:
352,311,188819,1,2,0:0:0:0:
328,166,188981,5,0,0:0:0:0:
369,164,189062,1,0,0:0:0:0:
399,137,189143,1,2,0:0:0:0:
254,114,189305,5,0,0:0:0:0:
264,75,189386,1,0,0:0:0:0:
248,38,189467,5,6,0:0:0:0:
212,20,189549,1,0,0:0:0:0:
170,30,189630,1,0,0:0:0:0:
143,59,189711,1,0,0:0:0:0:
137,98,189792,1,0,0:0:0:0:
119,133,189873,1,0,0:0:0:0:
90,161,189954,1,2,0:0:0:0:
52,173,190035,1,0,0:0:0:0:
33,208,190116,5,2,0:0:0:0:
35,247,190197,1,0,0:0:0:0:
54,282,190278,1,0,0:0:0:0:
90,298,190359,1,0,0:0:0:0:
129,288,190441,1,2,0:0:0:0:
168,293,190522,1,0,0:0:0:0:
202,313,190603,1,0,0:0:0:0:
232,338,190684,1,0,0:0:0:0:
265,359,190765,5,2,0:0:0:0:
304,363,190846,1,0,0:0:0:0:
343,354,190927,1,0,0:0:0:0:
374,329,191008,1,0,0:0:0:0:
402,254,191089,5,2,0:0:0:0:
433,229,191170,1,0,0:0:0:0:
472,220,191251,1,0,0:0:0:0:
511,224,191332,1,0,0:0:0:0:
442,180,191414,5,2,0:0:0:0:
465,146,191495,1,0,0:0:0:0:
471,106,191576,1,0,0:0:0:0:
464,66,191657,1,0,0:0:0:0:
396,23,191738,5,2,0:0:0:0:
356,16,191819,1,0,0:0:0:0:
316,22,191900,1,0,0:0:0:0:
282,45,191981,1,0,0:0:0:0:
232,107,192062,5,6,0:0:0:0:
140,60,192224,1,0,0:0:0:0:
147,20,192305,1,2,0:0:0:0:
40,140,192468,2,0,P|40:164|48:184,1,40,0|2,0:0|0:0,0:0:0:0:
128,244,192711,5,2,0:0:0:0:
76,332,192873,1,0,0:0:0:0:
37,322,192954,1,2,0:0:0:0:
192,368,193117,2,0,P|208:359|232:356,1,40,0|2,0:0|0:0,0:0:0:0:
304,284,193359,5,2,0:0:0:0:
404,316,193521,1,0,0:0:0:0:
400,355,193602,1,2,0:0:0:0:
468,208,193765,2,0,P|462:188|462:169,1,40,0|2,0:0|0:0,0:0:0:0:
488,68,194008,5,2,0:0:0:0:
384,60,194170,1,0,0:0:0:0:
391,20,194251,1,2,0:0:0:0:
276,132,194414,2,0,P|281:151|281:170,1,40,0|2,0:0|0:0,0:0:0:0:
196,232,194657,5,2,0:0:0:0:
72,196,194819,1,0,0:0:0:0:
33,184,194900,1,2,0:0:0:0:
192,364,195063,2,0,P|211:358|230:358,1,40,0|2,0:0|0:0,0:0:0:0:
328,276,195305,5,2,0:0:0:0:
444,332,195467,1,0,0:0:0:0:
457,369,195548,1,2,0:0:0:0:
496,132,195711,2,0,P|495:107|488:88,1,40,0|2,0:0|0:0,0:0:0:0:
384,20,195954,5,2,0:0:0:0:
348,160,196116,1,0,0:0:0:0:
384,180,196197,1,2,0:0:0:0:
228,76,196359,1,0,0:0:0:0:
192,56,196441,2,2,B|159:9|94:-3|38:33,1,160,2|0,0:0|0:0,0:0:0:0:
0,144,196927,1,2,0:0:0:0:
76,244,197089,1,0,0:0:0:0:
76,244,197170,1,0,0:0:0:0:
68,284,197251,5,6,0:0:0:0:
168,364,197414,1,0,0:0:0:0:
208,356,197495,1,2,0:0:0:0:
435,294,197657,2,0,P|415:288|396:287,1,40,0|2,0:0|0:0,0:0:0:0:
252,152,197900,5,2,0:0:0:0:
140,60,198062,1,0,0:0:0:0:
100,48,198143,1,2,0:0:0:0:
420,48,198305,2,0,P|448:52|466:62,1,40,0|2,0:0|0:0,0:0:0:0:
356,180,198549,5,6,0:0:0:0:
196,72,198711,1,0,0:0:0:0:
188,32,198792,1,2,0:0:0:0:
112,264,198954,1,0,0:0:0:0:
108,304,199035,2,2,B|154:340|226:325|257:266,1,160,2|0,0:0|0:0,0:0:0:0:
276,180,199522,2,2,P|290:122|340:86,1,120,2|0,0:0|0:0,0:0:0:0:
384,24,199846,6,2,B|359:73|294:92|229:50,1,160,6|0,0:0|0:0,0:0:0:0:
116,72,200332,2,2,P|123:51|124:24,1,40,2|0,0:0|0:0,0:0:0:0:
32,152,200495,2,2,P|94:150|140:188,1,120,2|0,0:0|0:0,0:0:0:0:
157,364,200819,6,2,P|129:328|124:284,1,90.0000034332277,2|0,0:0|0:0,0:0:0:0:
220,244,201143,6,2,P|255:216|271:175,1,90.0000034332277,6|0,0:0|0:0,0:0:0:0:
265,154,201387,1,0,0:0:0:0:
265,126,201468,2,2,P|280:84|316:57,1,90.0000034332277,2|0,0:0|0:0,0:0:0:0:
336,53,201711,1,0,0:0:0:0:
362,60,201792,5,2,0:0:0:0:
394,82,201873,1,0,0:0:0:0:
405,120,201954,1,0,0:0:0:0:
396,159,202035,1,0,0:0:0:0:
372,191,202116,5,2,0:0:0:0:
349,237,202197,1,0,0:0:0:0:
358,288,202278,1,0,0:0:0:0:
393,326,202359,1,0,0:0:0:0:
444,335,202441,5,6,0:0:0:0:
464,232,202603,1,0,0:0:0:0:
500,216,202684,1,2,0:0:0:0:
288,136,202846,1,0,0:0:0:0:
252,152,202927,1,2,0:0:0:0:
96,116,203089,5,2,0:0:0:0:
184,60,203251,1,0,0:0:0:0:
180,20,203332,1,2,0:0:0:0:
24,200,203495,1,0,0:0:0:0:
28,240,203576,1,2,0:0:0:0:
164,320,203738,5,2,0:0:0:0:
232,240,203900,1,0,0:0:0:0:
268,228,203981,1,2,0:0:0:0:
500,304,204143,1,0,0:0:0:0:
464,292,204224,1,2,0:0:0:0:
420,88,204387,5,2,0:0:0:0:
328,132,204549,1,0,0:0:0:0:
292,120,204630,1,2,0:0:0:0:
60,24,204792,1,0,0:0:0:0:
96,36,204873,1,2,0:0:0:0:
112,248,205035,5,6,0:0:0:0:
208,332,205197,1,0,0:0:0:0:
244,320,205278,1,2,0:0:0:0:
452,156,205441,1,0,0:0:0:0:
416,168,205522,1,2,0:0:0:0:
480,352,205684,5,6,0:0:0:0:
352,256,205846,1,0,0:0:0:0:
304,240,205927,1,2,0:0:0:0:
80,36,206089,1,0,0:0:0:0:
128,52,206170,1,2,0:0:0:0:
0,264,206332,5,4,0:0:0:0:
164,160,206495,1,0,0:0:0:0:
224,136,206576,1,2,0:0:0:0:
488,12,206738,1,0,0:0:0:0:
428,32,206819,2,2,B|396:76|407:142|459:171,1,160,2|0,0:0|0:0,0:0:0:0:
418,311,207305,2,2,P|408:252|365:212,1,120,2|0,0:0|0:0,0:0:0:0:
289,241,207630,5,6,0:0:0:0:
193,201,207792,1,0,0:0:0:0:
273,137,207954,1,0,0:0:0:0:
245,321,208116,5,2,0:0:0:0:
342,72,208278,1,0,0:0:0:0:
117,216,208441,1,0,0:0:0:0:
384,232,208603,1,2,0:0:0:0:
177,63,208765,1,0,0:0:0:0:
256,192,208927,5,6,0:0:0:0:
328,296,209089,5,0,0:0:0:0:
376,316,209170,1,0,0:0:0:0:
428,308,209251,1,2,0:0:0:0:
136,144,209414,5,0,0:0:0:0:
116,96,209495,1,0,0:0:0:0:
132,48,209576,1,2,0:0:0:0:
184,296,209738,5,0,0:0:0:0:
136,316,209819,1,0,0:0:0:0:
84,308,209900,1,2,0:0:0:0:
376,144,210062,5,0,0:0:0:0:
396,96,210143,1,0,0:0:0:0:
380,48,210224,5,6,0:0:0:0:
345,27,210305,1,0,0:0:0:0:
304,23,210387,1,0,0:0:0:0:
268,41,210468,1,0,0:0:0:0:
248,76,210549,1,0,0:0:0:0:
210,90,210630,1,0,0:0:0:0:
170,83,210711,1,2,0:0:0:0:
138,58,210792,1,0,0:0:0:0:
98,53,210873,5,2,0:0:0:0:
62,71,210954,1,0,0:0:0:0:
38,103,211035,1,0,0:0:0:0:
42,142,211116,1,0,0:0:0:0:
58,178,211197,1,2,0:0:0:0:
92,198,211278,1,0,0:0:0:0:
131,194,211359,1,0,0:0:0:0:
170,202,211441,1,0,0:0:0:0:
200,227,211522,5,2,0:0:0:0:
222,274,211603,1,0,0:0:0:0:
215,325,211684,1,0,0:0:0:0:
177,361,211765,1,0,0:0:0:0:
249,328,211846,5,2,0:0:0:0:
285,291,211927,1,0,0:0:0:0:
334,275,212008,1,0,0:0:0:0:
384,288,212089,1,0,0:0:0:0:
456,322,212170,5,2,0:0:0:0:
418,286,212251,1,0,0:0:0:0:
411,235,212332,1,0,0:0:0:0:
433,188,212413,1,0,0:0:0:0:
357,158,212495,5,2,0:0:0:0:
395,122,212576,1,0,0:0:0:0:
402,71,212657,1,0,0:0:0:0:
380,24,212738,1,0,0:0:0:0:
329,11,212819,5,4,1:0:0:0:
291,24,212900,1,0,0:0:0:0:
260,49,212981,1,2,0:0:0:0:
221,58,213062,1,2,0:0:0:0:
181,51,213143,2,0,P|158:43|135:42,1,40,10|0,0:0|0:0,0:0:0:0:
0,102,213305,2,0,P|39:103|76:87,1,80,2|8,0:0|0:0,0:0:0:0:
72,8,213630,1,0,0:0:0:0:
148,120,213792,1,10,0:0:0:0:
160,158,213873,1,2,0:0:0:0:
155,197,213954,1,2,0:0:0:0:
140,234,214035,1,2,0:0:0:0:
152,272,214116,5,10,0:0:0:0:
248,236,214278,1,0,0:0:0:0:
56,168,214441,1,8,0:0:0:0:
312,152,214603,1,2,0:0:0:0:
344,128,214684,1,2,0:0:0:0:
384,128,214765,5,10,0:0:0:0:
468,192,214927,1,2,0:0:0:0:
504,68,215089,1,8,0:0:0:0:
504,68,215251,1,2,0:0:0:0:
476,296,215414,2,0,P|434:296|405:274,1,80,8|2,0:0|0:0,0:0:0:0:
340,192,215738,1,8,0:0:0:0:
300,96,215900,1,2,0:0:0:0:
300,96,215981,1,2,0:0:0:0:
300,96,216062,5,10,0:0:0:0:
271,67,216143,1,0,0:0:0:0:
232,57,216224,1,2,0:0:0:0:
193,65,216305,1,2,0:0:0:0:
159,88,216387,1,10,0:0:0:0:
128,113,216468,1,2,0:0:0:0:
90,125,216549,1,2,0:0:0:0:
51,116,216630,1,0,0:0:0:0:
17,94,216711,6,0,P|37:128|36:174,1,80,10|2,0:0|0:0,0:0:0:0:
116,236,217035,1,8,0:0:0:0:
175,373,217197,2,0,P|175:334|196:300,1,80,2|8,0:0|0:0,0:0:0:0:
292,264,217522,1,2,0:0:0:0:
372,328,217684,2,0,P|413:331|454:296,1,80,8|2,0:0|0:0,0:0:0:0:
476,212,218008,5,4,1:0:0:0:
408,136,218170,1,2,0:0:0:0:
408,136,218251,1,2,0:0:0:0:
408,136,218332,1,10,0:0:0:0:
400,32,218495,2,0,P|359:29|318:64,1,80,2|8,0:0|0:0,0:0:0:0:
256,124,218819,1,2,0:0:0:0:
229,133,218900,1,2,0:0:0:0:
201,133,218981,1,10,0:0:0:0:
174,125,219062,1,2,0:0:0:0:
152,107,219143,1,2,0:0:0:0:
142,80,219224,1,2,0:0:0:0:
144,52,219305,5,10,0:0:0:0:
155,90,219387,1,0,0:0:0:0:
149,129,219468,1,2,0:0:0:0:
123,160,219549,1,2,0:0:0:0:
94,187,219630,5,10,0:0:0:0:
73,221,219711,1,0,0:0:0:0:
66,260,219792,1,2,0:0:0:0:
72,299,219873,1,2,0:0:0:0:
130,353,219954,5,10,0:0:0:0:
169,359,220035,1,0,0:0:0:0:
208,352,220116,1,2,0:0:0:0:
242,331,220197,1,2,0:0:0:0:
294,270,220278,5,10,0:0:0:0:
328,249,220359,1,0,0:0:0:0:
367,242,220440,1,2,0:0:0:0:
406,248,220521,1,2,0:0:0:0:
473,292,220603,6,0,P|455:256|458:208,1,80,10|2,0:0|0:0,0:0:0:0:
412,148,220846,1,2,0:0:0:0:
344,104,220927,2,0,P|344:64|326:28,1,80,10|2,0:0|0:0,0:0:0:0:
248,24,221170,1,2,0:0:0:0:
192,80,221251,2,0,P|151:81|114:55,1,80,10|2,0:0|0:0,0:0:0:0:
52,16,221495,1,2,0:0:0:0:
48,96,221576,5,10,0:0:0:0:
74,126,221657,1,0,0:0:0:0:
86,164,221738,1,2,0:0:0:0:
81,203,221819,1,2,0:0:0:0:
60,237,221900,5,10,0:0:0:0:
48,287,221981,1,2,0:0:0:0:
71,333,222062,1,2,0:0:0:0:
110,366,222143,1,2,0:0:0:0:
161,372,222224,1,10,0:0:0:0:
210,357,222305,1,2,0:0:0:0:
246,319,222387,1,2,0:0:0:0:
255,268,222468,1,2,0:0:0:0:
250,216,222549,6,0,P|239:189|220:169,1,40,10|0,0:0|0:0,0:0:0:0:
271,28,222711,2,0,P|271:48|276:68,1,40,2|0,0:0|0:0,0:0:0:0:
358,182,222873,2,0,P|365:163|368:144,1,40,10|0,0:0|0:0,0:0:0:0:
498,59,223035,2,0,P|484:74|476:92,1,40,2|0,0:0|0:0,0:0:0:0:
504,208,223197,5,4,1:0:0:0:
509,247,223278,1,0,0:0:0:0:
498,285,223359,1,2,0:0:0:0:
469,312,223440,1,2,0:0:0:0:
429,318,223521,2,0,P|406:310|383:309,1,40,10|0,0:0|0:0,0:0:0:0:
255,267,223683,2,0,P|295:267|332:252,1,80,2|8,0:0|0:0,0:0:0:0:
312,328,224008,1,10,0:0:0:0:
360,176,224170,5,10,0:0:0:0:
355,137,224251,1,2,0:0:0:0:
366,99,224332,1,2,0:0:0:0:
395,72,224414,1,2,0:0:0:0:
435,66,224495,5,10,0:0:0:0:
312,40,224656,1,0,0:0:0:0:
460,164,224819,1,8,0:0:0:0:
220,88,224981,1,2,0:0:0:0:
180,94,225062,1,2,0:0:0:0:
144,76,225143,5,10,0:0:0:0:
140,180,225305,1,2,0:0:0:0:
56,20,225467,1,8,0:0:0:0:
56,20,225630,1,2,0:0:0:0:
76,260,225792,2,0,P|76:302|98:331,1,80,8|2,0:0|0:0,0:0:0:0:
196,360,226116,1,8,0:0:0:0:
248,272,226278,1,2,0:0:0:0:
248,272,226359,1,2,0:0:0:0:
248,272,226440,5,10,0:0:0:0:
282,251,226521,1,0,0:0:0:0:
321,257,226602,1,2,0:0:0:0:
353,279,226683,1,2,0:0:0:0:
385,302,226765,1,10,0:0:0:0:
423,311,226846,1,2,0:0:0:0:
462,303,226927,1,2,0:0:0:0:
487,272,227008,1,0,0:0:0:0:
485,232,227089,6,0,P|485:192|505:158,1,80,10|2,0:0|0:0,0:0:0:0:
432,84,227413,1,8,0:0:0:0:
332,108,227575,2,0,P|332:69|311:35,1,80,2|8,0:0|0:0,0:0:0:0:
232,104,227900,1,2,0:0:0:0:
128,88,228062,2,0,P|125:129|160:170,1,80,8|2,0:0|0:0,0:0:0:0:
228,224,228386,5,4,1:0:0:0:
160,304,228548,1,2,0:0:0:0:
160,304,228629,1,2,0:0:0:0:
160,304,228710,1,10,0:0:0:0:
244,364,228873,2,0,P|285:367|326:332,1,80,2|8,0:0|0:0,0:0:0:0:
344,248,229197,1,2,0:0:0:0:
350,275,229278,1,2,0:0:0:0:
368,295,229359,1,10,0:0:0:0:
390,310,229440,1,2,0:0:0:0:
417,314,229521,1,2,0:0:0:0:
444,309,229602,1,2,0:0:0:0:
466,292,229683,5,10,0:0:0:0:
484,255,229765,1,0,0:0:0:0:
476,215,229846,1,2,0:0:0:0:
451,183,229927,1,2,0:0:0:0:
437,145,230008,5,10,0:0:0:0:
440,105,230089,1,0,0:0:0:0:
454,67,230170,1,2,0:0:0:0:
484,40,230251,1,2,0:0:0:0:
412,72,230332,5,10,0:0:0:0:
373,78,230413,1,0,0:0:0:0:
334,71,230494,1,2,0:0:0:0:
300,50,230575,1,2,0:0:0:0:
224,72,230656,5,10,0:0:0:0:
190,51,230737,1,0,0:0:0:0:
151,44,230818,1,2,0:0:0:0:
112,50,230899,1,2,0:0:0:0:
60,112,230981,6,0,P|56:152|77:187,1,80,10|2,0:0|0:0,0:0:0:0:
148,216,231224,1,2,0:0:0:0:
124,292,231305,2,0,P|89:273|48:274,1,80,10|2,0:0|0:0,0:0:0:0:
72,352,231548,1,2,0:0:0:0:
152,368,231629,2,0,P|193:369|230:343,1,80,10|2,0:0|0:0,0:0:0:0:
268,280,231873,1,2,0:0:0:0:
248,204,231954,5,10,0:0:0:0:
228,169,232035,1,0,0:0:0:0:
224,129,232116,1,2,0:0:0:0:
239,92,232197,1,2,0:0:0:0:
273,72,232278,5,10,0:0:0:0:
225,92,232359,1,2,0:0:0:0:
174,78,232440,1,2,0:0:0:0:
134,44,232521,1,2,0:0:0:0:
82,38,232602,1,10,0:0:0:0:
36,63,232683,1,2,0:0:0:0:
15,111,232765,1,2,0:0:0:0:
22,162,232846,1,2,0:0:0:0:
53,203,232927,5,10,0:0:0:0:
101,221,233008,1,0,0:0:0:0:
151,210,233089,1,2,0:0:0:0:
195,183,233170,1,0,0:0:0:0:
246,187,233251,1,10,0:0:0:0:
291,212,233332,1,0,0:0:0:0:
313,259,233414,1,2,0:0:0:0:
310,310,233495,1,0,0:0:0:0:
275,348,233576,5,4,1:0:0:0:
223,353,233657,1,2,0:0:0:0:
180,323,233738,2,0,P|158:307|132:299,1,40,2|2,0:0|0:0,0:0:0:0:
17,362,233900,2,0,P|35:355|52:344,1,40,10|0,0:0|0:0,0:0:0:0:
72,244,234062,2,0,P|53:209|59:160,1,80,2|8,0:0|0:0,0:0:0:0:
124,92,234387,1,0,0:0:0:0:
228,96,234549,1,10,0:0:0:0:
258,120,234630,1,2,0:0:0:0:
279,154,234711,1,2,0:0:0:0:
276,193,234792,1,0,0:0:0:0:
263,230,234873,5,10,0:0:0:0:
168,188,235035,1,0,0:0:0:0:
308,324,235197,1,8,0:0:0:0:
403,282,235359,1,2,0:0:0:0:
403,282,235441,1,2,0:0:0:0:
403,282,235522,5,10,0:0:0:0:
504,308,235684,1,2,0:0:0:0:
480,164,235846,1,8,0:0:0:0:
480,164,236008,1,2,0:0:0:0:
396,104,236170,2,0,P|403:64|429:34,2,80,8|2|8,0:0|0:0|0:0,0:0:0:0:
332,188,236657,1,2,0:0:0:0:
332,188,236738,1,2,0:0:0:0:
332,188,236819,5,10,0:0:0:0:
293,199,236900,1,0,0:0:0:0:
254,189,236981,1,2,0:0:0:0:
227,159,237062,1,2,0:0:0:0:
223,119,237143,1,10,0:0:0:0:
213,80,237224,1,2,0:0:0:0:
178,59,237305,1,2,0:0:0:0:
137,54,237387,1,0,0:0:0:0:
103,76,237468,6,0,P|68:95|16:87,1,80,10|2,0:0|0:0,0:0:0:0:
16,196,237792,1,8,0:0:0:0:
84,276,237954,2,0,P|119:255|168:258,1,80,2|8,0:0|0:0,0:0:0:0:
240,316,238278,1,2,0:0:0:0:
405,342,238441,2,0,P|371:363|332:364,1,80,8|0,0:0|0:0,0:0:0:0:
328,260,238765,1,4,1:0:0:0:
284,164,238927,1,2,0:0:0:0:
284,164,239008,1,2,0:0:0:0:
284,164,239089,5,10,0:0:0:0:
284,59,239251,2,0,P|317:39|357:38,1,80,2|8,0:0|0:0,0:0:0:0:
192,108,239576,1,2,0:0:0:0:
169,125,239657,1,2,0:0:0:0:
143,136,239738,1,10,0:0:0:0:
115,141,239819,1,2,0:0:0:0:
87,135,239900,1,2,0:0:0:0:
60,126,239981,1,2,0:0:0:0:
39,106,240062,5,10,0:0:0:0:
57,141,240143,1,2,0:0:0:0:
64,180,240224,1,2,0:0:0:0:
55,218,240305,1,2,0:0:0:0:
45,257,240387,5,10,0:0:0:0:
47,296,240468,1,0,0:0:0:0:
63,332,240549,1,2,0:0:0:0:
96,353,240630,1,2,0:0:0:0:
163,309,240711,5,8,0:0:0:0:
196,286,240792,1,0,0:0:0:0:
235,280,240873,1,2,0:0:0:0:
274,284,240954,1,2,0:0:0:0:
342,325,241035,5,10,0:0:0:0:
375,348,241116,1,0,0:0:0:0:
414,354,241197,1,2,0:0:0:0:
453,350,241278,1,2,0:0:0:0:
506,291,241359,6,0,P|510:248|488:208,1,80,10|2,0:0|0:0,0:0:0:0:
428,172,241603,1,2,0:0:0:0:
356,208,241684,2,0,P|312:204|277:175,1,80,10|2,0:0|0:0,0:0:0:0:
252,112,241927,1,2,0:0:0:0:
180,148,242008,2,0,P|201:180|204:220,1,80,10|2,0:0|0:0,0:0:0:0:
156,284,242251,1,2,0:0:0:0:
76,280,242332,5,10,0:0:0:0:
43,255,242414,1,2,0:0:0:0:
33,216,242495,1,2,0:0:0:0:
42,177,242576,1,2,0:0:0:0:
64,143,242657,6,0,P|67:122|66:104,1,40,10|2,0:0|0:0,0:0:0:0:
197,22,242819,2,0,P|184:37|176:56,1,40,2|2,0:0|0:0,0:0:0:0:
184,186,242981,2,0,P|203:179|220:168,1,40,10|2,0:0|0:0,0:0:0:0:
359,237,243143,2,0,P|339:234|320:236,1,40,2|2,0:0|0:0,0:0:0:0:
232,316,243305,5,10,0:0:0:0:
188,345,243387,1,0,0:0:0:0:
136,347,243468,1,2,0:0:0:0:
88,325,243549,1,0,0:0:0:0:
67,277,243630,1,10,0:0:0:0:
75,225,243711,1,0,0:0:0:0:
108,185,243792,1,2,0:0:0:0:
145,149,243873,1,0,0:0:0:0:
159,99,243954,5,4,1:0:0:0:
147,48,244035,1,2,0:0:0:0:
101,22,244116,2,0,P|81:23|64:32,1,40,2|2,0:0|0:0,0:0:0:0:
235,86,244278,2,0,P|254:84|272:76,1,40,10|0,0:0|0:0,0:0:0:0:
339,31,244440,2,0,P|378:29|413:48,1,80,2|8,0:0|0:0,0:0:0:0:
452,144,244765,1,0,0:0:0:0:
348,148,244927,1,10,0:0:0:0:
333,185,245008,1,2,0:0:0:0:
347,222,245089,1,2,0:0:0:0:
358,260,245170,1,0,0:0:0:0:
349,298,245251,5,10,0:0:0:0:
248,268,245413,1,0,0:0:0:0:
63,362,245576,1,8,0:0:0:0:
164,332,245738,1,2,0:0:0:0:
164,332,245819,1,2,0:0:0:0:
164,332,245900,5,10,0:0:0:0:
152,228,246062,1,2,0:0:0:0:
92,52,246224,1,8,0:0:0:0:
80,156,246386,1,2,0:0:0:0:
180,128,246549,1,8,0:0:0:0:
252,52,246711,1,2,0:0:0:0:
356,40,246873,1,8,0:0:0:0:
452,84,247035,1,2,0:0:0:0:
470,119,247116,1,2,0:0:0:0:
465,158,247197,5,10,0:0:0:0:
444,192,247278,1,0,0:0:0:0:
409,211,247359,1,2,0:0:0:0:
369,211,247440,1,2,0:0:0:0:
329,217,247521,1,10,0:0:0:0:
296,239,247602,1,2,0:0:0:0:
279,275,247683,1,2,0:0:0:0:
283,315,247765,1,0,0:0:0:0:
292,353,247846,6,0,P|257:334|205:342,1,80,10|2,0:0|0:0,0:0:0:0:
120,368,248170,1,8,0:0:0:0:
32,272,248332,1,10,0:0:0:0:
68,233,248414,1,8,0:0:0:0:
85,184,248495,1,8,0:0:0:0:
79,132,248576,1,8,0:0:0:0:
53,87,248656,1,8,0:0:0:0:
201,14,248819,2,0,P|180:48|180:88,1,80,8|0,0:0|0:0,0:0:0:0:
284,184,249143,5,4,1:0:0:0:
396,124,249305,1,2,0:0:0:0:
396,124,249386,1,0,0:0:0:0:
396,124,249467,1,0,0:0:0:0:
480,220,249630,2,0,B|509:268|483:336|428:353,1,160,2|2,0:0|0:0,0:0:0:0:
403,357,250035,1,2,0:0:0:0:
375,353,250116,1,2,0:0:0:0:
348,344,250197,1,2,0:0:0:0:
327,325,250278,1,10,0:0:0:0:
311,301,250359,1,2,0:0:0:0:
289,282,250441,5,10,0:0:0:0:
250,270,250522,1,2,0:0:0:0:
210,276,250603,1,2,0:0:0:0:
177,299,250684,1,2,0:0:0:0:
115,350,250765,5,2,0:0:0:0:
136,316,250846,1,2,0:0:0:0:
149,278,250927,1,2,0:0:0:0:
146,238,251008,1,2,0:0:0:0:
97,174,251089,5,10,0:0:0:0:
76,140,251170,1,2,0:0:0:0:
63,102,251251,1,2,0:0:0:0:
66,62,251332,1,2,0:0:0:0:
131,14,251414,5,10,0:0:0:0:
171,12,251495,1,2,0:0:0:0:
209,24,251576,1,2,0:0:0:0:
243,45,251657,1,0,0:0:0:0:
286,112,251738,5,10,0:0:0:0:
334,130,251819,1,8,0:0:0:0:
385,120,251900,1,10,0:0:0:0:
426,88,251981,1,10,0:0:0:0:
476,98,252062,5,10,0:0:0:0:
504,141,252143,1,8,0:0:0:0:
509,192,252224,1,10,0:0:0:0:
482,236,252305,1,10,0:0:0:0:
430,248,252387,5,10,0:0:0:0:
380,231,252468,1,8,0:0:0:0:
335,258,252549,1,10,0:0:0:0:
298,294,252630,1,10,0:0:0:0:
283,343,252711,5,10,0:0:0:0:
237,367,252792,1,8,0:0:0:0:
186,353,252873,1,10,0:0:0:0:
160,307,252954,1,10,0:0:0:0:
175,228,253035,5,10,0:0:0:0:
156,179,253116,1,10,0:0:0:0:
112,150,253197,1,10,0:0:0:0:
60,150,253278,1,10,0:0:0:0:
16,120,253359,1,10,0:0:0:0:
3,68,253441,1,10,0:0:0:0:
25,21,253522,1,10,0:0:0:0:
75,9,253603,1,8,0:0:0:0:
143,49,253684,5,10,0:0:0:0:
188,73,253765,1,10,0:0:0:0:
239,78,253846,1,10,0:0:0:0:
287,59,253927,1,10,0:0:0:0:
334,38,254008,1,10,0:0:0:0:
384,48,254089,1,10,0:0:0:0:
419,85,254170,1,10,0:0:0:0:
430,135,254251,1,8,0:0:0:0:
418,213,254332,6,0,P|395:254|352:272,1,90.0000034332277,2|0,0:0|0:0,0:0:0:0:
256,192,254657,5,4,1:0:0:0:
256,192,254738,12,0,260819,0:0:0:0:
