osu file format v14

[General]
AudioFilename: 7 ANIMA.mp3
AudioLeadIn: 0
PreviewTime: 96798
Countdown: 0
SampleSet: Normal
StackLeniency: 0.7
Mode: 1
LetterboxInBreaks: 0
WidescreenStoryboard: 0

[Editor]
DistanceSpacing: 1.5
BeatDivisor: 4
GridSize: 32
TimelineZoom: 2.2

[Metadata]
Title:ANiMA
TitleUnicode:ANiMA
Artist:xi
ArtistUnicode:xi
Creator:tasuke912
Version:Inner Oni
Source:Deemo
Tags:
BeatmapID:724040
BeatmapSetID:326029

[Difficulty]
HPDrainRate:6
CircleSize:5
OverallDifficulty:6
ApproachRate:6
SliderMultiplier:1.4
SliderTickRate:1

[Events]
//Background and Video events
0,0,"bg.jpg",0,10
//Break Periods
//Storyboard Layer 0 (Background)
//Storyboard Layer 1 (Fail)
//Storyboard Layer 2 (Pass)
//Storyboard Layer 3 (Foreground)
//Storyboard Sound Samples

[TimingPoints]
1322,326.975476839237,4,1,0,50,1,0
1322,-200,4,1,0,50,0,0
11785,-100,4,1,0,70,0,0
99414,-100,4,1,0,70,0,1
113801,-100,4,1,0,70,0,0

[HitObjects]
256,192,1322,5,2,0:0:0:0:
256,192,2629,1,2,0:0:0:0:
256,192,3937,1,2,0:0:0:0:
256,192,5572,1,2,0:0:0:0:
256,192,5899,1,2,0:0:0:0:
256,192,6226,1,2,0:0:0:0:
256,192,6553,1,2,0:0:0:0:
256,192,7861,1,2,0:0:0:0:
256,192,8515,1,2,0:0:0:0:
256,192,9169,1,2,0:0:0:0:
256,192,10477,1,0,0:0:0:0:
256,192,10804,1,2,0:0:0:0:
256,192,11131,1,2,0:0:0:0:
256,192,11458,1,2,0:0:0:0:
256,192,11785,5,4,0:0:0:0:
256,192,13093,1,2,0:0:0:0:
256,192,14401,1,4,0:0:0:0:
256,192,15054,1,2,0:0:0:0:
256,192,15708,1,4,0:0:0:0:
256,192,16362,1,4,0:0:0:0:
256,192,17016,5,4,0:0:0:0:
256,192,17343,1,0,0:0:0:0:
256,192,17425,1,2,0:0:0:0:
256,192,17507,1,0,0:0:0:0:
256,192,17589,1,0,0:0:0:0:
256,192,17670,1,2,0:0:0:0:
256,192,17752,1,0,0:0:0:0:
256,192,17834,1,0,0:0:0:0:
256,192,17916,1,2,0:0:0:0:
256,192,17997,1,0,0:0:0:0:
256,192,18079,1,0,0:0:0:0:
256,192,18161,1,2,0:0:0:0:
256,192,18324,1,6,0:0:0:0:
256,192,18651,1,2,0:0:0:0:
256,192,18733,1,0,0:0:0:0:
256,192,18815,1,2,0:0:0:0:
256,192,18896,1,2,0:0:0:0:
256,192,18978,1,0,0:0:0:0:
256,192,19060,1,2,0:0:0:0:
256,192,19142,1,0,0:0:0:0:
256,192,19223,1,0,0:0:0:0:
256,192,19305,1,2,0:0:0:0:
256,192,19387,1,0,0:0:0:0:
256,192,19469,1,2,0:0:0:0:
256,192,19550,1,2,0:0:0:0:
256,192,19632,5,0,0:0:0:0:
256,192,19796,1,0,0:0:0:0:
256,192,19877,1,2,0:0:0:0:
256,192,19959,1,0,0:0:0:0:
256,192,20041,1,0,0:0:0:0:
256,192,20123,1,2,0:0:0:0:
256,192,20204,1,2,0:0:0:0:
256,192,20286,1,0,0:0:0:0:
256,192,20368,1,0,0:0:0:0:
256,192,20450,1,0,0:0:0:0:
256,192,20531,1,2,0:0:0:0:
256,192,20613,1,0,0:0:0:0:
256,192,20695,1,0,0:0:0:0:
256,192,20777,1,2,0:0:0:0:
256,192,20858,1,2,0:0:0:0:
256,192,20940,1,0,0:0:0:0:
256,192,21104,1,0,0:0:0:0:
256,192,21185,1,0,0:0:0:0:
256,192,21267,1,2,0:0:0:0:
256,192,21430,1,0,0:0:0:0:
256,192,21594,1,2,0:0:0:0:
256,192,21757,1,0,0:0:0:0:
256,192,21839,1,2,0:0:0:0:
256,192,21921,1,0,0:0:0:0:
256,192,22003,1,0,0:0:0:0:
256,192,22084,1,2,0:0:0:0:
256,192,22166,1,2,0:0:0:0:
256,192,22248,1,0,0:0:0:0:
256,192,22575,1,2,0:0:0:0:
256,192,22902,1,2,0:0:0:0:
256,192,23065,1,2,0:0:0:0:
256,192,23147,1,2,0:0:0:0:
256,192,23229,1,2,0:0:0:0:
256,192,23556,5,4,0:0:0:0:
256,192,23801,1,0,0:0:0:0:
256,192,23883,1,2,0:0:0:0:
256,192,24046,1,0,0:0:0:0:
256,192,24210,1,2,0:0:0:0:
256,192,24292,1,2,0:0:0:0:
256,192,24373,1,2,0:0:0:0:
256,192,24537,1,0,0:0:0:0:
256,192,24700,1,2,0:0:0:0:
256,192,24864,1,0,0:0:0:0:
256,192,24945,1,0,0:0:0:0:
256,192,25027,1,2,0:0:0:0:
256,192,25191,1,0,0:0:0:0:
256,192,25354,1,2,0:0:0:0:
256,192,25436,1,0,0:0:0:0:
256,192,25518,1,2,0:0:0:0:
256,192,25599,1,2,0:0:0:0:
256,192,25681,1,0,0:0:0:0:
256,192,25845,1,2,0:0:0:0:
256,192,26008,1,2,0:0:0:0:
256,192,26090,1,2,0:0:0:0:
256,192,26172,5,0,0:0:0:0:
256,192,26417,1,0,0:0:0:0:
256,192,26499,1,2,0:0:0:0:
256,192,26662,1,0,0:0:0:0:
256,192,26826,1,2,0:0:0:0:
256,192,26907,1,2,0:0:0:0:
256,192,26989,1,0,0:0:0:0:
256,192,27153,1,2,0:0:0:0:
256,192,27316,1,0,0:0:0:0:
256,192,27398,1,2,0:0:0:0:
256,192,27480,1,0,0:0:0:0:
256,192,27561,1,0,0:0:0:0:
256,192,27643,1,2,0:0:0:0:
256,192,27807,1,2,0:0:0:0:
256,192,27970,1,2,0:0:0:0:
256,192,28052,1,0,0:0:0:0:
256,192,28133,1,2,0:0:0:0:
256,192,28215,1,2,0:0:0:0:
256,192,28297,1,0,0:0:0:0:
256,192,28379,1,0,0:0:0:0:
256,192,28460,1,2,0:0:0:0:
256,192,28624,1,2,0:0:0:0:
256,192,28706,1,2,0:0:0:0:
256,192,28787,5,0,0:0:0:0:
256,192,29033,1,0,0:0:0:0:
256,192,29114,1,2,0:0:0:0:
256,192,29278,1,0,0:0:0:0:
256,192,29441,1,2,0:0:0:0:
256,192,29523,1,2,0:0:0:0:
256,192,29605,1,2,0:0:0:0:
256,192,29768,1,0,0:0:0:0:
256,192,29932,1,2,0:0:0:0:
256,192,30095,1,0,0:0:0:0:
256,192,30177,1,0,0:0:0:0:
256,192,30259,1,2,0:0:0:0:
256,192,30422,1,0,0:0:0:0:
256,192,30504,1,2,0:0:0:0:
256,192,30586,1,0,0:0:0:0:
256,192,30668,1,0,0:0:0:0:
256,192,30749,1,2,0:0:0:0:
256,192,30913,1,0,0:0:0:0:
256,192,31076,1,2,0:0:0:0:
256,192,31158,1,0,0:0:0:0:
256,192,31240,1,2,0:0:0:0:
256,192,31321,1,2,0:0:0:0:
256,192,31403,5,0,0:0:0:0:
256,192,31648,1,0,0:0:0:0:
256,192,31730,1,2,0:0:0:0:
256,192,31894,1,0,0:0:0:0:
256,192,32057,1,2,0:0:0:0:
256,192,32139,1,2,0:0:0:0:
256,192,32221,1,0,0:0:0:0:
256,192,32384,1,2,0:0:0:0:
256,192,32548,1,0,0:0:0:0:
256,192,32629,1,2,0:0:0:0:
256,192,32711,1,0,0:0:0:0:
256,192,32793,1,0,0:0:0:0:
256,192,32875,1,2,0:0:0:0:
256,192,32929,1,2,0:0:0:0:
256,192,32984,1,2,0:0:0:0:
256,192,33038,1,0,0:0:0:0:
256,192,33202,1,2,0:0:0:0:
256,192,33283,1,0,0:0:0:0:
256,192,33365,1,2,0:0:0:0:
256,192,33447,1,0,0:0:0:0:
256,192,33529,1,0,0:0:0:0:
256,192,33610,1,2,0:0:0:0:
256,192,33692,1,0,0:0:0:0:
256,192,33774,1,2,0:0:0:0:
256,192,33856,1,2,0:0:0:0:
256,192,33937,1,2,0:0:0:0:
256,192,34019,5,0,0:0:0:0:
256,192,34183,1,0,0:0:0:0:
256,192,34264,1,2,0:0:0:0:
256,192,34346,1,2,0:0:0:0:
256,192,34510,1,2,0:0:0:0:
256,192,34591,1,2,0:0:0:0:
256,192,34673,1,0,0:0:0:0:
256,192,34836,1,2,0:0:0:0:
256,192,34918,1,0,0:0:0:0:
256,192,35000,1,0,0:0:0:0:
256,192,35163,1,0,0:0:0:0:
256,192,35245,1,0,0:0:0:0:
256,192,35327,1,2,0:0:0:0:
256,192,35490,1,2,0:0:0:0:
256,192,35572,1,2,0:0:0:0:
256,192,35654,1,0,0:0:0:0:
256,192,35708,1,0,0:0:0:0:
256,192,35763,1,0,0:0:0:0:
256,192,35817,1,2,0:0:0:0:
256,192,35981,1,0,0:0:0:0:
256,192,36063,1,2,0:0:0:0:
256,192,36144,1,0,0:0:0:0:
256,192,36226,1,0,0:0:0:0:
256,192,36308,1,2,0:0:0:0:
256,192,36390,1,2,0:0:0:0:
256,192,36471,1,2,0:0:0:0:
256,192,36553,1,2,0:0:0:0:
256,192,36635,5,0,0:0:0:0:
256,192,36798,1,2,0:0:0:0:
256,192,36880,1,0,0:0:0:0:
256,192,36962,1,0,0:0:0:0:
256,192,37044,1,2,0:0:0:0:
256,192,37125,1,2,0:0:0:0:
256,192,37207,1,2,0:0:0:0:
256,192,37289,1,0,0:0:0:0:
256,192,37452,1,2,0:0:0:0:
256,192,37616,1,0,0:0:0:0:
256,192,37779,1,0,0:0:0:0:
256,192,37861,1,0,0:0:0:0:
256,192,37943,1,2,0:0:0:0:
256,192,38106,1,0,0:0:0:0:
256,192,38270,1,2,0:0:0:0:
256,192,38351,1,0,0:0:0:0:
256,192,38433,1,0,0:0:0:0:
256,192,38515,1,2,0:0:0:0:
256,192,38597,1,0,0:0:0:0:
256,192,38678,1,2,0:0:0:0:
256,192,38760,1,0,0:0:0:0:
256,192,38842,1,0,0:0:0:0:
256,192,38924,1,2,0:0:0:0:
256,192,39005,1,0,0:0:0:0:
256,192,39087,1,2,0:0:0:0:
256,192,39169,1,2,0:0:0:0:
256,192,39251,5,0,0:0:0:0:
256,192,39414,1,0,0:0:0:0:
256,192,39496,1,0,0:0:0:0:
256,192,39578,1,2,0:0:0:0:
256,192,39741,1,0,0:0:0:0:
256,192,39905,1,6,0:0:0:0:
256,192,40068,1,2,0:0:0:0:
256,192,40150,1,0,0:0:0:0:
256,192,40232,1,2,0:0:0:0:
256,192,40313,1,0,0:0:0:0:
256,192,40395,1,0,0:0:0:0:
256,192,40477,1,2,0:0:0:0:
256,192,40559,1,0,0:0:0:0:
256,192,40722,1,0,0:0:0:0:
256,192,40804,1,2,0:0:0:0:
256,192,40886,1,2,0:0:0:0:
256,192,41049,1,0,0:0:0:0:
256,192,41213,1,6,0:0:0:0:
256,192,41376,1,2,0:0:0:0:
256,192,41458,1,0,0:0:0:0:
256,192,41539,1,2,0:0:0:0:
256,192,41621,1,2,0:0:0:0:
256,192,41703,1,0,0:0:0:0:
256,192,41785,1,2,0:0:0:0:
256,192,41866,5,0,0:0:0:0:
256,192,42030,1,0,0:0:0:0:
256,192,42112,1,2,0:0:0:0:
256,192,42193,1,0,0:0:0:0:
256,192,42275,1,0,0:0:0:0:
256,192,42357,1,2,0:0:0:0:
256,192,42439,1,2,0:0:0:0:
256,192,42520,1,0,0:0:0:0:
256,192,42602,1,2,0:0:0:0:
256,192,42684,1,2,0:0:0:0:
256,192,42766,1,2,0:0:0:0:
256,192,42847,1,0,0:0:0:0:
256,192,42929,1,0,0:0:0:0:
256,192,43011,1,2,0:0:0:0:
256,192,43093,1,2,0:0:0:0:
256,192,43174,1,0,0:0:0:0:
256,192,43256,1,0,0:0:0:0:
256,192,43338,1,2,0:0:0:0:
256,192,43392,1,2,0:0:0:0:
256,192,43447,1,2,0:0:0:0:
256,192,43501,1,0,0:0:0:0:
256,192,43583,1,0,0:0:0:0:
256,192,43665,1,2,0:0:0:0:
256,192,43747,1,0,0:0:0:0:
256,192,43828,1,0,0:0:0:0:
256,192,43910,1,2,0:0:0:0:
256,192,43992,1,0,0:0:0:0:
256,192,44074,1,0,0:0:0:0:
256,192,44155,1,2,0:0:0:0:
256,192,44237,1,0,0:0:0:0:
256,192,44319,1,0,0:0:0:0:
256,192,44401,1,2,0:0:0:0:
256,192,44482,5,0,0:0:0:0:
256,192,44700,1,0,0:0:0:0:
256,192,44809,1,2,0:0:0:0:
256,192,44918,1,2,0:0:0:0:
256,192,45027,1,2,0:0:0:0:
256,192,45136,1,0,0:0:0:0:
256,192,45245,1,0,0:0:0:0:
256,192,45354,1,2,0:0:0:0:
256,192,45463,1,0,0:0:0:0:
256,192,45572,1,0,0:0:0:0:
256,192,45681,1,2,0:0:0:0:
256,192,45790,1,0,0:0:0:0:
256,192,45954,1,0,0:0:0:0:
256,192,46008,1,0,0:0:0:0:
256,192,46063,1,0,0:0:0:0:
256,192,46117,1,2,0:0:0:0:
256,192,46281,1,0,0:0:0:0:
256,192,46444,1,2,0:0:0:0:
256,192,46526,1,2,0:0:0:0:
256,192,46608,1,0,0:0:0:0:
256,192,46689,1,0,0:0:0:0:
256,192,46771,1,2,0:0:0:0:
256,192,46935,1,2,0:0:0:0:
256,192,47016,1,2,0:0:0:0:
256,192,47098,5,0,0:0:0:0:
256,192,47262,1,0,0:0:0:0:
256,192,47343,1,2,0:0:0:0:
256,192,47425,1,0,0:0:0:0:
256,192,47507,1,0,0:0:0:0:
256,192,47589,1,2,0:0:0:0:
256,192,47670,1,0,0:0:0:0:
256,192,47752,1,2,0:0:0:0:
256,192,47834,1,2,0:0:0:0:
256,192,47916,1,0,0:0:0:0:
256,192,47997,1,0,0:0:0:0:
256,192,48079,1,2,0:0:0:0:
256,192,48161,1,0,0:0:0:0:
256,192,48242,1,2,0:0:0:0:
256,192,48324,1,2,0:0:0:0:
256,192,48406,1,0,0:0:0:0:
256,192,48569,1,2,0:0:0:0:
256,192,48651,1,2,0:0:0:0:
256,192,48733,1,0,0:0:0:0:
256,192,48815,1,2,0:0:0:0:
256,192,48896,1,2,0:0:0:0:
256,192,48978,1,0,0:0:0:0:
256,192,49060,1,2,0:0:0:0:
256,192,49142,1,2,0:0:0:0:
256,192,49223,1,0,0:0:0:0:
256,192,49305,1,0,0:0:0:0:
256,192,49387,1,2,0:0:0:0:
256,192,49550,1,2,0:0:0:0:
256,192,49632,1,2,0:0:0:0:
256,192,49714,5,0,0:0:0:0:
256,192,49932,1,0,0:0:0:0:
256,192,50041,1,2,0:0:0:0:
256,192,50150,1,2,0:0:0:0:
256,192,50259,1,2,0:0:0:0:
256,192,50368,1,0,0:0:0:0:
256,192,50477,1,0,0:0:0:0:
256,192,50586,1,2,0:0:0:0:
256,192,50695,1,0,0:0:0:0:
256,192,50804,1,0,0:0:0:0:
256,192,50913,1,2,0:0:0:0:
256,192,51022,1,0,0:0:0:0:
256,192,51185,1,0,0:0:0:0:
256,192,51240,1,0,0:0:0:0:
256,192,51294,1,0,0:0:0:0:
256,192,51349,1,2,0:0:0:0:
256,192,51512,1,0,0:0:0:0:
256,192,51676,1,2,0:0:0:0:
256,192,51757,1,2,0:0:0:0:
256,192,51839,1,0,0:0:0:0:
256,192,51921,1,0,0:0:0:0:
256,192,52003,1,2,0:0:0:0:
256,192,52166,1,2,0:0:0:0:
256,192,52248,1,2,0:0:0:0:
256,192,52330,5,0,0:0:0:0:
256,192,52493,1,0,0:0:0:0:
256,192,52575,1,2,0:0:0:0:
256,192,52657,1,0,0:0:0:0:
256,192,52738,1,0,0:0:0:0:
256,192,52820,1,2,0:0:0:0:
256,192,52902,1,0,0:0:0:0:
256,192,52984,1,2,0:0:0:0:
256,192,53065,1,2,0:0:0:0:
256,192,53147,1,0,0:0:0:0:
256,192,53229,1,0,0:0:0:0:
256,192,53311,1,2,0:0:0:0:
256,192,53392,1,0,0:0:0:0:
256,192,53474,1,2,0:0:0:0:
256,192,53556,1,2,0:0:0:0:
256,192,53638,1,0,0:0:0:0:
256,192,53801,1,2,0:0:0:0:
256,192,53883,1,2,0:0:0:0:
256,192,53965,1,0,0:0:0:0:
256,192,54046,1,2,0:0:0:0:
256,192,54128,1,2,0:0:0:0:
256,192,54210,1,0,0:0:0:0:
256,192,54292,1,2,0:0:0:0:
256,192,54373,1,2,0:0:0:0:
256,192,54455,1,0,0:0:0:0:
256,192,54510,1,0,0:0:0:0:
256,192,54564,1,0,0:0:0:0:
256,192,54619,1,2,0:0:0:0:
256,192,54782,1,2,0:0:0:0:
256,192,54864,1,2,0:0:0:0:
256,192,54945,5,0,0:0:0:0:
256,192,55163,1,2,0:0:0:0:
256,192,55272,1,0,0:0:0:0:
256,192,55381,1,0,0:0:0:0:
256,192,55490,1,2,0:0:0:0:
256,192,55599,1,0,0:0:0:0:
256,192,55845,1,0,0:0:0:0:
256,192,55926,1,2,0:0:0:0:
256,192,56090,1,2,0:0:0:0:
256,192,56172,1,2,0:0:0:0:
256,192,56253,1,0,0:0:0:0:
256,192,56417,1,0,0:0:0:0:
256,192,56499,1,0,0:0:0:0:
256,192,56580,1,2,0:0:0:0:
256,192,56744,1,2,0:0:0:0:
256,192,56826,1,2,0:0:0:0:
256,192,56907,1,0,0:0:0:0:
256,192,57071,1,0,0:0:0:0:
256,192,57153,1,0,0:0:0:0:
256,192,57234,1,2,0:0:0:0:
256,192,57316,1,0,0:0:0:0:
256,192,57398,1,2,0:0:0:0:
256,192,57480,1,2,0:0:0:0:
256,192,57561,5,0,0:0:0:0:
256,192,57779,1,2,0:0:0:0:
256,192,57888,1,0,0:0:0:0:
256,192,57997,1,0,0:0:0:0:
256,192,58106,1,2,0:0:0:0:
256,192,58215,1,0,0:0:0:0:
256,192,58460,1,0,0:0:0:0:
256,192,58542,1,2,0:0:0:0:
256,192,58706,1,2,0:0:0:0:
256,192,58787,1,2,0:0:0:0:
256,192,58869,1,0,0:0:0:0:
256,192,59033,1,0,0:0:0:0:
256,192,59114,1,0,0:0:0:0:
256,192,59196,1,2,0:0:0:0:
256,192,59360,1,2,0:0:0:0:
256,192,59441,1,2,0:0:0:0:
256,192,59523,1,0,0:0:0:0:
256,192,59687,1,0,0:0:0:0:
256,192,59768,1,2,0:0:0:0:
256,192,59850,1,0,0:0:0:0:
256,192,59932,1,0,0:0:0:0:
256,192,60014,1,2,0:0:0:0:
256,192,60095,1,2,0:0:0:0:
256,192,60177,5,0,0:0:0:0:
256,192,60395,1,2,0:0:0:0:
256,192,60504,1,0,0:0:0:0:
256,192,60613,1,0,0:0:0:0:
256,192,60722,1,2,0:0:0:0:
256,192,60831,1,2,0:0:0:0:
256,192,61076,1,0,0:0:0:0:
256,192,61158,1,2,0:0:0:0:
256,192,61321,1,2,0:0:0:0:
256,192,61403,1,2,0:0:0:0:
256,192,61485,1,0,0:0:0:0:
256,192,61648,1,2,0:0:0:0:
256,192,61730,1,2,0:0:0:0:
256,192,61812,1,0,0:0:0:0:
256,192,61975,1,0,0:0:0:0:
256,192,62057,1,0,0:0:0:0:
256,192,62139,1,2,0:0:0:0:
256,192,62302,1,2,0:0:0:0:
256,192,62384,1,2,0:0:0:0:
256,192,62466,1,0,0:0:0:0:
256,192,62629,1,2,0:0:0:0:
256,192,62793,1,0,0:0:0:0:
256,192,62875,1,2,0:0:0:0:
256,192,62956,1,2,0:0:0:0:
256,192,63038,1,2,0:0:0:0:
256,192,63120,1,0,0:0:0:0:
256,192,63202,1,2,0:0:0:0:
256,192,63283,1,0,0:0:0:0:
256,192,63365,1,0,0:0:0:0:
256,192,63447,1,2,0:0:0:0:
256,192,63529,1,0,0:0:0:0:
256,192,63610,1,0,0:0:0:0:
256,192,63692,1,2,0:0:0:0:
256,192,63774,1,0,0:0:0:0:
256,192,63856,1,0,0:0:0:0:
256,192,63937,1,2,0:0:0:0:
256,192,64019,1,2,0:0:0:0:
256,192,64101,1,0,0:0:0:0:
256,192,64264,1,0,0:0:0:0:
256,192,64346,1,2,0:0:0:0:
256,192,64428,1,0,0:0:0:0:
256,192,64510,1,0,0:0:0:0:
256,192,64591,1,2,0:0:0:0:
256,192,64673,1,2,0:0:0:0:
256,192,64755,1,0,0:0:0:0:
256,192,64836,1,2,0:0:0:0:
256,192,64918,1,0,0:0:0:0:
256,192,65000,1,0,0:0:0:0:
256,192,65082,1,2,0:0:0:0:
256,192,65136,1,2,0:0:0:0:
256,192,65191,1,2,0:0:0:0:
256,192,65245,1,0,0:0:0:0:
256,192,65409,5,0,0:0:0:0:
256,192,65572,1,0,0:0:0:0:
256,192,65654,1,0,0:0:0:0:
256,192,65736,1,2,0:0:0:0:
256,192,65899,1,2,0:0:0:0:
256,192,65981,1,2,0:0:0:0:
256,192,66063,1,0,0:0:0:0:
256,192,66226,1,0,0:0:0:0:
256,192,66308,1,0,0:0:0:0:
256,192,66390,1,2,0:0:0:0:
256,192,66553,1,2,0:0:0:0:
256,192,66717,1,0,0:0:0:0:
256,192,66880,1,0,0:0:0:0:
256,192,66962,1,0,0:0:0:0:
256,192,67044,1,2,0:0:0:0:
256,192,67207,1,2,0:0:0:0:
256,192,67289,1,2,0:0:0:0:
256,192,67371,1,0,0:0:0:0:
256,192,67452,1,2,0:0:0:0:
256,192,67534,1,0,0:0:0:0:
256,192,67698,1,2,0:0:0:0:
256,192,67861,1,2,0:0:0:0:
256,192,67943,1,2,0:0:0:0:
256,192,68024,5,0,0:0:0:0:
256,192,68188,1,0,0:0:0:0:
256,192,68270,1,0,0:0:0:0:
256,192,68351,1,2,0:0:0:0:
256,192,68515,1,2,0:0:0:0:
256,192,68597,1,2,0:0:0:0:
256,192,68678,1,0,0:0:0:0:
256,192,68760,1,2,0:0:0:0:
256,192,68842,1,0,0:0:0:0:
256,192,68924,1,0,0:0:0:0:
256,192,69005,1,2,0:0:0:0:
256,192,69169,1,2,0:0:0:0:
256,192,69332,1,0,0:0:0:0:
256,192,69414,1,2,0:0:0:0:
256,192,69496,1,0,0:0:0:0:
256,192,69550,1,0,0:0:0:0:
256,192,69605,1,0,0:0:0:0:
256,192,69659,1,2,0:0:0:0:
256,192,69741,1,0,0:0:0:0:
256,192,69823,1,2,0:0:0:0:
256,192,69905,1,2,0:0:0:0:
256,192,69986,1,0,0:0:0:0:
256,192,70068,1,0,0:0:0:0:
256,192,70150,1,0,0:0:0:0:
256,192,70232,1,0,0:0:0:0:
256,192,70313,1,2,0:0:0:0:
256,192,70477,1,0,0:0:0:0:
256,192,70640,5,6,0:0:0:0:
256,192,73256,1,2,0:0:0:0:
256,192,76526,1,2,0:0:0:0:
256,192,77834,1,2,0:0:0:0:
256,192,79142,1,2,0:0:0:0:
256,192,79469,1,2,0:0:0:0:
256,192,79796,1,2,0:0:0:0:
256,192,80123,1,2,0:0:0:0:
256,192,80450,1,2,0:0:0:0:
256,192,80777,1,2,0:0:0:0:
256,192,81104,5,4,0:0:0:0:
256,192,81430,1,0,0:0:0:0:
256,192,81594,1,0,0:0:0:0:
256,192,81757,1,2,0:0:0:0:
256,192,82084,1,0,0:0:0:0:
256,192,82411,1,2,0:0:0:0:
256,192,82738,1,2,0:0:0:0:
256,192,83065,1,0,0:0:0:0:
256,192,83392,1,2,0:0:0:0:
256,192,83719,1,6,0:0:0:0:
256,192,84046,1,2,0:0:0:0:
256,192,84210,1,0,0:0:0:0:
256,192,84373,1,2,0:0:0:0:
256,192,84700,1,0,0:0:0:0:
256,192,85027,1,2,0:0:0:0:
256,192,85354,1,2,0:0:0:0:
256,192,85681,1,0,0:0:0:0:
256,192,85845,1,0,0:0:0:0:
256,192,85926,1,0,0:0:0:0:
256,192,86008,1,2,0:0:0:0:
256,192,86172,1,2,0:0:0:0:
256,192,86335,5,2,0:0:0:0:
256,192,86499,1,0,0:0:0:0:
256,192,86662,1,2,0:0:0:0:
256,192,86744,1,2,0:0:0:0:
256,192,86826,1,0,0:0:0:0:
256,192,86907,1,0,0:0:0:0:
256,192,86989,1,2,0:0:0:0:
256,192,87153,1,0,0:0:0:0:
256,192,87316,1,2,0:0:0:0:
256,192,87480,1,2,0:0:0:0:
256,192,87561,1,2,0:0:0:0:
256,192,87643,1,0,0:0:0:0:
256,192,87807,1,2,0:0:0:0:
256,192,87970,1,0,0:0:0:0:
256,192,88052,1,0,0:0:0:0:
256,192,88133,1,2,0:0:0:0:
256,192,88215,1,2,0:0:0:0:
256,192,88297,1,0,0:0:0:0:
256,192,88460,1,2,0:0:0:0:
256,192,88624,1,2,0:0:0:0:
256,192,88706,1,0,0:0:0:0:
256,192,88787,1,2,0:0:0:0:
256,192,88869,1,2,0:0:0:0:
256,192,88951,5,0,0:0:0:0:
256,192,89114,1,0,0:0:0:0:
256,192,89196,1,2,0:0:0:0:
256,192,89278,1,0,0:0:0:0:
256,192,89360,1,0,0:0:0:0:
256,192,89441,1,2,0:0:0:0:
256,192,89523,1,2,0:0:0:0:
256,192,89605,1,0,0:0:0:0:
256,192,89768,1,0,0:0:0:0:
256,192,89850,1,0,0:0:0:0:
256,192,89932,1,2,0:0:0:0:
256,192,90095,1,0,0:0:0:0:
256,192,90259,1,2,0:0:0:0:
256,192,90341,1,0,0:0:0:0:
256,192,90422,1,0,0:0:0:0:
256,192,90504,1,0,0:0:0:0:
256,192,90586,1,2,0:0:0:0:
256,192,90668,1,0,0:0:0:0:
256,192,90749,1,2,0:0:0:0:
256,192,90831,1,2,0:0:0:0:
256,192,90913,1,0,0:0:0:0:
256,192,90995,1,2,0:0:0:0:
256,192,91076,1,0,0:0:0:0:
256,192,91158,1,0,0:0:0:0:
256,192,91240,1,2,0:0:0:0:
256,192,91403,1,2,0:0:0:0:
256,192,91485,1,2,0:0:0:0:
256,192,91567,5,0,0:0:0:0:
256,192,91730,1,4,0:0:0:0:
256,192,91894,1,0,0:0:0:0:
256,192,91975,1,0,0:0:0:0:
256,192,92057,1,2,0:0:0:0:
256,192,92139,1,2,0:0:0:0:
256,192,92221,1,0,0:0:0:0:
256,192,92384,1,4,0:0:0:0:
256,192,92548,1,2,0:0:0:0:
256,192,92629,1,0,0:0:0:0:
256,192,92711,1,2,0:0:0:0:
256,192,92793,1,2,0:0:0:0:
256,192,92875,1,0,0:0:0:0:
256,192,93038,1,4,0:0:0:0:
256,192,93202,1,0,0:0:0:0:
256,192,93283,1,2,0:0:0:0:
256,192,93365,1,0,0:0:0:0:
256,192,93447,1,0,0:0:0:0:
256,192,93529,1,2,0:0:0:0:
256,192,93692,1,0,0:0:0:0:
256,192,93856,1,2,0:0:0:0:
256,192,94019,1,2,0:0:0:0:
256,192,94101,1,2,0:0:0:0:
256,192,94183,5,0,0:0:0:0:
256,192,94346,1,6,0:0:0:0:
256,192,94510,1,0,0:0:0:0:
256,192,94591,1,0,0:0:0:0:
256,192,94673,1,2,0:0:0:0:
256,192,94755,1,2,0:0:0:0:
256,192,94836,1,0,0:0:0:0:
256,192,95000,1,6,0:0:0:0:
256,192,95163,1,0,0:0:0:0:
256,192,95245,1,0,0:0:0:0:
256,192,95327,1,0,0:0:0:0:
256,192,95409,1,2,0:0:0:0:
256,192,95490,1,0,0:0:0:0:
256,192,95654,1,6,0:0:0:0:
256,192,95817,1,0,0:0:0:0:
256,192,95899,1,2,0:0:0:0:
256,192,95981,1,0,0:0:0:0:
256,192,96063,1,0,0:0:0:0:
256,192,96144,1,2,0:0:0:0:
256,192,96308,1,2,0:0:0:0:
256,192,96362,1,2,0:0:0:0:
256,192,96417,1,2,0:0:0:0:
256,192,96471,1,0,0:0:0:0:
256,192,96635,1,0,0:0:0:0:
256,192,96717,1,0,0:0:0:0:
256,192,96798,5,0,0:0:0:0:
256,192,97125,1,2,0:0:0:0:
256,192,97616,1,2,0:0:0:0:
256,192,97779,1,2,0:0:0:0:
256,192,97861,1,2,0:0:0:0:
256,192,97943,1,2,0:0:0:0:
256,192,98024,1,2,0:0:0:0:
256,192,98106,1,0,0:0:0:0:
256,192,98270,1,2,0:0:0:0:
256,192,98351,1,2,0:0:0:0:
256,192,98433,1,0,0:0:0:0:
256,192,98515,1,2,0:0:0:0:
256,192,98597,1,0,0:0:0:0:
256,192,98678,1,0,0:0:0:0:
256,192,98760,1,2,0:0:0:0:
256,192,98815,1,2,0:0:0:0:
256,192,98869,1,2,0:0:0:0:
256,192,98924,1,0,0:0:0:0:
256,192,98978,1,0,0:0:0:0:
256,192,99033,1,0,0:0:0:0:
256,192,99087,1,0,0:0:0:0:
256,192,99414,5,4,0:0:0:0:
256,192,99578,1,2,0:0:0:0:
256,192,99741,1,0,0:0:0:0:
256,192,99823,1,2,0:0:0:0:
256,192,99905,1,0,0:0:0:0:
256,192,99986,1,0,0:0:0:0:
256,192,100068,1,2,0:0:0:0:
256,192,100232,1,2,0:0:0:0:
256,192,100313,1,2,0:0:0:0:
256,192,100395,1,0,0:0:0:0:
256,192,100477,1,2,0:0:0:0:
256,192,100559,1,0,0:0:0:0:
256,192,100640,1,0,0:0:0:0:
256,192,100722,1,0,0:0:0:0:
256,192,100886,1,2,0:0:0:0:
256,192,100967,1,0,0:0:0:0:
256,192,101049,1,0,0:0:0:0:
256,192,101131,1,2,0:0:0:0:
256,192,101213,1,0,0:0:0:0:
256,192,101294,1,2,0:0:0:0:
256,192,101376,1,2,0:0:0:0:
256,192,101539,1,2,0:0:0:0:
256,192,101621,1,0,0:0:0:0:
256,192,101703,1,2,0:0:0:0:
256,192,101785,1,2,0:0:0:0:
256,192,101866,1,0,0:0:0:0:
256,192,101948,1,2,0:0:0:0:
256,192,102030,5,0,0:0:0:0:
256,192,102193,1,2,0:0:0:0:
256,192,102357,1,0,0:0:0:0:
256,192,102466,1,0,0:0:0:0:
256,192,102575,1,0,0:0:0:0:
256,192,102684,1,2,0:0:0:0:
256,192,102902,1,2,0:0:0:0:
256,192,103120,1,2,0:0:0:0:
256,192,103229,1,2,0:0:0:0:
256,192,103338,1,0,0:0:0:0:
256,192,103501,1,0,0:0:0:0:
256,192,103583,1,2,0:0:0:0:
256,192,103665,1,0,0:0:0:0:
256,192,103747,1,0,0:0:0:0:
256,192,103828,1,2,0:0:0:0:
256,192,103910,1,2,0:0:0:0:
256,192,103992,1,0,0:0:0:0:
256,192,104074,1,0,0:0:0:0:
256,192,104155,1,2,0:0:0:0:
256,192,104210,1,2,0:0:0:0:
256,192,104264,1,2,0:0:0:0:
256,192,104319,1,0,0:0:0:0:
256,192,104482,1,0,0:0:0:0:
256,192,104564,1,0,0:0:0:0:
256,192,104646,5,2,0:0:0:0:
256,192,104809,1,2,0:0:0:0:
256,192,104891,1,0,0:0:0:0:
256,192,104973,1,0,0:0:0:0:
256,192,105054,1,2,0:0:0:0:
256,192,105136,1,0,0:0:0:0:
256,192,105218,1,0,0:0:0:0:
256,192,105300,1,2,0:0:0:0:
256,192,105381,1,2,0:0:0:0:
256,192,105463,1,2,0:0:0:0:
256,192,105545,1,0,0:0:0:0:
256,192,105627,1,2,0:0:0:0:
256,192,105708,1,2,0:0:0:0:
256,192,105790,1,0,0:0:0:0:
256,192,105872,1,2,0:0:0:0:
256,192,105954,1,0,0:0:0:0:
256,192,106035,1,0,0:0:0:0:
256,192,106117,1,0,0:0:0:0:
256,192,106199,1,2,0:0:0:0:
256,192,106281,1,0,0:0:0:0:
256,192,106362,1,0,0:0:0:0:
256,192,106444,1,2,0:0:0:0:
256,192,106526,1,2,0:0:0:0:
256,192,106608,1,0,0:0:0:0:
256,192,106689,1,2,0:0:0:0:
256,192,106771,1,2,0:0:0:0:
256,192,106853,1,2,0:0:0:0:
256,192,106935,1,0,0:0:0:0:
256,192,107016,1,0,0:0:0:0:
256,192,107098,1,2,0:0:0:0:
256,192,107180,1,2,0:0:0:0:
256,192,107262,5,0,0:0:0:0:
256,192,107425,1,2,0:0:0:0:
256,192,107507,1,2,0:0:0:0:
256,192,107589,1,0,0:0:0:0:
256,192,107670,1,2,0:0:0:0:
256,192,107752,1,2,0:0:0:0:
256,192,107834,1,0,0:0:0:0:
256,192,107916,1,2,0:0:0:0:
256,192,107997,1,0,0:0:0:0:
256,192,108079,1,0,0:0:0:0:
256,192,108161,1,2,0:0:0:0:
256,192,108242,1,0,0:0:0:0:
256,192,108324,1,0,0:0:0:0:
256,192,108406,1,2,0:0:0:0:
256,192,108488,1,2,0:0:0:0:
256,192,108569,1,0,0:0:0:0:
256,192,108678,1,0,0:0:0:0:
256,192,108787,1,2,0:0:0:0:
256,192,108896,1,0,0:0:0:0:
256,192,109005,1,0,0:0:0:0:
256,192,109114,1,2,0:0:0:0:
256,192,109223,1,0,0:0:0:0:
256,192,109305,1,0,0:0:0:0:
256,192,109387,1,2,0:0:0:0:
256,192,109441,1,2,0:0:0:0:
256,192,109496,1,2,0:0:0:0:
256,192,109550,1,0,0:0:0:0:
256,192,109714,1,0,0:0:0:0:
256,192,109877,5,6,0:0:0:0:
256,192,110204,1,0,0:0:0:0:
256,192,110286,1,0,0:0:0:0:
256,192,110368,1,2,0:0:0:0:
256,192,110450,1,2,0:0:0:0:
256,192,110531,1,2,0:0:0:0:
256,192,110695,1,2,0:0:0:0:
256,192,110749,1,2,0:0:0:0:
256,192,110804,1,2,0:0:0:0:
256,192,110858,1,0,0:0:0:0:
256,192,110913,1,2,0:0:0:0:
256,192,110967,1,2,0:0:0:0:
256,192,111022,1,0,0:0:0:0:
256,192,111185,1,4,0:0:0:0:
256,192,111349,12,0,113801,0:0:0:0:
