osu file format v14

[General]
AudioFilename: ANiMA.mp3
AudioLeadIn: 0
PreviewTime: 64278
Countdown: 0
SampleSet: Soft
StackLeniency: 0.3
Mode: 0
LetterboxInBreaks: 0
WidescreenStoryboard: 0

[Editor]
DistanceSpacing: 0.8
BeatDivisor: 2
GridSize: 4
TimelineZoom: 2.2

[Metadata]
Title:ANiMA
TitleUnicode:ANiMA
Artist:xi
ArtistUnicode:xi
Creator:liaoxingyao
Version:LV.6
Source:Deemo
Tags:Rayark inc. Piano DiamondMofeng Spring Parad_X Dynamix
BeatmapID:789816
BeatmapSetID:359191

[Difficulty]
HPDrainRate:5
CircleSize:4
OverallDifficulty:6
ApproachRate:7
SliderMultiplier:1.3
SliderTickRate:1

[Events]
//Background and Video events
0,0,"bg.png",0,0
//Break Periods
//Storyboard Layer 0 (Background)
//Storyboard Layer 1 (Fail)
//Storyboard Layer 2 (Pass)
//Storyboard Layer 3 (Foreground)
//Storyboard Sound Samples

[TimingPoints]
191,326.975476839237,4,2,1,20,1,0
191,-133.333333333333,4,2,1,20,0,0
10654,-100,4,2,0,30,0,0
22425,-100,4,2,0,40,0,0
110381,-100,4,2,0,35,0,0
110708,-100,4,2,0,30,0,0
111035,-100,4,2,0,25,0,0
111362,-100,4,2,0,20,0,0
111689,-100,4,2,0,15,0,0

[Colours]
Combo1 : 246,245,247
Combo2 : 244,227,11
Combo3 : 110,202,245
Combo4 : 250,97,5

[HitObjects]
100,69,191,5,2,0:0:0:0:
210,76,1498,1,2,0:0:0:0:
100,69,2806,1,2,0:0:0:0:
210,76,4441,2,0,P|259:81|326:69,2,97.50000371933,0|0|0,0:0|0:0|0:0,0:0:0:0:
100,69,5422,5,2,0:0:0:0:
210,76,6730,2,0,B|268:95|268:95|312:40|402:54,1,195.00000743866,2|0,0:0|0:0,0:0:0:0:
442,188,8038,5,2,0:0:0:0:
335,288,8692,1,2,0:0:0:0:
200,234,9346,6,0,L|87:231,1,97.50000371933,0|0,0:0|0:0,0:0:0:0:
48,167,10000,2,0,P|35:123|53:58,2,97.50000371933,0|0|4,0:0|0:0|1:2,0:0:0:0:
200,234,11471,6,0,P|233:237|269:231,1,65,2|0,0:0|0:0,0:0:0:0:
313,174,11798,2,0,P|345:169|377:172,1,65,2|0,0:0|0:0,0:0:0:0:
437,286,12779,2,0,P|440:253|434:217,1,65,2|0,0:0|0:0,0:0:0:0:
377,172,13106,2,0,P|372:139|375:107,1,65,2|4,0:0|1:2,0:0:0:0:
481,51,13923,1,2,0:0:0:0:
470,146,14577,5,4,1:2:0:0:
377,172,15231,1,4,1:2:0:0:
289,132,15885,6,0,P|247:120|160:146,1,130,4|0,1:2|0:0,0:0:0:0:
137,212,16376,2,0,L|132:290,1,65,0|0,0:0|0:0,0:0:0:0:
277,370,16866,2,0,P|308:375|371:362,1,65,0|0,0:0|1:0,0:0:0:0:
382,306,17193,6,0,P|424:318|511:292,1,130,4|0,1:2|0:0,0:0:0:0:
498,214,17684,2,0,L|503:136,1,65,0|0,0:0|0:0,0:0:0:0:
405,70,18174,2,0,P|374:65|311:78,1,65,0|0,0:0|1:0,0:0:0:0:
289,132,18501,5,4,1:2:0:0:
173,70,18828,2,0,P|204:65|267:78,1,65,0|0,0:0|1:0,0:0:0:0:
289,132,19155,1,4,1:2:0:0:
227,248,19482,2,0,P|222:217|235:154,1,65,0|2,0:0|1:2,0:0:0:0:
289,132,19809,5,4,1:2:0:0:
405,70,20136,1,0,1:0:0:0:
472,183,20463,2,0,L|467:266,1,65,4|0,1:2|1:0,0:0:0:0:
406,297,20790,2,0,P|365:301|321:290,1,65,0|0,1:0|1:0,0:0:0:0:
285,242,21117,5,4,1:2:0:0:
289,132,21444,1,4,0:0:0:0:
285,242,21771,2,0,L|152:235,1,130,2|2,0:0|0:0,0:0:0:0:
59,161,22425,6,0,P|44:102|76:25,1,130,6|0,1:2|1:0,0:0:0:0:
145,61,22915,2,0,B|183:51|183:51|235:66|235:66|291:52,1,130,2|2,0:0|0:0,0:0:0:0:
348,88,23406,2,0,L|342:219,1,130,0|0,1:0|1:0,0:0:0:0:
274,266,23896,2,0,L|197:260,2,65,2|0|2,0:0|1:0|0:0,0:0:0:0:
342,217,24387,1,2,1:2:0:0:
396,321,24714,1,2,1:2:0:0:
482,238,25041,6,0,B|487:160|487:160|444:118,1,130,2|2,1:2|1:2,0:0:0:0:
373,92,25531,2,0,L|235:83,1,130,2|2,0:0|0:0,0:0:0:0:
176,134,26022,2,0,P|117:118|126:41,1,130,2|2,1:2|1:2,0:0:0:0:
35,24,26512,1,2,0:0:0:0:
35,24,26676,1,2,1:2:0:0:
101,169,27002,2,0,L|100:105,1,65,2|0,1:2|0:0,0:0:0:0:
15,159,27329,2,0,L|17:247,1,65,4|0,1:2|1:0,0:0:0:0:
52,300,27656,6,0,P|95:312|181:284,1,130,6|2,1:2|1:2,0:0:0:0:
221,218,28147,2,0,B|212:164|212:164|223:142|223:142|217:83,1,130,2|2,0:0|0:0,0:0:0:0:
292,53,28637,2,0,L|371:49,1,65,2|2,1:2|0:0,0:0:0:0:
412,112,28964,5,2,1:2:0:0:
412,112,29128,1,2,0:0:0:0:
483,77,29291,2,0,P|491:111|475:169,1,65,2|2,1:2|0:0,0:0:0:0:
436,198,29618,2,0,L|299:190,1,130,2|2,1:2|1:2,0:0:0:0:
239,239,30109,1,2,1:2:0:0:
176,189,30272,6,0,P|147:186|103:191,2,65,4|2|0,1:2|0:0|1:0,0:0:0:0:
239,239,30763,2,0,P|268:242|312:237,2,65,4|2|0,1:2|1:2|0:0,0:0:0:0:
161,280,31253,1,4,1:2:0:0:
155,357,31417,1,2,1:2:0:0:
237,362,31580,6,0,L|310:364,2,65,6|0|6,1:2|1:0|1:2,0:0:0:0:
239,239,32234,2,0,L|247:154,1,65,6|2,1:2|0:0,0:0:0:0:
198,105,32561,1,8,0:0:0:0:
70,153,32888,6,0,P|53:97|75:26,1,130,6|2,1:2|0:0,0:0:0:0:
198,105,33542,2,0,B|266:115|266:115|340:101,1,130,2|2,1:2|0:0,0:0:0:0:
435,177,34196,2,0,P|452:233|430:304,1,130,2|2,1:2|1:2,0:0:0:0:
307,225,34850,2,0,B|239:215|239:215|165:229,1,130,2|2,1:2|0:0,0:0:0:0:
77,278,35504,6,0,B|60:231|60:231|78:198|66:133,1,130,2|2,1:2|0:0,0:0:0:0:
145,118,35994,1,2,0:0:0:0:
222,151,36158,2,0,L|361:138,1,130,2|2,1:2|1:2,0:0:0:0:
452,231,36812,6,0,P|474:294|443:371,1,130,2|2,1:2|1:2,0:0:0:0:
382,317,37302,1,2,0:0:0:0:
311,361,37466,2,0,L|241:357,1,65,2|2,1:2|1:2,0:0:0:0:
184,302,37793,2,0,P|179:269|188:232,1,65,2|2,1:2|1:2,0:0:0:0:
240,175,38120,6,0,P|259:114|228:37,1,130,4|4,1:2|1:2,0:0:0:0:
179,109,38610,1,0,0:0:0:0:
137,37,38774,2,0,L|8:33,1,130,6|2,1:2|1:2,0:0:0:0:
12,173,39428,6,0,P|-7:234|24:311,1,130,6|4,1:2|1:2,0:0:0:0:
73,239,39918,1,2,1:2:0:0:
115,311,40082,2,0,L|244:315,1,130,6|2,1:2|1:2,0:0:0:0:
372,273,40735,6,0,L|379:138,1,130,6|2,1:2|1:2,0:0:0:0:
298,41,41389,2,0,P|250:23|167:41,1,130,6|2,1:2|1:2,0:0:0:0:
82,141,42043,2,0,L|75:276,1,130,4|2,1:2|1:2,0:0:0:0:
159,349,42697,2,0,P|207:367|290:349,1,130,2|2,1:2|1:2,0:0:0:0:
351,257,43351,5,2,1:2:0:0:
351,257,43678,2,0,L|283:251,2,43.3333333333333,2|2|2,1:2|1:2|1:2,0:0:0:0:
412,301,44005,2,0,L|480:295,2,43.3333333333333,2|2|2,1:2|1:2|1:2,0:0:0:0:
348,348,44332,2,0,L|280:342,2,43.3333333333333,2|2|2,1:2|1:2|1:2,0:0:0:0:
412,301,44659,6,0,P|401:226|423:149,1,130,2|8,1:2|1:2,0:0:0:0:
294,119,45313,2,0,P|219:108|142:130,1,130,2|8,1:2|1:2,0:0:0:0:
42,183,45967,6,0,L|38:314,1,130,2|10,1:2|1:2,0:0:0:0:
102,367,46458,1,2,0:0:0:0:
169,318,46621,2,0,B|219:310|219:310|254:323|254:323|320:318,1,130,2|10,1:2|1:2,0:0:0:0:
440,352,47275,6,0,L|444:221,1,130,2|10,1:2|1:2,0:0:0:0:
380,168,47766,1,2,0:0:0:0:
313,217,47929,2,0,B|263:225|263:225|228:212|228:212|162:217,1,130,0|8,1:0|1:2,0:0:0:0:
113,256,48419,1,2,1:2:0:0:
169,318,48583,5,4,1:2:0:0:
169,318,48910,2,0,L|226:313,2,43.3333333333333,2|2|2,1:2|1:2|1:2,0:0:0:0:
113,256,49237,2,0,L|56:251,2,43.3333333333333,2|2|2,1:2|1:2|1:2,0:0:0:0:
186,215,49564,2,0,L|243:210,2,43.3333333333333,2|2|2,1:2|1:2|1:2,0:0:0:0:
117,168,49891,6,0,P|104:108|128:39,1,130,2|10,1:2|1:2,0:0:0:0:
264,64,50545,2,0,L|415:64,1,130,2|10,1:2|1:2,0:0:0:0:
445,197,51199,6,0,L|439:339,1,130,6|10,1:2|1:2,0:0:0:0:
358,345,51689,1,2,1:2:0:0:
285,304,51853,2,0,P|221:292|157:318,1,130,6|10,1:2|1:2,0:0:0:0:
88,353,52343,1,2,1:2:0:0:
29,294,52507,6,0,L|35:152,1,130,6|10,1:2|1:2,0:0:0:0:
116,146,52997,1,2,1:2:0:0:
189,187,53161,2,0,P|253:199|317:173,1,130,4|6,1:2|1:2,0:0:0:0:
438,222,53814,6,0,L|441:148,1,65,4|0,1:2|0:0,0:0:0:0:
377,95,54141,2,0,L|368:10,1,65,10|0,1:2|0:0,0:0:0:0:
287,50,54468,2,0,P|247:36|137:58,1,130,2|10,1:2|1:2,0:0:0:0:
189,187,55122,6,0,L|186:256,1,65,6|0,1:2|0:0,0:0:0:0:
127,311,55449,2,0,P|97:314|60:309,1,65,6|0,1:2|0:0,0:0:0:0:
2,252,55776,2,0,L|5:183,1,65,6|0,1:2|0:0,0:0:0:0:
64,128,56103,2,0,P|94:125|131:130,1,65,6|2,1:2|1:2,0:0:0:0:
189,187,56430,6,0,B|234:179|234:179|269:188|269:188|339:180,1,130,6|10,1:2|1:2,0:0:0:0:
394,212,56921,1,0,0:0:0:0:
463,166,57084,2,0,P|476:103|459:31,1,130,2|10,1:2|1:2,0:0:0:0:
339,69,57738,6,0,L|247:64,1,65,4|0,1:2|0:0,0:0:0:0:
195,93,58065,2,0,P|186:63|199:20,1,65,6|0,1:2|0:0,0:0:0:0:
111,13,58392,2,0,L|25:11,1,65,6|6,1:2|1:2,0:0:0:0:
15,89,58719,2,0,L|13:175,1,65,6|6,1:2|1:2,0:0:0:0:
87,204,59046,6,0,L|216:197,1,130,6|10,1:2|1:2,0:0:0:0:
292,236,59537,1,0,0:0:0:0:
356,183,59700,2,0,P|374:142|317:60,1,130,6|10,1:2|1:2,0:0:0:0:
473,29,60354,6,0,P|482:88|470:177,1,130,6|6,1:2|1:2,0:0:0:0:
428,227,60844,1,0,0:0:0:0:
356,183,61008,2,0,P|347:242|359:331,1,130,6|6,1:2|1:2,0:0:0:0:
428,227,61662,6,0,L|432:146,1,65,4|0,1:2|1:0,0:0:0:0:
456,82,61989,2,0,P|422:87|375:78,1,65,4|0,1:2|1:0,0:0:0:0:
318,45,62316,2,0,L|237:41,1,65,4|0,1:2|1:0,0:0:0:0:
171,50,62643,2,0,L|175:131,1,65,4|0,1:2|1:0,0:0:0:0:
248,153,62970,6,0,L|244:234,1,65,6|6,1:2|1:2,0:0:0:0:
301,280,63297,1,6,1:2:0:0:
369,232,63460,1,6,1:2:0:0:
449,256,63624,2,0,L|439:188,2,65,6|6|2,1:2|1:2|0:0,0:0:0:0:
301,280,64278,6,0,L|170:271,1,130,6|2,1:2|1:2,0:0:0:0:
98,311,64768,1,0,0:0:0:0:
33,259,64932,2,0,L|42:128,1,130,2|2,1:2|1:2,0:0:0:0:
102,14,65586,6,0,L|190:20,1,65,2|2,1:2|0:0,0:0:0:0:
228,69,65913,2,0,L|316:75,1,65,2|2,1:2|0:0,0:0:0:0:
349,15,66240,2,0,P|371:67|326:143,1,130,2|2,1:2|1:2,0:0:0:0:
233,200,66893,6,0,L|217:333,1,130,6|2,1:2|1:2,0:0:0:0:
82,363,67547,2,0,L|98:230,1,130,6|2,1:2|1:2,0:0:0:0:
233,200,68201,6,0,L|310:197,1,65,6|2,1:2|1:2,0:0:0:0:
366,246,68528,2,0,L|369:323,1,65,2|2,1:2|1:2,0:0:0:0:
446,342,68855,2,0,P|458:283|437:201,1,130,2|10,1:2|1:2,0:0:0:0:
297,197,69509,5,6,1:2:0:0:
297,197,69836,1,2,0:0:0:0:
366,246,70163,1,2,0:0:0:0:
366,246,70490,1,2,0:0:0:0:
444,215,70817,2,0,B|461:152|461:152|435:84,1,130,2|2,0:0|0:0,0:0:0:0:
368,30,71471,2,0,B|351:93|351:93|377:161,1,130,2|2,0:0|0:0,0:0:0:0:
297,197,72125,5,2,0:0:0:0:
297,197,72452,1,2,0:0:0:0:
228,246,72779,1,2,0:0:0:0:
228,246,73106,1,2,0:0:0:0:
150,215,73433,2,0,B|133:152|133:152|159:84,1,130,2|2,0:0|0:0,0:0:0:0:
226,30,74087,2,0,B|243:93|243:93|217:161,1,130,2|2,0:0|0:0,0:0:0:0:
156,91,74741,6,0,L|23:86,1,130,2|2,0:0|0:0,0:0:0:0:
4,186,75395,1,2,0:0:0:0:
156,281,76049,6,0,L|23:286,1,130,2|2,0:0|0:0,0:0:0:0:
4,186,76703,1,2,0:0:0:0:
156,91,77357,6,0,L|23:86,1,130,2|2,0:0|0:0,0:0:0:0:
4,186,78011,1,2,0:0:0:0:
26,285,78338,1,2,0:0:0:0:
102,352,78665,6,0,L|245:344,1,130,2|2,0:0|0:0,0:0:0:0:
347,276,79319,2,0,B|366:212|366:212|343:128,1,130,2|2,0:0|0:0,0:0:0:0:
272,63,79973,6,0,B|219:38|177:66|177:66|135:38|74:68,1,195,6|2,1:2|0:0,0:0:0:0:
40,147,80626,2,0,P|31:196|61:283,1,130,2|2,0:0|0:0,0:0:0:0:
150,337,81280,5,2,0:0:0:0:
255,324,81607,1,2,0:0:0:0:
343,265,81934,2,0,L|352:128,1,130,2|2,0:0|0:0,0:0:0:0:
240,63,82588,6,0,B|284:44|332:66|332:66|374:44|438:68,1,195,6|0,1:2|0:0,0:0:0:0:
472,147,83242,2,0,P|481:196|451:283,1,130,2|2,0:0|0:0,0:0:0:0:
360,337,83895,5,2,0:0:0:0:
255,324,84222,1,2,0:0:0:0:
166,264,84550,2,0,L|157:122,1,130,2|2,0:0|1:2,0:0:0:0:
97,69,85204,6,0,L|28:62,1,65,2|0,1:2|1:2,0:0:0:0:
14,140,85531,2,0,L|83:147,1,65,0|2,1:2|1:2,0:0:0:0:
158,135,85858,1,6,1:2:0:0:
415,69,86512,6,0,L|484:62,1,65,2|0,1:2|1:2,0:0:0:0:
498,140,86839,2,0,L|429:147,1,65,0|2,1:2|1:2,0:0:0:0:
354,135,87166,1,6,1:2:0:0:
97,69,87820,6,0,L|28:62,1,65,2|2,1:2|1:2,0:0:0:0:
14,140,88147,2,0,L|83:147,1,65,2|2,1:2|1:2,0:0:0:0:
158,135,88474,2,0,P|166:178|151:271,1,130,6|2,1:2|1:2,0:0:0:0:
289,286,89128,6,0,L|358:279,1,65,2|2,1:2|1:2,0:0:0:0:
372,357,89455,2,0,L|303:364,1,65,2|2,1:2|1:2,0:0:0:0:
289,286,89782,2,0,P|277:238|294:133,1,130,2|8,1:2|1:2,0:0:0:0:
403,98,90436,6,0,L|488:86,1,65,4|4,1:2|1:2,0:0:0:0:
507,23,90763,1,2,0:0:0:0:
355,17,91090,2,0,L|270:29,1,65,4|4,1:2|1:2,0:0:0:0:
251,92,91417,1,2,0:0:0:0:
103,96,91744,2,0,L|188:84,1,65,4|4,1:2|1:2,0:0:0:0:
207,21,92071,1,2,0:0:0:0:
103,96,92398,2,0,B|114:145|114:145|100:174|100:174|108:246,1,130,4|4,1:2|1:2,0:0:0:0:
206,281,93052,6,0,L|121:293,1,65,6|6,1:2|1:2,0:0:0:0:
102,356,93379,1,2,0:0:0:0:
254,362,93706,2,0,L|339:350,1,65,6|6,1:2|1:2,0:0:0:0:
358,287,94033,1,2,0:0:0:0:
506,283,94360,2,0,L|421:295,1,65,6|6,1:2|1:2,0:0:0:0:
402,358,94687,1,2,1:2:0:0:
506,283,95014,2,0,B|497:238|497:238|510:200|510:200|496:133,1,130,2|12,1:2|1:2,0:0:0:0:
256,192,95667,12,2,97629,0:0:0:0:
80,236,98283,6,0,P|76:203|85:160,1,65,6|2,1:2|0:0,0:0:0:0:
151,126,98610,1,10,1:2:0:0:
274,176,98937,2,0,L|408:163,1,130,2|10,1:2|1:2,0:0:0:0:
465,106,99428,1,2,0:0:0:0:
486,186,99591,6,0,P|490:219|481:262,1,65,2|2,1:2|0:0,0:0:0:0:
415,296,99918,1,10,1:2:0:0:
292,246,100245,2,0,L|158:259,1,130,2|10,1:2|1:2,0:0:0:0:
101,316,100736,1,2,0:0:0:0:
39,261,100899,6,0,L|35:191,1,65,2|2,1:2|0:0,0:0:0:0:
99,134,101226,2,0,L|103:64,1,65,10|0,1:2|0:0,0:0:0:0:
189,35,101553,2,0,L|288:30,2,86.6666666666667,2|2|2,1:2|1:2|1:2,0:0:0:0:
99,134,102207,6,0,L|108:212,1,65,6|0,1:2|0:0,0:0:0:0:
178,225,102534,1,10,1:2:0:0:
246,192,102697,1,2,0:0:0:0:
315,225,102861,2,0,L|306:303,1,65,6|0,1:2|0:0,0:0:0:0:
262,351,103188,1,10,1:2:0:0:
178,225,103515,6,0,L|174:92,1,130,6|10,1:2|1:2,0:0:0:0:
251,53,104005,1,2,0:0:0:0:
326,97,104169,2,0,L|330:230,1,130,2|10,1:2|1:2,0:0:0:0:
402,263,104659,1,2,0:0:0:0:
478,237,104823,6,0,P|485:271|479:324,1,65,2|0,1:2|0:0,0:0:0:0:
420,354,105150,1,10,1:2:0:0:
329,226,105477,2,0,P|322:192|328:139,1,65,2|0,1:2|0:0,0:0:0:0:
387,109,105804,1,10,1:2:0:0:
251,53,106131,6,0,B|206:44|206:44|165:58|165:58|104:42,1,130,6|2,1:2|1:2,0:0:0:0:
74,104,106621,1,2,1:2:0:0:
120,166,106785,2,0,B|111:211|111:211|125:252|125:252|109:313,1,130,6|6,1:2|1:2,0:0:0:0:
51,334,107275,1,2,1:2:0:0:
120,366,107438,6,0,L|201:364,1,65,6|0,1:2|0:0,0:0:0:0:
240,306,107765,2,0,L|238:225,1,65,6|0,1:2|0:0,0:0:0:0:
321,280,108092,1,6,1:2:0:0:
391,244,108256,1,0,0:0:0:0:
446,299,108419,1,6,1:2:0:0:
410,369,108583,1,0,0:0:0:0:
334,357,108746,5,4,1:2:0:0:
334,357,109073,2,0,L|274:363,4,32.5,2|2|2|2|6,1:2|1:2|1:2|1:2|1:2,0:0:0:0:
391,244,109727,2,0,L|451:250,4,32.5,2|2|2|2|6,1:2|1:2|1:2|1:2|1:2,0:0:0:0:
256,192,110136,12,0,112670,0:0:0:0:
