osu file format v14

[General]
AudioFilename: ANiMA.mp3
AudioLeadIn: 0
PreviewTime: 64278
Countdown: 0
SampleSet: Soft
StackLeniency: 0.3
Mode: 0
LetterboxInBreaks: 0
WidescreenStoryboard: 0

[Editor]
DistanceSpacing: 1
BeatDivisor: 4
GridSize: 8
TimelineZoom: 2.799999

[Metadata]
Title:ANiMA
TitleUnicode:ANiMA
Artist:xi
ArtistUnicode:xi
Creator:liaoxingyao
Version:LV.11
Source:Deemo
Tags:Rayark inc. Piano DiamondMofeng Spring Parad_X Dynamix
BeatmapID:789815
BeatmapSetID:359191

[Difficulty]
HPDrainRate:6.5
CircleSize:4
OverallDifficulty:8.3
ApproachRate:9.3
SliderMultiplier:1.7
SliderTickRate:1

[Events]
//Background and Video events
0,0,"bg.png",0,0
//Break Periods
//Storyboard Layer 0 (Background)
//Storyboard Layer 1 (Fail)
//Storyboard Layer 2 (Pass)
//Storyboard Layer 3 (Foreground)
//Storyboard Sound Samples

[TimingPoints]
191,326.975476839237,4,2,1,20,1,0
191,-200,4,2,1,20,0,0
10572,-200,4,2,1,10,0,0
10654,-133.333333333333,4,2,0,30,0,0
22425,-100,4,2,0,40,0,0
69509,-133.333333333333,4,2,0,40,0,0
79973,-117.647058823529,4,2,0,40,0,0
90436,-100,4,2,0,40,0,0
95340,-66.6666666666667,4,2,0,40,0,0
95667,-100,4,2,0,40,0,0
97629,-80,4,2,0,40,0,0
98283,-100,4,2,0,40,0,0
108746,-80,4,2,0,40,0,0
110381,-100,4,2,0,35,0,0
110708,-100,4,2,0,30,0,0
111035,-100,4,2,0,25,0,0
111362,-100,4,2,0,20,0,0
111689,-100,4,2,0,15,0,0

[Colours]
Combo1 : 246,245,247
Combo2 : 244,227,11
Combo3 : 110,202,245
Combo4 : 250,97,5

[HitObjects]
77,88,191,5,2,0:0:0:0:
191,117,1498,1,2,0:0:0:0:
77,88,2806,1,2,0:0:0:0:
191,117,4441,2,0,L|296:110,2,85,0|0|0,0:0|0:0|0:0,0:0:0:0:
124,202,5422,5,2,0:0:0:0:
124,202,6730,2,0,P|115:249|192:222,1,170,2|0,0:0|0:0,0:0:0:0:
191,117,8038,5,2,0:0:0:0:
87,92,8692,1,2,0:0:0:0:
25,177,9346,6,0,P|20:211|37:264,2,85,0|0|0,0:0|0:0|0:0,0:0:0:0:
87,92,10327,2,0,L|165:85,1,63.75
219,35,10654,5,4,1:2:0:0:
87,92,11471,6,0,L|91:186,1,63.7500024318696,2|0,0:0|0:0,0:0:0:0:
160,280,11798,2,0,L|156:186,1,63.7500024318696,2|0,0:0|0:0,0:0:0:0:
219,35,12779,2,0,L|313:39,1,63.7500024318696,2|0,0:0|0:0,0:0:0:0:
313,129,13106,1,2,0:0:0:0:
407,108,13270,5,6,1:2:0:0:
219,35,13923,1,2,0:0:0:0:
87,92,14577,2,0,P|70:141|185:150,1,191.250007295609,4|0,1:2|0:0,0:0:0:0:
425,292,15231,2,0,P|442:243|327:234,1,191.250007295609,4|0,1:2|0:0,0:0:0:0:
293,115,15885,6,0,L|297:57,3,31.8750012159348,4|0|0|0,1:2|0:0|0:0|0:0,0:0:0:0:
368,56,16212,2,0,L|372:-2,3,31.8750012159348,0|0|0|0,0:0|0:0|0:0|0:0,0:0:0:0:
431,142,16539,2,0,L|435:84,3,31.8750012159348,0|0|0|0,0:0|0:0|0:0|0:0,0:0:0:0:
506,83,16866,2,0,L|510:25,3,31.8750012159348,0|0|0|0,0:0|0:0|1:0|0:0,0:0:0:0:
431,142,17193,5,4,1:2:0:0:
399,140,17274,1,0,0:0:0:0:
373,156,17356,1,0,0:0:0:0:
359,185,17438,1,0,0:0:0:0:
365,215,17519,1,0,0:0:0:0:
387,237,17602,1,0,0:0:0:0:
406,263,17683,1,0,0:0:0:0:
407,294,17765,1,0,0:0:0:0:
391,321,17847,1,0,0:0:0:0:
362,334,17928,1,0,0:0:0:0:
331,328,18010,1,0,0:0:0:0:
309,306,18092,1,0,0:0:0:0:
302,275,18174,2,0,P|296:257|299:238,3,31.8750012159348,0|0|0|0,0:0|0:0|1:0|0:0,0:0:0:0:
224,196,18501,5,4,1:2:0:0:
96,196,18665,2,0,L|101:146,1,31.8750012159348,0|0,0:0|0:0,0:0:0:0:
163,99,18828,2,0,L|168:49,1,31.8750012159348,0|0,0:0|0:0,0:0:0:0:
224,196,18992,2,0,L|229:146,1,31.8750012159348,0|0,1:0|0:0,0:0:0:0:
297,104,19155,2,0,L|305:25,1,63.7500024318696,4|0,1:2|0:0,0:0:0:0:
373,156,19482,1,0,0:0:0:0:
383,186,19563,1,0,0:0:0:0:
384,217,19646,2,0,L|378:251,2,21.2500008106232,2|0|0,1:2|0:0|0:0,0:0:0:0:
358,263,19809,6,0,L|286:265,1,63.7500024318696,4|0,1:2|0:0,0:0:0:0:
224,196,20136,1,0,1:0:0:0:
218,164,20217,1,0,0:0:0:0:
222,133,20299,1,0,0:0:0:0:
238,105,20381,1,0,0:0:0:0:
261,84,20462,1,4,1:2:0:0:
291,72,20544,1,0,0:0:0:0:
323,71,20626,1,0,1:0:0:0:
353,81,20708,1,0,0:0:0:0:
378,100,20789,1,0,1:0:0:0:
395,127,20871,1,0,0:0:0:0:
402,158,20953,1,0,1:0:0:0:
398,189,21035,1,0,0:0:0:0:
384,217,21116,5,4,1:2:0:0:
384,217,21444,1,4,0:0:0:0:
384,217,21771,1,2,0:0:0:0:
346,204,21852,1,0,0:0:0:0:
306,202,21934,1,2,0:0:0:0:
268,211,22016,1,2,0:0:0:0:
233,231,22098,2,0,B|225:269|225:269|233:293|233:293|225:331,1,95.6250036478044,2|0,0:0|0:0,0:0:0:0:
143,355,22425,6,0,L|49:353,1,85,6|2,1:2|0:0,0:0:0:0:
37,316,22670,1,0,0:0:0:0:
27,275,22752,1,0,1:0:0:0:
152,131,22915,2,0,L|246:133,1,85,2|2,0:0|1:2,0:0:0:0:
258,170,23160,1,0,0:0:0:0:
268,211,23242,1,2,0:0:0:0:
27,275,23406,1,0,1:0:0:0:
10,235,23487,1,0,0:0:0:0:
7,193,23569,1,2,0:0:0:0:
17,152,23651,1,0,0:0:0:0:
40,116,23733,6,0,L|152:118,1,85,0|2,1:0|0:0,0:0:0:0:
144,272,24060,2,0,P|152:319|128:375,1,85,0|2,1:0|0:0,0:0:0:0:
258,170,24387,2,0,P|301:160|366:169,1,85,2|2,1:2|0:0,0:0:0:0:
380,182,24632,1,0,0:0:0:0:
421,197,24714,2,0,P|463:205|505:190,1,85,2|0,1:2|0:0,0:0:0:0:
497,26,25041,6,0,L|388:18,1,85,2|2,1:2|0:0,0:0:0:0:
370,17,25286,1,0,0:0:0:0:
328,14,25368,1,2,1:2:0:0:
140,114,25531,2,0,L|249:106,1,85,2|2,0:0|1:2,0:0:0:0:
267,105,25776,1,0,0:0:0:0:
309,102,25858,1,2,0:0:0:0:
421,197,26022,1,2,1:2:0:0:
438,235,26103,1,0,0:0:0:0:
444,277,26185,1,2,0:0:0:0:
437,319,26267,1,0,0:0:0:0:
419,357,26349,6,0,L|329:354,1,85,2|2,1:2|0:0,0:0:0:0:
260,251,26676,2,0,P|248:212|278:146,1,85,2|2,1:2|0:0,0:0:0:0:
438,235,27002,6,0,L|341:228,1,85,2|0,1:2|0:0,0:0:0:0:
332,192,27248,1,0,0:0:0:0:
323,151,27329,2,0,L|328:89,1,42.5,4|0,1:2|0:0,0:0:0:0:
266,60,27493,2,0,L|271:-2,1,42.5,0|0,1:0|0:0,0:0:0:0:
193,89,27656,5,6,1:2:0:0:
155,106,27737,1,0,0:0:0:0:
116,93,27819,1,2,0:0:0:0:
97,56,27901,1,0,0:0:0:0:
109,16,27983,2,0,L|14:11,1,85,2|2,1:2|0:0,0:0:0:0:
40,180,28310,5,2,1:2:0:0:
77,162,28391,1,0,0:0:0:0:
116,175,28473,1,2,0:0:0:0:
135,212,28555,1,0,0:0:0:0:
123,252,28637,2,0,L|218:257,1,85,2|2,1:2|0:0,0:0:0:0:
323,151,28964,6,0,L|332:64,2,85,2|2|2,1:2|0:0|1:2,0:0:0:0:
171,95,29455,1,2,0:0:0:0:
123,252,29618,2,0,L|114:338,1,85,2|2,1:2|0:0,0:0:0:0:
143,358,29864,1,0,0:0:0:0:
177,364,29945,2,0,L|263:362,1,85,2|2,1:2|1:2,0:0:0:0:
414,301,30272,5,4,1:2:0:0:
429,263,30353,1,0,0:0:0:0:
405,229,30435,1,2,0:0:0:0:
365,230,30517,1,0,0:0:0:0:
343,265,30598,1,0,1:0:0:0:
253,116,30763,5,4,1:2:0:0:
237,153,30844,1,0,0:0:0:0:
261,187,30926,1,2,1:2:0:0:
301,186,31008,1,0,0:0:0:0:
323,151,31089,1,0,0:0:0:0:
159,332,31253,5,4,1:2:0:0:
196,348,31334,1,0,0:0:0:0:
230,324,31416,1,2,1:2:0:0:
229,284,31498,1,0,0:0:0:0:
195,258,31580,5,6,1:2:0:0:
114,181,31744,2,0,L|107:147,4,21.25,0|0|0|0|6,1:0|1:0|1:0|1:0|1:2,0:0:0:0:
301,186,32071,1,2,1:2:0:0:
114,181,32234,1,6,1:2:0:0:
73,189,32315,1,0,0:0:0:0:
39,166,32397,1,2,0:0:0:0:
32,125,32479,1,0,0:0:0:0:
55,89,32561,2,0,L|104:85,1,42.5,8|0,0:0|0:0,0:0:0:0:
169,116,32725,2,0,L|218:112,1,42.5,2|0,0:0|0:0,0:0:0:0:
225,186,32888,6,0,L|220:251,3,42.5,6|0|2|0,1:2|0:0|0:0|0:0,0:0:0:0:
300,229,33215,2,0,L|295:294,3,42.5,2|0|2|0,0:0|0:0|0:0|0:0,0:0:0:0:
373,252,33542,2,0,B|411:261|411:261|464:235,1,85,2|2,1:2|0:0,0:0:0:0:
472,109,33869,1,2,0:0:0:0:
432,131,33950,1,0,0:0:0:0:
404,166,34032,1,0,0:0:0:0:
381,205,34114,1,0,0:0:0:0:
373,252,34196,6,0,L|368:357,1,85,2|2,1:2|0:0,0:0:0:0:
300,229,34523,2,0,L|296:185,2,28.3333333333333,2|0|0,1:2|0:0|0:0,0:0:0:0:
276,176,34686,2,0,P|270:147|279:84,1,85,2|2,0:0|1:2,0:0:0:0:
425,158,35013,1,2,0:0:0:0:
300,229,35177,1,2,0:0:0:0:
265,251,35258,1,0,0:0:0:0:
223,248,35340,1,2,0:0:0:0:
192,221,35422,1,0,0:0:0:0:
183,180,35504,6,0,L|190:89,1,85,2|2,1:2|0:0,0:0:0:0:
119,229,35831,1,2,0:0:0:0:
84,206,35912,1,0,0:0:0:0:
42,209,35994,1,2,0:0:0:0:
11,236,36076,1,0,0:0:0:0:
2,277,36158,6,0,L|8:368,1,85,2|2,1:2|0:0,0:0:0:0:
119,229,36485,2,0,L|112:137,1,85,2|2,1:2|0:0,0:0:0:0:
300,229,36812,6,0,P|338:236|396:229,1,85,2|2,1:2|0:0,0:0:0:0:
476,142,37139,1,2,1:2:0:0:
474,100,37220,1,0,0:0:0:0:
445,70,37302,1,2,0:0:0:0:
404,67,37384,1,0,0:0:0:0:
371,93,37466,1,2,1:2:0:0:
335,113,37547,1,0,0:0:0:0:
296,100,37629,1,2,1:2:0:0:
280,62,37711,1,0,0:0:0:0:
299,24,37793,2,0,L|350:19,3,42.5,2|2|2|2,1:2|1:2|1:2|1:2,0:0:0:0:
371,93,38120,6,0,L|377:160,1,42.5,4|0,1:2|0:0,0:0:0:0:
419,198,38283,2,0,L|413:264,1,42.5
354,297,38447,2,0,P|286:307|228:277,1,127.5,4|0,1:2|0:0,0:0:0:0:
211,203,38774,2,0,L|203:118,1,85,6|0,1:2|0:0,0:0:0:0:
371,93,39101,1,2,1:2:0:0:
397,110,39182,1,0,0:0:0:0:
415,136,39264,1,2,1:2:0:0:
422,167,39346,1,0,0:0:0:0:
419,198,39428,6,0,B|374:197|374:197|344:209|344:209|274:204,1,127.5,6|0,1:2|0:0,0:0:0:0:
211,203,39755,2,0,L|203:118,1,85,4|2,1:2|1:2,0:0:0:0:
293,205,40082,2,0,L|301:290,1,85,6|2,1:2|1:2,0:0:0:0:
334,318,40327,1,0,0:0:0:0:
368,343,40408,1,2,1:2:0:0:
409,351,40490,1,2,1:2:0:0:
449,338,40572,1,2,1:2:0:0:
478,307,40653,1,2,1:2:0:0:
489,267,40735,6,0,L|497:173,1,85,6|2,1:2|0:0,0:0:0:0:
463,155,40981,1,0,0:0:0:0:
434,125,41062,1,2,1:2:0:0:
393,126,41144,1,2,1:2:0:0:
367,158,41226,1,2,1:2:0:0:
375,199,41307,1,2,1:2:0:0:
411,223,41389,2,0,L|408:363,1,127.5,6|0,1:2|0:0,0:0:0:0:
335,318,41716,2,0,B|288:318|288:318|258:329|258:329|190:324,1,127.5,2|2,1:2|1:2,0:0:0:0:
135,282,42043,5,4,1:2:0:0:
131,239,42124,1,0,0:0:0:0:
127,197,42207,2,0,L|96:188,2,21.25,0|0|0,1:0|1:0|1:0,0:0:0:0:
183,144,42370,5,2,1:2:0:0:
186,101,42451,1,0,0:0:0:0:
190,59,42534,2,0,L|193:15,1,42.5,2|0,1:2|0:0,0:0:0:0:
272,57,42697,1,2,1:2:0:0:
295,90,42778,1,2,1:2:0:0:
336,95,42860,1,2,1:2:0:0:
366,67,42942,1,2,1:2:0:0:
354,27,43024,5,2,1:2:0:0:
406,27,43105,1,2,1:2:0:0:
449,57,43187,1,2,1:2:0:0:
466,106,43269,1,2,1:2:0:0:
453,156,43351,5,2,1:2:0:0:
453,156,43678,2,0,L|386:150,2,56.6666666666667,2|2|2,1:2|1:2|1:2,0:0:0:0:
340,209,44005,1,2,1:2:0:0:
272,205,44113,1,2,1:2:0:0:
204,201,44222,1,2,1:2:0:0:
136,198,44332,2,0,L|69:192,2,56.6666666666667,2|2|2,1:2|1:2|1:2,0:0:0:0:
18,264,44659,5,2,1:2:0:0:
136,198,44823,2,0,L|143:166,2,28.3333333333333,2|0|0,0:0|0:0|0:0,0:0:0:0:
115,225,44986,2,0,L|121:324,1,85,8|0,1:2|0:0,0:0:0:0:
204,201,45313,2,0,L|210:102,1,85,2|0,1:2|0:0,0:0:0:0:
256,274,45640,2,0,P|302:285|359:273,1,85,8|0,1:2|0:0,0:0:0:0:
448,193,45967,5,2,1:2:0:0:
458,152,46048,1,0,0:0:0:0:
444,113,46130,1,2,0:0:0:0:
409,89,46212,1,0,0:0:0:0:
368,89,46294,2,0,L|311:94,3,42.5,10|0|2|0,1:2|0:0|0:0|0:0,0:0:0:0:
257,115,46621,5,2,1:2:0:0:
247,74,46702,1,0,0:0:0:0:
261,35,46784,1,2,0:0:0:0:
295,11,46866,1,0,0:0:0:0:
337,12,46948,2,0,L|394:16,3,42.5,10|0|2|0,1:2|0:0|0:0|0:0,0:0:0:0:
368,89,47275,5,2,1:2:0:0:
358,130,47356,1,0,0:0:0:0:
372,169,47438,1,2,0:0:0:0:
406,193,47520,1,0,0:0:0:0:
448,192,47602,2,0,L|505:188,3,42.5,10|0|2|0,1:2|0:0|0:0|0:0,0:0:0:0:
496,289,47929,2,0,B|443:303|443:303|394:287,1,85,0|2,1:0|0:0,0:0:0:0:
257,340,48256,2,0,B|310:326|310:326|359:342,1,85,8|2,1:2|1:2,0:0:0:0:
496,289,48583,5,4,1:2:0:0:
496,289,48910,2,0,L|429:295,2,56.6666666666667,2|2|2,1:2|1:2|1:2,0:0:0:0:
383,236,49237,1,2,1:2:0:0:
315,240,49345,1,2,1:2:0:0:
247,244,49454,1,2,1:2:0:0:
179,247,49564,2,0,L|112:253,2,56.6666666666667,2|2|2,1:2|1:2|1:2,0:0:0:0:
61,181,49891,5,2,1:2:0:0:
179,247,50055,2,0,L|186:279,2,28.3333333333333,2|0|0,0:0|0:0|0:0,0:0:0:0:
158,220,50218,2,0,L|164:121,1,85,10|0,1:2|0:0,0:0:0:0:
247,244,50545,2,0,L|253:343,1,85,2|0,1:2|0:0,0:0:0:0:
312,184,50872,2,0,B|354:173|354:173|415:185,1,85,10|2,1:2|1:2,0:0:0:0:
474,70,51199,6,0,L|481:157,1,85,6|2,1:2|0:0,0:0:0:0:
384,216,51526,1,10,1:2:0:0:
342,225,51607,1,0,0:0:0:0:
300,225,51689,1,2,1:2:0:0:
259,216,51771,1,0,0:0:0:0:
225,191,51853,6,0,L|232:104,1,85,6|2,1:2|0:0,0:0:0:0:
165,23,52180,1,10,1:2:0:0:
123,14,52261,1,0,0:0:0:0:
81,14,52343,1,2,1:2:0:0:
40,23,52425,1,0,0:0:0:0:
14,57,52507,6,0,L|25:153,1,85,6|2,1:2|0:0,0:0:0:0:
79,224,52834,1,10,1:2:0:0:
113,248,52915,1,0,0:0:0:0:
155,249,52997,1,2,1:2:0:0:
191,228,53079,1,0,0:0:0:0:
209,190,53160,5,4,1:2:0:0:
209,190,53242,1,0,0:0:0:0:
209,190,53324,2,0,L|245:186,2,21.25,0|0|0,1:0|1:0|1:0,0:0:0:0:
301,196,53488,2,0,L|344:192,1,42.5,6|0,1:2|0:0,0:0:0:0:
459,234,53651,2,0,L|416:230,1,42.5,2|0,1:2|0:0,0:0:0:0:
294,283,53814,6,0,P|285:326|289:369,1,85,4|0,1:2|0:0,0:0:0:0:
382,373,54141,2,0,L|458:369,2,56.6666666666667,10|0|0,1:2|0:0|0:0,0:0:0:0:
288,366,54468,2,0,P|245:357|202:361,1,85,2|0,1:2|0:0,0:0:0:0:
113,248,54795,2,0,L|118:155,1,85,10|2,1:2|0:0,0:0:0:0:
140,131,55041,1,0,0:0:0:0:
163,102,55122,5,6,1:2:0:0:
233,163,55285,1,0,0:0:0:0:
259,134,55368,1,0,0:0:0:0:
279,102,55449,1,6,1:2:0:0:
324,222,55613,1,0,0:0:0:0:
349,192,55696,1,0,0:0:0:0:
369,160,55777,1,6,1:2:0:0:
452,175,55940,1,0,0:0:0:0:
477,145,56023,1,0,0:0:0:0:
497,113,56104,1,6,1:2:0:0:
369,160,56267,1,2,1:2:0:0:
349,192,56350,1,0,0:0:0:0:
324,222,56430,6,0,L|239:218,1,85,6|2,1:2|0:0,0:0:0:0:
452,175,56757,2,0,L|456:242,2,56.6666666666667,10|0|0,1:2|0:0|0:0,0:0:0:0:
369,160,57084,2,0,L|373:58,1,85,2|2,1:2|0:0,0:0:0:0:
497,113,57411,5,10,1:2:0:0:
369,160,57575,1,2,0:0:0:0:
343,189,57656,1,0,0:0:0:0:
323,221,57739,1,4,1:2:0:0:
278,101,57903,1,0,0:0:0:0:
253,131,57983,1,0,0:0:0:0:
233,163,58065,1,6,1:2:0:0:
150,148,58230,1,0,0:0:0:0:
125,178,58310,1,0,0:0:0:0:
105,210,58392,6,0,L|107:284,1,42.5,6|0,1:2|0:0,0:0:0:0:
176,342,58556,2,0,L|178:268,1,42.5,6|0,1:2|0:0,0:0:0:0:
244,203,58719,2,0,L|246:277,1,42.5,6|0,1:2|0:0,0:0:0:0:
315,335,58883,2,0,L|317:261,1,42.5,6|0,1:2|0:0,0:0:0:0:
386,262,59046,6,0,B|428:246|428:246|477:265,1,85,6|2,1:2|0:0,0:0:0:0:
497,113,59373,2,0,L|501:49,2,56.6666666666667,10|0|0,1:2|0:0|0:0,0:0:0:0:
424,144,59700,2,0,L|325:135,1,85,6|0,1:2|0:0,0:0:0:0:
275,92,59945,1,0,0:0:0:0:
275,92,60027,2,0,L|176:83,1,85,10|2,1:2|0:0,0:0:0:0:
244,203,60354,5,6,1:2:0:0:
105,210,60517,1,0,0:0:0:0:
105,210,60599,1,0,0:0:0:0:
105,210,60680,1,6,1:2:0:0:
2,150,60844,1,0,0:0:0:0:
2,150,60926,1,0,0:0:0:0:
2,150,61007,1,6,1:2:0:0:
113,92,61171,5,0,0:0:0:0:
113,92,61253,1,0,0:0:0:0:
113,92,61334,1,6,1:2:0:0:
10,32,61498,1,0,0:0:0:0:
10,32,61580,1,0,0:0:0:0:
10,32,61662,6,0,L|12:84,1,42.5,4|0,1:2|0:0,0:0:0:0:
2,150,61825,2,0,L|4:202,1,42.5,0|0,1:0|0:0,0:0:0:0:
113,92,61989,2,0,L|115:144,1,42.5,4|0,1:2|0:0,0:0:0:0:
105,210,62152,2,0,L|107:262,1,42.5,0|0,1:0|0:0,0:0:0:0:
214,237,62316,6,0,L|216:185,1,42.5,4|0,1:2|0:0,0:0:0:0:
206,119,62479,2,0,L|208:67,1,42.5,0|0,1:0|0:0,0:0:0:0:
317,177,62643,2,0,L|319:125,1,42.5,4|0,1:2|0:0,0:0:0:0:
309,59,62806,2,0,L|311:7,1,42.5,0|0,1:0|0:0,0:0:0:0:
398,47,62970,5,6,1:2:0:0:
438,38,63051,1,2,1:2:0:0:
476,57,63133,1,6,1:2:0:0:
493,94,63215,1,2,1:2:0:0:
424,118,63297,5,6,1:2:0:0:
384,127,63378,1,2,1:2:0:0:
346,108,63460,1,6,1:2:0:0:
329,71,63542,1,2,1:2:0:0:
274,21,63624,5,6,1:2:0:0:
256,59,63705,1,2,1:2:0:0:
261,101,63787,2,0,L|270:141,2,21.25,2|2|2,1:2|1:2|1:2,0:0:0:0:
329,71,63951,2,0,L|375:65,4,28.3333333333333,2|0|0|0|0,1:2|0:0|0:0|0:0|0:0,0:0:0:0:
473,63,64278,5,6,1:2:0:0:
438,38,64359,1,0,0:0:0:0:
397,32,64441,1,2,0:0:0:0:
356,45,64523,1,0,0:0:0:0:
326,74,64605,1,2,1:2:0:0:
322,115,64686,1,0,0:0:0:0:
291,144,64768,1,0,0:0:0:0:
250,145,64850,1,0,0:0:0:0:
218,119,64932,5,2,1:2:0:0:
218,119,65013,1,0,0:0:0:0:
218,119,65095,2,0,L|167:125,1,42.5,2|0,0:0|0:0,0:0:0:0:
60,103,65259,1,2,1:2:0:0:
60,103,65340,1,0,0:0:0:0:
60,103,65422,2,0,L|111:97,1,42.5,2|0,0:0|0:0,0:0:0:0:
157,43,65586,5,2,1:2:0:0:
174,81,65667,1,0,0:0:0:0:
175,123,65749,1,2,0:0:0:0:
161,163,65831,1,0,0:0:0:0:
134,196,65913,1,2,1:2:0:0:
117,234,65994,1,0,0:0:0:0:
116,276,66076,1,2,0:0:0:0:
130,316,66158,1,0,0:0:0:0:
153,352,66240,5,2,1:2:0:0:
153,352,66321,1,0,0:0:0:0:
153,352,66403,2,0,L|204:346,1,42.5,2|0,0:0|0:0,0:0:0:0:
272,275,66567,1,2,1:2:0:0:
272,275,66648,1,0,0:0:0:0:
272,275,66730,2,0,L|221:281,1,42.5,2|0,1:2|0:0,0:0:0:0:
341,319,66893,5,6,1:2:0:0:
380,334,66974,1,0,0:0:0:0:
422,332,67056,1,2,0:0:0:0:
458,311,67138,1,0,0:0:0:0:
483,277,67220,2,0,L|490:215,1,42.5,2|0,1:2|0:0,0:0:0:0:
414,199,67384,2,0,L|420:136,1,42.5,2|0,0:0|0:0,0:0:0:0:
335,173,67547,5,6,1:2:0:0:
295,188,67628,1,0,0:0:0:0:
253,186,67710,1,2,0:0:0:0:
217,165,67792,1,0,0:0:0:0:
192,131,67874,2,0,L|185:68,1,42.5,2|0,1:2|0:0,0:0:0:0:
262,53,68038,2,0,L|255:-9,1,42.5,2|0,1:2|0:0,0:0:0:0:
169,11,68201,6,0,L|110:5,1,42.5,6|0,1:2|0:0,0:0:0:0:
66,60,68365,2,0,L|30:56,2,21.25,2|2|0,1:2|1:2|0:0,0:0:0:0:
23,128,68528,1,2,1:2:0:0:
11,168,68609,1,0,0:0:0:0:
11,211,68691,1,2,1:2:0:0:
22,252,68773,1,0,0:0:0:0:
43,289,68855,6,0,L|91:286,1,42.5,2|2,1:2|1:2,0:0:0:0:
161,331,69019,2,0,L|208:327,1,42.5,2|2,1:2|1:2,0:0:0:0:
275,289,69182,2,0,B|269:238|269:238|283:218|283:218|279:149,1,127.5,10|0,1:2|0:0,0:0:0:0:
228,111,69509,6,0,L|184:106,3,31.8750012159348,6|0|0|0,1:2|0:0|0:0|0:0,0:0:0:0:
291,72,69836,2,0,L|263:37,3,31.8750012159348,2|0|0|0,0:0|0:0|0:0|0:0,0:0:0:0:
362,82,70163,2,0,L|367:38,3,31.8750012159348,2|0|0|0,0:0|0:0|0:0|0:0,0:0:0:0:
401,145,70490,2,0,L|435:117,3,31.8750012159348,2|0|0|0,0:0|0:3|0:0|0:3,0:0:0:0:
387,219,70817,2,0,L|382:261,3,31.8750012159348,2|0|0|0,0:0|0:0|0:0|0:0,0:0:0:0:
465,248,71144,2,0,L|470:290,3,31.8750012159348,2|0|0|0,0:0|0:0|0:0|0:0,0:0:0:0:
408,322,71471,2,0,L|403:364,3,31.8750012159348,2|0|0|0,0:0|0:0|0:0|0:0,0:0:0:0:
486,351,71798,2,0,L|491:393,3,31.8750012159348,2|0|0|0,0:0|0:3|0:0|0:3,0:0:0:0:
408,322,72125,6,0,L|403:364,3,31.8750012159348,2|0|0|0,0:0|0:0|0:0|0:0,0:0:0:0:
447,259,72452,2,0,L|482:287,3,31.8750012159348,2|0|0|0,0:0|0:0|0:0|0:0,0:0:0:0:
437,188,72779,2,0,L|481:183,3,31.8750012159348,2|0|0|0,0:0|0:0|0:0|0:0,0:0:0:0:
374,149,73106,2,0,L|402:115,3,31.8750012159348,2|0|0|0,0:0|0:0|0:0|0:0,0:0:0:0:
300,163,73433,2,0,L|258:168,3,31.8750012159348,2|0|0|0,0:0|0:0|0:0|0:0,0:0:0:0:
271,85,73760,2,0,L|229:80,3,31.8750012159348,2|0|0|0,0:0|0:0|0:0|0:0,0:0:0:0:
197,142,74087,2,0,L|155:147,3,31.8750012159348,2|0|0|0,0:0|0:0|0:0|0:0,0:0:0:0:
168,64,74414,2,0,L|126:59,3,31.8750012159348,2|0|0|0,0:0|0:0|0:0|0:0,0:0:0:0:
66,115,74741,5,2,0:0:0:0:
54,144,74822,1,0,0:0:0:0:
53,176,74904,1,0,0:0:0:0:
62,206,74986,1,0,0:0:0:0:
81,232,75067,1,2,0:0:0:0:
106,251,75149,1,0,0:0:0:0:
136,261,75231,1,0,0:0:0:0:
168,260,75313,1,0,0:0:0:0:
198,250,75395,2,0,L|238:240,7,31.8750012159348,2|0|0|0|2|0|0|0,0:0|0:0|0:0|0:0|0:0|0:0|0:0|0:0,0:0:0:0:
311,239,76049,5,2,0:0:0:0:
300,209,76130,1,0,0:0:0:0:
299,177,76212,1,0,0:0:0:0:
308,147,76294,1,0,0:0:0:0:
327,121,76375,1,2,0:0:0:0:
352,102,76457,1,0,0:0:0:0:
382,92,76539,1,0,0:0:0:0:
414,93,76621,1,0,0:0:0:0:
444,103,76703,2,0,L|483:113,7,31.8750012159348,2|0|0|0|2|0|0|0,0:0|0:0|0:0|0:0|0:0|0:0|0:0|0:0,0:0:0:0:
474,192,77357,5,2,0:0:0:0:
444,203,77438,1,0,0:0:0:0:
412,204,77520,1,0,0:0:0:0:
382,195,77602,1,0,0:0:0:0:
356,176,77683,1,2,0:0:0:0:
337,151,77765,1,0,0:0:0:0:
327,121,77847,1,0,0:0:0:0:
328,89,77929,1,0,0:0:0:0:
338,59,78011,2,0,L|348:19,3,31.8750012159348,2|0|0|0,0:0|0:0|0:0|0:0,0:0:0:0:
256,68,78338,2,0,L|266:28,3,31.8750012159348,2|0|0|0,0:0|0:0|0:0|0:0,0:0:0:0:
189,106,78665,6,0,L|101:102,1,63.7500024318696,2|0,0:0|0:0,0:0:0:0:
76,194,78992,1,2,0:0:0:0:
116,289,79155,1,0,0:0:0:0:
76,194,79319,1,2,0:0:0:0:
125,103,79482,1,0,0:0:0:0:
76,194,79646,2,0,L|164:198,1,63.7500024318696,2|0,0:0|0:0,0:0:0:0:
337,157,79973,5,6,1:2:0:0:
76,194,80299,2,0,L|168:183,1,72.2500013780594,2|2,0:0|0:0,0:0:0:0:
337,157,80626,1,2,0:0:0:0:
337,157,80953,1,2,0:0:0:0:
337,157,81280,6,0,L|429:146,1,72.2500013780594,2|0,0:0|0:0,0:0:0:0:
432,229,81607,2,0,L|524:218,1,72.2500013780594,2|0,0:0|0:0,0:0:0:0:
298,308,81934,2,0,L|390:297,1,72.2500013780594,2|0,0:0|0:0,0:0:0:0:
393,380,82261,2,0,L|485:369,1,72.2500013780594,2|0,0:0|1:0,0:0:0:0:
498,358,82507,1,0,1:0:0:0:
508,324,82588,6,0,P|492:250|510:157,1,144.500002756119,6|2,1:2|0:0,0:0:0:0:
337,157,83079,1,0,0:0:0:0:
500,182,83242,2,0,P|475:108|399:89,1,144.500002756119,2|2,0:0|0:0,0:0:0:0:
337,157,83896,6,0,L|241:151,1,72.2500013780594,2|0,0:0|0:0,0:0:0:0:
122,114,84223,2,0,L|218:120,1,72.2500013780594,2|0,0:0|0:0,0:0:0:0:
209,246,84550,2,0,L|215:150,1,72.2500013780594,2|0,0:0|0:0,0:0:0:0:
252,31,84795,1,0,0:0:0:0:
252,31,84877,2,0,L|246:127,1,72.2500013780594,2|0,1:2|0:0,0:0:0:0:
122,114,85204,5,2,1:2:0:0:
90,97,85285,1,0,0:0:0:0:
56,107,85367,1,0,1:2:0:0:
39,137,85449,1,0,0:0:0:0:
47,171,85531,1,0,1:2:0:0:
60,205,85612,1,0,0:0:0:0:
56,240,85694,1,2,1:2:0:0:
37,271,85776,1,2,1:2:0:0:
6,289,85858,2,0,L|112:293,1,72.2500013780594,6|0,1:2|0:0,0:0:0:0:
152,334,86103,1,0,0:0:0:0:
152,334,86185,2,0,L|257:337,1,72.2500013780594,0|2,1:0|1:2,0:0:0:0:
392,298,86512,5,2,1:2:0:0:
423,314,86593,1,0,0:0:0:0:
457,304,86675,1,0,1:2:0:0:
474,274,86757,1,0,0:0:0:0:
466,240,86839,1,0,1:2:0:0:
453,206,86920,1,0,0:0:0:0:
457,171,87002,1,2,1:2:0:0:
476,140,87084,1,2,1:2:0:0:
507,122,87166,2,0,L|401:118,1,72.2500013780594,6|0,1:2|0:0,0:0:0:0:
362,78,87411,1,0,0:0:0:0:
362,78,87493,2,0,L|256:74,1,72.2500013780594,0|2,1:0|1:2,0:0:0:0:
183,25,87820,5,2,1:2:0:0:
158,51,87901,1,0,0:0:0:0:
146,84,87983,1,2,1:2:0:0:
149,120,88065,1,0,0:0:0:0:
166,151,88146,1,2,1:2:0:0:
195,173,88228,1,0,0:0:0:0:
230,181,88310,1,2,1:2:0:0:
265,173,88392,1,0,0:0:0:0:
294,152,88474,2,0,L|304:208,3,36.1250006890297,6|0|2|0,1:2|0:0|1:2|0:0,0:0:0:0:
369,229,88801,2,0,L|378:284,3,36.1250006890297,2|0|2|0,1:2|0:0|1:2|0:0,0:0:0:0:
461,298,89128,5,2,1:2:0:0:
477,265,89209,1,2,1:2:0:0:
484,230,89291,1,2,1:2:0:0:
482,194,89373,1,2,1:2:0:0:
470,160,89455,5,2,1:2:0:0:
417,162,89536,1,2,1:2:0:0:
375,130,89618,1,2,1:2:0:0:
362,78,89700,1,2,1:2:0:0:
385,31,89782,2,0,L|430:26,1,36.1250006890297,2|0,1:2|0:0,0:0:0:0:
311,58,89945,2,0,L|266:53,1,36.1250006890297,2|0,1:2|0:0,0:0:0:0:
375,130,90109,5,8,1:2:0:0:
375,130,90436,6,0,L|370:201,1,42.5,4|0,1:2|0:0,0:0:0:0:
289,253,90599,2,0,L|294:182,1,42.5,4|0,1:2|0:0,0:0:0:0:
223,154,90763,1,2,0:0:0:0:
183,137,90844,1,2,0:0:0:0:
141,133,90926,1,2,0:0:0:0:
99,139,91008,1,2,0:0:0:0:
61,157,91089,6,0,L|66:86,1,42.5,4|0,1:2|0:0,0:0:0:0:
147,34,91253,2,0,L|142:105,1,42.5,4|0,1:2|0:0,0:0:0:0:
213,133,91417,1,2,0:0:0:0:
252,149,91498,1,2,0:0:0:0:
294,153,91580,1,2,0:0:0:0:
336,147,91662,1,2,0:0:0:0:
375,130,91744,6,0,L|426:126,1,42.5,4|0,1:2|0:0,0:0:0:0:
466,195,91907,2,0,L|517:191,1,42.5,4|0,1:2|0:0,0:0:0:0:
492,283,92071,1,2,0:0:0:0:
477,322,92152,1,2,0:0:0:0:
442,343,92234,1,2,1:2:0:0:
401,338,92316,1,2,1:2:0:0:
372,307,92398,6,0,B|323:309|323:309|297:321|297:321|212:320,1,127.5,4|0,1:2|0:0,0:0:0:0:
207,353,92725,2,0,B|256:351|256:351|282:339|282:339|367:340,1,127.5,4|0,1:2|0:0,0:0:0:0:
372,307,93052,6,0,L|380:265,1,42.5,6|0,1:2|0:0,0:0:0:0:
309,233,93215,2,0,L|294:163,1,42.5,6|0,1:2|0:0,0:0:0:0:
373,148,93379,1,2,0:0:0:0:
340,121,93460,1,2,0:0:0:0:
299,111,93542,1,2,0:0:0:0:
258,122,93624,1,2,0:0:0:0:
226,149,93706,6,0,L|234:190,1,42.5,6|0,1:2|0:0,0:0:0:0:
163,223,93869,2,0,L|148:293,1,42.5,6|0,1:2|0:0,0:0:0:0:
227,308,94033,1,2,0:0:0:0:
194,335,94114,1,2,0:0:0:0:
153,344,94196,1,2,0:0:0:0:
112,334,94278,1,2,0:0:0:0:
80,307,94359,6,0,L|65:237,1,42.5,6|0,1:2|0:0,0:0:0:0:
147,235,94523,2,0,L|162:165,1,42.5,6|0,1:2|0:0,0:0:0:0:
79,148,94686,1,2,1:2:0:0:
112,121,94767,1,2,1:2:0:0:
153,112,94849,1,2,1:2:0:0:
194,122,94931,1,2,1:2:0:0:
226,149,95013,6,0,L|274:146,1,42.5,2|0,1:2|0:0,0:0:0:0:
336,192,95177,2,0,L|339:217,2,21.25,2|2|2,1:2|1:2|1:2,0:0:0:0:
407,253,95340,2,0,B|445:212|413:168|413:168|456:122|403:75,1,191.250007295609,12|0,1:2|0:0,0:0:0:0:
329,93,95667,5,6,1:2:0:0:
329,93,95994,2,0,L|325:2,1,85,2|2,0:0|0:0,0:0:0:0:
248,70,96321,2,0,L|246:24,1,42.5,2|2,0:0|0:0,0:0:0:0:
172,45,96485,2,0,L|170:0,1,42.5,2|2,0:0|0:0,0:0:0:0:
96,78,96648,2,0,L|94:32,1,42.5,2|2,0:0|0:0,0:0:0:0:
20,53,96812,2,0,L|19:16,2,28.3333333333333,2|2|2,0:0|0:0|0:0,0:0:0:0:
1,133,96975,5,2,0:0:0:0:
6,173,97056,1,2,0:0:0:0:
43,191,97138,1,2,0:0:0:0:
79,171,97220,1,2,0:0:0:0:
113,147,97301,1,2,0:0:0:0:
155,148,97383,1,2,0:0:0:0:
187,174,97465,1,2,0:0:0:0:
197,215,97546,1,2,0:0:0:0:
173,263,97629,6,0,L|204:274,7,26.5625,2|2|2|2|2|2|2|2,0:0|0:0|0:0|0:0|0:0|0:0|0:0|0:0,0:0:0:0:
239,282,97956,2,0,L|270:271,7,26.5625,2|2|2|2|2|2|2|2,0:0|0:0|0:0|0:0|0:0|0:0|0:0|0:0,0:0:0:0:
305,286,98283,6,0,L|306:191,1,85,6|2,1:2|0:0,0:0:0:0:
403,89,98610,1,10,1:2:0:0:
364,103,98691,1,0,0:0:0:0:
326,86,98773,1,2,0:0:0:0:
311,47,98855,1,0,0:0:0:0:
327,9,98937,2,0,L|208:5,1,85,2|2,1:2|0:0,0:0:0:0:
214,38,99182,1,0,0:0:0:0:
193,75,99264,1,10,1:2:0:0:
156,97,99345,1,0,0:0:0:0:
116,89,99427,1,2,0:0:0:0:
87,58,99509,1,0,0:0:0:0:
88,15,99590,5,2,1:2:0:0:
37,142,99755,1,2,0:0:0:0:
156,97,99918,1,10,1:2:0:0:
168,134,99999,1,0,0:0:0:0:
170,174,100081,1,2,0:0:0:0:
159,212,100163,1,0,0:0:0:0:
137,245,100245,2,0,L|48:241,1,85,2|2,1:2|0:0,0:0:0:0:
29,274,100490,1,0,0:0:0:0:
23,313,100572,2,0,L|26:359,1,42.5,10|0,1:2|0:0,0:0:0:0:
103,381,100735,2,0,L|106:335,1,42.5,2|0,0:0|0:0,0:0:0:0:
182,317,100899,6,0,L|275:313,1,85,2|2,1:2|0:0,0:0:0:0:
392,259,101226,1,10,1:2:0:0:
422,191,101334,1,0,0:0:0:0:
387,126,101443,1,0,0:0:0:0:
314,115,101553,2,0,L|319:27,1,85,2|0,1:2|0:0,0:0:0:0:
397,21,101771,2,0,B|441:16|441:16|505:33,1,85,2|0,1:2|0:0,0:0:0:0:
496,103,101989,1,2,1:2:0:0:
314,115,102207,5,6,1:2:0:0:
275,98,102288,1,0,0:0:0:0:
232,95,102370,1,0,0:0:0:0:
191,105,102452,1,0,0:0:0:0:
156,129,102534,1,10,1:2:0:0:
115,139,102615,1,0,0:0:0:0:
76,124,102697,1,0,0:0:0:0:
52,90,102779,1,0,0:0:0:0:
51,48,102860,5,6,1:2:0:0:
182,209,103024,2,0,L|176:249,2,28.3333333333333,2|0|0,0:0|0:0|0:0,0:0:0:0:
203,178,103188,2,0,L|105:180,1,85,10|2,1:2|1:2,0:0:0:0:
40,308,103515,6,0,P|29:268|60:195,1,85,6|2,1:2|0:0,0:0:0:0:
83,76,103842,1,10,1:2:0:0:
121,57,103923,1,0,0:0:0:0:
163,54,104005,1,2,0:0:0:0:
203,67,104087,1,0,0:0:0:0:
237,93,104169,2,0,L|240:8,1,85,2|2,1:2|0:0,0:0:0:0:
324,36,104414,1,0,0:0:0:0:
324,36,104496,2,0,L|416:30,1,85,10|2,1:2|0:0,0:0:0:0:
466,95,104741,1,0,0:0:0:0:
466,95,104823,6,0,L|461:181,1,85,2|0,1:2|0:0,0:0:0:0:
319,214,105150,2,0,P|283:228|217:206,1,85,10|0,1:2|0:0,0:0:0:0:
107,262,105477,2,0,L|112:348,1,85,2|0,1:2|0:0,0:0:0:0:
266,359,105804,2,0,P|302:373|368:351,1,85,10|0,1:2|0:0,0:0:0:0:
319,214,106131,6,0,L|325:146,1,42.5,6|0,1:2|0:0,0:0:0:0:
275,77,106294,2,0,L|269:145,1,42.5,2|0,1:2|0:0,0:0:0:0:
203,201,106458,2,0,L|209:133,1,42.5,2|0,1:2|0:0,0:0:0:0:
150,63,106621,2,0,L|144:131,1,42.5,2|0,1:2|0:0,0:0:0:0:
128,206,106785,5,6,1:2:0:0:
80,219,106866,1,0,0:0:0:0:
41,189,106948,2,0,L|39:130,1,42.5,0|0,1:2|0:0,0:0:0:0:
150,63,107111,1,6,1:2:0:0:
198,50,107193,1,0,0:0:0:0:
237,80,107275,2,0,L|239:139,1,42.5,2|0,1:2|0:0,0:0:0:0:
330,213,107438,5,6,1:2:0:0:
405,202,107547,1,2,1:2:0:0:
440,133,107656,1,2,1:2:0:0:
390,67,107765,5,6,1:2:0:0:
314,75,107874,1,2,1:2:0:0:
278,145,107983,1,2,1:2:0:0:
226,213,108092,5,6,1:2:0:0:
151,202,108201,1,2,1:2:0:0:
116,133,108310,1,2,1:2:0:0:
166,67,108419,5,6,1:2:0:0:
242,75,108528,1,2,1:2:0:0:
278,145,108637,1,2,1:2:0:0:
330,213,108746,5,4,1:2:0:0:
242,75,109073,1,2,1:2:0:0:
200,42,109154,1,2,1:2:0:0:
148,40,109236,1,2,1:2:0:0:
105,70,109318,1,2,1:2:0:0:
87,119,109399,1,6,1:2:0:0:
120,247,109564,5,2,1:2:0:0:
87,119,109727,1,2,1:2:0:0:
105,70,109808,1,2,1:2:0:0:
148,40,109890,1,2,1:2:0:0:
200,42,109972,1,2,1:2:0:0:
242,75,110054,1,6,1:2:0:0:
256,192,110136,12,0,112670,0:0:0:0:
