osu file format v14

[General]
AudioFilename: 7 ANIMA.mp3
AudioLeadIn: 0
PreviewTime: 23556
Countdown: 0
SampleSet: None
StackLeniency: 0.7
Mode: 1
LetterboxInBreaks: 0
WidescreenStoryboard: 1

[Editor]
DistanceSpacing: 1.5
BeatDivisor: 4
GridSize: 32
TimelineZoom: 2.32

[Metadata]
Title:ANiMA
TitleUnicode:ANiMA
Artist:xi
ArtistUnicode:xi
Creator:Kunieda
Version:Muzukashii
Source:Deemo
Tags:rayark
BeatmapID:715051
BeatmapSetID:321441

[Difficulty]
HPDrainRate:5
CircleSize:5
OverallDifficulty:5
ApproachRate:5
SliderMultiplier:1.4
SliderTickRate:1

[Events]
//Background and Video events
0,0,"50650401_p0.jpg",0,0
//Break Periods
//Storyboard Layer 0 (Background)
//Storyboard Layer 1 (Fail)
//Storyboard Layer 2 (Pass)
//Storyboard Layer 3 (Foreground)
//Storyboard Sound Samples

[TimingPoints]
1322,326.975476839237,4,2,0,40,1,0
1322,-181.818181818182,4,2,0,40,0,0
10477,-133.333333333333,4,2,0,70,0,0
11785,-100,4,1,0,90,0,0
23556,-100,4,1,0,90,0,1
34019,-100,4,1,0,90,0,0
65409,-100,4,1,0,90,0,1
70640,-100,4,1,0,90,0,0
70967,-100,4,2,0,90,0,0
81104,-100,4,1,0,90,0,0
91567,-100,4,1,0,90,0,1
96798,-100,4,1,0,90,0,0
99414,-100,4,1,0,90,0,1
111185,-100,4,1,0,90,0,0

[HitObjects]
256,192,1322,5,0,0:0:0:0:
256,192,2629,1,0,0:0:0:0:
256,192,3937,1,8,0:0:0:0:
256,192,5572,1,0,0:0:0:0:
256,192,5899,1,0,0:0:0:0:
256,192,6226,1,0,0:0:0:0:
256,192,6553,1,0,0:0:0:0:
256,192,7861,1,8,0:0:0:0:
256,192,8515,1,0,0:0:0:0:
256,192,9169,1,8,0:0:0:0:
256,192,9823,1,0,0:0:0:0:
256,192,10477,1,4,0:0:0:0:
256,192,10804,1,0,0:0:0:0:
256,192,11131,1,0,0:0:0:0:
256,192,11458,1,8,0:0:0:0:
256,192,11785,1,4,0:0:0:0:
256,192,13093,1,8,0:0:0:0:
256,192,14401,1,4,0:0:0:0:
256,192,15054,1,8,0:0:0:0:
256,192,15708,1,4,0:0:0:0:
256,192,16362,1,8,0:0:0:0:
256,192,17016,1,4,0:0:0:0:
256,192,17670,1,0,0:0:0:0:
256,192,17997,1,8,0:0:0:0:
256,192,18161,1,8,0:0:0:0:
256,192,18324,1,4,0:0:0:0:
256,192,18978,1,8,0:0:0:0:
256,192,19305,1,0,0:0:0:0:
256,192,19387,1,0,0:0:0:0:
256,192,19469,1,0,0:0:0:0:
256,192,19632,1,12,0:0:0:0:
256,192,19959,1,0,0:0:0:0:
256,192,20123,1,0,0:0:0:0:
256,192,20286,1,12,0:0:0:0:
256,192,20613,1,0,0:0:0:0:
256,192,20777,1,0,0:0:0:0:
256,192,20940,1,12,0:0:0:0:
256,192,21104,12,0,22248,0:0:0:0:
256,192,22575,5,0,0:0:0:0:
256,192,22902,1,0,0:0:0:0:
256,192,23229,1,12,0:0:0:0:
256,192,23556,1,4,0:0:0:0:
256,192,23883,1,8,0:0:0:0:
256,192,24046,1,0,0:0:0:0:
256,192,24373,1,8,0:0:0:0:
256,192,24537,1,0,0:0:0:0:
256,192,24864,1,8,0:0:0:0:
256,192,25027,1,0,0:0:0:0:
256,192,25191,1,8,0:0:0:0:
256,192,25354,1,0,0:0:0:0:
256,192,25518,1,0,0:0:0:0:
256,192,25845,1,8,0:0:0:0:
256,192,26172,1,0,0:0:0:0:
256,192,26499,1,8,0:0:0:0:
256,192,26662,1,0,0:0:0:0:
256,192,26989,1,8,0:0:0:0:
256,192,27153,1,0,0:0:0:0:
256,192,27480,1,8,0:0:0:0:
256,192,27643,1,0,0:0:0:0:
256,192,27807,1,0,0:0:0:0:
256,192,27970,1,0,0:0:0:0:
256,192,28133,1,8,0:0:0:0:
256,192,28297,1,0,0:0:0:0:
256,192,28460,1,6,0:0:0:0:
256,192,28787,1,4,0:0:0:0:
256,192,29114,1,8,0:0:0:0:
256,192,29278,1,0,0:0:0:0:
256,192,29605,1,8,0:0:0:0:
256,192,29768,1,0,0:0:0:0:
256,192,30095,1,8,0:0:0:0:
256,192,30177,1,8,0:0:0:0:
256,192,30259,1,8,0:0:0:0:
256,192,30422,1,8,0:0:0:0:
256,192,30586,1,0,0:0:0:0:
256,192,30749,1,8,0:0:0:0:
256,192,30913,1,0,0:0:0:0:
256,192,31076,1,0,0:0:0:0:
256,192,31403,1,4,0:0:0:0:
256,192,31730,1,8,0:0:0:0:
256,192,31894,1,4,0:0:0:0:
256,192,32221,1,8,0:0:0:0:
256,192,32384,1,4,0:0:0:0:
256,192,32711,1,0,0:0:0:0:
256,192,32875,1,0,0:0:0:0:
256,192,32956,1,0,0:0:0:0:
256,192,33038,1,0,0:0:0:0:
256,192,33365,1,0,0:0:0:0:
256,192,33447,1,0,0:0:0:0:
256,192,33529,1,0,0:0:0:0:
256,192,33692,1,8,0:0:0:0:
256,192,33774,1,8,0:0:0:0:
256,192,33856,1,8,0:0:0:0:
256,192,34019,1,4,0:0:0:0:
256,192,34183,1,8,0:0:0:0:
256,192,34346,1,8,0:0:0:0:
256,192,34673,1,0,0:0:0:0:
256,192,35000,1,8,0:0:0:0:
256,192,35327,1,0,0:0:0:0:
256,192,35654,1,0,0:0:0:0:
256,192,35736,1,0,0:0:0:0:
256,192,35817,1,0,0:0:0:0:
256,192,36144,1,0,0:0:0:0:
256,192,36308,1,0,0:0:0:0:
256,192,36390,1,0,0:0:0:0:
256,192,36471,1,0,0:0:0:0:
256,192,36635,1,8,0:0:0:0:
256,192,36962,1,8,0:0:0:0:
256,192,37044,1,8,0:0:0:0:
256,192,37125,1,8,0:0:0:0:
256,192,37289,1,0,0:0:0:0:
256,192,37616,1,0,0:0:0:0:
256,192,37943,1,8,0:0:0:0:
256,192,38270,1,0,0:0:0:0:
256,192,38597,1,0,0:0:0:0:
256,192,38678,1,0,0:0:0:0:
256,192,38760,1,0,0:0:0:0:
256,192,38924,1,8,0:0:0:0:
256,192,39005,1,8,0:0:0:0:
256,192,39087,1,8,0:0:0:0:
256,192,39251,1,4,0:0:0:0:
256,192,39578,1,12,0:0:0:0:
256,192,39905,1,12,0:0:0:0:
256,192,40232,1,8,0:0:0:0:
256,192,40313,1,8,0:0:0:0:
256,192,40395,1,8,0:0:0:0:
256,192,40559,1,4,0:0:0:0:
256,192,40886,1,4,0:0:0:0:
256,192,41213,1,12,0:0:0:0:
256,192,41539,1,8,0:0:0:0:
256,192,41621,1,0,0:0:0:0:
256,192,41703,1,8,0:0:0:0:
256,192,41866,1,12,0:0:0:0:
256,192,42193,1,0,0:0:0:0:
256,192,42357,1,0,0:0:0:0:
256,192,42520,1,12,0:0:0:0:
256,192,42847,1,8,0:0:0:0:
256,192,43174,1,0,0:0:0:0:
256,192,43338,1,0,0:0:0:0:
256,192,43501,1,8,0:0:0:0:
256,192,43828,1,0,0:0:0:0:
256,192,44155,1,8,0:0:0:0:
256,192,44482,1,4,0:0:0:0:
256,192,44809,1,8,0:0:0:0:
256,192,44973,1,8,0:0:0:0:
256,192,45136,1,8,0:0:0:0:
256,192,45300,1,8,0:0:0:0:
256,192,45463,1,0,0:0:0:0:
256,192,45790,1,8,0:0:0:0:
256,192,46117,1,8,0:0:0:0:
256,192,46444,1,0,0:0:0:0:
256,192,46771,1,0,0:0:0:0:
256,192,47098,1,8,0:0:0:0:
256,192,47752,1,8,0:0:0:0:
256,192,48406,1,0,0:0:0:0:
256,192,48896,1,0,0:0:0:0:
256,192,49060,1,0,0:0:0:0:
256,192,49714,1,4,0:0:0:0:
256,192,50041,1,8,0:0:0:0:
256,192,50205,1,8,0:0:0:0:
256,192,50368,1,8,0:0:0:0:
256,192,50531,1,8,0:0:0:0:
256,192,50695,1,0,0:0:0:0:
256,192,51022,1,8,0:0:0:0:
256,192,51349,1,8,0:0:0:0:
256,192,51676,1,0,0:0:0:0:
256,192,52003,1,0,0:0:0:0:
256,192,52330,1,12,0:0:0:0:
256,192,52984,1,12,0:0:0:0:
256,192,53638,1,4,0:0:0:0:
256,192,53965,1,8,0:0:0:0:
256,192,54046,1,8,0:0:0:0:
256,192,54128,1,8,0:0:0:0:
256,192,54292,1,0,0:0:0:0:
256,192,54619,1,8,0:0:0:0:
256,192,54946,1,4,0:0:0:0:
256,192,55272,1,0,0:0:0:0:
256,192,55436,1,0,0:0:0:0:
256,192,55599,1,8,0:0:0:0:
256,192,55926,1,0,0:0:0:0:
256,192,56253,1,4,0:0:0:0:
256,192,56580,1,4,0:0:0:0:
256,192,56907,1,12,0:0:0:0:
256,192,57234,1,12,0:0:0:0:
256,192,57561,1,4,0:0:0:0:
256,192,57888,1,0,0:0:0:0:
256,192,58052,1,0,0:0:0:0:
256,192,58215,1,8,0:0:0:0:
256,192,58542,1,8,0:0:0:0:
256,192,58624,1,8,0:0:0:0:
256,192,58706,1,8,0:0:0:0:
256,192,58869,1,4,0:0:0:0:
256,192,59196,1,4,0:0:0:0:
256,192,59523,1,12,0:0:0:0:
256,192,59850,1,12,0:0:0:0:
256,192,60177,1,4,0:0:0:0:
256,192,60504,1,0,0:0:0:0:
256,192,60668,1,0,0:0:0:0:
256,192,60831,1,12,0:0:0:0:
256,192,61158,1,8,0:0:0:0:
256,192,61485,1,4,0:0:0:0:
256,192,61812,1,4,0:0:0:0:
256,192,62139,1,12,0:0:0:0:
256,192,62466,1,12,0:0:0:0:
256,192,62793,1,4,0:0:0:0:
256,192,63120,1,12,0:0:0:0:
256,192,63447,1,4,0:0:0:0:
256,192,63774,1,12,0:0:0:0:
256,192,64101,1,4,0:0:0:0:
256,192,64428,1,12,0:0:0:0:
256,192,64755,1,12,0:0:0:0:
256,192,65082,1,8,0:0:0:0:
256,192,65163,1,8,0:0:0:0:
256,192,65245,1,8,0:0:0:0:
256,192,65409,1,4,0:0:0:0:
256,192,65736,1,0,0:0:0:0:
256,192,65817,1,0,0:0:0:0:
256,192,65899,1,0,0:0:0:0:
256,192,66063,1,8,0:0:0:0:
256,192,66390,1,8,0:0:0:0:
256,192,66471,1,8,0:0:0:0:
256,192,66553,1,8,0:0:0:0:
256,192,66717,1,0,0:0:0:0:
256,192,67044,1,0,0:0:0:0:
256,192,67125,1,0,0:0:0:0:
256,192,67207,1,0,0:0:0:0:
256,192,67371,1,8,0:0:0:0:
256,192,67698,1,8,0:0:0:0:
256,192,67779,1,8,0:0:0:0:
256,192,67861,1,8,0:0:0:0:
256,192,68024,1,4,0:0:0:0:
256,192,68351,1,0,0:0:0:0:
256,192,68433,1,0,0:0:0:0:
256,192,68515,1,0,0:0:0:0:
256,192,68678,1,12,0:0:0:0:
256,192,69005,1,8,0:0:0:0:
256,192,69087,1,8,0:0:0:0:
256,192,69169,1,8,0:0:0:0:
256,192,69332,12,0,70640,0:0:0:0:
256,192,70967,5,8,0:0:0:0:
256,192,71131,1,8,0:0:0:0:
256,192,71294,1,8,0:0:0:0:
256,192,71621,1,0,0:0:0:0:
256,192,71948,1,8,0:0:0:0:
256,192,72275,1,8,0:0:0:0:
256,192,72602,1,0,0:0:0:0:
256,192,72766,1,0,0:0:0:0:
256,192,72929,1,8,0:0:0:0:
256,192,73256,5,6,0:0:0:0:
256,192,73583,1,8,0:0:0:0:
256,192,73747,1,8,0:0:0:0:
256,192,73910,1,8,0:0:0:0:
256,192,74237,1,0,0:0:0:0:
256,192,74564,1,8,0:0:0:0:
256,192,74891,1,8,0:0:0:0:
256,192,75218,1,8,0:0:0:0:
256,192,75381,1,0,0:0:0:0:
256,192,75545,1,0,0:0:0:0:
256,192,75872,1,0,0:0:0:0:
256,192,75954,1,0,0:0:0:0:
256,192,76035,1,0,0:0:0:0:
256,192,76199,1,0,0:0:0:0:
256,192,76362,1,8,0:0:0:0:
256,192,76526,1,4,0:0:0:0:
256,192,77180,1,0,0:0:0:0:
256,192,77262,1,0,0:0:0:0:
256,192,77343,1,0,0:0:0:0:
256,192,77507,1,0,0:0:0:0:
256,192,77670,1,8,0:0:0:0:
256,192,77834,1,4,0:0:0:0:
256,192,78488,1,0,0:0:0:0:
256,192,78570,1,0,0:0:0:0:
256,192,78651,1,0,0:0:0:0:
256,192,78815,1,0,0:0:0:0:
256,192,78978,1,8,0:0:0:0:
256,192,79142,1,0,0:0:0:0:
256,192,79469,1,8,0:0:0:0:
256,192,79796,1,0,0:0:0:0:
256,192,80123,1,8,0:0:0:0:
256,192,80450,1,8,0:0:0:0:
256,192,80613,1,8,0:0:0:0:
256,192,80777,1,0,0:0:0:0:
256,192,81104,1,4,0:0:0:0:
256,192,81430,1,8,0:0:0:0:
256,192,81594,1,8,0:0:0:0:
256,192,81757,1,8,0:0:0:0:
256,192,82084,1,0,0:0:0:0:
256,192,82411,1,8,0:0:0:0:
256,192,82738,1,8,0:0:0:0:
256,192,83065,1,0,0:0:0:0:
256,192,83229,1,0,0:0:0:0:
256,192,83392,1,8,0:0:0:0:
256,192,83719,1,4,0:0:0:0:
256,192,84046,1,8,0:0:0:0:
256,192,84210,1,8,0:0:0:0:
256,192,84373,1,8,0:0:0:0:
256,192,84700,1,0,0:0:0:0:
256,192,85027,1,8,0:0:0:0:
256,192,85354,1,8,0:0:0:0:
256,192,85681,1,0,0:0:0:0:
256,192,85845,1,0,0:0:0:0:
256,192,86008,1,8,0:0:0:0:
256,192,86335,1,0,0:0:0:0:
256,192,86662,1,0,0:0:0:0:
256,192,86826,1,0,0:0:0:0:
256,192,86989,1,12,0:0:0:0:
256,192,87316,1,0,0:0:0:0:
256,192,87643,1,8,0:0:0:0:
256,192,87970,1,0,0:0:0:0:
256,192,88133,1,0,0:0:0:0:
256,192,88297,1,12,0:0:0:0:
256,192,88624,1,0,0:0:0:0:
256,192,88951,1,8,0:0:0:0:
256,192,89278,1,0,0:0:0:0:
256,192,89441,1,0,0:0:0:0:
256,192,89605,1,12,0:0:0:0:
256,192,89932,1,12,0:0:0:0:
256,192,90259,1,4,0:0:0:0:
256,192,90586,1,12,0:0:0:0:
256,192,90913,1,4,0:0:0:0:
256,192,91240,1,12,0:0:0:0:
256,192,91567,1,4,0:0:0:0:
256,192,91730,1,4,0:0:0:0:
256,192,92221,1,4,0:0:0:0:
256,192,92384,1,4,0:0:0:0:
256,192,92875,1,4,0:0:0:0:
256,192,93038,1,4,0:0:0:0:
256,192,93529,1,8,0:0:0:0:
256,192,93856,1,8,0:0:0:0:
256,192,94183,1,4,0:0:0:0:
256,192,94346,1,4,0:0:0:0:
256,192,94836,1,4,0:0:0:0:
256,192,95000,1,4,0:0:0:0:
256,192,95490,1,4,0:0:0:0:
256,192,95654,1,4,0:0:0:0:
256,192,96144,1,8,0:0:0:0:
256,192,96471,1,8,0:0:0:0:
256,192,96798,1,4,0:0:0:0:
256,192,99414,1,4,0:0:0:0:
256,192,99578,1,8,0:0:0:0:
256,192,99659,1,8,0:0:0:0:
256,192,99741,1,8,0:0:0:0:
256,192,99905,1,0,0:0:0:0:
256,192,100068,1,8,0:0:0:0:
256,192,100395,1,0,0:0:0:0:
256,192,100559,1,0,0:0:0:0:
256,192,100886,1,8,0:0:0:0:
256,192,101049,1,0,0:0:0:0:
256,192,101131,1,0,0:0:0:0:
256,192,101213,1,0,0:0:0:0:
256,192,101376,1,8,0:0:0:0:
256,192,101539,1,0,0:0:0:0:
256,192,101703,1,8,0:0:0:0:
256,192,101785,1,8,0:0:0:0:
256,192,101866,1,8,0:0:0:0:
256,192,102193,1,0,0:0:0:0:
256,192,102275,1,0,0:0:0:0:
256,192,102357,1,0,0:0:0:0:
256,192,102520,1,0,0:0:0:0:
256,192,102684,1,8,0:0:0:0:
256,192,103011,1,8,0:0:0:0:
256,192,103338,1,4,0:0:0:0:
256,192,103665,1,0,0:0:0:0:
256,192,103747,1,0,0:0:0:0:
256,192,103828,1,0,0:0:0:0:
256,192,103992,1,4,0:0:0:0:
256,192,104319,1,12,0:0:0:0:
256,192,104646,1,4,0:0:0:0:
256,192,104809,1,0,0:0:0:0:
256,192,104891,1,0,0:0:0:0:
256,192,104973,1,0,0:0:0:0:
256,192,105136,1,0,0:0:0:0:
256,192,105300,1,8,0:0:0:0:
256,192,105627,1,8,0:0:0:0:
256,192,105790,1,8,0:0:0:0:
256,192,105872,1,8,0:0:0:0:
256,192,105954,1,8,0:0:0:0:
256,192,106281,1,0,0:0:0:0:
256,192,106608,1,0,0:0:0:0:
256,192,106935,1,8,0:0:0:0:
256,192,107262,1,4,0:0:0:0:
256,192,107589,1,0,0:0:0:0:
256,192,107670,1,0,0:0:0:0:
256,192,107752,1,0,0:0:0:0:
256,192,107916,1,4,0:0:0:0:
256,192,108242,1,8,0:0:0:0:
256,192,108569,1,0,0:0:0:0:
256,192,108651,1,0,0:0:0:0:
256,192,108733,1,0,0:0:0:0:
256,192,108896,1,0,0:0:0:0:
256,192,109223,1,12,0:0:0:0:
256,192,109550,1,12,0:0:0:0:
256,192,109877,1,4,0:0:0:0:
256,192,110204,1,0,0:0:0:0:
256,192,110286,1,0,0:0:0:0:
256,192,110368,1,0,0:0:0:0:
256,192,110531,1,12,0:0:0:0:
256,192,110858,1,0,0:0:0:0:
256,192,110940,1,0,0:0:0:0:
256,192,111022,1,0,0:0:0:0:
256,192,111185,12,0,113801,0:0:0:0:
