osu file format v14

[General]
AudioFilename: 7 ANIMA.mp3
AudioLeadIn: 0
PreviewTime: 23556
Countdown: 0
SampleSet: None
StackLeniency: 0.7
Mode: 1
LetterboxInBreaks: 0
WidescreenStoryboard: 1

[Editor]
DistanceSpacing: 1.5
BeatDivisor: 4
GridSize: 32
TimelineZoom: 2.32

[Metadata]
Title:ANiMA
TitleUnicode:ANiMA
Artist:xi
ArtistUnicode:xi
Creator:Kunieda
Version:Kantan
Source:Deemo
Tags:rayark
BeatmapID:716144
BeatmapSetID:321441

[Difficulty]
HPDrainRate:5
CircleSize:5
OverallDifficulty:5
ApproachRate:5
SliderMultiplier:1.4
SliderTickRate:1

[Events]
//Background and Video events
0,0,"50650401_p0.jpg",0,0
//Break Periods
//Storyboard Layer 0 (Background)
//Storyboard Layer 1 (Fail)
//Storyboard Layer 2 (Pass)
//Storyboard Layer 3 (Foreground)
//Storyboard Sound Samples

[TimingPoints]
1322,326.975476839237,4,2,0,40,1,0
1322,-181.818181818182,4,2,0,40,0,0
10477,-133.333333333333,4,2,0,70,0,0
11785,-100,4,1,0,90,0,0
23556,-100,4,1,0,90,0,1
34019,-100,4,1,0,90,0,0
65409,-100,4,1,0,90,0,1
70640,-100,4,1,0,90,0,0
70967,-100,4,2,0,90,0,0
81104,-100,4,1,0,90,0,0
91567,-100,4,1,0,90,0,1
96798,-100,4,1,0,90,0,0
99414,-100,4,1,0,90,0,1
111185,-100,4,1,0,90,0,0

[HitObjects]
256,192,11785,5,4,0:0:0:0:
256,192,14401,1,4,0:0:0:0:
256,192,15708,1,4,0:0:0:0:
256,192,16362,1,4,0:0:0:0:
256,192,17016,1,4,0:0:0:0:
256,192,18324,1,12,0:0:0:0:
288,192,19632,1,4,0:0:0:0:
288,192,20286,1,4,0:0:0:0:
256,192,20940,12,0,22248,0:0:0:0:
256,192,23229,5,6,0:0:0:0:
256,192,23556,1,4,0:0:0:0:
256,192,24046,1,0,0:0:0:0:
256,192,24537,1,0,0:0:0:0:
256,192,25518,2,0,L|96:128,1,140
256,192,26172,1,0,0:0:0:0:
256,192,26662,1,0,0:0:0:0:
256,192,27153,1,0,0:0:0:0:
256,192,28133,1,0,0:0:0:0:
256,192,28460,1,6,0:0:0:0:
256,192,28787,1,4,0:0:0:0:
256,192,29278,1,0,0:0:0:0:
256,192,29768,1,0,0:0:0:0:
256,192,30749,2,0,L|128:96,1,140
256,192,31403,1,4,0:0:0:0:
256,192,31894,1,0,0:0:0:0:
256,192,32384,1,0,0:0:0:0:
256,192,33365,2,0,L|128:96,1,140
256,192,34019,1,4,0:0:0:0:
256,192,35327,1,0,0:0:0:0:
256,192,35654,2,0,L|192:160,1,70
256,192,36635,1,0,0:0:0:0:
256,192,37289,1,0,0:0:0:0:
256,192,37943,1,0,0:0:0:0:
256,192,38597,2,0,L|224:160,6,35
256,192,39251,1,4,0:0:0:0:
256,192,39578,1,4,0:0:0:0:
256,192,39905,1,12,0:0:0:0:
256,192,40559,1,12,0:0:0:0:
256,192,40886,1,12,0:0:0:0:
256,192,41213,1,12,0:0:0:0:
256,192,41866,1,4,0:0:0:0:
256,192,42520,1,8,0:0:0:0:
256,192,43174,12,0,44482,0:0:0:0:
256,192,44809,5,0,0:0:0:0:
256,192,45136,1,0,0:0:0:0:
256,192,45463,1,0,0:0:0:0:
256,192,45790,6,0,L|128:96,2,140
256,192,47098,1,0,0:0:0:0:
256,192,47752,1,8,0:0:0:0:
256,192,48406,1,8,0:0:0:0:
256,192,49060,1,0,0:0:0:0:
256,192,49714,1,4,0:0:0:0:
256,192,50041,1,8,0:0:0:0:
256,192,50368,1,8,0:0:0:0:
256,192,50695,1,8,0:0:0:0:
256,192,51022,2,8,L|160:64,2,140
256,192,52330,1,4,0:0:0:0:
256,192,52984,1,0,0:0:0:0:
256,192,53638,1,8,0:0:0:0:
256,192,54292,1,0,0:0:0:0:
256,192,54945,1,8,0:0:0:0:
256,192,55599,1,8,0:0:0:0:
256,192,56253,2,4,L|128:96,4,140
256,192,58215,1,8,0:0:0:0:
256,192,58869,2,4,L|352:64|352:64,4,140
256,192,60831,1,8,0:0:0:0:
256,192,61485,2,4,L|352:64|352:64,4,140
256,192,63447,1,8,0:0:0:0:
256,192,64101,2,0,L|96:128,2,140
256,192,65409,1,4,0:0:0:0:
256,192,66063,1,0,0:0:0:0:
256,192,66717,1,0,0:0:0:0:
256,192,67371,1,0,0:0:0:0:
256,192,68024,1,4,0:0:0:0:
256,192,68678,1,0,0:0:0:0:
256,192,69332,2,0,L|128:96,2,140
256,192,70313,1,6,0:0:0:0:
256,192,70640,1,4,0:0:0:0:
256,192,73256,1,8,0:0:0:0:
256,192,76526,1,12,0:0:0:0:
256,192,77834,1,12,0:0:0:0:
256,192,79142,2,0,L|128:96,5,140
256,192,81104,1,4,0:0:0:0:
256,192,82411,2,0,L|128:96,3,140
256,192,83719,1,4,0:0:0:0:
256,192,85027,2,0,L|128:96,3,140
256,192,86335,1,0,0:0:0:0:
256,192,86989,1,12,0:0:0:0:
256,192,87643,1,0,0:0:0:0:
256,192,88297,1,12,0:0:0:0:
256,192,88951,1,0,0:0:0:0:
256,192,89605,2,4,L|128:128,5,140
256,192,91567,1,0,0:0:0:0:
256,192,92221,1,4,0:0:0:0:
256,192,92875,1,4,0:0:0:0:
256,192,94183,1,4,0:0:0:0:
256,192,94836,1,4,0:0:0:0:
256,192,95490,1,4,0:0:0:0:
256,192,96798,1,4,0:0:0:0:
256,192,99414,1,4,0:0:0:0:
256,192,100068,1,8,0:0:0:0:
256,192,101376,1,8,0:0:0:0:
256,192,101703,1,8,0:0:0:0:
256,192,102684,2,0,L|128:96,1,140
256,192,103338,1,4,0:0:0:0:
256,192,103992,2,0,L|128:96,2,140
256,192,105300,1,8,0:0:0:0:
256,192,105954,1,0,0:0:0:0:
256,192,107262,1,4,0:0:0:0:
256,192,107916,1,4,0:0:0:0:
256,192,108569,1,4,0:0:0:0:
256,192,109223,2,0,L|128:96,1,140
256,192,109877,1,6,0:0:0:0:
256,192,110531,1,4,0:0:0:0:
256,192,111185,12,0,113801,0:0:0:0:
