osu file format v14

[General]
AudioFilename: 7 ANIMA.mp3
AudioLeadIn: 0
PreviewTime: 23556
Countdown: 0
SampleSet: None
StackLeniency: 0.7
Mode: 1
LetterboxInBreaks: 0
WidescreenStoryboard: 1

[Editor]
DistanceSpacing: 1.5
BeatDivisor: 4
GridSize: 32
TimelineZoom: 2.32

[Metadata]
Title:ANiMA
TitleUnicode:ANiMA
Artist:xi
ArtistUnicode:xi
Creator:Kunieda
Version:Futsuu
Source:Deemo
Tags:rayark
BeatmapID:716143
BeatmapSetID:321441

[Difficulty]
HPDrainRate:5
CircleSize:5
OverallDifficulty:5
ApproachRate:5
SliderMultiplier:1.4
SliderTickRate:1

[Events]
//Background and Video events
0,0,"50650401_p0.jpg",0,0
//Break Periods
//Storyboard Layer 0 (Background)
//Storyboard Layer 1 (Fail)
//Storyboard Layer 2 (Pass)
//Storyboard Layer 3 (Foreground)
//Storyboard Sound Samples

[TimingPoints]
1322,326.975476839237,4,2,0,40,1,0
1322,-181.818181818182,4,2,0,40,0,0
10477,-133.333333333333,4,2,0,70,0,0
11785,-100,4,1,0,90,0,0
23556,-100,4,1,0,90,0,1
34019,-100,4,1,0,90,0,0
65409,-100,4,1,0,90,0,1
70640,-100,4,1,0,90,0,0
70967,-100,4,2,0,90,0,0
81104,-100,4,1,0,90,0,0
91567,-100,4,1,0,90,0,1
96798,-100,4,1,0,90,0,0
99414,-100,4,1,0,90,0,1
111185,-100,4,1,0,90,0,0

[HitObjects]
256,192,11785,5,4,0:0:0:0:
256,192,13093,1,8,0:0:0:0:
256,192,14401,1,4,0:0:0:0:
256,192,15054,1,8,0:0:0:0:
256,192,15708,1,4,0:0:0:0:
256,192,16362,1,12,0:0:0:0:
256,192,17016,1,4,0:0:0:0:
256,192,18324,1,4,0:0:0:0:
256,192,18978,1,8,0:0:0:0:
256,192,19632,1,4,0:0:0:0:
256,192,20286,1,4,0:0:0:0:
256,192,20940,12,0,22248,0:0:0:0:
256,192,22575,5,0,0:0:0:0:
256,192,22902,1,0,0:0:0:0:
256,192,23229,1,6,0:0:0:0:
256,192,23556,1,4,0:0:0:0:
256,192,24046,1,0,0:0:0:0:
256,192,24537,1,0,0:0:0:0:
256,192,25028,1,8,0:0:0:0:
256,192,25518,1,0,0:0:0:0:
256,192,25845,1,8,0:0:0:0:
256,192,26172,1,0,0:0:0:0:
256,192,26663,1,0,0:0:0:0:
256,192,27154,1,8,0:0:0:0:
256,192,27644,1,0,0:0:0:0:
256,192,28133,1,8,0:0:0:0:
256,192,28460,1,12,0:0:0:0:
256,192,28787,1,4,0:0:0:0:
256,192,29278,1,0,0:0:0:0:
256,192,29769,1,8,0:0:0:0:
256,192,30095,1,8,0:0:0:0:
256,192,30259,1,8,0:0:0:0:
256,192,30749,1,0,0:0:0:0:
256,192,31076,1,8,0:0:0:0:
256,192,31403,1,4,0:0:0:0:
256,192,31894,1,4,0:0:0:0:
256,192,32384,1,4,0:0:0:0:
256,192,32875,1,8,0:0:0:0:
256,192,33038,1,8,0:0:0:0:
256,192,33365,1,0,0:0:0:0:
256,192,33692,1,8,0:0:0:0:
256,192,34019,1,4,0:0:0:0:
256,192,34673,1,8,0:0:0:0:
256,192,35327,1,0,0:0:0:0:
256,192,35654,2,0,L|160:160,1,70
256,192,36635,1,8,0:0:0:0:
256,192,37289,1,0,0:0:0:0:
256,192,37943,1,8,0:0:0:0:
256,192,38270,1,8,0:0:0:0:
256,192,38597,2,0,L|224:160,6,35
256,192,39251,1,4,0:0:0:0:
256,192,39578,1,4,0:0:0:0:
256,192,39905,1,12,0:0:0:0:
256,192,40559,1,4,0:0:0:0:
256,192,40886,1,4,0:0:0:0:
256,192,41213,1,12,0:0:0:0:
256,192,41539,2,4,L|224:160,4,35
256,192,42520,1,8,0:0:0:0:
256,192,43174,1,4,0:0:0:0:
256,192,43828,1,8,0:0:0:0:
256,192,44155,1,8,0:0:0:0:
256,192,44482,1,4,0:0:0:0:
256,192,44809,2,0,L|128:96,2,140
256,192,45790,1,8,0:0:0:0:
256,192,46117,1,8,0:0:0:0:
256,192,46444,1,0,0:0:0:0:
256,192,47098,1,8,0:0:0:0:
256,192,47752,1,0,0:0:0:0:
256,192,48406,1,8,0:0:0:0:
256,192,49060,1,0,0:0:0:0:
256,192,49714,1,4,0:0:0:0:
256,192,50041,2,0,L|128:96,2,140
256,192,51022,1,8,0:0:0:0:
256,192,51349,1,8,0:0:0:0:
256,192,51676,1,0,0:0:0:0:
256,192,52330,1,12,0:0:0:0:
256,192,52984,1,4,0:0:0:0:
256,192,53638,1,12,0:0:0:0:
256,192,54292,1,0,0:0:0:0:
256,192,54619,1,8,0:0:0:0:
256,192,54946,1,4,0:0:0:0:
256,192,55599,1,8,0:0:0:0:
256,192,56253,2,4,L|128:96,4,140
256,192,58215,1,8,0:0:0:0:
256,192,58869,2,4,L|128:96,4,140
256,192,60831,1,6,0:0:0:0:
256,192,61485,2,4,L|128:96,3,140
256,192,62793,2,0,L|128:96,6,140
256,192,65409,1,4,0:0:0:0:
256,192,66063,1,8,0:0:0:0:
256,192,66717,1,0,0:0:0:0:
256,192,67371,1,8,0:0:0:0:
256,192,68024,1,4,0:0:0:0:
256,192,68678,1,12,0:0:0:0:
256,192,69332,1,4,0:0:0:0:
256,192,69659,1,0,0:0:0:0:
256,192,69986,1,8,0:0:0:0:
256,192,70313,1,12,0:0:0:0:
256,192,70640,1,4,0:0:0:0:
256,192,73256,1,12,0:0:0:0:
256,192,76526,1,12,0:0:0:0:
256,192,77834,1,12,0:0:0:0:
256,192,79142,2,0,L|96:192,1,140
256,192,79796,1,8,0:0:0:0:
256,192,80123,1,8,0:0:0:0:
256,192,80450,2,0,L|128:128,1,140
256,192,81104,1,4,0:0:0:0:
256,192,81430,1,8,0:0:0:0:
256,192,81594,1,8,0:0:0:0:
256,192,81757,1,8,0:0:0:0:
256,192,82084,1,0,0:0:0:0:
256,192,82411,2,0,L|128:96,3,140
256,192,83719,1,4,0:0:0:0:
256,192,84046,1,8,0:0:0:0:
256,192,84210,1,8,0:0:0:0:
256,192,84373,1,8,0:0:0:0:
256,192,84700,1,0,0:0:0:0:
256,192,85027,2,0,L|128:128,3,140
256,192,86335,1,0,0:0:0:0:
256,192,86989,1,4,0:0:0:0:
256,192,87643,1,0,0:0:0:0:
256,192,88297,1,4,0:0:0:0:
256,192,88951,1,0,0:0:0:0:
256,192,89605,2,4,L|128:128,5,140
256,192,91567,1,4,0:0:0:0:
256,192,92221,1,4,0:0:0:0:
256,192,92875,1,4,0:0:0:0:
256,192,93529,1,8,0:0:0:0:
256,192,93856,1,8,0:0:0:0:
256,192,94183,1,4,0:0:0:0:
256,192,94836,1,4,0:0:0:0:
256,192,95490,1,4,0:0:0:0:
256,192,96144,1,8,0:0:0:0:
256,192,96471,1,8,0:0:0:0:
256,192,96798,1,4,0:0:0:0:
256,192,99414,1,4,0:0:0:0:
256,192,99741,1,8,0:0:0:0:
256,192,100068,1,8,0:0:0:0:
256,192,100395,1,8,0:0:0:0:
256,192,100886,1,0,0:0:0:0:
256,192,101376,1,8,0:0:0:0:
256,192,101703,1,8,0:0:0:0:
256,192,102193,1,0,0:0:0:0:
256,192,102684,2,0,L|256:32,1,140
256,192,103338,1,4,0:0:0:0:
256,192,103992,1,4,0:0:0:0:
256,192,104319,1,4,0:0:0:0:
256,192,104646,1,4,0:0:0:0:
256,192,105300,1,8,0:0:0:0:
256,192,105954,1,0,0:0:0:0:
256,192,106281,1,8,0:0:0:0:
256,192,106608,1,0,0:0:0:0:
256,192,106935,1,8,0:0:0:0:
256,192,107262,1,4,0:0:0:0:
256,192,107916,1,8,0:0:0:0:
256,192,108242,1,8,0:0:0:0:
256,192,108569,2,0,L|192:64,3,140
256,192,109877,1,4,0:0:0:0:
256,192,110531,1,12,0:0:0:0:
256,192,111185,12,0,113801,0:0:0:0:
