osu file format v14

[General]
AudioFilename: Xi - ANiMA.mp3
AudioLeadIn: 0
PreviewTime: 69331
Countdown: 0
SampleSet: None
StackLeniency: 0.7
Mode: 1
LetterboxInBreaks: 0
WidescreenStoryboard: 0

[Editor]
DistanceSpacing: 0.7
BeatDivisor: 4
GridSize: 32
TimelineZoom: 2

[Metadata]
Title:ANiMA
TitleUnicode:ANiMA
Artist:xi
ArtistUnicode:xi
Creator:BAldoTridentE
Version:Taiko Heaven Door
Source:Deemo
Tags:
BeatmapID:775033
BeatmapSetID:351654

[Difficulty]
HPDrainRate:7
CircleSize:5
OverallDifficulty:7
ApproachRate:5
SliderMultiplier:2.2
SliderTickRate:1

[Events]
//Background and Video events
0,0,"Taiko.jpg",0,0
//Break Periods
//Storyboard Layer 0 (Background)
//Storyboard Layer 1 (Fail)
//Storyboard Layer 2 (Pass)
//Storyboard Layer 3 (Foreground)
//Storyboard Sound Samples

[TimingPoints]
1321,326.975476839237,4,2,0,100,1,0
1321,-200,4,2,0,40,0,0
11784,-133.333333333333,4,2,0,60,0,0
23555,-100,4,2,0,60,0,0
99413,-66.6666666666667,4,2,0,60,0,1
111184,-100,4,2,0,60,0,0

[HitObjects]
256,192,1321,5,6,0:0:0:0:
256,192,2628,1,0,0:0:0:0:
256,192,3936,1,2,0:0:0:0:
256,192,5571,1,2,0:0:0:0:
256,192,5898,1,2,0:0:0:0:
256,192,6225,1,0,0:0:0:0:
256,192,6552,1,6,0:0:0:0:
256,192,7860,1,0,0:0:0:0:
256,192,8514,1,0,0:0:0:0:
256,192,9168,1,6,0:0:0:0:
256,192,9822,1,0,0:0:0:0:
256,192,10476,12,0,11620,0:0:0:0:
256,192,11784,5,4,0:0:0:0:
256,192,12601,1,0,0:0:0:0:
256,192,12765,1,0,0:0:0:0:
256,192,12928,1,2,0:0:0:0:
256,192,13092,1,2,0:0:0:0:
256,192,14073,1,0,0:0:0:0:
256,192,14154,1,0,0:0:0:0:
256,192,14236,1,2,0:0:0:0:
256,192,14400,1,4,0:0:0:0:
256,192,15053,1,6,0:0:0:0:
256,192,15707,1,4,0:0:0:0:
256,192,16361,1,4,0:0:0:0:
256,192,16688,1,0,0:0:0:0:
256,192,17015,1,0,0:0:0:0:
256,192,17097,1,0,0:0:0:0:
256,192,17179,1,2,0:0:0:0:
256,192,17261,1,2,0:0:0:0:
256,192,17342,1,2,0:0:0:0:
256,192,17506,1,2,0:0:0:0:
256,192,17669,1,0,0:0:0:0:
256,192,17833,1,0,0:0:0:0:
256,192,17915,1,0,0:0:0:0:
256,192,17996,1,2,0:0:0:0:
256,192,18160,1,0,0:0:0:0:
256,192,18323,1,2,0:0:0:0:
256,192,18487,1,0,0:0:0:0:
256,192,18650,1,0,0:0:0:0:
256,192,18732,1,0,0:0:0:0:
256,192,18814,1,2,0:0:0:0:
256,192,18895,1,0,0:0:0:0:
256,192,18977,1,2,0:0:0:0:
256,192,19141,1,0,0:0:0:0:
256,192,19304,1,0,0:0:0:0:
256,192,19386,1,0,0:0:0:0:
256,192,19468,1,2,0:0:0:0:
256,192,19631,1,4,0:0:0:0:
256,192,19713,1,0,0:0:0:0:
256,192,19795,1,0,0:0:0:0:
256,192,19876,1,0,0:0:0:0:
256,192,19958,1,2,0:0:0:0:
256,192,20040,1,2,0:0:0:0:
256,192,20122,1,2,0:0:0:0:
256,192,20285,1,2,0:0:0:0:
256,192,20367,1,0,0:0:0:0:
256,192,20449,1,0,0:0:0:0:
256,192,20530,1,0,0:0:0:0:
256,192,20612,1,2,0:0:0:0:
256,192,20776,1,0,0:0:0:0:
256,192,20939,1,2,0:0:0:0:
256,192,21021,1,2,0:0:0:0:
256,192,21103,1,2,0:0:0:0:
256,192,21184,1,0,0:0:0:0:
256,192,21266,1,0,0:0:0:0:
256,192,21429,1,0,0:0:0:0:
256,192,21593,1,2,0:0:0:0:
256,192,21756,1,0,0:0:0:0:
256,192,21920,1,2,0:0:0:0:
256,192,22083,1,2,0:0:0:0:
256,192,22247,1,0,0:0:0:0:
256,192,22574,1,0,0:0:0:0:
256,192,22901,1,2,0:0:0:0:
256,192,23228,1,0,0:0:0:0:
256,192,23555,1,4,0:0:0:0:
256,192,23718,1,0,0:0:0:0:
256,192,23882,1,2,0:0:0:0:
256,192,23964,1,2,0:0:0:0:
256,192,24045,1,0,0:0:0:0:
256,192,24209,1,0,0:0:0:0:
256,192,24372,1,2,0:0:0:0:
256,192,24536,1,0,0:0:0:0:
256,192,24618,1,0,0:0:0:0:
256,192,24699,1,2,0:0:0:0:
256,192,24781,1,0,0:0:0:0:
256,192,24863,1,2,0:0:0:0:
256,192,25026,1,0,0:0:0:0:
256,192,25190,1,2,0:0:0:0:
256,192,25353,1,0,0:0:0:0:
256,192,25435,1,0,0:0:0:0:
256,192,25517,1,6,0:0:0:0:
256,192,25680,1,0,0:0:0:0:
256,192,25844,1,6,0:0:0:0:
256,192,26007,1,2,0:0:0:0:
256,192,26171,1,4,0:0:0:0:
256,192,26334,1,0,0:0:0:0:
256,192,26498,1,0,0:0:0:0:
256,192,26579,1,0,0:0:0:0:
256,192,26661,1,2,0:0:0:0:
256,192,26743,1,2,0:0:0:0:
256,192,26825,1,2,0:0:0:0:
256,192,26988,1,0,0:0:0:0:
256,192,27152,1,2,0:0:0:0:
256,192,27233,1,0,0:0:0:0:
256,192,27315,1,0,0:0:0:0:
256,192,27479,1,0,0:0:0:0:
256,192,27642,1,0,0:0:0:0:
256,192,27724,1,0,0:0:0:0:
256,192,27806,1,2,0:0:0:0:
256,192,27969,1,0,0:0:0:0:
256,192,28132,1,6,0:0:0:0:
256,192,28296,1,2,0:0:0:0:
256,192,28459,1,6,0:0:0:0:
256,192,28623,1,0,0:0:0:0:
256,192,28786,1,6,0:0:0:0:
256,192,28868,1,0,0:0:0:0:
256,192,28950,1,0,0:0:0:0:
256,192,29113,1,2,0:0:0:0:
256,192,29277,1,0,0:0:0:0:
256,192,29440,1,0,0:0:0:0:
256,192,29604,1,0,0:0:0:0:
256,192,29767,1,2,0:0:0:0:
256,192,29849,1,2,0:0:0:0:
256,192,29931,1,2,0:0:0:0:
256,192,30013,1,0,0:0:0:0:
256,192,30094,1,0,0:0:0:0:
256,192,30258,1,0,0:0:0:0:
256,192,30421,1,2,0:0:0:0:
256,192,30585,1,0,0:0:0:0:
256,192,30667,1,0,0:0:0:0:
256,192,30748,1,6,0:0:0:0:
256,192,30912,1,0,0:0:0:0:
256,192,31075,1,6,0:0:0:0:
256,192,31157,1,0,0:0:0:0:
256,192,31239,1,2,0:0:0:0:
256,192,31402,1,4,0:0:0:0:
256,192,31484,1,0,0:0:0:0:
256,192,31566,1,2,0:0:0:0:
256,192,31729,1,0,0:0:0:0:
256,192,31893,1,2,0:0:0:0:
256,192,31974,1,2,0:0:0:0:
256,192,32056,1,2,0:0:0:0:
256,192,32220,1,0,0:0:0:0:
256,192,32383,1,2,0:0:0:0:
256,192,32547,1,2,0:0:0:0:
256,192,32710,1,2,0:0:0:0:
256,192,32874,1,0,0:0:0:0:
256,192,32955,1,0,0:0:0:0:
256,192,33037,1,2,0:0:0:0:
256,192,33201,1,0,0:0:0:0:
256,192,33364,1,0,0:0:0:0:
256,192,33446,1,0,0:0:0:0:
256,192,33528,1,2,0:0:0:0:
256,192,33609,1,0,0:0:0:0:
256,192,33691,1,2,0:0:0:0:
256,192,33773,1,0,0:0:0:0:
256,192,33855,1,2,0:0:0:0:
256,192,33936,1,2,0:0:0:0:
256,192,34018,1,6,0:0:0:0:
256,192,34263,1,2,0:0:0:0:
256,192,34345,1,0,0:0:0:0:
256,192,34590,1,2,0:0:0:0:
256,192,34672,1,0,0:0:0:0:
256,192,34835,1,0,0:0:0:0:
256,192,34999,1,0,0:0:0:0:
256,192,35081,1,0,0:0:0:0:
256,192,35162,1,2,0:0:0:0:
256,192,35326,1,0,0:0:0:0:
256,192,35489,1,0,0:0:0:0:
256,192,35653,1,2,0:0:0:0:
256,192,35735,1,2,0:0:0:0:
256,192,35816,1,2,0:0:0:0:
256,192,35980,1,0,0:0:0:0:
256,192,36143,1,0,0:0:0:0:
256,192,36307,1,2,0:0:0:0:
256,192,36389,1,2,0:0:0:0:
256,192,36470,1,2,0:0:0:0:
256,192,36552,1,0,0:0:0:0:
256,192,36634,1,0,0:0:0:0:
256,192,36797,1,0,0:0:0:0:
256,192,36961,1,2,0:0:0:0:
256,192,37124,1,2,0:0:0:0:
256,192,37206,1,0,0:0:0:0:
256,192,37288,1,0,0:0:0:0:
256,192,37451,1,0,0:0:0:0:
256,192,37615,1,2,0:0:0:0:
256,192,37778,1,2,0:0:0:0:
256,192,37942,1,2,0:0:0:0:
256,192,38105,1,0,0:0:0:0:
256,192,38269,1,0,0:0:0:0:
256,192,38350,1,0,0:0:0:0:
256,192,38432,1,2,0:0:0:0:
256,192,38514,1,2,0:0:0:0:
256,192,38596,1,2,0:0:0:0:
256,192,38677,1,0,0:0:0:0:
256,192,38759,1,0,0:0:0:0:
256,192,38841,1,2,0:0:0:0:
256,192,38923,1,2,0:0:0:0:
256,192,39086,1,0,0:0:0:0:
256,192,39168,1,0,0:0:0:0:
256,192,39250,1,6,0:0:0:0:
256,192,39413,1,0,0:0:0:0:
256,192,39577,1,6,0:0:0:0:
256,192,39904,1,6,0:0:0:0:
256,192,40231,1,0,0:0:0:0:
256,192,40312,1,0,0:0:0:0:
256,192,40394,1,2,0:0:0:0:
256,192,40476,1,2,0:0:0:0:
256,192,40558,1,6,0:0:0:0:
256,192,40721,1,0,0:0:0:0:
256,192,40803,1,0,0:0:0:0:
256,192,40885,1,6,0:0:0:0:
256,192,41048,1,0,0:0:0:0:
256,192,41212,1,6,0:0:0:0:
256,192,41375,1,0,0:0:0:0:
256,192,41457,1,0,0:0:0:0:
256,192,41538,1,2,0:0:0:0:
256,192,41620,1,0,0:0:0:0:
256,192,41702,1,2,0:0:0:0:
256,192,41784,1,2,0:0:0:0:
256,192,41865,1,2,0:0:0:0:
256,192,42192,1,0,0:0:0:0:
256,192,42274,1,0,0:0:0:0:
256,192,42356,1,2,0:0:0:0:
256,192,42438,1,2,0:0:0:0:
256,192,42519,1,2,0:0:0:0:
256,192,42846,1,2,0:0:0:0:
256,192,42928,1,2,0:0:0:0:
256,192,43010,1,2,0:0:0:0:
256,192,43092,1,0,0:0:0:0:
256,192,43173,1,0,0:0:0:0:
256,192,43337,1,0,0:0:0:0:
256,192,43419,1,0,0:0:0:0:
256,192,43500,1,2,0:0:0:0:
256,192,43664,1,0,0:0:0:0:
256,192,43746,1,0,0:0:0:0:
256,192,43827,1,2,0:0:0:0:
256,192,43909,1,2,0:0:0:0:
256,192,43991,1,2,0:0:0:0:
256,192,44073,1,0,0:0:0:0:
256,192,44154,1,2,0:0:0:0:
256,192,44318,1,0,0:0:0:0:
256,192,44481,1,6,0:0:0:0:
256,192,44808,1,2,0:0:0:0:
256,192,44917,1,2,0:0:0:0:
256,192,45026,1,2,0:0:0:0:
256,192,45135,1,0,0:0:0:0:
256,192,45244,1,0,0:0:0:0:
256,192,45353,1,0,0:0:0:0:
256,192,45462,1,2,0:0:0:0:
256,192,45571,1,2,0:0:0:0:
256,192,45789,1,0,0:0:0:0:
256,192,45953,1,0,0:0:0:0:
256,192,46034,1,0,0:0:0:0:
256,192,46116,1,2,0:0:0:0:
256,192,46280,1,0,0:0:0:0:
256,192,46443,1,2,0:0:0:0:
256,192,46607,1,0,0:0:0:0:
256,192,46770,1,2,0:0:0:0:
256,192,46934,1,2,0:0:0:0:
256,192,47097,1,0,0:0:0:0:
256,192,47179,1,0,0:0:0:0:
256,192,47261,1,2,0:0:0:0:
256,192,47342,1,2,0:0:0:0:
256,192,47424,1,2,0:0:0:0:
256,192,47588,1,0,0:0:0:0:
256,192,47751,1,2,0:0:0:0:
256,192,47833,1,2,0:0:0:0:
256,192,47915,1,2,0:0:0:0:
256,192,48078,1,0,0:0:0:0:
256,192,48160,1,0,0:0:0:0:
256,192,48241,1,0,0:0:0:0:
256,192,48405,1,2,0:0:0:0:
256,192,48568,1,0,0:0:0:0:
256,192,48732,1,2,0:0:0:0:
256,192,48814,1,2,0:0:0:0:
256,192,48895,1,0,0:0:0:0:
256,192,49059,1,0,0:0:0:0:
256,192,49222,1,0,0:0:0:0:
256,192,49386,1,2,0:0:0:0:
256,192,49549,1,0,0:0:0:0:
256,192,49713,1,6,0:0:0:0:
256,192,49795,1,0,0:0:0:0:
256,192,49876,1,0,0:0:0:0:
256,192,50040,1,2,0:0:0:0:
256,192,50149,1,2,0:0:0:0:
256,192,50258,1,0,0:0:0:0:
256,192,50367,1,2,0:0:0:0:
256,192,50476,1,2,0:0:0:0:
256,192,50585,1,0,0:0:0:0:
256,192,50694,1,2,0:0:0:0:
256,192,50803,1,2,0:0:0:0:
256,192,51021,1,2,0:0:0:0:
256,192,51184,1,0,0:0:0:0:
256,192,51266,1,0,0:0:0:0:
256,192,51348,1,2,0:0:0:0:
256,192,51511,1,0,0:0:0:0:
256,192,51675,1,0,0:0:0:0:
256,192,51838,1,0,0:0:0:0:
256,192,51920,1,0,0:0:0:0:
256,192,52002,1,2,0:0:0:0:
256,192,52165,1,2,0:0:0:0:
256,192,52247,1,2,0:0:0:0:
256,192,52329,1,2,0:0:0:0:
256,192,52492,1,0,0:0:0:0:
256,192,52656,1,0,0:0:0:0:
256,192,52819,1,0,0:0:0:0:
256,192,52901,1,2,0:0:0:0:
256,192,52983,1,2,0:0:0:0:
256,192,53146,1,0,0:0:0:0:
256,192,53310,1,0,0:0:0:0:
256,192,53473,1,0,0:0:0:0:
256,192,53555,1,2,0:0:0:0:
256,192,53637,1,2,0:0:0:0:
256,192,53800,1,0,0:0:0:0:
256,192,53964,1,0,0:0:0:0:
256,192,54045,1,0,0:0:0:0:
256,192,54127,1,2,0:0:0:0:
256,192,54209,1,2,0:0:0:0:
256,192,54291,1,2,0:0:0:0:
256,192,54454,1,0,0:0:0:0:
256,192,54536,1,0,0:0:0:0:
256,192,54618,1,2,0:0:0:0:
256,192,54781,1,0,0:0:0:0:
256,192,54944,1,6,0:0:0:0:
256,192,55271,1,0,0:0:0:0:
256,192,55353,1,0,0:0:0:0:
256,192,55435,1,2,0:0:0:0:
256,192,55517,1,2,0:0:0:0:
256,192,55598,1,6,0:0:0:0:
256,192,55762,1,0,0:0:0:0:
256,192,55925,1,2,0:0:0:0:
256,192,56089,1,0,0:0:0:0:
256,192,56171,1,0,0:0:0:0:
256,192,56252,1,6,0:0:0:0:
256,192,56498,1,0,0:0:0:0:
256,192,56579,1,2,0:0:0:0:
256,192,56825,1,0,0:0:0:0:
256,192,56906,1,2,0:0:0:0:
256,192,57152,1,0,0:0:0:0:
256,192,57233,1,2,0:0:0:0:
256,192,57397,1,2,0:0:0:0:
256,192,57479,1,2,0:0:0:0:
256,192,57560,1,4,0:0:0:0:
256,192,57887,1,0,0:0:0:0:
256,192,57969,1,0,0:0:0:0:
256,192,58051,1,2,0:0:0:0:
256,192,58132,1,2,0:0:0:0:
256,192,58214,1,2,0:0:0:0:
256,192,58378,1,0,0:0:0:0:
256,192,58541,1,2,0:0:0:0:
256,192,58705,1,0,0:0:0:0:
256,192,58786,1,0,0:0:0:0:
256,192,58868,1,6,0:0:0:0:
256,192,59032,1,0,0:0:0:0:
256,192,59113,1,0,0:0:0:0:
256,192,59195,1,2,0:0:0:0:
256,192,59359,1,0,0:0:0:0:
256,192,59440,1,0,0:0:0:0:
256,192,59522,1,2,0:0:0:0:
256,192,59686,1,0,0:0:0:0:
256,192,59767,1,2,0:0:0:0:
256,192,59849,1,2,0:0:0:0:
256,192,60013,1,0,0:0:0:0:
256,192,60176,1,6,0:0:0:0:
256,192,60503,1,2,0:0:0:0:
256,192,60585,1,2,0:0:0:0:
256,192,60667,1,0,0:0:0:0:
256,192,60748,1,0,0:0:0:0:
256,192,60830,1,2,0:0:0:0:
256,192,60994,1,0,0:0:0:0:
256,192,61157,1,2,0:0:0:0:
256,192,61320,1,0,0:0:0:0:
256,192,61402,1,0,0:0:0:0:
256,192,61484,1,6,0:0:0:0:
256,192,61647,1,0,0:0:0:0:
256,192,61729,1,0,0:0:0:0:
256,192,61811,1,2,0:0:0:0:
256,192,61974,1,0,0:0:0:0:
256,192,62056,1,0,0:0:0:0:
256,192,62138,1,2,0:0:0:0:
256,192,62301,1,0,0:0:0:0:
256,192,62465,1,0,0:0:0:0:
256,192,62628,1,0,0:0:0:0:
256,192,62792,1,6,0:0:0:0:
256,192,62955,1,2,0:0:0:0:
256,192,63119,1,0,0:0:0:0:
256,192,63282,1,0,0:0:0:0:
256,192,63446,1,2,0:0:0:0:
256,192,63528,1,2,0:0:0:0:
256,192,63609,1,0,0:0:0:0:
256,192,63773,1,0,0:0:0:0:
256,192,63936,1,2,0:0:0:0:
256,192,64100,1,0,0:0:0:0:
256,192,64182,1,0,0:0:0:0:
256,192,64263,1,2,0:0:0:0:
256,192,64345,1,2,0:0:0:0:
256,192,64427,1,2,0:0:0:0:
256,192,64590,1,0,0:0:0:0:
256,192,64754,1,0,0:0:0:0:
256,192,64835,1,0,0:0:0:0:
256,192,64917,1,2,0:0:0:0:
256,192,65081,1,2,0:0:0:0:
256,192,65162,1,2,0:0:0:0:
256,192,65244,1,0,0:0:0:0:
256,192,65326,1,0,0:0:0:0:
256,192,65408,1,4,0:0:0:0:
256,192,65571,1,0,0:0:0:0:
256,192,65735,1,2,0:0:0:0:
256,192,65898,1,0,0:0:0:0:
256,192,65980,1,0,0:0:0:0:
256,192,66062,1,2,0:0:0:0:
256,192,66225,1,0,0:0:0:0:
256,192,66389,1,2,0:0:0:0:
256,192,66470,1,2,0:0:0:0:
256,192,66552,1,2,0:0:0:0:
256,192,66634,1,0,0:0:0:0:
256,192,66716,1,0,0:0:0:0:
256,192,66879,1,2,0:0:0:0:
256,192,66961,1,0,0:0:0:0:
256,192,67043,1,2,0:0:0:0:
256,192,67206,1,0,0:0:0:0:
256,192,67370,1,2,0:0:0:0:
256,192,67451,1,2,0:0:0:0:
256,192,67533,1,2,0:0:0:0:
256,192,67697,1,0,0:0:0:0:
256,192,67860,1,0,0:0:0:0:
256,192,68023,1,2,0:0:0:0:
256,192,68187,1,2,0:0:0:0:
256,192,68350,1,0,0:0:0:0:
256,192,68514,1,0,0:0:0:0:
256,192,68677,1,0,0:0:0:0:
256,192,68759,1,0,0:0:0:0:
256,192,68841,1,2,0:0:0:0:
256,192,69004,1,0,0:0:0:0:
256,192,69168,1,0,0:0:0:0:
256,192,69331,1,6,0:0:0:0:
256,192,69413,1,2,0:0:0:0:
256,192,69495,1,2,0:0:0:0:
256,192,69658,1,0,0:0:0:0:
256,192,69822,1,0,0:0:0:0:
256,192,69985,1,0,0:0:0:0:
256,192,70067,1,0,0:0:0:0:
256,192,70149,1,2,0:0:0:0:
256,192,70231,1,2,0:0:0:0:
256,192,70312,1,2,0:0:0:0:
256,192,70476,1,0,0:0:0:0:
256,192,70639,1,6,0:0:0:0:
256,192,70721,1,2,0:0:0:0:
256,192,70803,1,2,0:0:0:0:
256,192,70885,1,0,0:0:0:0:
256,192,70966,1,2,0:0:0:0:
256,192,71048,1,0,0:0:0:0:
256,192,71130,1,0,0:0:0:0:
256,192,71212,1,0,0:0:0:0:
256,192,71293,1,2,0:0:0:0:
256,192,71375,1,2,0:0:0:0:
256,192,71457,1,2,0:0:0:0:
256,192,71539,1,0,0:0:0:0:
256,192,71620,1,2,0:0:0:0:
256,192,71702,1,0,0:0:0:0:
256,192,71784,1,0,0:0:0:0:
256,192,71866,1,0,0:0:0:0:
256,192,71947,1,2,0:0:0:0:
256,192,72029,1,2,0:0:0:0:
256,192,72111,1,2,0:0:0:0:
256,192,72193,1,2,0:0:0:0:
256,192,72274,1,2,0:0:0:0:
256,192,72356,1,0,0:0:0:0:
256,192,72438,1,0,0:0:0:0:
256,192,72520,1,0,0:0:0:0:
256,192,72601,1,2,0:0:0:0:
256,192,72683,1,2,0:0:0:0:
256,192,72765,1,0,0:0:0:0:
256,192,72847,1,0,0:0:0:0:
256,192,72928,1,2,0:0:0:0:
256,192,73092,1,0,0:0:0:0:
256,192,73173,1,0,0:0:0:0:
256,192,73255,1,2,0:0:0:0:
256,192,73419,1,0,0:0:0:0:
256,192,73582,1,2,0:0:0:0:
256,192,73664,1,2,0:0:0:0:
256,192,73746,1,2,0:0:0:0:
256,192,73828,1,0,0:0:0:0:
256,192,73909,1,2,0:0:0:0:
256,192,73991,1,0,0:0:0:0:
256,192,74073,1,2,0:0:0:0:
256,192,74155,1,2,0:0:0:0:
256,192,74236,1,2,0:0:0:0:
256,192,74318,1,0,0:0:0:0:
256,192,74400,1,0,0:0:0:0:
256,192,74482,1,0,0:0:0:0:
256,192,74563,1,2,0:0:0:0:
256,192,74645,1,2,0:0:0:0:
256,192,74727,1,0,0:0:0:0:
256,192,74809,1,0,0:0:0:0:
256,192,74890,1,2,0:0:0:0:
256,192,74972,1,2,0:0:0:0:
256,192,75054,1,0,0:0:0:0:
256,192,75136,1,0,0:0:0:0:
256,192,75217,1,2,0:0:0:0:
256,192,75299,1,2,0:0:0:0:
256,192,75381,1,2,0:0:0:0:
256,192,75463,1,2,0:0:0:0:
256,192,75544,1,2,0:0:0:0:
256,192,75708,1,0,0:0:0:0:
256,192,75871,1,2,0:0:0:0:
256,192,75953,1,2,0:0:0:0:
256,192,76035,1,0,0:0:0:0:
256,192,76117,1,0,0:0:0:0:
256,192,76198,1,0,0:0:0:0:
256,192,76361,1,0,0:0:0:0:
256,192,76443,1,0,0:0:0:0:
256,192,76525,1,2,0:0:0:0:
256,192,76688,1,0,0:0:0:0:
256,192,76852,1,0,0:0:0:0:
256,192,77015,1,0,0:0:0:0:
256,192,77179,1,2,0:0:0:0:
256,192,77261,1,2,0:0:0:0:
256,192,77343,1,2,0:0:0:0:
256,192,77425,1,0,0:0:0:0:
256,192,77506,1,2,0:0:0:0:
256,192,77588,1,0,0:0:0:0:
256,192,77670,1,0,0:0:0:0:
256,192,77752,1,0,0:0:0:0:
256,192,77833,1,2,0:0:0:0:
256,192,77996,1,2,0:0:0:0:
256,192,78078,1,2,0:0:0:0:
256,192,78160,1,0,0:0:0:0:
256,192,78323,1,0,0:0:0:0:
256,192,78487,1,2,0:0:0:0:
256,192,78569,1,2,0:0:0:0:
256,192,78651,1,0,0:0:0:0:
256,192,78732,1,0,0:0:0:0:
256,192,78814,1,2,0:0:0:0:
256,192,78895,1,2,0:0:0:0:
256,192,78977,1,0,0:0:0:0:
256,192,79059,1,0,0:0:0:0:
256,192,79141,1,2,0:0:0:0:
256,192,79304,1,0,0:0:0:0:
256,192,79468,1,2,0:0:0:0:
256,192,79631,1,0,0:0:0:0:
256,192,79713,1,0,0:0:0:0:
256,192,79795,1,2,0:0:0:0:
256,192,79958,1,0,0:0:0:0:
256,192,80122,1,2,0:0:0:0:
256,192,80285,1,0,0:0:0:0:
256,192,80449,1,2,0:0:0:0:
256,192,80530,1,0,0:0:0:0:
256,192,80612,1,2,0:0:0:0:
256,192,80776,1,0,0:0:0:0:
256,192,80939,1,2,0:0:0:0:
256,192,81021,1,2,0:0:0:0:
256,192,81103,1,6,0:0:0:0:
256,192,81266,1,0,0:0:0:0:
256,192,81429,1,0,0:0:0:0:
256,192,81593,1,2,0:0:0:0:
256,192,81756,1,0,0:0:0:0:
256,192,81838,1,0,0:0:0:0:
256,192,81920,1,2,0:0:0:0:
256,192,82083,1,0,0:0:0:0:
256,192,82247,1,0,0:0:0:0:
256,192,82410,1,2,0:0:0:0:
256,192,82492,1,2,0:0:0:0:
256,192,82574,1,2,0:0:0:0:
256,192,82737,1,0,0:0:0:0:
256,192,82901,1,2,0:0:0:0:
256,192,83064,1,2,0:0:0:0:
256,192,83228,1,2,0:0:0:0:
256,192,83391,1,0,0:0:0:0:
256,192,83555,1,0,0:0:0:0:
256,192,83637,1,0,0:0:0:0:
256,192,83718,1,6,0:0:0:0:
256,192,83882,1,0,0:0:0:0:
256,192,84045,1,0,0:0:0:0:
256,192,84209,1,2,0:0:0:0:
256,192,84372,1,2,0:0:0:0:
256,192,84536,1,0,0:0:0:0:
256,192,84618,1,0,0:0:0:0:
256,192,84699,1,2,0:0:0:0:
256,192,84781,1,0,0:0:0:0:
256,192,84863,1,2,0:0:0:0:
256,192,85026,1,0,0:0:0:0:
256,192,85108,1,0,0:0:0:0:
256,192,85190,1,2,0:0:0:0:
256,192,85353,1,0,0:0:0:0:
256,192,85517,1,0,0:0:0:0:
256,192,85680,1,2,0:0:0:0:
256,192,85844,1,2,0:0:0:0:
256,192,86007,1,0,0:0:0:0:
256,192,86089,1,2,0:0:0:0:
256,192,86171,1,0,0:0:0:0:
256,192,86334,1,6,0:0:0:0:
256,192,86416,1,2,0:0:0:0:
256,192,86498,1,2,0:0:0:0:
256,192,86580,1,0,0:0:0:0:
256,192,86661,1,2,0:0:0:0:
256,192,86743,1,0,0:0:0:0:
256,192,86825,1,0,0:0:0:0:
256,192,86907,1,0,0:0:0:0:
256,192,86988,1,6,0:0:0:0:
256,192,87642,1,6,0:0:0:0:
256,192,87724,1,2,0:0:0:0:
256,192,87806,1,2,0:0:0:0:
256,192,87887,1,2,0:0:0:0:
256,192,87969,1,2,0:0:0:0:
256,192,88051,1,0,0:0:0:0:
256,192,88133,1,0,0:0:0:0:
256,192,88215,1,0,0:0:0:0:
256,192,88296,1,6,0:0:0:0:
256,192,88950,1,6,0:0:0:0:
256,192,89032,1,2,0:0:0:0:
256,192,89113,1,2,0:0:0:0:
256,192,89195,1,0,0:0:0:0:
256,192,89277,1,2,0:0:0:0:
256,192,89440,1,0,0:0:0:0:
256,192,89522,1,0,0:0:0:0:
256,192,89604,1,2,0:0:0:0:
256,192,89767,1,0,0:0:0:0:
256,192,89931,1,2,0:0:0:0:
256,192,90094,1,0,0:0:0:0:
256,192,90258,1,2,0:0:0:0:
256,192,90340,1,0,0:0:0:0:
256,192,90421,1,0,0:0:0:0:
256,192,90585,1,0,0:0:0:0:
256,192,90748,1,2,0:0:0:0:
256,192,90912,1,2,0:0:0:0:
256,192,91075,1,2,0:0:0:0:
256,192,91239,1,0,0:0:0:0:
256,192,91566,1,6,0:0:0:0:
256,192,91729,1,6,0:0:0:0:
256,192,91893,1,0,0:0:0:0:
256,192,91974,1,0,0:0:0:0:
256,192,92056,1,0,0:0:0:0:
256,192,92138,1,0,0:0:0:0:
256,192,92220,1,6,0:0:0:0:
256,192,92383,1,6,0:0:0:0:
256,192,92547,1,0,0:0:0:0:
256,192,92628,1,0,0:0:0:0:
256,192,92710,1,0,0:0:0:0:
256,192,92792,1,0,0:0:0:0:
256,192,92874,1,6,0:0:0:0:
256,192,93037,1,6,0:0:0:0:
256,192,93201,1,0,0:0:0:0:
256,192,93282,1,0,0:0:0:0:
256,192,93364,1,0,0:0:0:0:
256,192,93446,1,0,0:0:0:0:
256,192,93528,1,2,0:0:0:0:
256,192,93691,1,0,0:0:0:0:
256,192,93773,1,0,0:0:0:0:
256,192,93855,1,2,0:0:0:0:
256,192,94018,1,0,0:0:0:0:
256,192,94182,1,6,0:0:0:0:
256,192,94345,1,6,0:0:0:0:
256,192,94509,1,0,0:0:0:0:
256,192,94590,1,0,0:0:0:0:
256,192,94672,1,0,0:0:0:0:
256,192,94754,1,0,0:0:0:0:
256,192,94835,1,6,0:0:0:0:
256,192,94998,1,6,0:0:0:0:
256,192,95162,1,0,0:0:0:0:
256,192,95243,1,0,0:0:0:0:
256,192,95325,1,0,0:0:0:0:
256,192,95407,1,0,0:0:0:0:
256,192,95489,1,6,0:0:0:0:
256,192,95653,1,6,0:0:0:0:
256,192,95816,1,0,0:0:0:0:
256,192,95897,1,0,0:0:0:0:
256,192,95979,1,0,0:0:0:0:
256,192,96061,1,0,0:0:0:0:
256,192,96143,1,2,0:0:0:0:
256,192,96307,1,0,0:0:0:0:
256,192,96389,1,0,0:0:0:0:
256,192,96470,1,2,0:0:0:0:
256,192,96634,1,2,0:0:0:0:
256,192,96797,12,0,98105,0:0:0:0:
256,192,98269,5,0,0:0:0:0:
256,192,98350,1,0,0:0:0:0:
256,192,98432,1,2,0:0:0:0:
256,192,98514,1,2,0:0:0:0:
256,192,98596,1,2,0:0:0:0:
256,192,98677,1,2,0:0:0:0:
256,192,98759,2,0,P|192:96|128:288,1,440,0|4,0:0|0:0,0:0:0:0:
256,192,99577,1,0,0:0:0:0:
256,192,99740,1,2,0:0:0:0:
256,192,99822,1,2,0:0:0:0:
256,192,99904,1,0,0:0:0:0:
256,192,100067,1,0,0:0:0:0:
256,192,100231,1,2,0:0:0:0:
256,192,100394,1,2,0:0:0:0:
256,192,100476,1,2,0:0:0:0:
256,192,100558,1,0,0:0:0:0:
256,192,100721,1,0,0:0:0:0:
256,192,100885,1,2,0:0:0:0:
256,192,100966,1,2,0:0:0:0:
256,192,101048,1,2,0:0:0:0:
256,192,101130,1,0,0:0:0:0:
256,192,101212,1,0,0:0:0:0:
256,192,101375,1,2,0:0:0:0:
256,192,101538,1,0,0:0:0:0:
256,192,101702,1,2,0:0:0:0:
256,192,101784,1,2,0:0:0:0:
256,192,101865,1,0,0:0:0:0:
256,192,101947,1,0,0:0:0:0:
256,192,102029,1,2,0:0:0:0:
256,192,102192,1,0,0:0:0:0:
256,192,102356,1,2,0:0:0:0:
256,192,102519,1,0,0:0:0:0:
256,192,102601,1,0,0:0:0:0:
256,192,102683,1,2,0:0:0:0:
256,192,102846,1,0,0:0:0:0:
256,192,103010,1,2,0:0:0:0:
256,192,103173,1,2,0:0:0:0:
256,192,103337,1,6,0:0:0:0:
256,192,103500,1,0,0:0:0:0:
256,192,103582,1,0,0:0:0:0:
256,192,103664,1,2,0:0:0:0:
256,192,103746,1,2,0:0:0:0:
256,192,103827,1,2,0:0:0:0:
256,192,103991,1,4,0:0:0:0:
256,192,104154,1,0,0:0:0:0:
256,192,104236,1,0,0:0:0:0:
256,192,104318,1,6,0:0:0:0:
256,192,104481,1,0,0:0:0:0:
256,192,104645,1,2,0:0:0:0:
256,192,104726,1,0,0:0:0:0:
256,192,104808,1,0,0:0:0:0:
256,192,104890,1,0,0:0:0:0:
256,192,104972,1,2,0:0:0:0:
256,192,105135,1,0,0:0:0:0:
256,192,105217,1,0,0:0:0:0:
256,192,105299,1,2,0:0:0:0:
256,192,105462,1,0,0:0:0:0:
256,192,105626,1,2,0:0:0:0:
256,192,105707,1,2,0:0:0:0:
256,192,105789,1,2,0:0:0:0:
256,192,105871,1,0,0:0:0:0:
256,192,105953,1,0,0:0:0:0:
256,192,106116,1,0,0:0:0:0:
256,192,106198,1,0,0:0:0:0:
256,192,106280,1,2,0:0:0:0:
256,192,106443,1,0,0:0:0:0:
256,192,106607,1,2,0:0:0:0:
256,192,106770,1,0,0:0:0:0:
256,192,106852,1,2,0:0:0:0:
256,192,106934,1,2,0:0:0:0:
256,192,107097,1,0,0:0:0:0:
256,192,107261,1,6,0:0:0:0:
256,192,107342,1,2,0:0:0:0:
256,192,107424,1,2,0:0:0:0:
256,192,107506,1,0,0:0:0:0:
256,192,107588,1,0,0:0:0:0:
256,192,107751,1,0,0:0:0:0:
256,192,107915,1,2,0:0:0:0:
256,192,108078,1,0,0:0:0:0:
256,192,108160,1,0,0:0:0:0:
256,192,108241,1,2,0:0:0:0:
256,192,108405,1,0,0:0:0:0:
256,192,108568,1,6,0:0:0:0:
256,192,108650,1,2,0:0:0:0:
256,192,108732,1,2,0:0:0:0:
256,192,108895,1,0,0:0:0:0:
256,192,109059,1,0,0:0:0:0:
256,192,109141,1,0,0:0:0:0:
256,192,109222,1,4,0:0:0:0:
256,192,109304,1,0,0:0:0:0:
256,192,109386,1,2,0:0:0:0:
256,192,109549,1,0,0:0:0:0:
256,192,109713,1,2,0:0:0:0:
256,192,109876,1,6,0:0:0:0:
256,192,110203,1,0,0:0:0:0:
256,192,110285,1,0,0:0:0:0:
256,192,110367,1,0,0:0:0:0:
256,192,110449,1,2,0:0:0:0:
256,192,110530,1,6,0:0:0:0:
256,192,110857,1,0,0:0:0:0:
256,192,110939,1,0,0:0:0:0:
256,192,111021,1,0,0:0:0:0:
256,192,111103,1,2,0:0:0:0:
256,192,111184,1,6,0:0:0:0:
256,192,111348,12,0,113800,0:0:0:0:
