osu file format v13

[General]
AudioFilename: Zirkfied.mp3
AudioLeadIn: 2
PreviewTime: 86259
Countdown: 0
SampleSet: None
StackLeniency: 0.7
Mode: 3
LetterboxInBreaks: 0
SpecialStyle: 0
WidescreenStoryboard: 0

[Editor]
DistanceSpacing: 0.8
BeatDivisor: 16
GridSize: 8
TimelineZoom: 1

[Metadata]
Title:4K Challenge Pack
TitleUnicode:4K Challenge Pack
Artist:xeona
ArtistUnicode:xeona
Creator:Anoex
Version:iconoclasm---Zirkfied
Source:
Tags:
BeatmapID:470543
BeatmapSetID:198334

[Difficulty]
HPDrainRate:7
CircleSize:4
OverallDifficulty:7
ApproachRate:10
SliderMultiplier:1.4
SliderTickRate:1

[Events]
//Background and Video events
0,0,"Zirkfied.jpg",0,0
//Break Periods
//Storyboard Layer 0 (Background)
//Storyboard Layer 1 (Fail)
//Storyboard Layer 2 (Pass)
//Storyboard Layer 3 (Foreground)
//Storyboard Sound Samples
//Background Colour Transformations
3,100,163,162,255

[TimingPoints]
544,571.4286,4,2,0,15,1,0
9687.848,285.7143,4,2,0,15,1,0

[HitObjects]
64,192,472,5,0,0:0:0:0:
192,192,472,1,0,0:0:0:0:
320,192,472,1,0,0:0:0:0:
320,192,1044,1,0,0:0:0:0:
448,192,1044,1,0,0:0:0:0:
64,192,1615,1,0,0:0:0:0:
192,192,1615,1,0,0:0:0:0:
448,192,1615,1,0,0:0:0:0:
192,192,2186,1,0,0:0:0:0:
320,192,2186,1,0,0:0:0:0:
64,192,2758,1,0,0:0:0:0:
320,192,2758,1,0,0:0:0:0:
448,192,2758,1,0,0:0:0:0:
64,192,3044,1,0,0:0:0:0:
192,192,3044,1,0,0:0:0:0:
192,192,3329,1,0,0:0:0:0:
320,192,3329,1,0,0:0:0:0:
448,192,3329,1,0,0:0:0:0:
64,192,3615,1,0,0:0:0:0:
320,192,3615,1,0,0:0:0:0:
64,192,3901,1,0,0:0:0:0:
192,192,3901,1,0,0:0:0:0:
64,192,4472,1,0,0:0:0:0:
320,192,4472,1,0,0:0:0:0:
448,192,4472,1,0,0:0:0:0:
192,192,5044,1,0,0:0:0:0:
448,192,5044,1,0,0:0:0:0:
320,0,5044,128,0,5329:1:0:0:0:
64,192,5186,1,0,0:0:0:0:
192,192,5329,1,0,0:0:0:0:
320,192,5472,1,0,0:0:0:0:
64,192,5615,1,0,0:0:0:0:
448,0,5615,128,0,5901:1:0:0:0:
192,192,5758,1,0,0:0:0:0:
320,192,5901,1,0,0:0:0:0:
448,192,6044,1,0,0:0:0:0:
192,192,6186,1,0,0:0:0:0:
64,0,6186,128,0,6472:1:0:0:0:
320,192,6329,1,0,0:0:0:0:
448,192,6472,1,0,0:0:0:0:
448,192,6758,1,0,0:0:0:0:
192,0,6758,128,0,7044:1:0:0:0:
64,192,6901,1,0,0:0:0:0:
320,192,7044,1,0,0:0:0:0:
320,192,7329,1,0,0:0:0:0:
448,0,7329,128,0,7615:1:0:0:0:
64,192,7615,1,0,0:0:0:0:
192,192,7615,1,0,0:0:0:0:
64,192,7901,1,0,0:0:0:0:
192,192,7901,1,0,0:0:0:0:
320,0,7901,128,0,8115:1:0:0:0:
64,192,8044,1,0,0:0:0:0:
448,192,8044,1,0,0:0:0:0:
192,192,8186,1,0,0:0:0:0:
320,192,8186,1,0,0:0:0:0:
192,192,8329,1,0,0:0:0:0:
448,192,8329,1,0,0:0:0:0:
64,192,8472,1,0,0:0:0:0:
448,192,8472,1,0,0:0:0:0:
320,0,8472,128,0,8758:1:0:0:0:
64,192,8901,1,0,0:0:0:0:
64,192,9044,1,0,0:0:0:0:
448,192,9044,1,0,0:0:0:0:
192,0,9044,128,0,9329:1:0:0:0:
320,192,9472,1,0,0:0:0:0:
64,192,9615,1,0,0:0:0:0:
320,192,9615,1,0,0:0:0:0:
448,192,9615,1,0,0:0:0:0:
192,192,9723,1,0,0:0:0:0:
448,192,9812,1,0,0:0:0:0:
320,192,9902,1,0,0:0:0:0:
64,192,10009,1,0,0:0:0:0:
320,192,10098,1,0,0:0:0:0:
192,192,10187,1,0,0:0:0:0:
64,192,10294,1,0,0:0:0:0:
448,192,10384,1,0,0:0:0:0:
192,192,10473,1,0,0:0:0:0:
320,192,10473,1,0,0:0:0:0:
448,192,10473,1,0,0:0:0:0:
64,192,10580,1,0,0:0:0:0:
192,192,10669,1,0,0:0:0:0:
64,192,10759,1,0,0:0:0:0:
320,192,10759,1,0,0:0:0:0:
448,192,10759,1,0,0:0:0:0:
192,192,10866,1,0,0:0:0:0:
448,192,10955,1,0,0:0:0:0:
320,192,11044,1,0,0:0:0:0:
64,192,11152,1,0,0:0:0:0:
320,192,11241,1,0,0:0:0:0:
192,192,11330,1,0,0:0:0:0:
64,192,11437,1,0,0:0:0:0:
448,192,11527,1,0,0:0:0:0:
64,192,11616,1,0,0:0:0:0:
192,192,11616,1,0,0:0:0:0:
320,192,11616,1,0,0:0:0:0:
448,192,11723,1,0,0:0:0:0:
192,192,11812,1,0,0:0:0:0:
64,192,11902,1,0,0:0:0:0:
320,192,11902,1,0,0:0:0:0:
448,192,11902,1,0,0:0:0:0:
192,192,12009,1,0,0:0:0:0:
320,192,12098,1,0,0:0:0:0:
192,192,12187,1,0,0:0:0:0:
448,192,12187,1,0,0:0:0:0:
64,192,12294,1,0,0:0:0:0:
320,192,12384,1,0,0:0:0:0:
64,192,12473,1,0,0:0:0:0:
192,192,12473,1,0,0:0:0:0:
448,192,12473,1,0,0:0:0:0:
320,192,12580,1,0,0:0:0:0:
64,192,12669,1,0,0:0:0:0:
192,192,12759,1,0,0:0:0:0:
320,192,12759,1,0,0:0:0:0:
448,192,12866,1,0,0:0:0:0:
64,192,12955,1,0,0:0:0:0:
192,192,13044,1,0,0:0:0:0:
320,192,13044,1,0,0:0:0:0:
448,192,13044,1,0,0:0:0:0:
64,192,13152,1,0,0:0:0:0:
320,192,13241,1,0,0:0:0:0:
192,192,13330,1,0,0:0:0:0:
320,192,13437,1,0,0:0:0:0:
64,192,13527,1,0,0:0:0:0:
448,192,13527,1,0,0:0:0:0:
64,192,13616,1,0,0:0:0:0:
192,192,13616,1,0,0:0:0:0:
448,192,13616,1,0,0:0:0:0:
320,192,13723,1,0,0:0:0:0:
192,192,13812,1,0,0:0:0:0:
320,192,13902,1,0,0:0:0:0:
448,192,13902,1,0,0:0:0:0:
192,192,14009,1,0,0:0:0:0:
64,192,14098,1,0,0:0:0:0:
64,192,14187,1,0,0:0:0:0:
320,192,14187,1,0,0:0:0:0:
448,192,14187,1,0,0:0:0:0:
192,192,14294,1,0,0:0:0:0:
448,192,14384,1,0,0:0:0:0:
320,192,14473,1,0,0:0:0:0:
64,192,14580,1,0,0:0:0:0:
320,192,14669,1,0,0:0:0:0:
192,192,14759,1,0,0:0:0:0:
64,192,14866,1,0,0:0:0:0:
448,192,14955,1,0,0:0:0:0:
192,192,15044,1,0,0:0:0:0:
320,192,15044,1,0,0:0:0:0:
448,192,15044,1,0,0:0:0:0:
64,192,15152,1,0,0:0:0:0:
192,192,15241,1,0,0:0:0:0:
64,192,15330,1,0,0:0:0:0:
320,192,15330,1,0,0:0:0:0:
448,192,15330,1,0,0:0:0:0:
192,192,15437,1,0,0:0:0:0:
448,192,15527,1,0,0:0:0:0:
320,192,15616,1,0,0:0:0:0:
64,192,15723,1,0,0:0:0:0:
320,192,15812,1,0,0:0:0:0:
192,192,15902,1,0,0:0:0:0:
64,192,16009,1,0,0:0:0:0:
448,192,16098,1,0,0:0:0:0:
64,192,16187,1,0,0:0:0:0:
192,192,16187,1,0,0:0:0:0:
320,192,16187,1,0,0:0:0:0:
448,192,16294,1,0,0:0:0:0:
192,192,16384,1,0,0:0:0:0:
64,192,16473,1,0,0:0:0:0:
320,192,16473,1,0,0:0:0:0:
448,192,16473,1,0,0:0:0:0:
192,192,16580,1,0,0:0:0:0:
320,192,16669,1,0,0:0:0:0:
192,192,16759,1,0,0:0:0:0:
448,192,16759,1,0,0:0:0:0:
64,192,16866,1,0,0:0:0:0:
320,192,16955,1,0,0:0:0:0:
64,192,17044,1,0,0:0:0:0:
192,192,17044,1,0,0:0:0:0:
448,192,17044,1,0,0:0:0:0:
320,192,17152,1,0,0:0:0:0:
64,192,17241,1,0,0:0:0:0:
192,192,17330,1,0,0:0:0:0:
320,192,17330,1,0,0:0:0:0:
448,192,17437,1,0,0:0:0:0:
64,192,17527,1,0,0:0:0:0:
192,192,17616,1,0,0:0:0:0:
320,192,17616,1,0,0:0:0:0:
448,192,17616,1,0,0:0:0:0:
64,192,17723,1,0,0:0:0:0:
320,192,17812,1,0,0:0:0:0:
192,192,17902,1,0,0:0:0:0:
320,192,18009,1,0,0:0:0:0:
64,192,18098,1,0,0:0:0:0:
448,192,18098,1,0,0:0:0:0:
64,192,18187,1,0,0:0:0:0:
192,192,18187,1,0,0:0:0:0:
448,192,18187,1,0,0:0:0:0:
320,192,18294,1,0,0:0:0:0:
192,192,18384,1,0,0:0:0:0:
320,192,18473,1,0,0:0:0:0:
448,192,18473,1,0,0:0:0:0:
192,192,18580,1,0,0:0:0:0:
64,192,18669,1,0,0:0:0:0:
192,192,18759,1,0,0:0:0:0:
320,192,18759,1,0,0:0:0:0:
192,192,18866,1,0,0:0:0:0:
320,192,18866,1,0,0:0:0:0:
192,192,18955,1,0,0:0:0:0:
320,192,18955,1,0,0:0:0:0:
192,192,19044,1,0,0:0:0:0:
320,192,19044,1,0,0:0:0:0:
192,192,19152,1,0,0:0:0:0:
320,192,19152,1,0,0:0:0:0:
192,192,19241,1,0,0:0:0:0:
320,192,19241,1,0,0:0:0:0:
192,192,19330,1,0,0:0:0:0:
320,192,19330,1,0,0:0:0:0:
192,192,19437,1,0,0:0:0:0:
320,192,19437,1,0,0:0:0:0:
192,192,19527,1,0,0:0:0:0:
320,192,19527,1,0,0:0:0:0:
192,192,19616,1,0,0:0:0:0:
320,192,19616,1,0,0:0:0:0:
192,192,19723,1,0,0:0:0:0:
320,192,19723,1,0,0:0:0:0:
192,192,19812,1,0,0:0:0:0:
320,192,19812,1,0,0:0:0:0:
64,192,19902,1,0,0:0:0:0:
448,192,19902,1,0,0:0:0:0:
64,192,21044,1,0,0:0:0:0:
192,192,21044,1,0,0:0:0:0:
64,192,21187,1,0,0:0:0:0:
320,192,21187,1,0,0:0:0:0:
192,192,21330,1,0,0:0:0:0:
448,192,21330,1,0,0:0:0:0:
320,192,21473,1,0,0:0:0:0:
448,192,21473,1,0,0:0:0:0:
192,192,21544,1,0,0:0:0:0:
64,192,21616,1,0,0:0:0:0:
320,192,21687,1,0,0:0:0:0:
192,192,21759,1,0,0:0:0:0:
448,192,21759,1,0,0:0:0:0:
64,192,21902,1,0,0:0:0:0:
320,192,21902,1,0,0:0:0:0:
64,192,22044,1,0,0:0:0:0:
192,192,22044,1,0,0:0:0:0:
448,192,22116,1,0,0:0:0:0:
192,192,22187,1,0,0:0:0:0:
320,192,22187,1,0,0:0:0:0:
64,192,22330,1,0,0:0:0:0:
192,192,22330,1,0,0:0:0:0:
320,192,22473,1,0,0:0:0:0:
448,192,22473,1,0,0:0:0:0:
64,192,22616,1,0,0:0:0:0:
448,192,22687,1,0,0:0:0:0:
192,192,22759,1,0,0:0:0:0:
320,192,22759,1,0,0:0:0:0:
448,192,22830,1,0,0:0:0:0:
64,192,22902,1,0,0:0:0:0:
192,192,23044,1,0,0:0:0:0:
448,192,23044,1,0,0:0:0:0:
64,192,23187,1,0,0:0:0:0:
320,192,23187,1,0,0:0:0:0:
192,192,23259,1,0,0:0:0:0:
64,192,23330,1,0,0:0:0:0:
448,192,23330,1,0,0:0:0:0:
192,192,23473,1,0,0:0:0:0:
320,192,23473,1,0,0:0:0:0:
320,192,23616,1,0,0:0:0:0:
448,192,23616,1,0,0:0:0:0:
64,192,23759,1,0,0:0:0:0:
320,192,23830,1,0,0:0:0:0:
192,192,23902,1,0,0:0:0:0:
448,192,23902,1,0,0:0:0:0:
320,192,23973,1,0,0:0:0:0:
64,192,24044,1,0,0:0:0:0:
192,192,24187,1,0,0:0:0:0:
320,192,24187,1,0,0:0:0:0:
64,192,24330,1,0,0:0:0:0:
448,192,24330,1,0,0:0:0:0:
320,192,24402,1,0,0:0:0:0:
192,192,24473,1,0,0:0:0:0:
448,192,24473,1,0,0:0:0:0:
64,192,24616,1,0,0:0:0:0:
192,192,24616,1,0,0:0:0:0:
320,192,24759,1,0,0:0:0:0:
448,192,24759,1,0,0:0:0:0:
64,192,24902,1,0,0:0:0:0:
192,192,24902,1,0,0:0:0:0:
320,192,24973,1,0,0:0:0:0:
64,192,25044,1,0,0:0:0:0:
448,192,25044,1,0,0:0:0:0:
320,192,25116,1,0,0:0:0:0:
64,192,25187,1,0,0:0:0:0:
192,192,25187,1,0,0:0:0:0:
192,192,25330,1,0,0:0:0:0:
320,192,25330,1,0,0:0:0:0:
64,192,25473,1,0,0:0:0:0:
192,192,25544,1,0,0:0:0:0:
64,192,25616,1,0,0:0:0:0:
320,192,25616,1,0,0:0:0:0:
448,192,25616,1,0,0:0:0:0:
192,192,25759,1,0,0:0:0:0:
320,192,25759,1,0,0:0:0:0:
320,192,25902,1,0,0:0:0:0:
448,192,25902,1,0,0:0:0:0:
64,192,26044,1,0,0:0:0:0:
192,192,26044,1,0,0:0:0:0:
320,192,26116,1,0,0:0:0:0:
448,192,26187,1,0,0:0:0:0:
192,192,26259,1,0,0:0:0:0:
64,192,26330,1,0,0:0:0:0:
320,192,26330,1,0,0:0:0:0:
192,192,26473,1,0,0:0:0:0:
320,192,26473,1,0,0:0:0:0:
192,192,26616,1,0,0:0:0:0:
448,192,26616,1,0,0:0:0:0:
64,192,26687,1,0,0:0:0:0:
320,192,26759,1,0,0:0:0:0:
448,192,26759,1,0,0:0:0:0:
192,192,26902,1,0,0:0:0:0:
320,192,26902,1,0,0:0:0:0:
320,192,27044,1,0,0:0:0:0:
448,192,27044,1,0,0:0:0:0:
64,192,27187,1,0,0:0:0:0:
192,192,27187,1,0,0:0:0:0:
320,192,27259,1,0,0:0:0:0:
448,192,27330,1,0,0:0:0:0:
192,192,27402,1,0,0:0:0:0:
64,192,27473,1,0,0:0:0:0:
320,192,27473,1,0,0:0:0:0:
192,192,27616,1,0,0:0:0:0:
320,192,27616,1,0,0:0:0:0:
64,192,27759,1,0,0:0:0:0:
320,192,27759,1,0,0:0:0:0:
192,192,27830,1,0,0:0:0:0:
64,192,27902,1,0,0:0:0:0:
448,192,27902,1,0,0:0:0:0:
320,192,28044,1,0,0:0:0:0:
192,192,28187,1,0,0:0:0:0:
448,192,28187,1,0,0:0:0:0:
64,192,28330,1,0,0:0:0:0:
448,192,28402,1,0,0:0:0:0:
192,192,28473,1,0,0:0:0:0:
320,192,28473,1,0,0:0:0:0:
64,192,28544,1,0,0:0:0:0:
448,192,28616,1,0,0:0:0:0:
64,192,28759,1,0,0:0:0:0:
192,192,28759,1,0,0:0:0:0:
320,192,28902,1,0,0:0:0:0:
192,192,28973,1,0,0:0:0:0:
64,192,29044,1,0,0:0:0:0:
448,192,29044,1,0,0:0:0:0:
64,192,29187,1,0,0:0:0:0:
448,192,29187,1,0,0:0:0:0:
192,192,29330,1,0,0:0:0:0:
320,192,29330,1,0,0:0:0:0:
64,192,29402,1,0,0:0:0:0:
320,192,29473,1,0,0:0:0:0:
448,192,29473,1,0,0:0:0:0:
192,192,29544,1,0,0:0:0:0:
64,192,29616,1,0,0:0:0:0:
448,192,29616,1,0,0:0:0:0:
320,192,29687,1,0,0:0:0:0:
64,192,29759,1,0,0:0:0:0:
192,192,29759,1,0,0:0:0:0:
320,192,29830,1,0,0:0:0:0:
64,192,29902,1,0,0:0:0:0:
448,192,29902,1,0,0:0:0:0:
192,192,29973,1,0,0:0:0:0:
320,192,30044,1,0,0:0:0:0:
448,192,30116,1,0,0:0:0:0:
64,192,30187,1,0,0:0:0:0:
192,192,30187,1,0,0:0:0:0:
320,0,30187,128,0,30330:1:0:0:0:
192,192,30330,1,0,0:0:0:0:
448,192,30330,1,0,0:0:0:0:
320,192,30402,1,0,0:0:0:0:
64,192,30473,1,0,0:0:0:0:
448,192,30473,1,0,0:0:0:0:
192,192,30616,1,0,0:0:0:0:
320,192,30616,1,0,0:0:0:0:
448,192,30687,1,0,0:0:0:0:
64,192,30759,1,0,0:0:0:0:
192,192,30830,1,0,0:0:0:0:
320,192,30902,1,0,0:0:0:0:
448,192,30902,1,0,0:0:0:0:
320,192,31044,1,0,0:0:0:0:
192,0,31044,128,0,31187:1:0:0:0:
64,192,31187,1,0,0:0:0:0:
320,192,31187,1,0,0:0:0:0:
192,192,31259,1,0,0:0:0:0:
64,192,31330,1,0,0:0:0:0:
448,192,31330,1,0,0:0:0:0:
192,192,31473,1,0,0:0:0:0:
320,192,31473,1,0,0:0:0:0:
64,192,31544,1,0,0:0:0:0:
320,192,31616,1,0,0:0:0:0:
448,192,31616,1,0,0:0:0:0:
64,192,31759,1,0,0:0:0:0:
320,192,31830,1,0,0:0:0:0:
192,192,31902,1,0,0:0:0:0:
448,0,31902,128,0,32044:1:0:0:0:
320,192,31973,1,0,0:0:0:0:
64,192,32044,1,0,0:0:0:0:
192,192,32187,1,0,0:0:0:0:
320,192,32187,1,0,0:0:0:0:
64,192,32330,1,0,0:0:0:0:
192,192,32330,1,0,0:0:0:0:
448,192,32402,1,0,0:0:0:0:
320,192,32473,1,0,0:0:0:0:
64,0,32473,128,0,32616:1:0:0:0:
192,192,32616,1,0,0:0:0:0:
448,192,32616,1,0,0:0:0:0:
64,192,32687,1,0,0:0:0:0:
320,192,32759,1,0,0:0:0:0:
448,192,32759,1,0,0:0:0:0:
192,192,32902,1,0,0:0:0:0:
448,192,32973,1,0,0:0:0:0:
192,192,33044,1,0,0:0:0:0:
320,0,33044,128,0,33187:1:0:0:0:
448,192,33116,1,0,0:0:0:0:
64,192,33187,1,0,0:0:0:0:
64,192,33330,1,0,0:0:0:0:
192,192,33330,1,0,0:0:0:0:
448,192,33473,1,0,0:0:0:0:
192,0,33473,128,0,33544:1:0:0:0:
320,0,33544,128,0,33616:1:0:0:0:
64,192,33616,1,0,0:0:0:0:
448,0,33616,128,0,33759:1:0:0:0:
64,192,33759,1,0,0:0:0:0:
192,192,33759,1,0,0:0:0:0:
320,192,33830,1,0,0:0:0:0:
192,192,33902,1,0,0:0:0:0:
448,192,33902,1,0,0:0:0:0:
64,192,34044,1,0,0:0:0:0:
320,192,34044,1,0,0:0:0:0:
192,192,34116,1,0,0:0:0:0:
448,192,34187,1,0,0:0:0:0:
64,0,34187,128,0,34330:1:0:0:0:
192,192,34259,1,0,0:0:0:0:
320,192,34330,1,0,0:0:0:0:
448,192,34330,1,0,0:0:0:0:
320,192,34473,1,0,0:0:0:0:
192,0,34473,128,0,34616:1:0:0:0:
448,192,34616,1,0,0:0:0:0:
192,192,34687,1,0,0:0:0:0:
64,192,34759,1,0,0:0:0:0:
320,192,34759,1,0,0:0:0:0:
448,0,34759,128,0,34902:1:0:0:0:
64,192,34902,1,0,0:0:0:0:
192,192,34902,1,0,0:0:0:0:
320,192,34973,1,0,0:0:0:0:
192,192,35044,1,0,0:0:0:0:
448,192,35044,1,0,0:0:0:0:
64,192,35187,1,0,0:0:0:0:
320,192,35187,1,0,0:0:0:0:
192,192,35259,1,0,0:0:0:0:
448,192,35330,1,0,0:0:0:0:
320,192,35402,1,0,0:0:0:0:
64,192,35473,1,0,0:0:0:0:
192,192,35473,1,0,0:0:0:0:
192,192,35616,1,0,0:0:0:0:
320,192,35616,1,0,0:0:0:0:
448,192,35759,1,0,0:0:0:0:
320,0,35759,128,0,35830:1:0:0:0:
192,0,35830,128,0,35902:1:0:0:0:
448,192,35902,1,0,0:0:0:0:
64,0,35902,128,0,36044:1:0:0:0:
192,192,36044,1,0,0:0:0:0:
320,192,36044,1,0,0:0:0:0:
64,192,36116,1,0,0:0:0:0:
320,192,36187,1,0,0:0:0:0:
448,192,36187,1,0,0:0:0:0:
64,192,36330,1,0,0:0:0:0:
192,192,36330,1,0,0:0:0:0:
320,192,36402,1,0,0:0:0:0:
448,192,36473,1,0,0:0:0:0:
64,192,36544,1,0,0:0:0:0:
192,192,36616,1,0,0:0:0:0:
320,192,36616,1,0,0:0:0:0:
64,192,36759,1,0,0:0:0:0:
448,0,36759,128,0,36902:1:0:0:0:
192,192,36902,1,0,0:0:0:0:
320,192,36902,1,0,0:0:0:0:
64,192,36973,1,0,0:0:0:0:
448,192,37044,1,0,0:0:0:0:
320,0,37044,128,0,37187:1:0:0:0:
448,192,37187,1,0,0:0:0:0:
320,192,37259,1,0,0:0:0:0:
64,192,37330,1,0,0:0:0:0:
192,192,37330,1,0,0:0:0:0:
320,192,37473,1,0,0:0:0:0:
64,192,37544,1,0,0:0:0:0:
448,192,37616,1,0,0:0:0:0:
192,0,37616,128,0,37759:1:0:0:0:
320,192,37687,1,0,0:0:0:0:
448,192,37759,1,0,0:0:0:0:
64,192,37902,1,0,0:0:0:0:
192,192,37902,1,0,0:0:0:0:
448,192,38044,1,0,0:0:0:0:
192,192,38116,1,0,0:0:0:0:
64,192,38187,1,0,0:0:0:0:
320,192,38187,1,0,0:0:0:0:
320,192,38330,1,0,0:0:0:0:
192,192,38402,1,0,0:0:0:0:
64,192,38473,1,0,0:0:0:0:
448,192,38473,1,0,0:0:0:0:
192,192,38544,1,0,0:0:0:0:
448,192,38616,1,0,0:0:0:0:
320,0,38616,128,0,38687:1:0:0:0:
192,0,38687,128,0,38759:1:0:0:0:
320,192,38759,1,0,0:0:0:0:
64,0,38759,128,0,38902:1:0:0:0:
448,192,38830,1,0,0:0:0:0:
192,192,38902,1,0,0:0:0:0:
320,192,38902,1,0,0:0:0:0:
64,192,38973,1,0,0:0:0:0:
192,192,39044,1,0,0:0:0:0:
448,192,39044,1,0,0:0:0:0:
320,192,39116,1,0,0:0:0:0:
64,192,39187,1,0,0:0:0:0:
448,192,39187,1,0,0:0:0:0:
192,192,39259,1,0,0:0:0:0:
64,192,39330,1,0,0:0:0:0:
320,192,39330,1,0,0:0:0:0:
448,192,39330,1,0,0:0:0:0:
192,192,39473,1,0,0:0:0:0:
448,192,39616,1,0,0:0:0:0:
64,192,39759,1,0,0:0:0:0:
448,192,39902,1,0,0:0:0:0:
192,192,40044,1,0,0:0:0:0:
320,192,40187,1,0,0:0:0:0:
64,192,40330,1,0,0:0:0:0:
192,192,40473,1,0,0:0:0:0:
64,192,40616,1,0,0:0:0:0:
320,192,40759,1,0,0:0:0:0:
192,192,40902,1,0,0:0:0:0:
448,192,41044,1,0,0:0:0:0:
64,192,41187,1,0,0:0:0:0:
320,192,41330,1,0,0:0:0:0:
192,192,41473,1,0,0:0:0:0:
448,192,41473,1,0,0:0:0:0:
64,192,41616,1,0,0:0:0:0:
320,192,41616,1,0,0:0:0:0:
448,192,41616,1,0,0:0:0:0:
192,192,41723,1,0,0:0:0:0:
448,192,41812,1,0,0:0:0:0:
320,192,41902,1,0,0:0:0:0:
64,192,42009,1,0,0:0:0:0:
192,192,42098,1,0,0:0:0:0:
448,192,42187,1,0,0:0:0:0:
192,192,42294,1,0,0:0:0:0:
320,192,42384,1,0,0:0:0:0:
448,192,42473,1,0,0:0:0:0:
64,192,42580,1,0,0:0:0:0:
192,192,42669,1,0,0:0:0:0:
320,192,42759,1,0,0:0:0:0:
448,192,42759,1,0,0:0:0:0:
192,192,42830,1,0,0:0:0:0:
64,192,42902,1,0,0:0:0:0:
448,192,42955,1,0,0:0:0:0:
320,192,43009,1,0,0:0:0:0:
64,192,43044,1,0,0:0:0:0:
192,192,43044,1,0,0:0:0:0:
192,192,43330,1,0,0:0:0:0:
448,192,43330,1,0,0:0:0:0:
64,192,43402,1,0,0:0:0:0:
320,192,43402,1,0,0:0:0:0:
320,192,43544,1,0,0:0:0:0:
448,192,43544,1,0,0:0:0:0:
64,192,43616,1,0,0:0:0:0:
192,192,43616,1,0,0:0:0:0:
192,192,43723,1,0,0:0:0:0:
320,192,43723,1,0,0:0:0:0:
320,192,43812,1,0,0:0:0:0:
448,192,43812,1,0,0:0:0:0:
64,192,43902,1,0,0:0:0:0:
192,192,43902,1,0,0:0:0:0:
448,192,43902,1,0,0:0:0:0:
64,192,44116,1,0,0:0:0:0:
320,192,44187,1,0,0:0:0:0:
64,192,44473,1,0,0:0:0:0:
192,192,44473,1,0,0:0:0:0:
192,192,44687,1,0,0:0:0:0:
320,192,44759,1,0,0:0:0:0:
192,192,45044,1,0,0:0:0:0:
320,192,45044,1,0,0:0:0:0:
192,192,45259,1,0,0:0:0:0:
64,192,45330,1,0,0:0:0:0:
64,192,45616,1,0,0:0:0:0:
320,192,45616,1,0,0:0:0:0:
320,192,45830,1,0,0:0:0:0:
448,192,45902,1,0,0:0:0:0:
320,192,46187,1,0,0:0:0:0:
448,192,46187,1,0,0:0:0:0:
320,192,46402,1,0,0:0:0:0:
192,192,46473,1,0,0:0:0:0:
192,192,46759,1,0,0:0:0:0:
448,192,46759,1,0,0:0:0:0:
448,192,46973,1,0,0:0:0:0:
64,192,47044,1,0,0:0:0:0:
192,192,47330,1,0,0:0:0:0:
320,192,47330,1,0,0:0:0:0:
320,192,47544,1,0,0:0:0:0:
192,192,47616,1,0,0:0:0:0:
192,192,47902,1,0,0:0:0:0:
448,192,47902,1,0,0:0:0:0:
192,192,48116,1,0,0:0:0:0:
64,192,48187,1,0,0:0:0:0:
448,192,48187,1,0,0:0:0:0:
192,192,48473,1,0,0:0:0:0:
448,192,48473,1,0,0:0:0:0:
64,192,48616,1,0,0:0:0:0:
192,192,48687,1,0,0:0:0:0:
320,192,48759,1,0,0:0:0:0:
448,192,48759,1,0,0:0:0:0:
192,192,48830,1,0,0:0:0:0:
320,192,48902,1,0,0:0:0:0:
192,192,48973,1,0,0:0:0:0:
64,192,49044,1,0,0:0:0:0:
320,192,49044,1,0,0:0:0:0:
448,192,49187,1,0,0:0:0:0:
320,192,49259,1,0,0:0:0:0:
64,192,49330,1,0,0:0:0:0:
192,192,49330,1,0,0:0:0:0:
448,192,49402,1,0,0:0:0:0:
192,192,49473,1,0,0:0:0:0:
448,192,49544,1,0,0:0:0:0:
192,192,49616,1,0,0:0:0:0:
320,192,49616,1,0,0:0:0:0:
64,192,49759,1,0,0:0:0:0:
320,192,49830,1,0,0:0:0:0:
192,192,49902,1,0,0:0:0:0:
448,192,49902,1,0,0:0:0:0:
320,192,49973,1,0,0:0:0:0:
192,192,50044,1,0,0:0:0:0:
320,192,50116,1,0,0:0:0:0:
64,192,50187,1,0,0:0:0:0:
192,192,50187,1,0,0:0:0:0:
448,192,50330,1,0,0:0:0:0:
64,192,50402,1,0,0:0:0:0:
192,192,50473,1,0,0:0:0:0:
320,192,50473,1,0,0:0:0:0:
448,192,50616,1,0,0:0:0:0:
64,192,50759,1,0,0:0:0:0:
192,192,50759,1,0,0:0:0:0:
448,192,50866,1,0,0:0:0:0:
64,192,50955,1,0,0:0:0:0:
64,192,51044,1,0,0:0:0:0:
320,192,51044,1,0,0:0:0:0:
448,192,51152,1,0,0:0:0:0:
192,192,51241,1,0,0:0:0:0:
192,192,51330,1,0,0:0:0:0:
320,192,51330,1,0,0:0:0:0:
64,192,51437,1,0,0:0:0:0:
320,192,51527,1,0,0:0:0:0:
320,192,51616,1,0,0:0:0:0:
448,192,51616,1,0,0:0:0:0:
64,192,51723,1,0,0:0:0:0:
448,192,51812,1,0,0:0:0:0:
64,192,51902,1,0,0:0:0:0:
192,192,51902,1,0,0:0:0:0:
320,192,51902,1,0,0:0:0:0:
192,192,52187,1,0,0:0:0:0:
320,192,52187,1,0,0:0:0:0:
448,192,52187,1,0,0:0:0:0:
64,192,52473,1,0,0:0:0:0:
192,192,52473,1,0,0:0:0:0:
64,192,52580,1,0,0:0:0:0:
192,192,52580,1,0,0:0:0:0:
64,192,52669,1,0,0:0:0:0:
192,192,52669,1,0,0:0:0:0:
320,192,52759,1,0,0:0:0:0:
448,192,52759,1,0,0:0:0:0:
320,192,52866,1,0,0:0:0:0:
448,192,52866,1,0,0:0:0:0:
320,192,52955,1,0,0:0:0:0:
448,192,52955,1,0,0:0:0:0:
64,192,53044,1,0,0:0:0:0:
192,192,53044,1,0,0:0:0:0:
448,192,53044,1,0,0:0:0:0:
192,192,53241,1,0,0:0:0:0:
64,192,53330,1,0,0:0:0:0:
320,192,53330,1,0,0:0:0:0:
448,192,53330,1,0,0:0:0:0:
64,192,53527,1,0,0:0:0:0:
320,192,53527,1,0,0:0:0:0:
448,192,53527,1,0,0:0:0:0:
64,192,53616,1,0,0:0:0:0:
192,192,53616,1,0,0:0:0:0:
320,192,53616,1,0,0:0:0:0:
64,192,53812,1,0,0:0:0:0:
192,192,53812,1,0,0:0:0:0:
192,192,53902,1,0,0:0:0:0:
320,192,53902,1,0,0:0:0:0:
448,192,53902,1,0,0:0:0:0:
192,192,54098,1,0,0:0:0:0:
320,192,54098,1,0,0:0:0:0:
448,192,54098,1,0,0:0:0:0:
64,192,54187,1,0,0:0:0:0:
192,192,54187,1,0,0:0:0:0:
320,192,54187,1,0,0:0:0:0:
64,192,54384,1,0,0:0:0:0:
320,192,54384,1,0,0:0:0:0:
64,192,54473,1,0,0:0:0:0:
192,192,54473,1,0,0:0:0:0:
448,192,54473,1,0,0:0:0:0:
64,192,54669,1,0,0:0:0:0:
192,192,54669,1,0,0:0:0:0:
448,192,54669,1,0,0:0:0:0:
192,192,54759,1,0,0:0:0:0:
320,192,54759,1,0,0:0:0:0:
448,192,54759,1,0,0:0:0:0:
192,192,54955,1,0,0:0:0:0:
320,192,54955,1,0,0:0:0:0:
64,192,55044,1,0,0:0:0:0:
320,192,55044,1,0,0:0:0:0:
448,192,55044,1,0,0:0:0:0:
64,192,55241,1,0,0:0:0:0:
320,192,55241,1,0,0:0:0:0:
448,192,55241,1,0,0:0:0:0:
64,192,55330,1,0,0:0:0:0:
192,192,55330,1,0,0:0:0:0:
448,192,55330,1,0,0:0:0:0:
448,192,55527,1,0,0:0:0:0:
64,192,55616,1,0,0:0:0:0:
192,192,55616,1,0,0:0:0:0:
320,192,55616,1,0,0:0:0:0:
64,192,55812,1,0,0:0:0:0:
192,192,55812,1,0,0:0:0:0:
320,192,55812,1,0,0:0:0:0:
64,192,55902,1,0,0:0:0:0:
192,192,55902,1,0,0:0:0:0:
448,192,55902,1,0,0:0:0:0:
64,192,56098,1,0,0:0:0:0:
192,192,56098,1,0,0:0:0:0:
64,192,56187,1,0,0:0:0:0:
320,192,56187,1,0,0:0:0:0:
448,192,56187,1,0,0:0:0:0:
64,192,56384,1,0,0:0:0:0:
320,192,56384,1,0,0:0:0:0:
448,192,56384,1,0,0:0:0:0:
192,192,56473,1,0,0:0:0:0:
320,192,56473,1,0,0:0:0:0:
448,192,56473,1,0,0:0:0:0:
192,192,56669,1,0,0:0:0:0:
448,192,56669,1,0,0:0:0:0:
64,192,56759,1,0,0:0:0:0:
192,192,56759,1,0,0:0:0:0:
320,192,56759,1,0,0:0:0:0:
64,192,56955,1,0,0:0:0:0:
192,192,56955,1,0,0:0:0:0:
320,192,56955,1,0,0:0:0:0:
64,192,57044,1,0,0:0:0:0:
320,192,57044,1,0,0:0:0:0:
448,192,57044,1,0,0:0:0:0:
192,192,57152,1,0,0:0:0:0:
64,192,57241,1,0,0:0:0:0:
320,192,57241,1,0,0:0:0:0:
192,192,57330,1,0,0:0:0:0:
320,192,57330,1,0,0:0:0:0:
448,192,57330,1,0,0:0:0:0:
64,192,57437,1,0,0:0:0:0:
192,192,57527,1,0,0:0:0:0:
448,192,57527,1,0,0:0:0:0:
320,192,57616,1,0,0:0:0:0:
448,192,57616,1,0,0:0:0:0:
192,192,57723,1,0,0:0:0:0:
64,192,57812,1,0,0:0:0:0:
448,192,57812,1,0,0:0:0:0:
192,192,57902,1,0,0:0:0:0:
320,192,57902,1,0,0:0:0:0:
64,192,58009,1,0,0:0:0:0:
192,192,58098,1,0,0:0:0:0:
448,192,58098,1,0,0:0:0:0:
64,192,58187,1,0,0:0:0:0:
320,192,58187,1,0,0:0:0:0:
448,192,58294,1,0,0:0:0:0:
64,192,58384,1,0,0:0:0:0:
192,192,58384,1,0,0:0:0:0:
320,192,58473,1,0,0:0:0:0:
448,192,58473,1,0,0:0:0:0:
64,192,58580,1,0,0:0:0:0:
192,192,58669,1,0,0:0:0:0:
448,192,58669,1,0,0:0:0:0:
64,192,58759,1,0,0:0:0:0:
320,192,58759,1,0,0:0:0:0:
192,192,58866,1,0,0:0:0:0:
64,192,58955,1,0,0:0:0:0:
448,192,58955,1,0,0:0:0:0:
192,192,59044,1,0,0:0:0:0:
320,192,59044,1,0,0:0:0:0:
448,192,59152,1,0,0:0:0:0:
64,192,59241,1,0,0:0:0:0:
192,192,59241,1,0,0:0:0:0:
320,192,59330,1,0,0:0:0:0:
448,192,59330,1,0,0:0:0:0:
192,192,59437,1,0,0:0:0:0:
64,192,59527,1,0,0:0:0:0:
320,192,59527,1,0,0:0:0:0:
192,192,59616,1,0,0:0:0:0:
448,192,59616,1,0,0:0:0:0:
320,192,59723,1,0,0:0:0:0:
64,192,59812,1,0,0:0:0:0:
448,192,59812,1,0,0:0:0:0:
192,192,59902,1,0,0:0:0:0:
320,192,59902,1,0,0:0:0:0:
448,192,60009,1,0,0:0:0:0:
64,192,60098,1,0,0:0:0:0:
192,192,60098,1,0,0:0:0:0:
64,192,60187,1,0,0:0:0:0:
320,192,60187,1,0,0:0:0:0:
448,192,60294,1,0,0:0:0:0:
192,192,60384,1,0,0:0:0:0:
320,192,60384,1,0,0:0:0:0:
64,192,60473,1,0,0:0:0:0:
320,192,60473,1,0,0:0:0:0:
192,192,60580,1,0,0:0:0:0:
320,192,60669,1,0,0:0:0:0:
448,192,60669,1,0,0:0:0:0:
192,192,60759,1,0,0:0:0:0:
448,192,60759,1,0,0:0:0:0:
64,192,60866,1,0,0:0:0:0:
192,192,60955,1,0,0:0:0:0:
320,192,60955,1,0,0:0:0:0:
320,192,61044,1,0,0:0:0:0:
448,192,61044,1,0,0:0:0:0:
64,192,61152,1,0,0:0:0:0:
192,192,61241,1,0,0:0:0:0:
448,192,61241,1,0,0:0:0:0:
192,192,61330,1,0,0:0:0:0:
320,192,61330,1,0,0:0:0:0:
64,192,61437,1,0,0:0:0:0:
192,192,61527,1,0,0:0:0:0:
320,192,61527,1,0,0:0:0:0:
64,192,61616,1,0,0:0:0:0:
448,192,61616,1,0,0:0:0:0:
192,192,61723,1,0,0:0:0:0:
320,192,61723,1,0,0:0:0:0:
64,192,61812,1,0,0:0:0:0:
448,192,61812,1,0,0:0:0:0:
320,192,61902,1,0,0:0:0:0:
448,192,61902,1,0,0:0:0:0:
64,192,62009,1,0,0:0:0:0:
192,192,62009,1,0,0:0:0:0:
320,192,62098,1,0,0:0:0:0:
448,192,62098,1,0,0:0:0:0:
64,192,62187,1,0,0:0:0:0:
192,192,62187,1,0,0:0:0:0:
320,192,62187,1,0,0:0:0:0:
448,192,63044,1,0,0:0:0:0:
64,192,63616,1,0,0:0:0:0:
192,192,63616,1,0,0:0:0:0:
448,192,63616,1,0,0:0:0:0:
320,192,64187,1,0,0:0:0:0:
192,192,64759,1,0,0:0:0:0:
320,192,64759,1,0,0:0:0:0:
448,192,64759,1,0,0:0:0:0:
192,192,65330,1,0,0:0:0:0:
64,192,65902,1,0,0:0:0:0:
320,192,65902,1,0,0:0:0:0:
448,192,65902,1,0,0:0:0:0:
192,192,66473,1,0,0:0:0:0:
320,192,66473,1,0,0:0:0:0:
64,192,67044,1,0,0:0:0:0:
192,192,67044,1,0,0:0:0:0:
320,192,67044,1,0,0:0:0:0:
448,192,67616,1,0,0:0:0:0:
64,192,68187,1,0,0:0:0:0:
448,192,68187,1,0,0:0:0:0:
320,192,68759,1,0,0:0:0:0:
448,192,68759,1,0,0:0:0:0:
192,192,69044,1,0,0:0:0:0:
320,192,69044,1,0,0:0:0:0:
192,192,69330,1,0,0:0:0:0:
448,192,69330,1,0,0:0:0:0:
64,0,69330,128,0,69759:1:0:0:0:
320,192,69616,1,0,0:0:0:0:
64,192,69902,1,0,0:0:0:0:
448,192,69902,1,0,0:0:0:0:
320,0,69902,128,0,70330:1:0:0:0:
192,192,70187,1,0,0:0:0:0:
448,192,70187,1,0,0:0:0:0:
64,192,70473,1,0,0:0:0:0:
320,192,70473,1,0,0:0:0:0:
192,0,70473,128,0,70902:1:0:0:0:
320,192,70759,1,0,0:0:0:0:
448,192,70759,1,0,0:0:0:0:
192,192,71044,1,0,0:0:0:0:
320,192,71044,1,0,0:0:0:0:
448,192,71044,1,0,0:0:0:0:
64,192,71330,1,0,0:0:0:0:
448,192,71616,1,0,0:0:0:0:
320,0,71616,128,0,72044:1:0:0:0:
192,192,72187,1,0,0:0:0:0:
448,0,72187,128,0,72616:1:0:0:0:
64,192,72473,1,0,0:0:0:0:
64,192,72759,1,0,0:0:0:0:
320,0,72759,128,0,73187:1:0:0:0:
192,0,72759,128,0,73759:1:0:0:0:
448,0,73330,128,0,73473:1:0:0:0:
64,0,73616,128,0,73759:1:0:0:0:
64,192,73902,1,0,0:0:0:0:
448,0,73902,128,0,74044:1:0:0:0:
320,0,73902,128,0,74902:1:0:0:0:
192,192,74473,1,0,0:0:0:0:
64,192,74759,1,0,0:0:0:0:
320,192,75044,1,0,0:0:0:0:
448,0,75044,128,0,75473:1:0:0:0:
192,0,75044,128,0,77187:1:0:0:0:
320,0,75616,128,0,75759:1:0:0:0:
64,0,75902,128,0,76044:1:0:0:0:
64,192,76187,1,0,0:0:0:0:
448,192,76187,1,0,0:0:0:0:
320,0,76187,128,0,76330:1:0:0:0:
64,192,76759,1,0,0:0:0:0:
448,0,76759,128,0,76902:1:0:0:0:
320,192,77044,1,0,0:0:0:0:
320,192,77330,1,0,0:0:0:0:
448,192,77330,1,0,0:0:0:0:
64,0,77330,128,0,78330:1:0:0:0:
192,192,77616,1,0,0:0:0:0:
192,192,77902,1,0,0:0:0:0:
320,192,77902,1,0,0:0:0:0:
448,192,78187,1,0,0:0:0:0:
320,192,78473,1,0,0:0:0:0:
448,192,78473,1,0,0:0:0:0:
64,0,78473,128,0,79473:1:0:0:0:
192,192,78759,1,0,0:0:0:0:
320,192,79044,1,0,0:0:0:0:
448,192,79330,1,0,0:0:0:0:
320,192,79616,1,0,0:0:0:0:
448,192,79616,1,0,0:0:0:0:
192,0,79616,128,0,80473:1:0:0:0:
64,192,79902,1,0,0:0:0:0:
320,192,80187,1,0,0:0:0:0:
448,192,80187,1,0,0:0:0:0:
192,192,80616,1,0,0:0:0:0:
64,192,80759,1,0,0:0:0:0:
448,192,80759,1,0,0:0:0:0:
192,192,80830,1,0,0:0:0:0:
64,192,80902,1,0,0:0:0:0:
192,192,80973,1,0,0:0:0:0:
64,192,81044,1,0,0:0:0:0:
192,192,81116,1,0,0:0:0:0:
64,192,81187,1,0,0:0:0:0:
192,192,81259,1,0,0:0:0:0:
64,192,81330,1,0,0:0:0:0:
64,192,81473,1,0,0:0:0:0:
64,192,81902,1,0,0:0:0:0:
320,192,81973,1,0,0:0:0:0:
64,192,82044,1,0,0:0:0:0:
320,192,82116,1,0,0:0:0:0:
64,192,82187,1,0,0:0:0:0:
320,192,82259,1,0,0:0:0:0:
64,192,82330,1,0,0:0:0:0:
320,192,82402,1,0,0:0:0:0:
192,192,82473,1,0,0:0:0:0:
320,192,82544,1,0,0:0:0:0:
192,192,82616,1,0,0:0:0:0:
320,192,82687,1,0,0:0:0:0:
192,192,82759,1,0,0:0:0:0:
320,192,82830,1,0,0:0:0:0:
192,192,82902,1,0,0:0:0:0:
320,192,82973,1,0,0:0:0:0:
192,192,83044,1,0,0:0:0:0:
448,192,83116,1,0,0:0:0:0:
192,192,83187,1,0,0:0:0:0:
448,192,83259,1,0,0:0:0:0:
192,192,83330,1,0,0:0:0:0:
448,192,83402,1,0,0:0:0:0:
192,192,83473,1,0,0:0:0:0:
448,192,83544,1,0,0:0:0:0:
320,192,83616,1,0,0:0:0:0:
448,192,83687,1,0,0:0:0:0:
320,192,83759,1,0,0:0:0:0:
448,192,83830,1,0,0:0:0:0:
320,192,83902,1,0,0:0:0:0:
448,192,83973,1,0,0:0:0:0:
320,192,84044,1,0,0:0:0:0:
448,192,84116,1,0,0:0:0:0:
64,192,84187,1,0,0:0:0:0:
192,192,84187,1,0,0:0:0:0:
320,192,84187,1,0,0:0:0:0:
192,192,84312,1,0,0:0:0:0:
320,192,84312,1,0,0:0:0:0:
448,192,84312,1,0,0:0:0:0:
64,192,84402,1,0,0:0:0:0:
192,192,84402,1,0,0:0:0:0:
448,192,84402,1,0,0:0:0:0:
64,192,84509,1,0,0:0:0:0:
192,192,84509,1,0,0:0:0:0:
320,192,84509,1,0,0:0:0:0:
64,192,84598,1,0,0:0:0:0:
320,192,84598,1,0,0:0:0:0:
448,192,84598,1,0,0:0:0:0:
192,192,84705,1,0,0:0:0:0:
320,192,84705,1,0,0:0:0:0:
448,192,84705,1,0,0:0:0:0:
64,192,85169,1,0,0:0:0:0:
192,192,85187,1,0,0:0:0:0:
320,192,85241,1,0,0:0:0:0:
448,192,85259,1,0,0:0:0:0:
64,192,85455,1,0,0:0:0:0:
192,192,85455,1,0,0:0:0:0:
64,192,85991,1,0,0:0:0:0:
320,192,85991,1,0,0:0:0:0:
448,192,85991,1,0,0:0:0:0:
192,192,86205,1,0,0:0:0:0:
320,192,86277,1,0,0:0:0:0:
448,192,86348,1,0,0:0:0:0:
64,192,86419,1,0,0:0:0:0:
320,192,86419,1,0,0:0:0:0:
192,192,86705,1,0,0:0:0:0:
320,192,86848,1,0,0:0:0:0:
64,192,86991,1,0,0:0:0:0:
448,192,86991,1,0,0:0:0:0:
192,192,87134,1,0,0:0:0:0:
64,192,87277,1,0,0:0:0:0:
320,192,87277,1,0,0:0:0:0:
192,192,87366,1,0,0:0:0:0:
64,192,87455,1,0,0:0:0:0:
192,192,87562,1,0,0:0:0:0:
448,192,87562,1,0,0:0:0:0:
320,192,87652,1,0,0:0:0:0:
192,192,87741,1,0,0:0:0:0:
320,192,87848,1,0,0:0:0:0:
448,192,87848,1,0,0:0:0:0:
64,192,87937,1,0,0:0:0:0:
320,192,87991,1,0,0:0:0:0:
192,192,88027,1,0,0:0:0:0:
64,192,88134,1,0,0:0:0:0:
448,192,88134,1,0,0:0:0:0:
192,192,88223,1,0,0:0:0:0:
320,192,88277,1,0,0:0:0:0:
448,192,88312,1,0,0:0:0:0:
64,192,88419,1,0,0:0:0:0:
192,192,88419,1,0,0:0:0:0:
320,192,88491,1,0,0:0:0:0:
192,192,88705,1,0,0:0:0:0:
448,192,88705,1,0,0:0:0:0:
64,192,88991,1,0,0:0:0:0:
320,192,88991,1,0,0:0:0:0:
448,192,89062,1,0,0:0:0:0:
64,192,89277,1,0,0:0:0:0:
192,192,89277,1,0,0:0:0:0:
192,192,89562,1,0,0:0:0:0:
320,192,89562,1,0,0:0:0:0:
64,192,89634,1,0,0:0:0:0:
448,192,89705,1,0,0:0:0:0:
192,192,89777,1,0,0:0:0:0:
64,192,89848,1,0,0:0:0:0:
320,192,89848,1,0,0:0:0:0:
64,192,90134,1,0,0:0:0:0:
448,192,90134,1,0,0:0:0:0:
320,192,90205,1,0,0:0:0:0:
192,192,90419,1,0,0:0:0:0:
448,192,90419,1,0,0:0:0:0:
64,192,90705,1,0,0:0:0:0:
192,192,90705,1,0,0:0:0:0:
448,192,90777,1,0,0:0:0:0:
320,192,90848,1,0,0:0:0:0:
192,192,90919,1,0,0:0:0:0:
64,192,90991,1,0,0:0:0:0:
320,192,90991,1,0,0:0:0:0:
448,192,91062,1,0,0:0:0:0:
192,192,91134,1,0,0:0:0:0:
320,192,91134,1,0,0:0:0:0:
448,192,91277,1,0,0:0:0:0:
192,192,91562,1,0,0:0:0:0:
448,192,91562,1,0,0:0:0:0:
192,192,91848,1,0,0:0:0:0:
320,192,91848,1,0,0:0:0:0:
64,192,91919,1,0,0:0:0:0:
320,192,91991,1,0,0:0:0:0:
192,192,92062,1,0,0:0:0:0:
64,192,92134,1,0,0:0:0:0:
448,192,92134,1,0,0:0:0:0:
320,192,92205,1,0,0:0:0:0:
192,192,92277,1,0,0:0:0:0:
448,192,92277,1,0,0:0:0:0:
64,192,92419,1,0,0:0:0:0:
64,192,92705,1,0,0:0:0:0:
320,192,92705,1,0,0:0:0:0:
320,192,92991,1,0,0:0:0:0:
448,192,92991,1,0,0:0:0:0:
192,192,93080,1,0,0:0:0:0:
320,192,93169,1,0,0:0:0:0:
64,192,93277,1,0,0:0:0:0:
192,192,93277,1,0,0:0:0:0:
64,192,93562,1,0,0:0:0:0:
448,192,93562,1,0,0:0:0:0:
192,192,93705,1,0,0:0:0:0:
64,192,93848,1,0,0:0:0:0:
320,192,93848,1,0,0:0:0:0:
448,192,93937,1,0,0:0:0:0:
64,192,93991,1,0,0:0:0:0:
192,192,94134,1,0,0:0:0:0:
320,192,94134,1,0,0:0:0:0:
448,192,94277,1,0,0:0:0:0:
320,192,94348,1,0,0:0:0:0:
64,192,94419,1,0,0:0:0:0:
192,192,94419,1,0,0:0:0:0:
320,192,94491,1,0,0:0:0:0:
192,192,94562,1,0,0:0:0:0:
448,192,94562,1,0,0:0:0:0:
64,192,94634,1,0,0:0:0:0:
320,192,94705,1,0,0:0:0:0:
448,192,94705,1,0,0:0:0:0:
64,192,94777,1,0,0:0:0:0:
192,192,94848,1,0,0:0:0:0:
320,192,94848,1,0,0:0:0:0:
448,192,94919,1,0,0:0:0:0:
64,192,94991,1,0,0:0:0:0:
192,192,94991,1,0,0:0:0:0:
320,192,95062,1,0,0:0:0:0:
64,192,95134,1,0,0:0:0:0:
448,192,95134,1,0,0:0:0:0:
192,192,95205,1,0,0:0:0:0:
64,192,95277,1,0,0:0:0:0:
320,192,95277,1,0,0:0:0:0:
448,192,95277,1,0,0:0:0:0:
192,192,95348,1,0,0:0:0:0:
64,192,95419,1,0,0:0:0:0:
320,192,95419,1,0,0:0:0:0:
448,192,95491,1,0,0:0:0:0:
192,192,95562,1,0,0:0:0:0:
320,192,95562,1,0,0:0:0:0:
64,192,95705,1,0,0:0:0:0:
192,192,95848,1,0,0:0:0:0:
64,192,95991,1,0,0:0:0:0:
320,192,95991,1,0,0:0:0:0:
192,192,96134,1,0,0:0:0:0:
448,192,96134,1,0,0:0:0:0:
320,192,96277,1,0,0:0:0:0:
448,192,96277,1,0,0:0:0:0:
64,192,96419,1,0,0:0:0:0:
320,192,96419,1,0,0:0:0:0:
192,192,96509,1,0,0:0:0:0:
448,192,96562,1,0,0:0:0:0:
64,192,96598,1,0,0:0:0:0:
320,192,96705,1,0,0:0:0:0:
448,192,96705,1,0,0:0:0:0:
192,192,96794,1,0,0:0:0:0:
320,192,96848,1,0,0:0:0:0:
64,192,96884,1,0,0:0:0:0:
192,192,96991,1,0,0:0:0:0:
448,192,96991,1,0,0:0:0:0:
320,192,97080,1,0,0:0:0:0:
64,192,97134,1,0,0:0:0:0:
192,192,97169,1,0,0:0:0:0:
64,192,97277,1,0,0:0:0:0:
448,192,97277,1,0,0:0:0:0:
192,192,97366,1,0,0:0:0:0:
448,192,97419,1,0,0:0:0:0:
320,192,97455,1,0,0:0:0:0:
64,192,97562,1,0,0:0:0:0:
192,192,97562,1,0,0:0:0:0:
320,192,97634,1,0,0:0:0:0:
448,192,97634,1,0,0:0:0:0:
64,192,97705,1,0,0:0:0:0:
192,192,97848,1,0,0:0:0:0:
320,192,97848,1,0,0:0:0:0:
64,192,97991,1,0,0:0:0:0:
192,192,98134,1,0,0:0:0:0:
448,192,98134,1,0,0:0:0:0:
64,192,98205,1,0,0:0:0:0:
320,192,98205,1,0,0:0:0:0:
448,192,98277,1,0,0:0:0:0:
64,192,98419,1,0,0:0:0:0:
192,192,98419,1,0,0:0:0:0:
320,192,98562,1,0,0:0:0:0:
64,192,98705,1,0,0:0:0:0:
448,192,98705,1,0,0:0:0:0:
192,192,98777,1,0,0:0:0:0:
320,192,98777,1,0,0:0:0:0:
448,192,98848,1,0,0:0:0:0:
64,192,98991,1,0,0:0:0:0:
320,192,98991,1,0,0:0:0:0:
192,192,99134,1,0,0:0:0:0:
64,192,99277,1,0,0:0:0:0:
320,192,99277,1,0,0:0:0:0:
192,192,99348,1,0,0:0:0:0:
448,192,99348,1,0,0:0:0:0:
320,192,99419,1,0,0:0:0:0:
64,192,99562,1,0,0:0:0:0:
448,192,99562,1,0,0:0:0:0:
192,192,99705,1,0,0:0:0:0:
320,192,99848,1,0,0:0:0:0:
448,192,99848,1,0,0:0:0:0:
64,192,99919,1,0,0:0:0:0:
192,192,99991,1,0,0:0:0:0:
448,192,99991,1,0,0:0:0:0:
320,192,100062,1,0,0:0:0:0:
64,192,100134,1,0,0:0:0:0:
448,192,100134,1,0,0:0:0:0:
320,192,100277,1,0,0:0:0:0:
64,192,100419,1,0,0:0:0:0:
448,192,100419,1,0,0:0:0:0:
192,192,100562,1,0,0:0:0:0:
320,192,100562,1,0,0:0:0:0:
192,192,100705,1,0,0:0:0:0:
448,192,100705,1,0,0:0:0:0:
320,192,100848,1,0,0:0:0:0:
448,192,100848,1,0,0:0:0:0:
192,192,100991,1,0,0:0:0:0:
320,192,100991,1,0,0:0:0:0:
64,192,101062,1,0,0:0:0:0:
192,192,101134,1,0,0:0:0:0:
448,192,101134,1,0,0:0:0:0:
320,192,101205,1,0,0:0:0:0:
64,192,101277,1,0,0:0:0:0:
448,192,101277,1,0,0:0:0:0:
192,192,101348,1,0,0:0:0:0:
64,192,101419,1,0,0:0:0:0:
320,192,101419,1,0,0:0:0:0:
448,192,101491,1,0,0:0:0:0:
192,192,101562,1,0,0:0:0:0:
320,192,101562,1,0,0:0:0:0:
64,192,101634,1,0,0:0:0:0:
192,192,101705,1,0,0:0:0:0:
448,192,101705,1,0,0:0:0:0:
320,192,101777,1,0,0:0:0:0:
64,192,101848,1,0,0:0:0:0:
448,192,101848,1,0,0:0:0:0:
320,192,101919,1,0,0:0:0:0:
192,192,101991,1,0,0:0:0:0:
448,192,101991,1,0,0:0:0:0:
64,192,102062,1,0,0:0:0:0:
192,192,102134,1,0,0:0:0:0:
320,192,102134,1,0,0:0:0:0:
448,192,102134,1,0,0:0:0:0:
448,192,102205,1,0,0:0:0:0:
64,192,102277,1,0,0:0:0:0:
192,192,102419,1,0,0:0:0:0:
320,192,102419,1,0,0:0:0:0:
192,192,102491,1,0,0:0:0:0:
64,192,102562,1,0,0:0:0:0:
192,192,102705,1,0,0:0:0:0:
320,192,102705,1,0,0:0:0:0:
448,192,102705,1,0,0:0:0:0:
448,192,102777,1,0,0:0:0:0:
64,192,102848,1,0,0:0:0:0:
320,192,102991,1,0,0:0:0:0:
448,192,102991,1,0,0:0:0:0:
320,192,103062,1,0,0:0:0:0:
64,192,103134,1,0,0:0:0:0:
64,192,103277,1,0,0:0:0:0:
192,192,103277,1,0,0:0:0:0:
448,192,103277,1,0,0:0:0:0:
320,192,103348,1,0,0:0:0:0:
448,192,103419,1,0,0:0:0:0:
64,192,103491,1,0,0:0:0:0:
192,192,103491,1,0,0:0:0:0:
64,192,103562,1,0,0:0:0:0:
320,192,103562,1,0,0:0:0:0:
448,192,103562,1,0,0:0:0:0:
192,192,103634,1,0,0:0:0:0:
320,192,103705,1,0,0:0:0:0:
192,192,103777,1,0,0:0:0:0:
448,192,103777,1,0,0:0:0:0:
64,192,103848,1,0,0:0:0:0:
448,192,103848,1,0,0:0:0:0:
320,192,103919,1,0,0:0:0:0:
64,192,103991,1,0,0:0:0:0:
192,192,103991,1,0,0:0:0:0:
448,192,104062,1,0,0:0:0:0:
192,192,104134,1,0,0:0:0:0:
320,192,104134,1,0,0:0:0:0:
64,192,104205,1,0,0:0:0:0:
192,192,104277,1,0,0:0:0:0:
448,192,104277,1,0,0:0:0:0:
64,192,104419,1,0,0:0:0:0:
320,192,104419,1,0,0:0:0:0:
448,192,104419,1,0,0:0:0:0:
192,192,104562,1,0,0:0:0:0:
448,192,104652,1,0,0:0:0:0:
192,192,104741,1,0,0:0:0:0:
320,192,104741,1,0,0:0:0:0:
64,192,104848,1,0,0:0:0:0:
320,192,104937,1,0,0:0:0:0:
192,192,105027,1,0,0:0:0:0:
448,192,105027,1,0,0:0:0:0:
64,192,105134,1,0,0:0:0:0:
448,192,105223,1,0,0:0:0:0:
192,192,105312,1,0,0:0:0:0:
320,192,105312,1,0,0:0:0:0:
64,192,105419,1,0,0:0:0:0:
192,192,105509,1,0,0:0:0:0:
320,192,105598,1,0,0:0:0:0:
448,192,105598,1,0,0:0:0:0:
192,192,105705,1,0,0:0:0:0:
448,192,105794,1,0,0:0:0:0:
192,192,105884,1,0,0:0:0:0:
320,192,105884,1,0,0:0:0:0:
64,192,105991,1,0,0:0:0:0:
320,192,106080,1,0,0:0:0:0:
192,192,106169,1,0,0:0:0:0:
448,192,106169,1,0,0:0:0:0:
64,192,106277,1,0,0:0:0:0:
448,192,106366,1,0,0:0:0:0:
192,192,106455,1,0,0:0:0:0:
320,192,106455,1,0,0:0:0:0:
64,192,106562,1,0,0:0:0:0:
192,192,106652,1,0,0:0:0:0:
320,192,106741,1,0,0:0:0:0:
448,192,106741,1,0,0:0:0:0:
192,192,106848,1,0,0:0:0:0:
320,192,106937,1,0,0:0:0:0:
192,192,107027,1,0,0:0:0:0:
448,192,107027,1,0,0:0:0:0:
64,192,107134,1,0,0:0:0:0:
320,192,107312,1,0,0:0:0:0:
448,192,107312,1,0,0:0:0:0:
192,192,107419,1,0,0:0:0:0:
64,192,107509,1,0,0:0:0:0:
192,192,107598,1,0,0:0:0:0:
320,192,107598,1,0,0:0:0:0:
448,192,107705,1,0,0:0:0:0:
320,192,107794,1,0,0:0:0:0:
64,192,107884,1,0,0:0:0:0:
192,192,107973,1,0,0:0:0:0:
320,192,108062,1,0,0:0:0:0:
192,192,108169,1,0,0:0:0:0:
320,192,108259,1,0,0:0:0:0:
448,192,108348,1,0,0:0:0:0:
64,192,108455,1,0,0:0:0:0:
192,192,108455,1,0,0:0:0:0:
448,192,108455,1,0,0:0:0:0:
320,192,108544,1,0,0:0:0:0:
192,192,108634,1,0,0:0:0:0:
64,192,108741,1,0,0:0:0:0:
320,192,108741,1,0,0:0:0:0:
448,192,108741,1,0,0:0:0:0:
192,192,108830,1,0,0:0:0:0:
64,192,108919,1,0,0:0:0:0:
64,192,109027,1,0,0:0:0:0:
448,192,109027,1,0,0:0:0:0:
320,0,109027,128,0,109169:1:0:0:0:
192,0,109223,128,0,109277:1:0:0:0:
448,0,109312,128,0,109366:1:0:0:0:
320,0,109419,128,0,109455:1:0:0:0:
64,0,109509,128,0,109562:1:0:0:0:
320,0,109598,128,0,109652:1:0:0:0:
192,0,109705,128,0,109741:1:0:0:0:
64,0,109794,128,0,109848:1:0:0:0:
448,0,109884,128,0,109937:1:0:0:0:
320,192,109991,1,0,0:0:0:0:
448,192,109991,1,0,0:0:0:0:
192,0,109991,128,0,110027:1:0:0:0:
64,0,110080,128,0,110134:1:0:0:0:
192,0,110169,128,0,110223:1:0:0:0:
64,192,110277,1,0,0:0:0:0:
448,192,110277,1,0,0:0:0:0:
320,0,110277,128,0,110312:1:0:0:0:
192,0,110366,128,0,110419:1:0:0:0:
448,0,110455,128,0,110509:1:0:0:0:
320,0,110562,128,0,110598:1:0:0:0:
64,0,110652,128,0,110705:1:0:0:0:
320,0,110741,128,0,110794:1:0:0:0:
192,0,110848,128,0,110884:1:0:0:0:
64,0,110937,128,0,110991:1:0:0:0:
448,0,111027,128,0,111080:1:0:0:0:
64,192,111134,1,0,0:0:0:0:
320,192,111134,1,0,0:0:0:0:
192,0,111134,128,0,111169:1:0:0:0:
448,0,111223,128,0,111277:1:0:0:0:
192,0,111312,128,0,111366:1:0:0:0:
64,192,111419,1,0,0:0:0:0:
448,192,111419,1,0,0:0:0:0:
320,0,111419,128,0,111455:1:0:0:0:
192,0,111509,128,0,111562:1:0:0:0:
320,0,111598,128,0,111652:1:0:0:0:
448,192,111705,1,0,0:0:0:0:
192,0,111705,128,0,111741:1:0:0:0:
64,0,111794,128,0,111848:1:0:0:0:
320,0,111884,128,0,111937:1:0:0:0:
64,192,111991,1,0,0:0:0:0:
448,192,111991,1,0,0:0:0:0:
192,0,111991,128,0,112027:1:0:0:0:
320,0,112080,128,0,112134:1:0:0:0:
64,0,112169,128,0,112223:1:0:0:0:
320,192,112277,1,0,0:0:0:0:
192,0,112277,128,0,112312:1:0:0:0:
448,0,112366,128,0,112419:1:0:0:0:
64,0,112455,128,0,112509:1:0:0:0:
320,192,112562,1,0,0:0:0:0:
448,192,112562,1,0,0:0:0:0:
192,0,112562,128,0,112598:1:0:0:0:
64,0,112652,128,0,112705:1:0:0:0:
320,0,112741,128,0,112794:1:0:0:0:
448,192,112848,1,0,0:0:0:0:
192,0,112848,128,0,112884:1:0:0:0:
320,0,112937,128,0,112991:1:0:0:0:
448,0,113027,128,0,113080:1:0:0:0:
64,192,113134,1,0,0:0:0:0:
192,192,113134,1,0,0:0:0:0:
448,0,113134,128,0,113169:1:0:0:0:
192,192,113223,1,0,0:0:0:0:
320,0,113223,128,0,113277:1:0:0:0:
64,192,113312,1,0,0:0:0:0:
448,0,113312,128,0,113366:1:0:0:0:
192,192,113419,1,0,0:0:0:0:
64,0,113419,128,0,113455:1:0:0:0:
320,192,113509,1,0,0:0:0:0:
192,0,113509,128,0,113562:1:0:0:0:
448,192,113598,1,0,0:0:0:0:
320,0,113598,128,0,113652:1:0:0:0:
64,192,113705,1,0,0:0:0:0:
192,192,113705,1,0,0:0:0:0:
448,0,113705,128,0,114134:1:0:0:0:
320,192,113794,1,0,0:0:0:0:
64,192,113884,1,0,0:0:0:0:
192,192,113991,1,0,0:0:0:0:
320,192,113991,1,0,0:0:0:0:
64,192,114080,1,0,0:0:0:0:
320,192,114169,1,0,0:0:0:0:
448,192,114169,1,0,0:0:0:0:
64,192,114277,1,0,0:0:0:0:
192,192,114277,1,0,0:0:0:0:
320,192,114366,1,0,0:0:0:0:
192,192,114455,1,0,0:0:0:0:
448,192,114455,1,0,0:0:0:0:
64,192,114562,1,0,0:0:0:0:
320,192,114562,1,0,0:0:0:0:
192,192,114741,1,0,0:0:0:0:
64,192,114848,1,0,0:0:0:0:
448,192,114848,1,0,0:0:0:0:
64,192,115027,1,0,0:0:0:0:
192,192,115134,1,0,0:0:0:0:
320,192,115134,1,0,0:0:0:0:
192,192,115312,1,0,0:0:0:0:
320,192,115419,1,0,0:0:0:0:
448,192,115419,1,0,0:0:0:0:
448,192,115598,1,0,0:0:0:0:
192,192,115705,1,0,0:0:0:0:
320,192,115705,1,0,0:0:0:0:
192,192,115884,1,0,0:0:0:0:
64,192,115991,1,0,0:0:0:0:
320,192,115991,1,0,0:0:0:0:
448,192,116080,1,0,0:0:0:0:
320,192,116169,1,0,0:0:0:0:
64,192,116277,1,0,0:0:0:0:
192,192,116277,1,0,0:0:0:0:
448,192,116366,1,0,0:0:0:0:
192,192,116455,1,0,0:0:0:0:
320,192,116455,1,0,0:0:0:0:
64,192,116562,1,0,0:0:0:0:
448,192,116562,1,0,0:0:0:0:
192,192,116652,1,0,0:0:0:0:
64,192,116741,1,0,0:0:0:0:
320,192,116741,1,0,0:0:0:0:
192,192,116848,1,0,0:0:0:0:
448,192,116848,1,0,0:0:0:0:
448,192,117027,1,0,0:0:0:0:
64,192,117134,1,0,0:0:0:0:
320,192,117134,1,0,0:0:0:0:
192,192,117223,1,0,0:0:0:0:
64,192,117312,1,0,0:0:0:0:
320,192,117312,1,0,0:0:0:0:
192,192,117419,1,0,0:0:0:0:
448,192,117419,1,0,0:0:0:0:
320,192,117509,1,0,0:0:0:0:
64,192,117598,1,0,0:0:0:0:
192,192,117598,1,0,0:0:0:0:
320,192,117705,1,0,0:0:0:0:
448,192,117705,1,0,0:0:0:0:
64,192,117794,1,0,0:0:0:0:
192,192,117794,1,0,0:0:0:0:
320,192,117884,1,0,0:0:0:0:
448,192,117884,1,0,0:0:0:0:
64,192,117991,1,0,0:0:0:0:
192,192,117991,1,0,0:0:0:0:
320,192,118080,1,0,0:0:0:0:
448,192,118080,1,0,0:0:0:0:
64,192,118169,1,0,0:0:0:0:
192,192,118169,1,0,0:0:0:0:
64,192,118277,1,0,0:0:0:0:
320,192,118277,1,0,0:0:0:0:
448,192,118277,1,0,0:0:0:0:
192,192,118366,1,0,0:0:0:0:
64,192,118455,1,0,0:0:0:0:
320,192,118455,1,0,0:0:0:0:
64,192,118562,1,0,0:0:0:0:
192,192,118562,1,0,0:0:0:0:
448,192,118562,1,0,0:0:0:0:
320,192,118652,1,0,0:0:0:0:
192,192,118741,1,0,0:0:0:0:
448,192,118741,1,0,0:0:0:0:
64,192,118848,1,0,0:0:0:0:
192,192,118848,1,0,0:0:0:0:
320,192,118848,1,0,0:0:0:0:
448,192,118937,1,0,0:0:0:0:
64,192,119027,1,0,0:0:0:0:
192,192,119027,1,0,0:0:0:0:
64,192,119134,1,0,0:0:0:0:
320,192,119134,1,0,0:0:0:0:
448,192,119134,1,0,0:0:0:0:
192,192,119223,1,0,0:0:0:0:
320,192,119312,1,0,0:0:0:0:
448,192,119312,1,0,0:0:0:0:
192,192,119419,1,0,0:0:0:0:
320,192,119419,1,0,0:0:0:0:
448,192,119419,1,0,0:0:0:0:
64,192,119509,1,0,0:0:0:0:
192,192,119598,1,0,0:0:0:0:
320,192,119598,1,0,0:0:0:0:
64,192,119705,1,0,0:0:0:0:
320,192,119705,1,0,0:0:0:0:
448,192,119705,1,0,0:0:0:0:
448,192,119884,1,0,0:0:0:0:
64,192,119991,1,0,0:0:0:0:
192,192,119991,1,0,0:0:0:0:
320,192,119991,1,0,0:0:0:0:
448,192,120080,1,0,0:0:0:0:
192,192,120169,1,0,0:0:0:0:
320,192,120169,1,0,0:0:0:0:
64,192,120277,1,0,0:0:0:0:
192,192,120277,1,0,0:0:0:0:
448,192,120277,1,0,0:0:0:0:
64,192,120455,1,0,0:0:0:0:
192,192,120562,1,0,0:0:0:0:
320,192,120562,1,0,0:0:0:0:
64,192,120652,1,0,0:0:0:0:
192,192,120652,1,0,0:0:0:0:
192,192,120741,1,0,0:0:0:0:
320,192,120741,1,0,0:0:0:0:
320,192,120848,1,0,0:0:0:0:
448,192,120848,1,0,0:0:0:0:
192,192,120937,1,0,0:0:0:0:
64,192,121027,1,0,0:0:0:0:
64,192,121134,1,0,0:0:0:0:
320,192,121134,1,0,0:0:0:0:
192,192,121223,1,0,0:0:0:0:
320,192,121223,1,0,0:0:0:0:
192,192,121312,1,0,0:0:0:0:
448,192,121312,1,0,0:0:0:0:
320,192,121419,1,0,0:0:0:0:
448,192,121419,1,0,0:0:0:0:
192,192,121509,1,0,0:0:0:0:
64,192,121598,1,0,0:0:0:0:
64,192,121705,1,0,0:0:0:0:
192,192,121705,1,0,0:0:0:0:
320,192,121794,1,0,0:0:0:0:
192,192,121884,1,0,0:0:0:0:
448,192,121884,1,0,0:0:0:0:
64,192,121991,1,0,0:0:0:0:
320,192,121991,1,0,0:0:0:0:
192,192,122080,1,0,0:0:0:0:
320,192,122169,1,0,0:0:0:0:
448,192,122169,1,0,0:0:0:0:
64,192,122277,1,0,0:0:0:0:
192,192,122277,1,0,0:0:0:0:
64,192,122366,1,0,0:0:0:0:
320,192,122366,1,0,0:0:0:0:
192,192,122455,1,0,0:0:0:0:
448,192,122455,1,0,0:0:0:0:
320,192,122562,1,0,0:0:0:0:
448,192,122562,1,0,0:0:0:0:
64,192,122652,1,0,0:0:0:0:
192,192,122652,1,0,0:0:0:0:
192,192,122741,1,0,0:0:0:0:
320,192,122741,1,0,0:0:0:0:
64,192,122848,1,0,0:0:0:0:
320,192,122848,1,0,0:0:0:0:
448,192,122848,1,0,0:0:0:0:
64,192,122937,1,0,0:0:0:0:
320,192,122937,1,0,0:0:0:0:
448,192,122937,1,0,0:0:0:0:
64,192,123027,1,0,0:0:0:0:
320,192,123027,1,0,0:0:0:0:
448,192,123027,1,0,0:0:0:0:
64,192,123134,1,0,0:0:0:0:
320,192,123134,1,0,0:0:0:0:
448,192,123134,1,0,0:0:0:0:
64,192,123223,1,0,0:0:0:0:
320,192,123223,1,0,0:0:0:0:
448,192,123223,1,0,0:0:0:0:
64,192,123312,1,0,0:0:0:0:
320,192,123312,1,0,0:0:0:0:
448,192,123312,1,0,0:0:0:0:
64,192,123419,1,0,0:0:0:0:
320,192,123419,1,0,0:0:0:0:
448,192,123419,1,0,0:0:0:0:
64,192,123705,1,0,0:0:0:0:
448,192,123705,1,0,0:0:0:0:
192,0,123705,128,0,126205:1:0:0:0:
320,0,123705,128,0,126205:1:0:0:0:
