osu file format v13

[General]
AudioFilename: Ascension to Heaven.mp3
AudioLeadIn: 2
PreviewTime: 240500
Countdown: 0
SampleSet: None
StackLeniency: 0.7
Mode: 3
LetterboxInBreaks: 0
SpecialStyle: 0
WidescreenStoryboard: 0

[Editor]
DistanceSpacing: 0.8
BeatDivisor: 4
GridSize: 8
TimelineZoom: 1

[Metadata]
Title:4K Challenge Pack
TitleUnicode:4K Challenge Pack
Artist:xeona
ArtistUnicode:xeona
Creator:Anoex
Version:Xi---Ascension to Heaven
Source:
Tags:
BeatmapID:470550
BeatmapSetID:198334

[Difficulty]
HPDrainRate:7
CircleSize:4
OverallDifficulty:7
ApproachRate:10
SliderMultiplier:1.4
SliderTickRate:1

[Events]
//Background and Video events
0,0,"Ascension to Heaven.jpg",0,0
//Break Periods
//Storyboard Layer 0 (Background)
//Storyboard Layer 1 (Fail)
//Storyboard Layer 2 (Pass)
//Storyboard Layer 3 (Foreground)
//Storyboard Sound Samples
//Background Colour Transformations
3,100,163,162,255

[TimingPoints]
1020,300,4,2,0,15,1,0

[HitObjects]
64,192,5820,5,0,0:0:0:0:
192,192,5838,1,0,0:0:0:0:
320,192,5857,1,0,0:0:0:0:
64,192,8220,1,0,0:0:0:0:
192,192,8238,1,0,0:0:0:0:
320,192,8257,1,0,0:0:0:0:
192,192,9420,1,0,0:0:0:0:
320,192,9438,1,0,0:0:0:0:
448,192,9457,1,0,0:0:0:0:
64,192,10620,1,0,0:0:0:0:
192,192,10638,1,0,0:0:0:0:
320,192,10657,1,0,0:0:0:0:
64,192,13020,1,0,0:0:0:0:
192,192,13038,1,0,0:0:0:0:
320,192,13057,1,0,0:0:0:0:
192,192,14220,1,0,0:0:0:0:
320,192,14238,1,0,0:0:0:0:
448,192,14257,1,0,0:0:0:0:
64,192,15420,1,0,0:0:0:0:
192,192,15438,1,0,0:0:0:0:
320,192,15457,1,0,0:0:0:0:
64,192,17820,1,0,0:0:0:0:
192,192,17838,1,0,0:0:0:0:
320,192,17857,1,0,0:0:0:0:
192,192,19020,1,0,0:0:0:0:
320,192,19038,1,0,0:0:0:0:
448,192,19057,1,0,0:0:0:0:
64,192,20220,1,0,0:0:0:0:
192,192,20238,1,0,0:0:0:0:
320,192,20257,1,0,0:0:0:0:
64,192,22620,1,0,0:0:0:0:
192,192,22638,1,0,0:0:0:0:
448,192,22657,1,0,0:0:0:0:
64,192,23820,1,0,0:0:0:0:
320,192,23838,1,0,0:0:0:0:
448,192,23857,1,0,0:0:0:0:
448,192,24270,1,0,0:0:0:0:
192,192,24420,1,0,0:0:0:0:
320,192,24420,1,0,0:0:0:0:
64,192,24495,1,0,0:0:0:0:
448,192,24570,1,0,0:0:0:0:
320,192,24645,1,0,0:0:0:0:
192,192,24720,1,0,0:0:0:0:
64,192,24795,1,0,0:0:0:0:
320,192,24870,1,0,0:0:0:0:
192,192,24945,1,0,0:0:0:0:
64,192,25020,1,0,0:0:0:0:
448,192,25020,1,0,0:0:0:0:
320,192,25170,1,0,0:0:0:0:
320,192,25245,1,0,0:0:0:0:
64,192,25320,1,0,0:0:0:0:
448,192,25320,1,0,0:0:0:0:
64,192,25470,1,0,0:0:0:0:
192,192,25545,1,0,0:0:0:0:
320,192,25620,1,0,0:0:0:0:
192,192,25695,1,0,0:0:0:0:
320,192,25770,1,0,0:0:0:0:
64,192,25845,1,0,0:0:0:0:
448,192,25845,1,0,0:0:0:0:
64,192,25920,1,0,0:0:0:0:
448,192,25920,1,0,0:0:0:0:
192,192,26070,1,0,0:0:0:0:
320,192,26070,1,0,0:0:0:0:
64,192,26220,1,0,0:0:0:0:
448,192,26220,1,0,0:0:0:0:
64,192,26370,1,0,0:0:0:0:
448,192,26370,1,0,0:0:0:0:
192,192,26520,1,0,0:0:0:0:
64,192,26595,1,0,0:0:0:0:
448,192,26595,1,0,0:0:0:0:
192,192,26745,1,0,0:0:0:0:
320,192,26820,1,0,0:0:0:0:
192,192,26895,1,0,0:0:0:0:
320,192,27045,1,0,0:0:0:0:
64,192,27120,1,0,0:0:0:0:
448,192,27120,1,0,0:0:0:0:
192,192,27195,1,0,0:0:0:0:
320,192,27270,1,0,0:0:0:0:
64,192,27420,1,0,0:0:0:0:
448,192,27420,1,0,0:0:0:0:
320,192,27570,1,0,0:0:0:0:
320,192,27645,1,0,0:0:0:0:
64,192,27720,1,0,0:0:0:0:
448,192,27720,1,0,0:0:0:0:
64,192,27870,1,0,0:0:0:0:
320,192,27870,1,0,0:0:0:0:
192,192,27945,1,0,0:0:0:0:
448,192,27945,1,0,0:0:0:0:
320,192,28095,1,0,0:0:0:0:
64,192,28170,1,0,0:0:0:0:
448,192,28170,1,0,0:0:0:0:
192,192,28320,1,0,0:0:0:0:
320,192,28320,1,0,0:0:0:0:
192,192,28470,1,0,0:0:0:0:
64,192,28620,1,0,0:0:0:0:
448,192,28620,1,0,0:0:0:0:
64,192,28770,1,0,0:0:0:0:
448,192,28770,1,0,0:0:0:0:
192,192,28920,1,0,0:0:0:0:
320,192,28995,1,0,0:0:0:0:
448,192,28995,1,0,0:0:0:0:
192,192,29070,1,0,0:0:0:0:
64,192,29107,1,0,0:0:0:0:
192,192,29145,1,0,0:0:0:0:
448,192,29145,1,0,0:0:0:0:
320,192,29182,1,0,0:0:0:0:
64,192,29220,1,0,0:0:0:0:
192,192,29220,1,0,0:0:0:0:
320,192,29295,1,0,0:0:0:0:
192,192,29370,1,0,0:0:0:0:
448,192,29370,1,0,0:0:0:0:
64,192,29445,1,0,0:0:0:0:
320,192,29520,1,0,0:0:0:0:
448,192,29520,1,0,0:0:0:0:
192,192,29595,1,0,0:0:0:0:
64,192,29670,1,0,0:0:0:0:
448,192,29670,1,0,0:0:0:0:
320,192,29745,1,0,0:0:0:0:
64,192,29820,1,0,0:0:0:0:
192,192,29820,1,0,0:0:0:0:
448,192,29820,1,0,0:0:0:0:
320,192,29970,1,0,0:0:0:0:
320,192,30045,1,0,0:0:0:0:
64,192,30120,1,0,0:0:0:0:
448,192,30120,1,0,0:0:0:0:
192,192,30270,1,0,0:0:0:0:
320,192,30345,1,0,0:0:0:0:
192,192,30420,1,0,0:0:0:0:
320,192,30495,1,0,0:0:0:0:
192,192,30570,1,0,0:0:0:0:
64,192,30645,1,0,0:0:0:0:
448,192,30645,1,0,0:0:0:0:
64,192,30720,1,0,0:0:0:0:
448,192,30720,1,0,0:0:0:0:
320,192,30870,1,0,0:0:0:0:
64,192,31020,1,0,0:0:0:0:
192,192,31020,1,0,0:0:0:0:
448,192,31020,1,0,0:0:0:0:
64,192,31170,1,0,0:0:0:0:
448,192,31170,1,0,0:0:0:0:
320,192,31320,1,0,0:0:0:0:
64,192,31395,1,0,0:0:0:0:
448,192,31395,1,0,0:0:0:0:
192,192,31545,1,0,0:0:0:0:
192,192,31695,1,0,0:0:0:0:
64,192,31845,1,0,0:0:0:0:
448,192,31845,1,0,0:0:0:0:
320,192,31920,1,0,0:0:0:0:
192,192,31995,1,0,0:0:0:0:
64,192,32070,1,0,0:0:0:0:
192,192,32107,1,0,0:0:0:0:
320,192,32145,1,0,0:0:0:0:
448,192,32182,1,0,0:0:0:0:
192,192,32220,1,0,0:0:0:0:
320,192,32220,1,0,0:0:0:0:
320,192,32370,1,0,0:0:0:0:
320,192,32445,1,0,0:0:0:0:
64,192,32520,1,0,0:0:0:0:
448,192,32520,1,0,0:0:0:0:
192,192,32670,1,0,0:0:0:0:
320,192,32745,1,0,0:0:0:0:
64,192,32970,1,0,0:0:0:0:
320,192,32970,1,0,0:0:0:0:
192,192,33120,1,0,0:0:0:0:
448,192,33120,1,0,0:0:0:0:
320,192,33195,1,0,0:0:0:0:
64,192,33270,1,0,0:0:0:0:
448,192,33270,1,0,0:0:0:0:
192,192,33345,1,0,0:0:0:0:
64,192,33420,1,0,0:0:0:0:
320,192,33420,1,0,0:0:0:0:
448,192,33420,1,0,0:0:0:0:
192,192,33495,1,0,0:0:0:0:
320,192,33532,1,0,0:0:0:0:
448,192,33570,1,0,0:0:0:0:
320,192,33607,1,0,0:0:0:0:
192,192,33645,1,0,0:0:0:0:
64,192,33682,1,0,0:0:0:0:
192,192,33720,1,0,0:0:0:0:
448,192,33720,1,0,0:0:0:0:
320,192,33757,1,0,0:0:0:0:
64,192,33795,1,0,0:0:0:0:
448,192,33795,1,0,0:0:0:0:
192,192,33832,1,0,0:0:0:0:
64,192,33870,1,0,0:0:0:0:
320,192,33870,1,0,0:0:0:0:
448,192,33907,1,0,0:0:0:0:
192,192,33945,1,0,0:0:0:0:
320,192,33945,1,0,0:0:0:0:
64,192,33982,1,0,0:0:0:0:
320,192,34020,1,0,0:0:0:0:
448,192,34020,1,0,0:0:0:0:
64,192,34095,1,0,0:0:0:0:
192,192,34095,1,0,0:0:0:0:
320,192,34170,1,0,0:0:0:0:
192,192,34245,1,0,0:0:0:0:
64,192,34320,1,0,0:0:0:0:
448,192,34320,1,0,0:0:0:0:
192,192,34395,1,0,0:0:0:0:
320,192,34470,1,0,0:0:0:0:
192,192,34545,1,0,0:0:0:0:
64,192,34620,1,0,0:0:0:0:
320,192,34620,1,0,0:0:0:0:
448,192,34620,1,0,0:0:0:0:
192,192,34770,1,0,0:0:0:0:
320,192,34770,1,0,0:0:0:0:
320,192,34845,1,0,0:0:0:0:
64,192,34920,1,0,0:0:0:0:
448,192,34920,1,0,0:0:0:0:
64,192,35070,1,0,0:0:0:0:
320,192,35070,1,0,0:0:0:0:
192,192,35145,1,0,0:0:0:0:
320,192,35220,1,0,0:0:0:0:
448,192,35220,1,0,0:0:0:0:
192,192,35295,1,0,0:0:0:0:
64,192,35370,1,0,0:0:0:0:
448,192,35370,1,0,0:0:0:0:
320,192,35445,1,0,0:0:0:0:
192,192,35520,1,0,0:0:0:0:
320,192,35520,1,0,0:0:0:0:
64,192,35670,1,0,0:0:0:0:
448,192,35670,1,0,0:0:0:0:
192,192,35820,1,0,0:0:0:0:
448,192,35820,1,0,0:0:0:0:
64,192,35970,1,0,0:0:0:0:
320,192,35970,1,0,0:0:0:0:
192,192,36120,1,0,0:0:0:0:
320,192,36120,1,0,0:0:0:0:
192,192,36195,1,0,0:0:0:0:
448,192,36195,1,0,0:0:0:0:
64,192,36270,1,0,0:0:0:0:
320,192,36345,1,0,0:0:0:0:
448,192,36420,1,0,0:0:0:0:
64,192,36495,1,0,0:0:0:0:
192,192,36570,1,0,0:0:0:0:
320,192,36645,1,0,0:0:0:0:
64,192,36720,1,0,0:0:0:0:
448,192,36720,1,0,0:0:0:0:
192,192,36795,1,0,0:0:0:0:
64,192,36870,1,0,0:0:0:0:
320,192,36870,1,0,0:0:0:0:
192,192,37020,1,0,0:0:0:0:
448,192,37020,1,0,0:0:0:0:
64,192,37170,1,0,0:0:0:0:
320,192,37170,1,0,0:0:0:0:
320,192,37245,1,0,0:0:0:0:
64,192,37320,1,0,0:0:0:0:
448,192,37320,1,0,0:0:0:0:
192,192,37470,1,0,0:0:0:0:
448,192,37470,1,0,0:0:0:0:
320,192,37545,1,0,0:0:0:0:
64,192,37620,1,0,0:0:0:0:
192,192,37695,1,0,0:0:0:0:
64,192,37770,1,0,0:0:0:0:
448,192,37770,1,0,0:0:0:0:
64,192,37920,1,0,0:0:0:0:
192,192,37920,1,0,0:0:0:0:
448,192,37920,1,0,0:0:0:0:
192,192,38070,1,0,0:0:0:0:
320,192,38070,1,0,0:0:0:0:
64,192,38220,1,0,0:0:0:0:
320,192,38220,1,0,0:0:0:0:
448,192,38220,1,0,0:0:0:0:
192,192,38370,1,0,0:0:0:0:
448,192,38370,1,0,0:0:0:0:
64,192,38520,1,0,0:0:0:0:
320,192,38520,1,0,0:0:0:0:
64,192,38595,1,0,0:0:0:0:
192,192,38595,1,0,0:0:0:0:
320,192,38670,1,0,0:0:0:0:
448,192,38670,1,0,0:0:0:0:
64,192,38707,1,0,0:0:0:0:
192,192,38745,1,0,0:0:0:0:
320,192,38782,1,0,0:0:0:0:
64,192,38820,1,0,0:0:0:0:
448,192,38820,1,0,0:0:0:0:
192,192,38895,1,0,0:0:0:0:
320,192,38895,1,0,0:0:0:0:
64,192,38970,1,0,0:0:0:0:
448,192,38970,1,0,0:0:0:0:
192,192,39045,1,0,0:0:0:0:
64,192,39120,1,0,0:0:0:0:
320,192,39120,1,0,0:0:0:0:
448,192,39120,1,0,0:0:0:0:
192,192,39195,1,0,0:0:0:0:
64,192,39270,1,0,0:0:0:0:
448,192,39270,1,0,0:0:0:0:
320,192,39345,1,0,0:0:0:0:
64,192,39420,1,0,0:0:0:0:
192,192,39420,1,0,0:0:0:0:
448,192,39420,1,0,0:0:0:0:
192,192,39570,1,0,0:0:0:0:
320,192,39570,1,0,0:0:0:0:
320,192,39645,1,0,0:0:0:0:
64,192,39720,1,0,0:0:0:0:
448,192,39720,1,0,0:0:0:0:
320,192,39870,1,0,0:0:0:0:
448,192,39870,1,0,0:0:0:0:
192,192,39945,1,0,0:0:0:0:
64,192,40020,1,0,0:0:0:0:
448,192,40020,1,0,0:0:0:0:
320,192,40095,1,0,0:0:0:0:
64,192,40170,1,0,0:0:0:0:
192,192,40170,1,0,0:0:0:0:
64,192,40320,1,0,0:0:0:0:
448,192,40320,1,0,0:0:0:0:
192,192,40470,1,0,0:0:0:0:
320,192,40470,1,0,0:0:0:0:
64,192,40620,1,0,0:0:0:0:
320,192,40620,1,0,0:0:0:0:
448,192,40620,1,0,0:0:0:0:
64,192,40770,1,0,0:0:0:0:
192,192,40770,1,0,0:0:0:0:
192,192,40920,1,0,0:0:0:0:
320,192,40920,1,0,0:0:0:0:
192,192,40995,1,0,0:0:0:0:
448,192,40995,1,0,0:0:0:0:
320,192,41070,1,0,0:0:0:0:
64,192,41145,1,0,0:0:0:0:
192,192,41145,1,0,0:0:0:0:
448,192,41145,1,0,0:0:0:0:
320,192,41220,1,0,0:0:0:0:
64,192,41295,1,0,0:0:0:0:
192,192,41370,1,0,0:0:0:0:
320,192,41370,1,0,0:0:0:0:
448,192,41370,1,0,0:0:0:0:
64,192,41445,1,0,0:0:0:0:
320,192,41520,1,0,0:0:0:0:
448,192,41520,1,0,0:0:0:0:
64,192,41595,1,0,0:0:0:0:
192,192,41595,1,0,0:0:0:0:
448,192,41595,1,0,0:0:0:0:
320,192,41670,1,0,0:0:0:0:
192,192,41745,1,0,0:0:0:0:
64,192,41820,1,0,0:0:0:0:
320,192,41820,1,0,0:0:0:0:
448,192,41820,1,0,0:0:0:0:
192,192,41970,1,0,0:0:0:0:
320,192,41970,1,0,0:0:0:0:
192,192,42045,1,0,0:0:0:0:
64,192,42120,1,0,0:0:0:0:
448,192,42120,1,0,0:0:0:0:
64,192,42270,1,0,0:0:0:0:
320,192,42270,1,0,0:0:0:0:
192,192,42345,1,0,0:0:0:0:
448,192,42345,1,0,0:0:0:0:
64,192,42420,1,0,0:0:0:0:
192,192,42420,1,0,0:0:0:0:
320,192,42495,1,0,0:0:0:0:
64,192,42570,1,0,0:0:0:0:
192,192,42570,1,0,0:0:0:0:
448,192,42570,1,0,0:0:0:0:
320,192,42588,1,0,0:0:0:0:
448,192,42607,1,0,0:0:0:0:
64,192,42626,1,0,0:0:0:0:
192,192,42645,1,0,0:0:0:0:
320,192,42645,1,0,0:0:0:0:
448,192,42663,1,0,0:0:0:0:
64,192,42682,1,0,0:0:0:0:
192,192,42720,1,0,0:0:0:0:
320,192,42720,1,0,0:0:0:0:
64,192,42795,1,0,0:0:0:0:
448,192,42795,1,0,0:0:0:0:
192,192,42870,1,0,0:0:0:0:
320,192,42870,1,0,0:0:0:0:
448,192,42870,1,0,0:0:0:0:
64,192,42945,1,0,0:0:0:0:
320,192,42945,1,0,0:0:0:0:
192,192,43020,1,0,0:0:0:0:
448,192,43020,1,0,0:0:0:0:
320,192,43057,1,0,0:0:0:0:
448,192,43095,1,0,0:0:0:0:
64,192,43132,1,0,0:0:0:0:
192,192,43170,1,0,0:0:0:0:
320,192,43207,1,0,0:0:0:0:
448,192,43245,1,0,0:0:0:0:
320,192,43282,1,0,0:0:0:0:
192,192,43320,1,0,0:0:0:0:
64,192,43357,1,0,0:0:0:0:
448,192,43395,1,0,0:0:0:0:
192,192,43432,1,0,0:0:0:0:
64,192,43470,1,0,0:0:0:0:
320,192,43507,1,0,0:0:0:0:
192,192,43545,1,0,0:0:0:0:
448,192,43582,1,0,0:0:0:0:
320,192,43620,1,0,0:0:0:0:
64,192,43657,1,0,0:0:0:0:
448,192,43695,1,0,0:0:0:0:
192,192,43732,1,0,0:0:0:0:
320,192,43770,1,0,0:0:0:0:
64,192,43807,1,0,0:0:0:0:
192,192,43845,1,0,0:0:0:0:
320,192,43882,1,0,0:0:0:0:
64,192,43920,1,0,0:0:0:0:
192,192,43920,1,0,0:0:0:0:
448,192,43920,1,0,0:0:0:0:
64,192,44220,1,0,0:0:0:0:
320,192,44220,1,0,0:0:0:0:
448,192,44220,1,0,0:0:0:0:
192,192,44295,1,0,0:0:0:0:
448,192,44370,1,0,0:0:0:0:
192,192,44445,1,0,0:0:0:0:
320,192,44445,1,0,0:0:0:0:
64,192,44520,1,0,0:0:0:0:
448,192,44520,1,0,0:0:0:0:
192,192,44595,1,0,0:0:0:0:
320,192,44670,1,0,0:0:0:0:
448,192,44670,1,0,0:0:0:0:
64,192,44745,1,0,0:0:0:0:
192,192,44745,1,0,0:0:0:0:
448,192,44820,1,0,0:0:0:0:
192,192,44895,1,0,0:0:0:0:
64,192,44970,1,0,0:0:0:0:
320,192,44970,1,0,0:0:0:0:
448,192,45045,1,0,0:0:0:0:
192,192,45120,1,0,0:0:0:0:
320,192,45120,1,0,0:0:0:0:
64,192,45195,1,0,0:0:0:0:
192,192,45270,1,0,0:0:0:0:
448,192,45270,1,0,0:0:0:0:
320,192,45345,1,0,0:0:0:0:
64,192,45420,1,0,0:0:0:0:
448,192,45420,1,0,0:0:0:0:
320,192,45495,1,0,0:0:0:0:
64,192,45570,1,0,0:0:0:0:
192,192,45645,1,0,0:0:0:0:
448,192,45645,1,0,0:0:0:0:
64,192,45720,1,0,0:0:0:0:
320,192,45720,1,0,0:0:0:0:
192,192,45795,1,0,0:0:0:0:
320,192,45870,1,0,0:0:0:0:
448,192,45870,1,0,0:0:0:0:
192,192,45945,1,0,0:0:0:0:
64,192,46020,1,0,0:0:0:0:
448,192,46095,1,0,0:0:0:0:
64,192,46170,1,0,0:0:0:0:
320,192,46170,1,0,0:0:0:0:
192,192,46245,1,0,0:0:0:0:
320,192,46320,1,0,0:0:0:0:
448,192,46320,1,0,0:0:0:0:
64,192,46395,1,0,0:0:0:0:
192,192,46470,1,0,0:0:0:0:
448,192,46470,1,0,0:0:0:0:
320,192,46545,1,0,0:0:0:0:
64,192,46620,1,0,0:0:0:0:
192,192,46620,1,0,0:0:0:0:
448,192,46620,1,0,0:0:0:0:
320,192,46695,1,0,0:0:0:0:
64,192,46770,1,0,0:0:0:0:
192,192,46845,1,0,0:0:0:0:
448,192,46845,1,0,0:0:0:0:
64,192,46920,1,0,0:0:0:0:
320,192,46920,1,0,0:0:0:0:
448,192,46995,1,0,0:0:0:0:
64,192,47070,1,0,0:0:0:0:
192,192,47070,1,0,0:0:0:0:
320,192,47145,1,0,0:0:0:0:
448,192,47145,1,0,0:0:0:0:
192,192,47220,1,0,0:0:0:0:
64,192,47295,1,0,0:0:0:0:
192,192,47370,1,0,0:0:0:0:
448,192,47370,1,0,0:0:0:0:
320,192,47445,1,0,0:0:0:0:
64,192,47520,1,0,0:0:0:0:
192,192,47520,1,0,0:0:0:0:
448,192,47595,1,0,0:0:0:0:
192,192,47670,1,0,0:0:0:0:
320,192,47670,1,0,0:0:0:0:
64,192,47745,1,0,0:0:0:0:
192,192,47820,1,0,0:0:0:0:
320,192,47820,1,0,0:0:0:0:
448,192,47820,1,0,0:0:0:0:
64,192,47895,1,0,0:0:0:0:
192,192,47970,1,0,0:0:0:0:
64,192,48045,1,0,0:0:0:0:
448,192,48045,1,0,0:0:0:0:
192,192,48120,1,0,0:0:0:0:
320,192,48120,1,0,0:0:0:0:
448,192,48195,1,0,0:0:0:0:
64,192,48270,1,0,0:0:0:0:
320,192,48270,1,0,0:0:0:0:
448,192,48345,1,0,0:0:0:0:
192,192,48420,1,0,0:0:0:0:
64,192,48495,1,0,0:0:0:0:
192,192,48570,1,0,0:0:0:0:
448,192,48570,1,0,0:0:0:0:
320,192,48645,1,0,0:0:0:0:
64,192,48720,1,0,0:0:0:0:
192,192,48720,1,0,0:0:0:0:
448,192,48795,1,0,0:0:0:0:
64,192,48870,1,0,0:0:0:0:
320,192,48870,1,0,0:0:0:0:
192,192,48945,1,0,0:0:0:0:
64,192,49020,1,0,0:0:0:0:
320,192,49020,1,0,0:0:0:0:
448,192,49020,1,0,0:0:0:0:
192,192,49095,1,0,0:0:0:0:
320,192,49170,1,0,0:0:0:0:
64,192,49245,1,0,0:0:0:0:
448,192,49245,1,0,0:0:0:0:
192,192,49320,1,0,0:0:0:0:
320,192,49320,1,0,0:0:0:0:
64,192,49395,1,0,0:0:0:0:
448,192,49470,1,0,0:0:0:0:
64,192,49545,1,0,0:0:0:0:
192,192,49545,1,0,0:0:0:0:
320,192,49620,1,0,0:0:0:0:
192,192,49695,1,0,0:0:0:0:
64,192,49770,1,0,0:0:0:0:
448,192,49770,1,0,0:0:0:0:
320,192,49845,1,0,0:0:0:0:
64,192,49920,1,0,0:0:0:0:
192,192,49920,1,0,0:0:0:0:
320,192,49995,1,0,0:0:0:0:
64,192,50070,1,0,0:0:0:0:
448,192,50070,1,0,0:0:0:0:
192,192,50145,1,0,0:0:0:0:
64,192,50220,1,0,0:0:0:0:
320,192,50220,1,0,0:0:0:0:
448,192,50220,1,0,0:0:0:0:
192,192,50295,1,0,0:0:0:0:
448,192,50370,1,0,0:0:0:0:
64,192,50445,1,0,0:0:0:0:
320,192,50445,1,0,0:0:0:0:
192,192,50520,1,0,0:0:0:0:
448,192,50520,1,0,0:0:0:0:
64,192,50595,1,0,0:0:0:0:
192,192,50670,1,0,0:0:0:0:
448,192,50670,1,0,0:0:0:0:
320,192,50745,1,0,0:0:0:0:
448,192,50820,1,0,0:0:0:0:
320,192,50895,1,0,0:0:0:0:
64,192,50970,1,0,0:0:0:0:
192,192,50970,1,0,0:0:0:0:
320,192,51045,1,0,0:0:0:0:
192,192,51120,1,0,0:0:0:0:
448,192,51120,1,0,0:0:0:0:
64,192,51195,1,0,0:0:0:0:
192,192,51270,1,0,0:0:0:0:
320,192,51270,1,0,0:0:0:0:
448,192,51345,1,0,0:0:0:0:
64,192,51420,1,0,0:0:0:0:
192,192,51420,1,0,0:0:0:0:
320,192,51420,1,0,0:0:0:0:
448,192,51495,1,0,0:0:0:0:
320,192,51570,1,0,0:0:0:0:
64,192,51645,1,0,0:0:0:0:
448,192,51645,1,0,0:0:0:0:
192,192,51720,1,0,0:0:0:0:
320,192,51720,1,0,0:0:0:0:
64,192,51795,1,0,0:0:0:0:
320,192,51870,1,0,0:0:0:0:
64,192,51945,1,0,0:0:0:0:
192,192,51945,1,0,0:0:0:0:
320,192,52020,1,0,0:0:0:0:
448,192,52020,1,0,0:0:0:0:
64,192,52095,1,0,0:0:0:0:
192,192,52095,1,0,0:0:0:0:
448,192,52170,1,0,0:0:0:0:
192,192,52245,1,0,0:0:0:0:
64,192,52320,1,0,0:0:0:0:
320,192,52320,1,0,0:0:0:0:
448,192,52395,1,0,0:0:0:0:
64,192,52470,1,0,0:0:0:0:
320,192,52470,1,0,0:0:0:0:
192,192,52545,1,0,0:0:0:0:
64,192,52620,1,0,0:0:0:0:
320,192,52620,1,0,0:0:0:0:
448,192,52620,1,0,0:0:0:0:
192,192,52695,1,0,0:0:0:0:
64,192,52770,1,0,0:0:0:0:
448,192,52770,1,0,0:0:0:0:
320,192,52845,1,0,0:0:0:0:
64,192,52920,1,0,0:0:0:0:
192,192,52920,1,0,0:0:0:0:
448,192,52920,1,0,0:0:0:0:
320,192,52995,1,0,0:0:0:0:
64,192,53070,1,0,0:0:0:0:
448,192,53070,1,0,0:0:0:0:
192,192,53145,1,0,0:0:0:0:
64,192,53220,1,0,0:0:0:0:
320,192,53220,1,0,0:0:0:0:
448,192,53295,1,0,0:0:0:0:
192,192,53370,1,0,0:0:0:0:
320,192,53370,1,0,0:0:0:0:
448,192,53445,1,0,0:0:0:0:
64,192,53520,1,0,0:0:0:0:
192,192,53520,1,0,0:0:0:0:
320,192,53520,1,0,0:0:0:0:
448,192,53595,1,0,0:0:0:0:
192,192,53670,1,0,0:0:0:0:
320,192,53670,1,0,0:0:0:0:
64,192,53745,1,0,0:0:0:0:
192,192,53820,1,0,0:0:0:0:
320,192,53820,1,0,0:0:0:0:
448,192,53820,1,0,0:0:0:0:
64,192,53895,1,0,0:0:0:0:
320,192,53970,1,0,0:0:0:0:
64,192,54045,1,0,0:0:0:0:
448,192,54045,1,0,0:0:0:0:
192,192,54120,1,0,0:0:0:0:
320,192,54120,1,0,0:0:0:0:
448,192,54195,1,0,0:0:0:0:
64,192,54270,1,0,0:0:0:0:
320,192,54270,1,0,0:0:0:0:
192,192,54345,1,0,0:0:0:0:
448,192,54345,1,0,0:0:0:0:
320,192,54420,1,0,0:0:0:0:
64,192,54495,1,0,0:0:0:0:
320,192,54570,1,0,0:0:0:0:
448,192,54570,1,0,0:0:0:0:
192,192,54645,1,0,0:0:0:0:
64,192,54720,1,0,0:0:0:0:
320,192,54720,1,0,0:0:0:0:
448,192,54720,1,0,0:0:0:0:
192,192,54795,1,0,0:0:0:0:
64,192,54870,1,0,0:0:0:0:
320,192,54870,1,0,0:0:0:0:
448,192,54945,1,0,0:0:0:0:
64,192,55020,1,0,0:0:0:0:
192,192,55020,1,0,0:0:0:0:
320,192,55020,1,0,0:0:0:0:
448,192,55095,1,0,0:0:0:0:
192,192,55170,1,0,0:0:0:0:
64,192,55245,1,0,0:0:0:0:
448,192,55245,1,0,0:0:0:0:
192,192,55320,1,0,0:0:0:0:
320,192,55320,1,0,0:0:0:0:
448,192,55395,1,0,0:0:0:0:
64,192,55470,1,0,0:0:0:0:
192,192,55470,1,0,0:0:0:0:
320,192,55470,1,0,0:0:0:0:
448,192,55545,1,0,0:0:0:0:
64,192,55620,1,0,0:0:0:0:
320,192,55695,1,0,0:0:0:0:
64,192,55770,1,0,0:0:0:0:
448,192,55770,1,0,0:0:0:0:
192,192,55845,1,0,0:0:0:0:
64,192,55920,1,0,0:0:0:0:
320,192,55920,1,0,0:0:0:0:
448,192,55920,1,0,0:0:0:0:
192,192,55995,1,0,0:0:0:0:
64,192,56070,1,0,0:0:0:0:
448,192,56070,1,0,0:0:0:0:
320,192,56145,1,0,0:0:0:0:
64,192,56220,1,0,0:0:0:0:
192,192,56220,1,0,0:0:0:0:
448,192,56220,1,0,0:0:0:0:
320,192,56295,1,0,0:0:0:0:
64,192,56370,1,0,0:0:0:0:
192,192,56445,1,0,0:0:0:0:
320,192,56445,1,0,0:0:0:0:
64,192,56520,1,0,0:0:0:0:
448,192,56520,1,0,0:0:0:0:
192,192,56595,1,0,0:0:0:0:
320,192,56670,1,0,0:0:0:0:
448,192,56670,1,0,0:0:0:0:
64,192,56745,1,0,0:0:0:0:
192,192,56745,1,0,0:0:0:0:
320,192,56820,1,0,0:0:0:0:
448,192,56895,1,0,0:0:0:0:
64,192,56970,1,0,0:0:0:0:
320,192,56970,1,0,0:0:0:0:
192,192,57045,1,0,0:0:0:0:
64,192,57120,1,0,0:0:0:0:
320,192,57120,1,0,0:0:0:0:
448,192,57120,1,0,0:0:0:0:
192,192,57195,1,0,0:0:0:0:
64,192,57270,1,0,0:0:0:0:
448,192,57270,1,0,0:0:0:0:
192,192,57345,1,0,0:0:0:0:
64,192,57420,1,0,0:0:0:0:
320,192,57420,1,0,0:0:0:0:
448,192,57420,1,0,0:0:0:0:
192,192,57495,1,0,0:0:0:0:
448,192,57570,1,0,0:0:0:0:
64,192,57645,1,0,0:0:0:0:
320,192,57645,1,0,0:0:0:0:
192,192,57720,1,0,0:0:0:0:
448,192,57720,1,0,0:0:0:0:
320,192,57795,1,0,0:0:0:0:
64,192,57870,1,0,0:0:0:0:
448,192,57870,1,0,0:0:0:0:
192,192,57945,1,0,0:0:0:0:
64,192,58020,1,0,0:0:0:0:
320,192,58020,1,0,0:0:0:0:
448,192,58020,1,0,0:0:0:0:
192,192,58095,1,0,0:0:0:0:
64,192,58170,1,0,0:0:0:0:
448,192,58170,1,0,0:0:0:0:
320,192,58245,1,0,0:0:0:0:
64,192,58320,1,0,0:0:0:0:
192,192,58320,1,0,0:0:0:0:
448,192,58320,1,0,0:0:0:0:
320,192,58395,1,0,0:0:0:0:
64,192,58470,1,0,0:0:0:0:
192,192,58470,1,0,0:0:0:0:
448,192,58470,1,0,0:0:0:0:
320,192,58545,1,0,0:0:0:0:
64,192,58620,1,0,0:0:0:0:
192,192,58620,1,0,0:0:0:0:
448,192,58620,1,0,0:0:0:0:
320,192,58695,1,0,0:0:0:0:
448,192,58770,1,0,0:0:0:0:
64,192,58845,1,0,0:0:0:0:
320,192,58845,1,0,0:0:0:0:
192,192,58920,1,0,0:0:0:0:
448,192,58920,1,0,0:0:0:0:
64,192,58995,1,0,0:0:0:0:
192,192,59070,1,0,0:0:0:0:
448,192,59070,1,0,0:0:0:0:
64,192,59145,1,0,0:0:0:0:
320,192,59145,1,0,0:0:0:0:
192,192,59220,1,0,0:0:0:0:
448,192,59295,1,0,0:0:0:0:
64,192,59370,1,0,0:0:0:0:
320,192,59370,1,0,0:0:0:0:
192,192,59445,1,0,0:0:0:0:
64,192,59520,1,0,0:0:0:0:
320,192,59520,1,0,0:0:0:0:
448,192,59520,1,0,0:0:0:0:
192,192,59595,1,0,0:0:0:0:
64,192,59670,1,0,0:0:0:0:
448,192,59670,1,0,0:0:0:0:
320,192,59745,1,0,0:0:0:0:
64,192,59820,1,0,0:0:0:0:
192,192,59820,1,0,0:0:0:0:
448,192,59895,1,0,0:0:0:0:
64,192,59970,1,0,0:0:0:0:
192,192,60045,1,0,0:0:0:0:
320,192,60045,1,0,0:0:0:0:
64,192,60120,1,0,0:0:0:0:
448,192,60120,1,0,0:0:0:0:
192,192,60195,1,0,0:0:0:0:
320,192,60270,1,0,0:0:0:0:
448,192,60270,1,0,0:0:0:0:
64,192,60345,1,0,0:0:0:0:
192,192,60420,1,0,0:0:0:0:
320,192,60420,1,0,0:0:0:0:
448,192,60420,1,0,0:0:0:0:
64,192,60495,1,0,0:0:0:0:
320,192,60570,1,0,0:0:0:0:
448,192,60570,1,0,0:0:0:0:
192,192,60645,1,0,0:0:0:0:
64,192,60720,1,0,0:0:0:0:
320,192,60720,1,0,0:0:0:0:
448,192,60720,1,0,0:0:0:0:
192,192,60795,1,0,0:0:0:0:
64,192,60870,1,0,0:0:0:0:
448,192,60870,1,0,0:0:0:0:
320,192,60945,1,0,0:0:0:0:
64,192,61020,1,0,0:0:0:0:
192,192,61020,1,0,0:0:0:0:
448,192,61020,1,0,0:0:0:0:
320,192,61095,1,0,0:0:0:0:
192,192,61170,1,0,0:0:0:0:
64,192,61245,1,0,0:0:0:0:
448,192,61245,1,0,0:0:0:0:
192,192,61320,1,0,0:0:0:0:
320,192,61320,1,0,0:0:0:0:
448,192,61395,1,0,0:0:0:0:
64,192,61470,1,0,0:0:0:0:
192,192,61470,1,0,0:0:0:0:
320,192,61545,1,0,0:0:0:0:
448,192,61545,1,0,0:0:0:0:
64,192,61620,1,0,0:0:0:0:
320,192,61695,1,0,0:0:0:0:
64,192,61770,1,0,0:0:0:0:
448,192,61770,1,0,0:0:0:0:
192,192,61845,1,0,0:0:0:0:
64,192,61920,1,0,0:0:0:0:
320,192,61920,1,0,0:0:0:0:
448,192,61920,1,0,0:0:0:0:
192,192,61995,1,0,0:0:0:0:
64,192,62070,1,0,0:0:0:0:
448,192,62070,1,0,0:0:0:0:
320,192,62145,1,0,0:0:0:0:
64,192,62220,1,0,0:0:0:0:
192,192,62220,1,0,0:0:0:0:
448,192,62220,1,0,0:0:0:0:
320,192,62295,1,0,0:0:0:0:
192,192,62370,1,0,0:0:0:0:
64,192,62445,1,0,0:0:0:0:
192,192,62520,1,0,0:0:0:0:
448,192,62520,1,0,0:0:0:0:
320,192,62595,1,0,0:0:0:0:
192,192,62670,1,0,0:0:0:0:
64,192,62745,1,0,0:0:0:0:
192,192,62820,1,0,0:0:0:0:
448,192,62820,1,0,0:0:0:0:
320,192,62895,1,0,0:0:0:0:
64,192,62970,1,0,0:0:0:0:
448,192,62970,1,0,0:0:0:0:
192,192,63007,1,0,0:0:0:0:
320,192,63045,1,0,0:0:0:0:
448,192,63045,1,0,0:0:0:0:
64,192,63082,1,0,0:0:0:0:
192,192,63120,1,0,0:0:0:0:
320,192,63120,1,0,0:0:0:0:
448,192,63195,1,0,0:0:0:0:
320,192,63270,1,0,0:0:0:0:
192,192,63345,1,0,0:0:0:0:
64,192,63420,1,0,0:0:0:0:
320,192,63420,1,0,0:0:0:0:
448,192,63420,1,0,0:0:0:0:
192,192,63495,1,0,0:0:0:0:
64,192,63570,1,0,0:0:0:0:
192,192,63645,1,0,0:0:0:0:
448,192,63645,1,0,0:0:0:0:
64,192,63720,1,0,0:0:0:0:
320,192,63720,1,0,0:0:0:0:
192,192,63795,1,0,0:0:0:0:
320,192,63870,1,0,0:0:0:0:
448,192,63870,1,0,0:0:0:0:
64,192,63945,1,0,0:0:0:0:
192,192,63945,1,0,0:0:0:0:
320,192,64020,1,0,0:0:0:0:
448,192,64095,1,0,0:0:0:0:
64,192,64170,1,0,0:0:0:0:
320,192,64170,1,0,0:0:0:0:
192,192,64245,1,0,0:0:0:0:
64,192,64320,1,0,0:0:0:0:
320,192,64320,1,0,0:0:0:0:
448,192,64320,1,0,0:0:0:0:
192,192,64395,1,0,0:0:0:0:
64,192,64470,1,0,0:0:0:0:
320,192,64470,1,0,0:0:0:0:
448,192,64545,1,0,0:0:0:0:
64,192,64620,1,0,0:0:0:0:
192,192,64620,1,0,0:0:0:0:
448,192,64695,1,0,0:0:0:0:
192,192,64770,1,0,0:0:0:0:
64,192,64845,1,0,0:0:0:0:
320,192,64845,1,0,0:0:0:0:
192,192,64920,1,0,0:0:0:0:
448,192,64920,1,0,0:0:0:0:
320,192,64995,1,0,0:0:0:0:
64,192,65070,1,0,0:0:0:0:
192,192,65070,1,0,0:0:0:0:
320,192,65145,1,0,0:0:0:0:
64,192,65220,1,0,0:0:0:0:
448,192,65295,1,0,0:0:0:0:
64,192,65370,1,0,0:0:0:0:
192,192,65370,1,0,0:0:0:0:
320,192,65445,1,0,0:0:0:0:
64,192,65520,1,0,0:0:0:0:
192,192,65520,1,0,0:0:0:0:
448,192,65520,1,0,0:0:0:0:
320,192,65595,1,0,0:0:0:0:
192,192,65670,1,0,0:0:0:0:
448,192,65670,1,0,0:0:0:0:
64,192,65745,1,0,0:0:0:0:
192,192,65820,1,0,0:0:0:0:
320,192,65820,1,0,0:0:0:0:
448,192,65820,1,0,0:0:0:0:
64,192,65895,1,0,0:0:0:0:
192,192,65970,1,0,0:0:0:0:
64,192,66045,1,0,0:0:0:0:
448,192,66045,1,0,0:0:0:0:
192,192,66120,1,0,0:0:0:0:
320,192,66120,1,0,0:0:0:0:
448,192,66195,1,0,0:0:0:0:
64,192,66270,1,0,0:0:0:0:
320,192,66270,1,0,0:0:0:0:
192,192,66345,1,0,0:0:0:0:
448,192,66345,1,0,0:0:0:0:
64,192,66420,1,0,0:0:0:0:
192,192,66495,1,0,0:0:0:0:
320,192,66570,1,0,0:0:0:0:
448,192,66570,1,0,0:0:0:0:
192,192,66645,1,0,0:0:0:0:
64,192,66720,1,0,0:0:0:0:
320,192,66720,1,0,0:0:0:0:
448,192,66720,1,0,0:0:0:0:
192,192,66795,1,0,0:0:0:0:
64,192,66870,1,0,0:0:0:0:
320,192,66870,1,0,0:0:0:0:
448,192,66945,1,0,0:0:0:0:
64,192,67020,1,0,0:0:0:0:
192,192,67020,1,0,0:0:0:0:
320,192,67020,1,0,0:0:0:0:
448,192,67095,1,0,0:0:0:0:
192,192,67170,1,0,0:0:0:0:
64,192,67245,1,0,0:0:0:0:
320,192,67245,1,0,0:0:0:0:
192,192,67320,1,0,0:0:0:0:
448,192,67320,1,0,0:0:0:0:
64,192,67395,1,0,0:0:0:0:
192,192,67470,1,0,0:0:0:0:
320,192,67470,1,0,0:0:0:0:
448,192,67545,1,0,0:0:0:0:
192,192,67620,1,0,0:0:0:0:
320,192,67695,1,0,0:0:0:0:
64,192,67770,1,0,0:0:0:0:
448,192,67770,1,0,0:0:0:0:
192,192,67845,1,0,0:0:0:0:
64,192,67920,1,0,0:0:0:0:
320,192,67920,1,0,0:0:0:0:
448,192,67920,1,0,0:0:0:0:
192,192,67995,1,0,0:0:0:0:
64,192,68070,1,0,0:0:0:0:
448,192,68070,1,0,0:0:0:0:
320,192,68145,1,0,0:0:0:0:
64,192,68220,1,0,0:0:0:0:
192,192,68220,1,0,0:0:0:0:
448,192,68220,1,0,0:0:0:0:
320,192,68295,1,0,0:0:0:0:
64,192,68370,1,0,0:0:0:0:
192,192,68445,1,0,0:0:0:0:
320,192,68445,1,0,0:0:0:0:
64,192,68520,1,0,0:0:0:0:
448,192,68520,1,0,0:0:0:0:
320,192,68595,1,0,0:0:0:0:
64,192,68670,1,0,0:0:0:0:
192,192,68670,1,0,0:0:0:0:
320,192,68745,1,0,0:0:0:0:
448,192,68745,1,0,0:0:0:0:
64,192,68820,1,0,0:0:0:0:
320,192,68895,1,0,0:0:0:0:
192,192,68970,1,0,0:0:0:0:
448,192,68970,1,0,0:0:0:0:
320,192,69045,1,0,0:0:0:0:
64,192,69120,1,0,0:0:0:0:
192,192,69120,1,0,0:0:0:0:
448,192,69120,1,0,0:0:0:0:
320,192,69195,1,0,0:0:0:0:
64,192,69270,1,0,0:0:0:0:
448,192,69270,1,0,0:0:0:0:
320,192,69345,1,0,0:0:0:0:
64,192,69420,1,0,0:0:0:0:
192,192,69420,1,0,0:0:0:0:
448,192,69420,1,0,0:0:0:0:
320,192,69495,1,0,0:0:0:0:
192,192,69570,1,0,0:0:0:0:
64,192,69645,1,0,0:0:0:0:
448,192,69645,1,0,0:0:0:0:
192,192,69720,1,0,0:0:0:0:
320,192,69720,1,0,0:0:0:0:
64,192,69795,1,0,0:0:0:0:
448,192,69795,1,0,0:0:0:0:
192,192,69870,1,0,0:0:0:0:
320,192,69870,1,0,0:0:0:0:
448,192,69945,1,0,0:0:0:0:
64,192,70020,1,0,0:0:0:0:
192,192,70095,1,0,0:0:0:0:
64,192,70170,1,0,0:0:0:0:
320,192,70170,1,0,0:0:0:0:
192,192,70245,1,0,0:0:0:0:
64,192,70320,1,0,0:0:0:0:
320,192,70320,1,0,0:0:0:0:
448,192,70320,1,0,0:0:0:0:
192,192,70357,1,0,0:0:0:0:
320,192,70395,1,0,0:0:0:0:
448,192,70432,1,0,0:0:0:0:
64,192,70470,1,0,0:0:0:0:
320,192,70470,1,0,0:0:0:0:
192,192,70507,1,0,0:0:0:0:
320,192,70545,1,0,0:0:0:0:
448,192,70582,1,0,0:0:0:0:
64,192,70620,1,0,0:0:0:0:
192,192,70620,1,0,0:0:0:0:
320,192,70620,1,0,0:0:0:0:
448,192,70695,1,0,0:0:0:0:
192,192,70770,1,0,0:0:0:0:
64,192,70845,1,0,0:0:0:0:
320,192,70845,1,0,0:0:0:0:
192,192,70920,1,0,0:0:0:0:
448,192,70920,1,0,0:0:0:0:
320,192,70995,1,0,0:0:0:0:
64,192,71070,1,0,0:0:0:0:
448,192,71070,1,0,0:0:0:0:
192,192,71145,1,0,0:0:0:0:
320,192,71145,1,0,0:0:0:0:
64,192,71220,1,0,0:0:0:0:
448,192,71220,1,0,0:0:0:0:
192,192,71295,1,0,0:0:0:0:
64,192,71370,1,0,0:0:0:0:
320,192,71370,1,0,0:0:0:0:
448,192,71445,1,0,0:0:0:0:
64,192,71520,1,0,0:0:0:0:
192,192,71520,1,0,0:0:0:0:
320,192,71520,1,0,0:0:0:0:
448,192,71595,1,0,0:0:0:0:
64,192,71670,1,0,0:0:0:0:
320,192,71670,1,0,0:0:0:0:
192,192,71745,1,0,0:0:0:0:
64,192,71820,1,0,0:0:0:0:
320,192,71820,1,0,0:0:0:0:
448,192,71820,1,0,0:0:0:0:
192,192,71895,1,0,0:0:0:0:
64,192,71970,1,0,0:0:0:0:
320,192,72045,1,0,0:0:0:0:
448,192,72045,1,0,0:0:0:0:
64,192,72120,1,0,0:0:0:0:
192,192,72120,1,0,0:0:0:0:
448,192,72195,1,0,0:0:0:0:
64,192,72270,1,0,0:0:0:0:
320,192,72270,1,0,0:0:0:0:
192,192,72345,1,0,0:0:0:0:
64,192,72420,1,0,0:0:0:0:
320,192,72420,1,0,0:0:0:0:
192,192,72495,1,0,0:0:0:0:
448,192,72495,1,0,0:0:0:0:
64,192,72570,1,0,0:0:0:0:
320,192,72570,1,0,0:0:0:0:
448,192,72645,1,0,0:0:0:0:
64,192,72720,1,0,0:0:0:0:
192,192,72720,1,0,0:0:0:0:
320,192,72720,1,0,0:0:0:0:
448,192,72795,1,0,0:0:0:0:
192,192,72870,1,0,0:0:0:0:
320,192,72870,1,0,0:0:0:0:
64,192,72945,1,0,0:0:0:0:
448,192,72945,1,0,0:0:0:0:
192,192,73020,1,0,0:0:0:0:
320,192,73020,1,0,0:0:0:0:
448,192,73095,1,0,0:0:0:0:
192,192,73170,1,0,0:0:0:0:
64,192,73245,1,0,0:0:0:0:
448,192,73245,1,0,0:0:0:0:
192,192,73320,1,0,0:0:0:0:
320,192,73320,1,0,0:0:0:0:
448,192,73395,1,0,0:0:0:0:
64,192,73470,1,0,0:0:0:0:
320,192,73470,1,0,0:0:0:0:
192,192,73545,1,0,0:0:0:0:
448,192,73545,1,0,0:0:0:0:
64,192,73620,1,0,0:0:0:0:
320,192,73695,1,0,0:0:0:0:
192,192,73770,1,0,0:0:0:0:
448,192,73770,1,0,0:0:0:0:
64,192,73845,1,0,0:0:0:0:
192,192,73920,1,0,0:0:0:0:
320,192,73920,1,0,0:0:0:0:
448,192,73920,1,0,0:0:0:0:
64,192,73995,1,0,0:0:0:0:
192,192,74070,1,0,0:0:0:0:
448,192,74070,1,0,0:0:0:0:
64,192,74145,1,0,0:0:0:0:
320,192,74220,1,0,0:0:0:0:
448,192,74220,1,0,0:0:0:0:
192,192,74295,1,0,0:0:0:0:
64,192,74370,1,0,0:0:0:0:
192,192,74445,1,0,0:0:0:0:
448,192,74445,1,0,0:0:0:0:
64,192,74520,1,0,0:0:0:0:
320,192,74520,1,0,0:0:0:0:
192,192,74595,1,0,0:0:0:0:
64,192,74670,1,0,0:0:0:0:
448,192,74670,1,0,0:0:0:0:
320,192,74745,1,0,0:0:0:0:
192,192,74820,1,0,0:0:0:0:
320,192,74895,1,0,0:0:0:0:
64,192,74970,1,0,0:0:0:0:
448,192,74970,1,0,0:0:0:0:
192,192,75045,1,0,0:0:0:0:
64,192,75120,1,0,0:0:0:0:
320,192,75120,1,0,0:0:0:0:
448,192,75120,1,0,0:0:0:0:
192,192,75195,1,0,0:0:0:0:
64,192,75270,1,0,0:0:0:0:
320,192,75270,1,0,0:0:0:0:
448,192,75345,1,0,0:0:0:0:
64,192,75420,1,0,0:0:0:0:
192,192,75420,1,0,0:0:0:0:
320,192,75420,1,0,0:0:0:0:
448,192,75495,1,0,0:0:0:0:
320,192,75570,1,0,0:0:0:0:
64,192,75645,1,0,0:0:0:0:
192,192,75645,1,0,0:0:0:0:
320,192,75720,1,0,0:0:0:0:
448,192,75720,1,0,0:0:0:0:
192,192,75795,1,0,0:0:0:0:
64,192,75870,1,0,0:0:0:0:
320,192,75870,1,0,0:0:0:0:
192,192,75945,1,0,0:0:0:0:
448,192,75945,1,0,0:0:0:0:
320,192,76020,1,0,0:0:0:0:
448,192,76095,1,0,0:0:0:0:
64,192,76170,1,0,0:0:0:0:
320,192,76170,1,0,0:0:0:0:
192,192,76245,1,0,0:0:0:0:
64,192,76320,1,0,0:0:0:0:
320,192,76320,1,0,0:0:0:0:
448,192,76320,1,0,0:0:0:0:
192,192,76395,1,0,0:0:0:0:
64,192,76470,1,0,0:0:0:0:
448,192,76470,1,0,0:0:0:0:
320,192,76545,1,0,0:0:0:0:
64,192,76620,1,0,0:0:0:0:
192,192,76620,1,0,0:0:0:0:
448,192,76620,1,0,0:0:0:0:
320,192,76695,1,0,0:0:0:0:
192,192,76770,1,0,0:0:0:0:
64,192,76845,1,0,0:0:0:0:
448,192,76845,1,0,0:0:0:0:
192,192,76920,1,0,0:0:0:0:
320,192,76920,1,0,0:0:0:0:
64,192,76995,1,0,0:0:0:0:
192,192,77070,1,0,0:0:0:0:
448,192,77070,1,0,0:0:0:0:
64,192,77145,1,0,0:0:0:0:
320,192,77220,1,0,0:0:0:0:
448,192,77220,1,0,0:0:0:0:
192,192,77295,1,0,0:0:0:0:
64,192,77370,1,0,0:0:0:0:
320,192,77370,1,0,0:0:0:0:
192,192,77445,1,0,0:0:0:0:
64,192,77520,1,0,0:0:0:0:
320,192,77520,1,0,0:0:0:0:
448,192,77520,1,0,0:0:0:0:
192,192,77595,1,0,0:0:0:0:
64,192,77670,1,0,0:0:0:0:
448,192,77670,1,0,0:0:0:0:
320,192,77745,1,0,0:0:0:0:
64,192,77820,1,0,0:0:0:0:
192,192,77820,1,0,0:0:0:0:
448,192,77820,1,0,0:0:0:0:
320,192,77895,1,0,0:0:0:0:
64,192,77970,1,0,0:0:0:0:
192,192,78045,1,0,0:0:0:0:
448,192,78045,1,0,0:0:0:0:
64,192,78120,1,0,0:0:0:0:
320,192,78120,1,0,0:0:0:0:
192,192,78195,1,0,0:0:0:0:
64,192,78270,1,0,0:0:0:0:
448,192,78270,1,0,0:0:0:0:
192,192,78345,1,0,0:0:0:0:
320,192,78345,1,0,0:0:0:0:
448,192,78420,1,0,0:0:0:0:
64,192,78495,1,0,0:0:0:0:
192,192,78570,1,0,0:0:0:0:
320,192,78570,1,0,0:0:0:0:
448,192,78645,1,0,0:0:0:0:
64,192,78720,1,0,0:0:0:0:
192,192,78720,1,0,0:0:0:0:
320,192,78720,1,0,0:0:0:0:
448,192,78795,1,0,0:0:0:0:
64,192,78870,1,0,0:0:0:0:
320,192,78870,1,0,0:0:0:0:
192,192,78945,1,0,0:0:0:0:
320,192,79020,1,0,0:0:0:0:
448,192,79020,1,0,0:0:0:0:
64,192,79095,1,0,0:0:0:0:
192,192,79170,1,0,0:0:0:0:
64,192,79245,1,0,0:0:0:0:
320,192,79245,1,0,0:0:0:0:
192,192,79320,1,0,0:0:0:0:
448,192,79320,1,0,0:0:0:0:
320,192,79395,1,0,0:0:0:0:
64,192,79470,1,0,0:0:0:0:
448,192,79470,1,0,0:0:0:0:
192,192,79545,1,0,0:0:0:0:
320,192,79620,1,0,0:0:0:0:
448,192,79695,1,0,0:0:0:0:
64,192,79770,1,0,0:0:0:0:
320,192,79770,1,0,0:0:0:0:
192,192,79845,1,0,0:0:0:0:
64,192,79920,1,0,0:0:0:0:
320,192,79920,1,0,0:0:0:0:
448,192,79920,1,0,0:0:0:0:
192,192,79995,1,0,0:0:0:0:
64,192,80070,1,0,0:0:0:0:
448,192,80070,1,0,0:0:0:0:
320,192,80145,1,0,0:0:0:0:
64,192,80220,1,0,0:0:0:0:
192,192,80220,1,0,0:0:0:0:
448,192,80220,1,0,0:0:0:0:
64,192,80370,1,0,0:0:0:0:
192,192,80370,1,0,0:0:0:0:
448,192,80370,1,0,0:0:0:0:
64,192,80520,1,0,0:0:0:0:
320,192,80520,1,0,0:0:0:0:
448,192,80520,1,0,0:0:0:0:
64,192,80670,1,0,0:0:0:0:
320,192,80670,1,0,0:0:0:0:
448,192,80670,1,0,0:0:0:0:
64,192,80820,1,0,0:0:0:0:
192,192,80820,1,0,0:0:0:0:
320,192,80820,1,0,0:0:0:0:
192,192,80970,1,0,0:0:0:0:
320,192,80970,1,0,0:0:0:0:
448,192,80970,1,0,0:0:0:0:
64,192,81120,1,0,0:0:0:0:
320,192,81120,1,0,0:0:0:0:
448,192,81120,1,0,0:0:0:0:
64,192,81270,1,0,0:0:0:0:
192,192,81270,1,0,0:0:0:0:
448,192,81270,1,0,0:0:0:0:
320,192,81345,1,0,0:0:0:0:
64,192,81420,1,0,0:0:0:0:
192,192,81420,1,0,0:0:0:0:
448,192,81420,1,0,0:0:0:0:
320,192,81495,1,0,0:0:0:0:
192,192,81570,1,0,0:0:0:0:
64,192,81645,1,0,0:0:0:0:
192,192,81720,1,0,0:0:0:0:
320,192,81757,1,0,0:0:0:0:
448,192,81795,1,0,0:0:0:0:
64,192,81832,1,0,0:0:0:0:
192,192,81870,1,0,0:0:0:0:
320,192,81945,1,0,0:0:0:0:
192,192,82020,1,0,0:0:0:0:
64,192,82095,1,0,0:0:0:0:
448,192,82170,1,0,0:0:0:0:
320,192,82245,1,0,0:0:0:0:
192,192,82320,1,0,0:0:0:0:
64,192,82357,1,0,0:0:0:0:
192,192,82395,1,0,0:0:0:0:
320,192,82432,1,0,0:0:0:0:
448,192,82470,1,0,0:0:0:0:
192,192,82545,1,0,0:0:0:0:
320,192,82620,1,0,0:0:0:0:
64,0,82620,128,0,86520:1:0:0:0:
448,0,82620,128,0,86820:1:0:0:0:
192,192,85020,1,0,0:0:0:0:
320,192,85020,1,0,0:0:0:0:
192,192,86220,1,0,0:0:0:0:
320,192,86520,1,0,0:0:0:0:
64,192,86820,1,0,0:0:0:0:
448,192,87120,1,0,0:0:0:0:
192,192,87420,1,0,0:0:0:0:
320,192,87420,1,0,0:0:0:0:
64,192,87570,1,0,0:0:0:0:
192,192,87720,1,0,0:0:0:0:
448,192,87870,1,0,0:0:0:0:
320,192,88320,1,0,0:0:0:0:
320,192,88470,1,0,0:0:0:0:
64,192,89820,1,0,0:0:0:0:
192,192,89838,1,0,0:0:0:0:
320,192,89838,1,0,0:0:0:0:
320,192,91020,1,0,0:0:0:0:
192,192,91620,1,0,0:0:0:0:
64,192,92220,1,0,0:0:0:0:
448,192,92220,1,0,0:0:0:0:
192,192,92370,1,0,0:0:0:0:
320,192,92520,1,0,0:0:0:0:
448,192,92670,1,0,0:0:0:0:
192,192,93120,1,0,0:0:0:0:
192,192,93270,1,0,0:0:0:0:
64,192,94620,1,0,0:0:0:0:
192,192,95220,1,0,0:0:0:0:
320,192,95820,1,0,0:0:0:0:
448,192,96420,1,0,0:0:0:0:
64,192,97020,1,0,0:0:0:0:
448,192,97020,1,0,0:0:0:0:
192,192,97170,1,0,0:0:0:0:
448,192,97320,1,0,0:0:0:0:
320,192,97470,1,0,0:0:0:0:
64,192,97920,1,0,0:0:0:0:
64,192,98070,1,0,0:0:0:0:
192,192,99420,1,0,0:0:0:0:
448,192,100020,1,0,0:0:0:0:
192,192,100620,1,0,0:0:0:0:
448,192,100620,1,0,0:0:0:0:
64,192,101220,1,0,0:0:0:0:
192,192,101820,1,0,0:0:0:0:
64,192,101838,1,0,0:0:0:0:
448,192,101838,1,0,0:0:0:0:
320,192,101970,1,0,0:0:0:0:
448,192,102120,1,0,0:0:0:0:
192,192,102270,1,0,0:0:0:0:
64,192,103020,1,0,0:0:0:0:
192,192,104220,1,0,0:0:0:0:
320,192,104220,1,0,0:0:0:0:
64,192,104238,1,0,0:0:0:0:
448,192,104238,1,0,0:0:0:0:
192,192,105420,1,0,0:0:0:0:
320,192,105438,1,0,0:0:0:0:
448,192,105445,1,0,0:0:0:0:
64,0,105457,128,0,105720:1:0:0:0:
192,0,105720,128,0,106020:1:0:0:0:
320,0,106020,128,0,106320:1:0:0:0:
64,192,106320,1,0,0:0:0:0:
448,0,106320,128,0,106470:1:0:0:0:
192,192,106395,1,0,0:0:0:0:
320,192,106470,1,0,0:0:0:0:
64,192,106545,1,0,0:0:0:0:
192,192,106620,1,0,0:0:0:0:
448,192,106620,1,0,0:0:0:0:
320,0,106620,128,0,107520:1:0:0:0:
64,0,107520,128,0,109020:1:0:0:0:
448,192,109020,1,0,0:0:0:0:
320,0,109020,128,0,110220:1:0:0:0:
192,0,110220,128,0,110820:1:0:0:0:
64,0,110820,128,0,111420:1:0:0:0:
448,192,111420,1,0,0:0:0:0:
320,0,111420,128,0,112020:1:0:0:0:
64,0,112020,128,0,112620:1:0:0:0:
448,192,112620,1,0,0:0:0:0:
320,0,112620,128,0,113070:1:0:0:0:
64,0,113070,128,0,113520:1:0:0:0:
192,0,113520,128,0,113820:1:0:0:0:
64,192,113820,1,0,0:0:0:0:
448,0,113820,128,0,115020:1:0:0:0:
320,192,113970,1,0,0:0:0:0:
64,192,114120,1,0,0:0:0:0:
192,192,114270,1,0,0:0:0:0:
192,192,115020,1,0,0:0:0:0:
320,0,115020,128,0,115620:1:0:0:0:
64,0,115620,128,0,116201:1:0:0:0:
192,192,115770,1,0,0:0:0:0:
320,192,115845,1,0,0:0:0:0:
448,192,115920,1,0,0:0:0:0:
192,192,115995,1,0,0:0:0:0:
320,192,116070,1,0,0:0:0:0:
448,192,116145,1,0,0:0:0:0:
192,192,116220,1,0,0:0:0:0:
320,192,116220,1,0,0:0:0:0:
448,192,118620,1,0,0:0:0:0:
192,0,118620,128,0,119820:1:0:0:0:
64,192,118770,1,0,0:0:0:0:
320,192,118920,1,0,0:0:0:0:
448,192,119070,1,0,0:0:0:0:
448,0,119820,128,0,121020:1:0:0:0:
64,192,120120,1,0,0:0:0:0:
192,192,120195,1,0,0:0:0:0:
320,192,120270,1,0,0:0:0:0:
64,192,120345,1,0,0:0:0:0:
192,192,120420,1,0,0:0:0:0:
320,192,120495,1,0,0:0:0:0:
64,192,120570,1,0,0:0:0:0:
192,192,120645,1,0,0:0:0:0:
320,192,120720,1,0,0:0:0:0:
64,192,120795,1,0,0:0:0:0:
192,192,120870,1,0,0:0:0:0:
320,192,120945,1,0,0:0:0:0:
64,192,121020,1,0,0:0:0:0:
192,0,121020,128,0,121920:1:0:0:0:
320,192,121320,1,0,0:0:0:0:
448,192,121320,1,0,0:0:0:0:
64,192,121770,1,0,0:0:0:0:
320,192,121920,1,0,0:0:0:0:
448,192,121920,1,0,0:0:0:0:
64,192,122070,1,0,0:0:0:0:
320,192,122220,1,0,0:0:0:0:
64,0,122220,128,0,123120:1:0:0:0:
192,192,122520,1,0,0:0:0:0:
448,192,122520,1,0,0:0:0:0:
320,192,122820,1,0,0:0:0:0:
320,192,122895,1,0,0:0:0:0:
192,192,122970,1,0,0:0:0:0:
448,192,122970,1,0,0:0:0:0:
192,192,123120,1,0,0:0:0:0:
320,192,123120,1,0,0:0:0:0:
320,192,123270,1,0,0:0:0:0:
320,192,123345,1,0,0:0:0:0:
192,192,123420,1,0,0:0:0:0:
448,192,123420,1,0,0:0:0:0:
320,192,123570,1,0,0:0:0:0:
64,192,123645,1,0,0:0:0:0:
448,192,123645,1,0,0:0:0:0:
192,192,123870,1,0,0:0:0:0:
320,192,123870,1,0,0:0:0:0:
448,192,124020,1,0,0:0:0:0:
320,192,124095,1,0,0:0:0:0:
192,192,124170,1,0,0:0:0:0:
64,192,124207,1,0,0:0:0:0:
192,192,124245,1,0,0:0:0:0:
320,192,124282,1,0,0:0:0:0:
448,192,124320,1,0,0:0:0:0:
64,192,124395,1,0,0:0:0:0:
192,192,124470,1,0,0:0:0:0:
320,192,124545,1,0,0:0:0:0:
64,192,124620,1,0,0:0:0:0:
192,192,124620,1,0,0:0:0:0:
448,192,124620,1,0,0:0:0:0:
320,192,124657,1,0,0:0:0:0:
448,192,124695,1,0,0:0:0:0:
64,192,124732,1,0,0:0:0:0:
320,192,124770,1,0,0:0:0:0:
192,192,124807,1,0,0:0:0:0:
64,192,124845,1,0,0:0:0:0:
448,192,124882,1,0,0:0:0:0:
320,192,124920,1,0,0:0:0:0:
192,192,124957,1,0,0:0:0:0:
448,192,124995,1,0,0:0:0:0:
64,192,125032,1,0,0:0:0:0:
320,192,125070,1,0,0:0:0:0:
448,192,125107,1,0,0:0:0:0:
192,192,125145,1,0,0:0:0:0:
64,192,125182,1,0,0:0:0:0:
320,192,125220,1,0,0:0:0:0:
448,192,125257,1,0,0:0:0:0:
192,192,125295,1,0,0:0:0:0:
320,192,125332,1,0,0:0:0:0:
64,192,125370,1,0,0:0:0:0:
192,192,125407,1,0,0:0:0:0:
448,192,125445,1,0,0:0:0:0:
320,192,125482,1,0,0:0:0:0:
64,192,125520,1,0,0:0:0:0:
192,192,125520,1,0,0:0:0:0:
448,192,125520,1,0,0:0:0:0:
64,192,125820,1,0,0:0:0:0:
320,192,125820,1,0,0:0:0:0:
448,192,125820,1,0,0:0:0:0:
192,192,125895,1,0,0:0:0:0:
320,192,125970,1,0,0:0:0:0:
448,192,126045,1,0,0:0:0:0:
64,192,126120,1,0,0:0:0:0:
192,192,126120,1,0,0:0:0:0:
320,192,126120,1,0,0:0:0:0:
448,192,126195,1,0,0:0:0:0:
320,192,126270,1,0,0:0:0:0:
192,192,126345,1,0,0:0:0:0:
64,192,126420,1,0,0:0:0:0:
192,192,126495,1,0,0:0:0:0:
320,192,126570,1,0,0:0:0:0:
448,192,126645,1,0,0:0:0:0:
64,192,126720,1,0,0:0:0:0:
192,192,126720,1,0,0:0:0:0:
320,192,126720,1,0,0:0:0:0:
448,192,126795,1,0,0:0:0:0:
320,192,126870,1,0,0:0:0:0:
192,192,126945,1,0,0:0:0:0:
64,192,127020,1,0,0:0:0:0:
192,192,127095,1,0,0:0:0:0:
320,192,127170,1,0,0:0:0:0:
448,192,127245,1,0,0:0:0:0:
64,192,127320,1,0,0:0:0:0:
192,192,127320,1,0,0:0:0:0:
320,192,127320,1,0,0:0:0:0:
448,192,127395,1,0,0:0:0:0:
320,192,127470,1,0,0:0:0:0:
192,192,127545,1,0,0:0:0:0:
64,192,127620,1,0,0:0:0:0:
192,192,127695,1,0,0:0:0:0:
320,192,127770,1,0,0:0:0:0:
448,192,127845,1,0,0:0:0:0:
64,192,127920,1,0,0:0:0:0:
192,192,127920,1,0,0:0:0:0:
320,192,127920,1,0,0:0:0:0:
448,192,127995,1,0,0:0:0:0:
320,192,128070,1,0,0:0:0:0:
192,192,128145,1,0,0:0:0:0:
64,192,128220,1,0,0:0:0:0:
192,192,128295,1,0,0:0:0:0:
320,192,128370,1,0,0:0:0:0:
448,192,128445,1,0,0:0:0:0:
64,192,128520,1,0,0:0:0:0:
192,192,128520,1,0,0:0:0:0:
320,192,128520,1,0,0:0:0:0:
448,192,128595,1,0,0:0:0:0:
64,192,128670,1,0,0:0:0:0:
192,192,128745,1,0,0:0:0:0:
320,192,128745,1,0,0:0:0:0:
448,192,128745,1,0,0:0:0:0:
64,192,128820,1,0,0:0:0:0:
192,192,128895,1,0,0:0:0:0:
320,192,128970,1,0,0:0:0:0:
448,192,129045,1,0,0:0:0:0:
64,192,129120,1,0,0:0:0:0:
192,192,129120,1,0,0:0:0:0:
320,192,129120,1,0,0:0:0:0:
448,192,129195,1,0,0:0:0:0:
320,192,129270,1,0,0:0:0:0:
192,192,129345,1,0,0:0:0:0:
64,192,129420,1,0,0:0:0:0:
192,192,129495,1,0,0:0:0:0:
320,192,129570,1,0,0:0:0:0:
448,192,129645,1,0,0:0:0:0:
64,192,129720,1,0,0:0:0:0:
192,192,129720,1,0,0:0:0:0:
320,192,129720,1,0,0:0:0:0:
448,192,129795,1,0,0:0:0:0:
320,192,129870,1,0,0:0:0:0:
192,192,129945,1,0,0:0:0:0:
64,192,130020,1,0,0:0:0:0:
192,192,130095,1,0,0:0:0:0:
320,192,130170,1,0,0:0:0:0:
448,192,130245,1,0,0:0:0:0:
64,192,130320,1,0,0:0:0:0:
192,192,130320,1,0,0:0:0:0:
320,192,130320,1,0,0:0:0:0:
448,192,130395,1,0,0:0:0:0:
64,192,130470,1,0,0:0:0:0:
320,192,130470,1,0,0:0:0:0:
192,192,130545,1,0,0:0:0:0:
64,192,130620,1,0,0:0:0:0:
448,192,130620,1,0,0:0:0:0:
192,192,130695,1,0,0:0:0:0:
320,192,130770,1,0,0:0:0:0:
448,192,130770,1,0,0:0:0:0:
192,192,130845,1,0,0:0:0:0:
64,192,130920,1,0,0:0:0:0:
320,192,130920,1,0,0:0:0:0:
448,192,130920,1,0,0:0:0:0:
192,192,130995,1,0,0:0:0:0:
64,192,131070,1,0,0:0:0:0:
320,192,131070,1,0,0:0:0:0:
192,192,131145,1,0,0:0:0:0:
448,192,131145,1,0,0:0:0:0:
320,192,131220,1,0,0:0:0:0:
192,192,131295,1,0,0:0:0:0:
64,192,131370,1,0,0:0:0:0:
448,192,131445,1,0,0:0:0:0:
64,192,131520,1,0,0:0:0:0:
192,192,131520,1,0,0:0:0:0:
320,192,131520,1,0,0:0:0:0:
448,192,131595,1,0,0:0:0:0:
320,192,131670,1,0,0:0:0:0:
192,192,131745,1,0,0:0:0:0:
64,192,131820,1,0,0:0:0:0:
192,192,131895,1,0,0:0:0:0:
320,192,131970,1,0,0:0:0:0:
448,192,132045,1,0,0:0:0:0:
64,192,132120,1,0,0:0:0:0:
192,192,132120,1,0,0:0:0:0:
320,192,132120,1,0,0:0:0:0:
448,192,132195,1,0,0:0:0:0:
320,192,132270,1,0,0:0:0:0:
192,192,132345,1,0,0:0:0:0:
