osu file format v13

[General]
AudioFilename: Earth Quake.mp3
AudioLeadIn: 2
PreviewTime: 28791
Countdown: 0
SampleSet: None
StackLeniency: 0.7
Mode: 3
LetterboxInBreaks: 0
SpecialStyle: 0
WidescreenStoryboard: 0

[Editor]
DistanceSpacing: 0.8
BeatDivisor: 12
GridSize: 8
TimelineZoom: 1

[Metadata]
Title:4K Challenge Pack
TitleUnicode:4K Challenge Pack
Artist:xeona
ArtistUnicode:xeona
Creator:Anoex
Version:KAZE.o2SE---Earth Quake
Source:
Tags:
BeatmapID:470544
BeatmapSetID:198334

[Difficulty]
HPDrainRate:5
CircleSize:4
OverallDifficulty:7
ApproachRate:10
SliderMultiplier:1.4
SliderTickRate:1

[Events]
//Background and Video events
0,0,"Earth Quake.jpg",0,0
//Break Periods
//Storyboard Layer 0 (Background)
//Storyboard Layer 1 (Fail)
//Storyboard Layer 2 (Pass)
//Storyboard Layer 3 (Foreground)
//Storyboard Sound Samples
//Background Colour Transformations
3,100,163,162,255

[TimingPoints]
16094,400,4,2,0,15,1,0

[HitObjects]
320,192,16069,5,0,0:0:0:0:
448,192,16069,1,0,0:0:0:0:
64,0,16069,128,0,16319:1:0:0:0:
192,0,16069,128,0,17669:1:0:0:0:
448,0,16319,128,0,16594:1:0:0:0:
320,0,16594,128,0,16869:1:0:0:0:
64,0,16869,128,0,17119:1:0:0:0:
448,0,17119,128,0,17394:1:0:0:0:
64,0,17394,128,0,17669:1:0:0:0:
448,0,17669,128,0,17919:1:0:0:0:
320,0,17669,128,0,19269:1:0:0:0:
64,0,17919,128,0,18194:1:0:0:0:
192,0,18194,128,0,18469:1:0:0:0:
448,0,18469,128,0,18719:1:0:0:0:
64,0,18719,128,0,18994:1:0:0:0:
448,0,18994,128,0,19269:1:0:0:0:
192,0,19269,128,0,19519:1:0:0:0:
64,0,19269,128,0,20869:1:0:0:0:
320,0,19519,128,0,19794:1:0:0:0:
448,0,19794,128,0,20069:1:0:0:0:
320,0,20069,128,0,20319:1:0:0:0:
192,0,20319,128,0,20594:1:0:0:0:
320,0,20594,128,0,20869:1:0:0:0:
192,0,20869,128,0,21119:1:0:0:0:
448,0,20869,128,0,22469:1:0:0:0:
64,0,21119,128,0,21394:1:0:0:0:
320,0,21394,128,0,21669:1:0:0:0:
192,0,21669,128,0,21919:1:0:0:0:
64,0,21919,128,0,22194:1:0:0:0:
320,0,22194,128,0,22469:1:0:0:0:
64,192,22469,1,0,0:0:0:0:
192,192,22469,1,0,0:0:0:0:
64,192,22569,1,0,0:0:0:0:
320,192,22569,1,0,0:0:0:0:
192,0,22669,128,0,22869:1:0:0:0:
320,0,22669,128,0,22869:1:0:0:0:
448,0,22669,128,0,22869:1:0:0:0:
64,192,22869,1,0,0:0:0:0:
192,192,23069,1,0,0:0:0:0:
448,192,23069,1,0,0:0:0:0:
192,192,23169,1,0,0:0:0:0:
320,192,23169,1,0,0:0:0:0:
64,0,23269,128,0,23469:1:0:0:0:
320,0,23269,128,0,23469:1:0:0:0:
448,0,23269,128,0,23469:1:0:0:0:
64,192,23669,1,0,0:0:0:0:
192,192,23669,1,0,0:0:0:0:
64,192,23769,1,0,0:0:0:0:
320,192,23769,1,0,0:0:0:0:
192,0,23869,128,0,24069:1:0:0:0:
320,0,23869,128,0,24069:1:0:0:0:
448,0,23869,128,0,24069:1:0:0:0:
192,192,24269,1,0,0:0:0:0:
448,192,24269,1,0,0:0:0:0:
320,192,24369,1,0,0:0:0:0:
448,192,24369,1,0,0:0:0:0:
64,0,24469,128,0,24669:1:0:0:0:
192,0,24469,128,0,24669:1:0:0:0:
320,0,24469,128,0,24669:1:0:0:0:
64,192,24869,1,0,0:0:0:0:
192,192,24869,1,0,0:0:0:0:
64,192,24969,1,0,0:0:0:0:
320,192,24969,1,0,0:0:0:0:
192,192,25069,1,0,0:0:0:0:
320,192,25069,1,0,0:0:0:0:
192,192,25169,1,0,0:0:0:0:
448,192,25169,1,0,0:0:0:0:
64,192,25269,1,0,0:0:0:0:
448,192,25269,1,0,0:0:0:0:
64,192,25369,1,0,0:0:0:0:
192,192,25369,1,0,0:0:0:0:
192,192,25469,1,0,0:0:0:0:
320,192,25469,1,0,0:0:0:0:
320,192,25569,1,0,0:0:0:0:
448,192,25569,1,0,0:0:0:0:
64,192,25669,1,0,0:0:0:0:
448,192,25669,1,0,0:0:0:0:
64,192,25769,1,0,0:0:0:0:
320,192,25769,1,0,0:0:0:0:
192,0,25869,128,0,26069:1:0:0:0:
320,0,25869,128,0,26069:1:0:0:0:
448,0,25869,128,0,26069:1:0:0:0:
64,192,26069,1,0,0:0:0:0:
64,192,26269,1,0,0:0:0:0:
448,192,26269,1,0,0:0:0:0:
320,192,26369,1,0,0:0:0:0:
448,192,26369,1,0,0:0:0:0:
64,0,26469,128,0,26669:1:0:0:0:
192,0,26469,128,0,26669:1:0:0:0:
320,0,26469,128,0,26669:1:0:0:0:
64,192,26869,1,0,0:0:0:0:
192,192,26869,1,0,0:0:0:0:
64,192,26969,1,0,0:0:0:0:
320,192,26969,1,0,0:0:0:0:
192,0,27069,128,0,27269:1:0:0:0:
320,0,27069,128,0,27269:1:0:0:0:
448,0,27069,128,0,27269:1:0:0:0:
192,192,27469,1,0,0:0:0:0:
448,192,27469,1,0,0:0:0:0:
320,192,27569,1,0,0:0:0:0:
448,192,27569,1,0,0:0:0:0:
64,0,27669,128,0,27869:1:0:0:0:
192,0,27669,128,0,27869:1:0:0:0:
320,0,27669,128,0,27869:1:0:0:0:
64,192,28069,1,0,0:0:0:0:
192,192,28069,1,0,0:0:0:0:
64,192,28169,1,0,0:0:0:0:
320,192,28169,1,0,0:0:0:0:
192,192,28269,1,0,0:0:0:0:
320,192,28269,1,0,0:0:0:0:
192,192,28369,1,0,0:0:0:0:
448,192,28369,1,0,0:0:0:0:
320,192,28469,1,0,0:0:0:0:
448,192,28469,1,0,0:0:0:0:
192,192,28569,1,0,0:0:0:0:
320,192,28569,1,0,0:0:0:0:
64,192,28669,1,0,0:0:0:0:
192,192,28669,1,0,0:0:0:0:
192,192,28769,1,0,0:0:0:0:
320,192,28769,1,0,0:0:0:0:
64,192,28869,1,0,0:0:0:0:
192,192,28869,1,0,0:0:0:0:
320,192,28869,1,0,0:0:0:0:
448,192,28869,1,0,0:0:0:0:
64,192,28969,1,0,0:0:0:0:
320,192,28969,1,0,0:0:0:0:
64,192,29069,1,0,0:0:0:0:
192,192,29069,1,0,0:0:0:0:
448,192,29169,1,0,0:0:0:0:
320,192,29194,1,0,0:0:0:0:
64,192,29244,1,0,0:0:0:0:
192,192,29269,1,0,0:0:0:0:
320,192,29369,1,0,0:0:0:0:
64,192,29469,1,0,0:0:0:0:
448,192,29469,1,0,0:0:0:0:
192,192,29569,1,0,0:0:0:0:
320,192,29669,1,0,0:0:0:0:
64,0,29669,128,0,29869:1:0:0:0:
192,192,29769,1,0,0:0:0:0:
448,192,29869,1,0,0:0:0:0:
320,192,29969,1,0,0:0:0:0:
64,192,30069,1,0,0:0:0:0:
192,192,30069,1,0,0:0:0:0:
448,192,30169,1,0,0:0:0:0:
64,0,30269,128,0,30469:1:0:0:0:
192,0,30269,128,0,30469:1:0:0:0:
320,192,30369,1,0,0:0:0:0:
320,192,30469,1,0,0:0:0:0:
448,192,30469,1,0,0:0:0:0:
448,192,30569,1,0,0:0:0:0:
64,192,30669,1,0,0:0:0:0:
320,192,30669,1,0,0:0:0:0:
192,192,30769,1,0,0:0:0:0:
448,192,30869,1,0,0:0:0:0:
64,0,30869,128,0,31069:1:0:0:0:
320,192,30944,1,0,0:0:0:0:
192,192,30969,1,0,0:0:0:0:
192,192,31069,1,0,0:0:0:0:
320,192,31169,1,0,0:0:0:0:
64,192,31269,1,0,0:0:0:0:
448,192,31269,1,0,0:0:0:0:
192,192,31369,1,0,0:0:0:0:
64,192,31469,1,0,0:0:0:0:
320,192,31469,1,0,0:0:0:0:
192,192,31569,1,0,0:0:0:0:
64,192,31669,1,0,0:0:0:0:
448,192,31669,1,0,0:0:0:0:
320,192,31769,1,0,0:0:0:0:
448,192,31794,1,0,0:0:0:0:
192,192,31869,1,0,0:0:0:0:
64,0,31869,128,0,32069:1:0:0:0:
192,192,31969,1,0,0:0:0:0:
320,192,32069,1,0,0:0:0:0:
448,192,32069,1,0,0:0:0:0:
64,192,32169,1,0,0:0:0:0:
448,192,32169,1,0,0:0:0:0:
320,192,32269,1,0,0:0:0:0:
448,0,32269,128,0,32469:1:0:0:0:
192,192,32369,1,0,0:0:0:0:
64,192,32469,1,0,0:0:0:0:
192,192,32544,1,0,0:0:0:0:
320,192,32569,1,0,0:0:0:0:
320,192,32669,1,0,0:0:0:0:
448,192,32669,1,0,0:0:0:0:
192,192,32769,1,0,0:0:0:0:
64,192,32869,1,0,0:0:0:0:
448,0,32869,128,0,33069:1:0:0:0:
320,192,32969,1,0,0:0:0:0:
192,192,33069,1,0,0:0:0:0:
320,192,33169,1,0,0:0:0:0:
64,192,33269,1,0,0:0:0:0:
448,192,33269,1,0,0:0:0:0:
192,192,33369,1,0,0:0:0:0:
64,192,33394,1,0,0:0:0:0:
320,192,33469,1,0,0:0:0:0:
448,0,33469,128,0,33669:1:0:0:0:
320,192,33569,1,0,0:0:0:0:
64,192,33669,1,0,0:0:0:0:
192,192,33669,1,0,0:0:0:0:
192,192,33769,1,0,0:0:0:0:
320,192,33869,1,0,0:0:0:0:
448,192,33869,1,0,0:0:0:0:
64,192,33969,1,0,0:0:0:0:
192,192,33994,1,0,0:0:0:0:
64,192,34069,1,0,0:0:0:0:
448,0,34069,128,0,34269:1:0:0:0:
320,192,34169,1,0,0:0:0:0:
192,192,34269,1,0,0:0:0:0:
64,192,34369,1,0,0:0:0:0:
320,192,34469,1,0,0:0:0:0:
448,192,34469,1,0,0:0:0:0:
192,192,34569,1,0,0:0:0:0:
64,192,34594,1,0,0:0:0:0:
320,192,34669,1,0,0:0:0:0:
448,192,34669,1,0,0:0:0:0:
64,192,34769,1,0,0:0:0:0:
192,192,34869,1,0,0:0:0:0:
448,192,34869,1,0,0:0:0:0:
320,192,34969,1,0,0:0:0:0:
64,192,35044,1,0,0:0:0:0:
192,192,35069,1,0,0:0:0:0:
448,192,35069,1,0,0:0:0:0:
192,192,35169,1,0,0:0:0:0:
320,192,35269,1,0,0:0:0:0:
448,0,35269,128,0,35469:1:0:0:0:
192,192,35369,1,0,0:0:0:0:
320,192,35369,1,0,0:0:0:0:
64,192,35469,1,0,0:0:0:0:
320,0,35469,128,0,35669:1:0:0:0:
64,192,35569,1,0,0:0:0:0:
448,192,35669,1,0,0:0:0:0:
192,192,35769,1,0,0:0:0:0:
320,192,35869,1,0,0:0:0:0:
448,192,35869,1,0,0:0:0:0:
64,192,35969,1,0,0:0:0:0:
192,192,36069,1,0,0:0:0:0:
320,0,36069,128,0,36269:1:0:0:0:
448,192,36169,1,0,0:0:0:0:
64,192,36269,1,0,0:0:0:0:
192,192,36369,1,0,0:0:0:0:
320,192,36469,1,0,0:0:0:0:
448,192,36469,1,0,0:0:0:0:
64,192,36494,1,0,0:0:0:0:
448,192,36569,1,0,0:0:0:0:
192,192,36669,1,0,0:0:0:0:
320,0,36669,128,0,36869:1:0:0:0:
64,192,36769,1,0,0:0:0:0:
448,192,36869,1,0,0:0:0:0:
192,192,36969,1,0,0:0:0:0:
320,192,37069,1,0,0:0:0:0:
448,192,37069,1,0,0:0:0:0:
64,192,37169,1,0,0:0:0:0:
192,192,37269,1,0,0:0:0:0:
320,0,37269,128,0,37469:1:0:0:0:
448,192,37369,1,0,0:0:0:0:
64,192,37469,1,0,0:0:0:0:
192,192,37569,1,0,0:0:0:0:
320,192,37669,1,0,0:0:0:0:
448,192,37669,1,0,0:0:0:0:
64,192,37694,1,0,0:0:0:0:
448,192,37769,1,0,0:0:0:0:
192,192,37869,1,0,0:0:0:0:
320,192,37869,1,0,0:0:0:0:
64,192,37969,1,0,0:0:0:0:
320,192,38069,1,0,0:0:0:0:
448,192,38069,1,0,0:0:0:0:
192,192,38169,1,0,0:0:0:0:
64,192,38194,1,0,0:0:0:0:
320,192,38269,1,0,0:0:0:0:
448,192,38269,1,0,0:0:0:0:
64,192,38369,1,0,0:0:0:0:
192,192,38469,1,0,0:0:0:0:
320,192,38469,1,0,0:0:0:0:
64,192,38569,1,0,0:0:0:0:
192,192,38569,1,0,0:0:0:0:
448,192,38669,1,0,0:0:0:0:
192,0,38669,128,0,38869:1:0:0:0:
320,192,38769,1,0,0:0:0:0:
64,192,38869,1,0,0:0:0:0:
448,192,38969,1,0,0:0:0:0:
192,192,39069,1,0,0:0:0:0:
320,192,39069,1,0,0:0:0:0:
64,192,39144,1,0,0:0:0:0:
448,192,39169,1,0,0:0:0:0:
320,192,39269,1,0,0:0:0:0:
192,0,39269,128,0,39469:1:0:0:0:
448,192,39369,1,0,0:0:0:0:
64,192,39469,1,0,0:0:0:0:
320,192,39569,1,0,0:0:0:0:
64,192,39669,1,0,0:0:0:0:
192,192,39669,1,0,0:0:0:0:
448,192,39769,1,0,0:0:0:0:
320,192,39869,1,0,0:0:0:0:
192,0,39869,128,0,40069:1:0:0:0:
448,192,39919,1,0,0:0:0:0:
64,192,39969,1,0,0:0:0:0:
320,192,40069,1,0,0:0:0:0:
448,192,40169,1,0,0:0:0:0:
64,192,40269,1,0,0:0:0:0:
192,192,40269,1,0,0:0:0:0:
320,192,40369,1,0,0:0:0:0:
448,192,40469,1,0,0:0:0:0:
192,0,40469,128,0,40669:1:0:0:0:
64,192,40544,1,0,0:0:0:0:
448,192,40569,1,0,0:0:0:0:
320,192,40669,1,0,0:0:0:0:
64,192,40769,1,0,0:0:0:0:
192,192,40869,1,0,0:0:0:0:
448,192,40869,1,0,0:0:0:0:
448,192,40969,1,0,0:0:0:0:
64,192,40994,1,0,0:0:0:0:
192,192,41069,1,0,0:0:0:0:
320,192,41069,1,0,0:0:0:0:
64,192,41169,1,0,0:0:0:0:
192,192,41269,1,0,0:0:0:0:
448,192,41269,1,0,0:0:0:0:
320,192,41294,1,0,0:0:0:0:
64,192,41369,1,0,0:0:0:0:
64,192,41469,1,0,0:0:0:0:
192,192,41469,1,0,0:0:0:0:
320,192,41569,1,0,0:0:0:0:
448,192,41669,1,0,0:0:0:0:
64,0,41669,128,0,41769:1:0:0:0:
320,192,41769,1,0,0:0:0:0:
192,192,41869,1,0,0:0:0:0:
64,0,41869,128,0,41969:1:0:0:0:
448,192,41969,1,0,0:0:0:0:
64,192,42069,1,0,0:0:0:0:
320,192,42069,1,0,0:0:0:0:
64,192,42169,1,0,0:0:0:0:
192,192,42169,1,0,0:0:0:0:
448,192,42269,1,0,0:0:0:0:
64,0,42269,128,0,42369:1:0:0:0:
320,192,42369,1,0,0:0:0:0:
192,192,42469,1,0,0:0:0:0:
64,0,42469,128,0,42569:1:0:0:0:
448,192,42569,1,0,0:0:0:0:
320,192,42669,1,0,0:0:0:0:
64,0,42669,128,0,42769:1:0:0:0:
192,192,42769,1,0,0:0:0:0:
64,192,42869,1,0,0:0:0:0:
448,192,42869,1,0,0:0:0:0:
64,192,42969,1,0,0:0:0:0:
320,192,42969,1,0,0:0:0:0:
192,192,43069,1,0,0:0:0:0:
64,0,43069,128,0,43169:1:0:0:0:
320,192,43169,1,0,0:0:0:0:
448,192,43169,1,0,0:0:0:0:
64,192,43269,1,0,0:0:0:0:
448,0,43269,128,0,43369:1:0:0:0:
192,192,43369,1,0,0:0:0:0:
320,192,43469,1,0,0:0:0:0:
448,0,43469,128,0,43569:1:0:0:0:
64,192,43569,1,0,0:0:0:0:
192,192,43669,1,0,0:0:0:0:
448,192,43669,1,0,0:0:0:0:
320,192,43769,1,0,0:0:0:0:
448,192,43769,1,0,0:0:0:0:
64,192,43869,1,0,0:0:0:0:
448,0,43869,128,0,43969:1:0:0:0:
192,192,43969,1,0,0:0:0:0:
320,192,44069,1,0,0:0:0:0:
448,0,44069,128,0,44169:1:0:0:0:
64,192,44169,1,0,0:0:0:0:
192,192,44269,1,0,0:0:0:0:
448,0,44269,128,0,44369:1:0:0:0:
320,192,44369,1,0,0:0:0:0:
64,192,44469,1,0,0:0:0:0:
448,192,44469,1,0,0:0:0:0:
192,192,44569,1,0,0:0:0:0:
448,192,44569,1,0,0:0:0:0:
320,192,44669,1,0,0:0:0:0:
448,0,44669,128,0,44769:1:0:0:0:
64,192,44769,1,0,0:0:0:0:
192,192,44769,1,0,0:0:0:0:
448,192,44869,1,0,0:0:0:0:
192,0,44869,128,0,44969:1:0:0:0:
320,192,44969,1,0,0:0:0:0:
64,192,45069,1,0,0:0:0:0:
192,0,45069,128,0,45169:1:0:0:0:
448,192,45169,1,0,0:0:0:0:
192,192,45269,1,0,0:0:0:0:
320,192,45269,1,0,0:0:0:0:
64,192,45369,1,0,0:0:0:0:
192,192,45369,1,0,0:0:0:0:
448,192,45469,1,0,0:0:0:0:
192,0,45469,128,0,45569:1:0:0:0:
320,192,45569,1,0,0:0:0:0:
64,192,45669,1,0,0:0:0:0:
192,0,45669,128,0,45769:1:0:0:0:
448,192,45769,1,0,0:0:0:0:
320,192,45869,1,0,0:0:0:0:
192,0,45869,128,0,45969:1:0:0:0:
64,192,45969,1,0,0:0:0:0:
192,192,46069,1,0,0:0:0:0:
448,192,46069,1,0,0:0:0:0:
192,192,46169,1,0,0:0:0:0:
320,192,46169,1,0,0:0:0:0:
64,192,46269,1,0,0:0:0:0:
192,0,46269,128,0,46369:1:0:0:0:
320,192,46369,1,0,0:0:0:0:
448,192,46369,1,0,0:0:0:0:
64,192,46469,1,0,0:0:0:0:
320,0,46469,128,0,46569:1:0:0:0:
192,192,46569,1,0,0:0:0:0:
448,192,46669,1,0,0:0:0:0:
320,0,46669,128,0,46769:1:0:0:0:
64,192,46769,1,0,0:0:0:0:
192,192,46869,1,0,0:0:0:0:
320,192,46869,1,0,0:0:0:0:
320,192,46969,1,0,0:0:0:0:
448,192,46969,1,0,0:0:0:0:
64,192,47069,1,0,0:0:0:0:
320,0,47069,128,0,47169:1:0:0:0:
192,192,47169,1,0,0:0:0:0:
448,192,47269,1,0,0:0:0:0:
320,0,47269,128,0,47369:1:0:0:0:
64,192,47369,1,0,0:0:0:0:
192,192,47469,1,0,0:0:0:0:
320,0,47469,128,0,47569:1:0:0:0:
448,192,47569,1,0,0:0:0:0:
64,192,47669,1,0,0:0:0:0:
320,192,47669,1,0,0:0:0:0:
192,192,47769,1,0,0:0:0:0:
320,192,47769,1,0,0:0:0:0:
448,192,47869,1,0,0:0:0:0:
320,0,47869,128,0,47969:1:0:0:0:
64,192,47969,1,0,0:0:0:0:
192,192,47969,1,0,0:0:0:0:
64,192,48069,1,0,0:0:0:0:
192,192,48069,1,0,0:0:0:0:
448,192,48069,1,0,0:0:0:0:
192,192,48169,1,0,0:0:0:0:
320,192,48169,1,0,0:0:0:0:
320,192,48269,1,0,0:0:0:0:
448,192,48269,1,0,0:0:0:0:
64,192,48369,1,0,0:0:0:0:
448,192,48369,1,0,0:0:0:0:
64,192,48469,1,0,0:0:0:0:
320,192,48469,1,0,0:0:0:0:
448,192,48469,1,0,0:0:0:0:
192,192,48569,1,0,0:0:0:0:
320,192,48569,1,0,0:0:0:0:
64,192,48669,1,0,0:0:0:0:
192,192,48669,1,0,0:0:0:0:
64,192,48769,1,0,0:0:0:0:
448,192,48769,1,0,0:0:0:0:
320,192,48869,1,0,0:0:0:0:
448,192,48869,1,0,0:0:0:0:
192,192,48969,1,0,0:0:0:0:
320,192,48969,1,0,0:0:0:0:
192,192,49069,1,0,0:0:0:0:
448,192,49069,1,0,0:0:0:0:
64,192,49169,1,0,0:0:0:0:
320,192,49169,1,0,0:0:0:0:
64,192,49269,1,0,0:0:0:0:
192,192,49269,1,0,0:0:0:0:
448,192,49269,1,0,0:0:0:0:
192,192,49369,1,0,0:0:0:0:
448,192,49369,1,0,0:0:0:0:
320,192,49469,1,0,0:0:0:0:
448,192,49469,1,0,0:0:0:0:
192,192,49569,1,0,0:0:0:0:
320,192,49569,1,0,0:0:0:0:
64,192,49669,1,0,0:0:0:0:
192,192,49669,1,0,0:0:0:0:
64,192,49769,1,0,0:0:0:0:
448,192,49769,1,0,0:0:0:0:
192,192,49869,1,0,0:0:0:0:
320,192,49869,1,0,0:0:0:0:
320,192,49969,1,0,0:0:0:0:
448,192,49969,1,0,0:0:0:0:
64,192,50069,1,0,0:0:0:0:
192,192,50069,1,0,0:0:0:0:
448,192,50069,1,0,0:0:0:0:
192,192,50169,1,0,0:0:0:0:
320,192,50169,1,0,0:0:0:0:
64,192,50269,1,0,0:0:0:0:
192,192,50269,1,0,0:0:0:0:
64,192,50369,1,0,0:0:0:0:
448,192,50369,1,0,0:0:0:0:
192,192,50469,1,0,0:0:0:0:
320,192,50469,1,0,0:0:0:0:
64,192,50569,1,0,0:0:0:0:
192,192,50569,1,0,0:0:0:0:
64,192,50669,1,0,0:0:0:0:
320,192,50669,1,0,0:0:0:0:
192,192,50769,1,0,0:0:0:0:
320,192,50769,1,0,0:0:0:0:
64,192,50869,1,0,0:0:0:0:
192,192,50869,1,0,0:0:0:0:
448,192,50869,1,0,0:0:0:0:
64,192,50969,1,0,0:0:0:0:
448,192,50969,1,0,0:0:0:0:
64,192,51069,1,0,0:0:0:0:
192,192,51069,1,0,0:0:0:0:
192,192,51169,1,0,0:0:0:0:
320,192,51169,1,0,0:0:0:0:
320,192,51269,1,0,0:0:0:0:
448,192,51269,1,0,0:0:0:0:
192,192,51369,1,0,0:0:0:0:
448,192,51369,1,0,0:0:0:0:
192,192,51469,1,0,0:0:0:0:
320,192,51469,1,0,0:0:0:0:
64,192,51569,1,0,0:0:0:0:
320,192,51569,1,0,0:0:0:0:
64,192,51669,1,0,0:0:0:0:
192,192,51669,1,0,0:0:0:0:
448,192,51669,1,0,0:0:0:0:
192,192,51769,1,0,0:0:0:0:
448,192,51769,1,0,0:0:0:0:
64,192,51869,1,0,0:0:0:0:
320,192,51869,1,0,0:0:0:0:
64,192,51969,1,0,0:0:0:0:
192,192,51969,1,0,0:0:0:0:
192,192,52069,1,0,0:0:0:0:
448,192,52069,1,0,0:0:0:0:
320,192,52169,1,0,0:0:0:0:
448,192,52169,1,0,0:0:0:0:
192,192,52269,1,0,0:0:0:0:
320,192,52269,1,0,0:0:0:0:
64,192,52369,1,0,0:0:0:0:
192,192,52369,1,0,0:0:0:0:
64,192,52469,1,0,0:0:0:0:
320,192,52469,1,0,0:0:0:0:
448,192,52469,1,0,0:0:0:0:
192,192,52569,1,0,0:0:0:0:
320,192,52569,1,0,0:0:0:0:
64,192,52669,1,0,0:0:0:0:
192,192,52669,1,0,0:0:0:0:
64,192,52769,1,0,0:0:0:0:
448,192,52769,1,0,0:0:0:0:
192,192,52869,1,0,0:0:0:0:
448,192,52869,1,0,0:0:0:0:
192,192,52969,1,0,0:0:0:0:
320,192,52969,1,0,0:0:0:0:
64,192,53069,1,0,0:0:0:0:
320,192,53069,1,0,0:0:0:0:
64,192,53169,1,0,0:0:0:0:
192,192,53169,1,0,0:0:0:0:
64,192,53269,1,0,0:0:0:0:
192,192,53269,1,0,0:0:0:0:
448,192,53269,1,0,0:0:0:0:
320,192,53369,1,0,0:0:0:0:
448,192,53369,1,0,0:0:0:0:
192,192,53469,1,0,0:0:0:0:
320,192,53469,1,0,0:0:0:0:
64,192,53569,1,0,0:0:0:0:
192,192,53569,1,0,0:0:0:0:
64,192,53669,1,0,0:0:0:0:
448,192,53669,1,0,0:0:0:0:
64,192,53769,1,0,0:0:0:0:
320,192,53769,1,0,0:0:0:0:
320,192,53869,1,0,0:0:0:0:
448,192,53869,1,0,0:0:0:0:
192,192,53969,1,0,0:0:0:0:
320,192,53969,1,0,0:0:0:0:
64,192,54069,1,0,0:0:0:0:
192,192,54069,1,0,0:0:0:0:
448,192,54069,1,0,0:0:0:0:
64,192,54169,1,0,0:0:0:0:
320,192,54169,1,0,0:0:0:0:
192,192,54269,1,0,0:0:0:0:
320,192,54269,1,0,0:0:0:0:
192,192,54369,1,0,0:0:0:0:
448,192,54369,1,0,0:0:0:0:
64,192,54469,1,0,0:0:0:0:
192,192,54469,1,0,0:0:0:0:
320,192,54469,1,0,0:0:0:0:
448,192,54469,1,0,0:0:0:0:
320,192,54569,1,0,0:0:0:0:
448,192,54569,1,0,0:0:0:0:
192,192,54669,1,0,0:0:0:0:
320,192,54669,1,0,0:0:0:0:
64,192,54769,1,0,0:0:0:0:
192,192,54769,1,0,0:0:0:0:
64,192,54869,1,0,0:0:0:0:
320,192,54869,1,0,0:0:0:0:
448,192,54869,1,0,0:0:0:0:
192,192,54969,1,0,0:0:0:0:
320,192,54969,1,0,0:0:0:0:
64,192,55069,1,0,0:0:0:0:
192,192,55069,1,0,0:0:0:0:
320,192,55169,1,0,0:0:0:0:
448,192,55169,1,0,0:0:0:0:
64,192,55269,1,0,0:0:0:0:
448,192,55269,1,0,0:0:0:0:
192,192,55369,1,0,0:0:0:0:
320,192,55369,1,0,0:0:0:0:
64,192,55469,1,0,0:0:0:0:
448,192,55469,1,0,0:0:0:0:
64,192,55569,1,0,0:0:0:0:
192,192,55569,1,0,0:0:0:0:
64,192,55669,1,0,0:0:0:0:
192,192,55669,1,0,0:0:0:0:
320,192,55669,1,0,0:0:0:0:
320,192,55769,1,0,0:0:0:0:
448,192,55769,1,0,0:0:0:0:
64,192,55869,1,0,0:0:0:0:
192,192,55869,1,0,0:0:0:0:
320,192,55869,1,0,0:0:0:0:
448,192,55869,1,0,0:0:0:0:
64,192,55969,1,0,0:0:0:0:
192,192,55969,1,0,0:0:0:0:
64,192,56069,1,0,0:0:0:0:
320,192,56069,1,0,0:0:0:0:
448,192,56069,1,0,0:0:0:0:
192,0,56069,128,0,56469:1:0:0:0:
320,192,56169,1,0,0:0:0:0:
448,192,56169,1,0,0:0:0:0:
64,192,56269,1,0,0:0:0:0:
448,192,56269,1,0,0:0:0:0:
64,192,56369,1,0,0:0:0:0:
448,0,56369,128,0,56769:1:0:0:0:
64,192,56469,1,0,0:0:0:0:
320,192,56469,1,0,0:0:0:0:
320,192,56569,1,0,0:0:0:0:
64,0,56569,128,0,56769:1:0:0:0:
192,192,56669,1,0,0:0:0:0:
320,192,56669,1,0,0:0:0:0:
192,192,56769,1,0,0:0:0:0:
320,0,56769,128,0,57069:1:0:0:0:
64,192,56869,1,0,0:0:0:0:
192,192,56869,1,0,0:0:0:0:
64,192,56969,1,0,0:0:0:0:
192,0,56969,128,0,57269:1:0:0:0:
64,192,57069,1,0,0:0:0:0:
448,192,57069,1,0,0:0:0:0:
448,192,57169,1,0,0:0:0:0:
64,0,57169,128,0,57469:1:0:0:0:
320,192,57269,1,0,0:0:0:0:
448,192,57269,1,0,0:0:0:0:
320,192,57369,1,0,0:0:0:0:
448,0,57369,128,0,57869:1:0:0:0:
192,192,57469,1,0,0:0:0:0:
320,192,57469,1,0,0:0:0:0:
192,192,57569,1,0,0:0:0:0:
320,192,57569,1,0,0:0:0:0:
64,192,57669,1,0,0:0:0:0:
192,192,57669,1,0,0:0:0:0:
64,192,57769,1,0,0:0:0:0:
192,192,57769,1,0,0:0:0:0:
64,192,57869,1,0,0:0:0:0:
320,192,57869,1,0,0:0:0:0:
320,192,57969,1,0,0:0:0:0:
64,0,57969,128,0,58269:1:0:0:0:
192,192,58069,1,0,0:0:0:0:
320,192,58069,1,0,0:0:0:0:
192,192,58169,1,0,0:0:0:0:
320,0,58169,128,0,58669:1:0:0:0:
192,192,58269,1,0,0:0:0:0:
448,192,58269,1,0,0:0:0:0:
192,192,58369,1,0,0:0:0:0:
448,192,58369,1,0,0:0:0:0:
64,192,58469,1,0,0:0:0:0:
448,192,58469,1,0,0:0:0:0:
64,192,58569,1,0,0:0:0:0:
448,0,58569,128,0,58869:1:0:0:0:
64,192,58669,1,0,0:0:0:0:
192,192,58669,1,0,0:0:0:0:
192,192,58769,1,0,0:0:0:0:
64,0,58769,128,0,59469:1:0:0:0:
192,192,58869,1,0,0:0:0:0:
320,192,58869,1,0,0:0:0:0:
192,192,58969,1,0,0:0:0:0:
320,192,58969,1,0,0:0:0:0:
320,192,59069,1,0,0:0:0:0:
448,192,59069,1,0,0:0:0:0:
320,192,59169,1,0,0:0:0:0:
448,192,59169,1,0,0:0:0:0:
192,192,59269,1,0,0:0:0:0:
448,192,59269,1,0,0:0:0:0:
192,192,59369,1,0,0:0:0:0:
448,0,59369,128,0,59869:1:0:0:0:
192,192,59469,1,0,0:0:0:0:
320,192,59469,1,0,0:0:0:0:
192,192,59569,1,0,0:0:0:0:
320,192,59569,1,0,0:0:0:0:
64,192,59669,1,0,0:0:0:0:
320,192,59669,1,0,0:0:0:0:
64,192,59769,1,0,0:0:0:0:
320,0,59769,128,0,60469:1:0:0:0:
64,192,59869,1,0,0:0:0:0:
192,192,59869,1,0,0:0:0:0:
64,192,59969,1,0,0:0:0:0:
192,192,59969,1,0,0:0:0:0:
192,192,60069,1,0,0:0:0:0:
448,192,60069,1,0,0:0:0:0:
192,192,60169,1,0,0:0:0:0:
448,192,60169,1,0,0:0:0:0:
64,192,60269,1,0,0:0:0:0:
448,192,60269,1,0,0:0:0:0:
64,192,60369,1,0,0:0:0:0:
448,0,60369,128,0,60669:1:0:0:0:
64,192,60469,1,0,0:0:0:0:
192,192,60469,1,0,0:0:0:0:
64,192,60569,1,0,0:0:0:0:
192,192,60569,1,0,0:0:0:0:
192,192,60669,1,0,0:0:0:0:
320,192,60669,1,0,0:0:0:0:
192,192,60769,1,0,0:0:0:0:
320,192,60769,1,0,0:0:0:0:
192,192,60869,1,0,0:0:0:0:
320,192,60869,1,0,0:0:0:0:
448,192,60869,1,0,0:0:0:0:
64,0,60869,128,0,61069:1:0:0:0:
192,192,60919,1,0,0:0:0:0:
448,192,60969,1,0,0:0:0:0:
320,192,61069,1,0,0:0:0:0:
64,192,61119,1,0,0:0:0:0:
320,192,61169,1,0,0:0:0:0:
64,192,61269,1,0,0:0:0:0:
192,192,61269,1,0,0:0:0:0:
448,192,61319,1,0,0:0:0:0:
192,192,61369,1,0,0:0:0:0:
64,192,61469,1,0,0:0:0:0:
192,192,61519,1,0,0:0:0:0:
64,192,61569,1,0,0:0:0:0:
320,192,61669,1,0,0:0:0:0:
448,192,61719,1,0,0:0:0:0:
320,192,61769,1,0,0:0:0:0:
192,192,61869,1,0,0:0:0:0:
64,192,61919,1,0,0:0:0:0:
192,192,61969,1,0,0:0:0:0:
320,192,62069,1,0,0:0:0:0:
448,192,62069,1,0,0:0:0:0:
192,192,62119,1,0,0:0:0:0:
448,192,62169,1,0,0:0:0:0:
64,192,62269,1,0,0:0:0:0:
320,192,62319,1,0,0:0:0:0:
64,192,62369,1,0,0:0:0:0:
192,192,62469,1,0,0:0:0:0:
320,192,62469,1,0,0:0:0:0:
448,192,62519,1,0,0:0:0:0:
192,192,62569,1,0,0:0:0:0:
320,192,62669,1,0,0:0:0:0:
64,192,62719,1,0,0:0:0:0:
320,192,62769,1,0,0:0:0:0:
192,192,62869,1,0,0:0:0:0:
448,192,62869,1,0,0:0:0:0:
64,192,62919,1,0,0:0:0:0:
448,192,62969,1,0,0:0:0:0:
192,192,63069,1,0,0:0:0:0:
448,192,63119,1,0,0:0:0:0:
192,192,63169,1,0,0:0:0:0:
320,192,63269,1,0,0:0:0:0:
64,192,63319,1,0,0:0:0:0:
320,192,63369,1,0,0:0:0:0:
448,192,63469,1,0,0:0:0:0:
320,192,63519,1,0,0:0:0:0:
448,192,63569,1,0,0:0:0:0:
64,192,63669,1,0,0:0:0:0:
192,192,63669,1,0,0:0:0:0:
448,192,63719,1,0,0:0:0:0:
192,192,63769,1,0,0:0:0:0:
64,192,63869,1,0,0:0:0:0:
320,192,63919,1,0,0:0:0:0:
64,192,63969,1,0,0:0:0:0:
192,192,64069,1,0,0:0:0:0:
320,192,64069,1,0,0:0:0:0:
448,192,64119,1,0,0:0:0:0:
320,192,64169,1,0,0:0:0:0:
192,192,64269,1,0,0:0:0:0:
64,192,64319,1,0,0:0:0:0:
192,192,64369,1,0,0:0:0:0:
64,192,64469,1,0,0:0:0:0:
448,192,64469,1,0,0:0:0:0:
320,192,64519,1,0,0:0:0:0:
448,192,64569,1,0,0:0:0:0:
64,192,64669,1,0,0:0:0:0:
320,192,64719,1,0,0:0:0:0:
64,192,64769,1,0,0:0:0:0:
192,192,64869,1,0,0:0:0:0:
448,192,64919,1,0,0:0:0:0:
192,192,64969,1,0,0:0:0:0:
448,192,65069,1,0,0:0:0:0:
64,192,65119,1,0,0:0:0:0:
448,192,65169,1,0,0:0:0:0:
192,192,65269,1,0,0:0:0:0:
320,192,65269,1,0,0:0:0:0:
448,192,65319,1,0,0:0:0:0:
320,192,65369,1,0,0:0:0:0:
192,192,65469,1,0,0:0:0:0:
320,192,65519,1,0,0:0:0:0:
192,192,65569,1,0,0:0:0:0:
64,192,65669,1,0,0:0:0:0:
320,192,65669,1,0,0:0:0:0:
448,192,65719,1,0,0:0:0:0:
64,192,65769,1,0,0:0:0:0:
320,192,65869,1,0,0:0:0:0:
192,192,65919,1,0,0:0:0:0:
320,192,65969,1,0,0:0:0:0:
64,192,66069,1,0,0:0:0:0:
448,192,66069,1,0,0:0:0:0:
320,192,66119,1,0,0:0:0:0:
448,192,66169,1,0,0:0:0:0:
192,192,66269,1,0,0:0:0:0:
64,192,66319,1,0,0:0:0:0:
192,192,66369,1,0,0:0:0:0:
320,192,66469,1,0,0:0:0:0:
448,192,66519,1,0,0:0:0:0:
320,192,66569,1,0,0:0:0:0:
64,192,66669,1,0,0:0:0:0:
192,192,66719,1,0,0:0:0:0:
64,192,66769,1,0,0:0:0:0:
192,192,66869,1,0,0:0:0:0:
448,192,66869,1,0,0:0:0:0:
64,192,66919,1,0,0:0:0:0:
448,192,66969,1,0,0:0:0:0:
320,192,67069,1,0,0:0:0:0:
448,192,67119,1,0,0:0:0:0:
320,192,67169,1,0,0:0:0:0:
64,192,67269,1,0,0:0:0:0:
192,192,67269,1,0,0:0:0:0:
448,192,67319,1,0,0:0:0:0:
192,192,67369,1,0,0:0:0:0:
64,192,67469,1,0,0:0:0:0:
192,192,67519,1,0,0:0:0:0:
64,192,67569,1,0,0:0:0:0:
320,192,67669,1,0,0:0:0:0:
448,192,67669,1,0,0:0:0:0:
64,192,67719,1,0,0:0:0:0:
320,192,67769,1,0,0:0:0:0:
192,192,67869,1,0,0:0:0:0:
448,192,67919,1,0,0:0:0:0:
192,192,67969,1,0,0:0:0:0:
64,192,68069,1,0,0:0:0:0:
448,192,68069,1,0,0:0:0:0:
320,192,68119,1,0,0:0:0:0:
448,192,68169,1,0,0:0:0:0:
64,192,68269,1,0,0:0:0:0:
448,192,68319,1,0,0:0:0:0:
64,192,68369,1,0,0:0:0:0:
192,192,68469,1,0,0:0:0:0:
320,192,68519,1,0,0:0:0:0:
192,192,68569,1,0,0:0:0:0:
320,192,68669,1,0,0:0:0:0:
64,192,68719,1,0,0:0:0:0:
320,192,68769,1,0,0:0:0:0:
192,192,68869,1,0,0:0:0:0:
448,192,68869,1,0,0:0:0:0:
64,192,68919,1,0,0:0:0:0:
448,192,68969,1,0,0:0:0:0:
192,192,69069,1,0,0:0:0:0:
448,192,69119,1,0,0:0:0:0:
192,192,69169,1,0,0:0:0:0:
320,192,69269,1,0,0:0:0:0:
448,192,69269,1,0,0:0:0:0:
192,192,69319,1,0,0:0:0:0:
320,192,69369,1,0,0:0:0:0:
64,192,69469,1,0,0:0:0:0:
320,192,69519,1,0,0:0:0:0:
64,192,69569,1,0,0:0:0:0:
192,192,69669,1,0,0:0:0:0:
448,192,69669,1,0,0:0:0:0:
64,192,69719,1,0,0:0:0:0:
448,192,69769,1,0,0:0:0:0:
320,192,69869,1,0,0:0:0:0:
448,192,69919,1,0,0:0:0:0:
320,192,69969,1,0,0:0:0:0:
64,192,70069,1,0,0:0:0:0:
192,192,70069,1,0,0:0:0:0:
448,192,70119,1,0,0:0:0:0:
192,192,70169,1,0,0:0:0:0:
64,192,70269,1,0,0:0:0:0:
320,192,70319,1,0,0:0:0:0:
64,192,70369,1,0,0:0:0:0:
320,192,70419,1,0,0:0:0:0:
64,192,70469,1,0,0:0:0:0:
192,192,70469,1,0,0:0:0:0:
320,192,70469,1,0,0:0:0:0:
448,192,70469,1,0,0:0:0:0:
64,192,70569,1,0,0:0:0:0:
192,192,70569,1,0,0:0:0:0:
320,192,70569,1,0,0:0:0:0:
448,192,70569,1,0,0:0:0:0:
64,192,70769,1,0,0:0:0:0:
192,192,70769,1,0,0:0:0:0:
320,192,70769,1,0,0:0:0:0:
448,192,70769,1,0,0:0:0:0:
64,192,70869,1,0,0:0:0:0:
192,192,70869,1,0,0:0:0:0:
320,192,70869,1,0,0:0:0:0:
448,192,70869,1,0,0:0:0:0:
64,192,71069,1,0,0:0:0:0:
192,192,71069,1,0,0:0:0:0:
320,192,71069,1,0,0:0:0:0:
448,192,71069,1,0,0:0:0:0:
64,192,71269,1,0,0:0:0:0:
192,192,71269,1,0,0:0:0:0:
320,192,71269,1,0,0:0:0:0:
448,192,71269,1,0,0:0:0:0:
64,192,71369,1,0,0:0:0:0:
192,192,71369,1,0,0:0:0:0:
320,192,71369,1,0,0:0:0:0:
448,192,71369,1,0,0:0:0:0:
64,192,71569,1,0,0:0:0:0:
192,192,71569,1,0,0:0:0:0:
320,192,71569,1,0,0:0:0:0:
448,192,71569,1,0,0:0:0:0:
64,192,71669,1,0,0:0:0:0:
192,192,71669,1,0,0:0:0:0:
320,192,71669,1,0,0:0:0:0:
448,192,71669,1,0,0:0:0:0:
64,0,71869,128,0,72069:1:0:0:0:
192,0,71869,128,0,72069:1:0:0:0:
320,0,71869,128,0,72069:1:0:0:0:
448,0,71869,128,0,72069:1:0:0:0:
64,192,72269,1,0,0:0:0:0:
192,192,72269,1,0,0:0:0:0:
320,192,72269,1,0,0:0:0:0:
448,192,72269,1,0,0:0:0:0:
64,192,72369,1,0,0:0:0:0:
192,192,72369,1,0,0:0:0:0:
320,192,72369,1,0,0:0:0:0:
448,192,72369,1,0,0:0:0:0:
64,0,72469,128,0,72569:1:0:0:0:
192,0,72469,128,0,72569:1:0:0:0:
320,0,72469,128,0,72569:1:0:0:0:
448,0,72469,128,0,72569:1:0:0:0:
64,192,72669,1,0,0:0:0:0:
192,192,72669,1,0,0:0:0:0:
320,192,72669,1,0,0:0:0:0:
448,192,72669,1,0,0:0:0:0:
64,192,72869,1,0,0:0:0:0:
192,192,72869,1,0,0:0:0:0:
320,192,72869,1,0,0:0:0:0:
448,192,72869,1,0,0:0:0:0:
64,192,72969,1,0,0:0:0:0:
192,192,72969,1,0,0:0:0:0:
320,192,72969,1,0,0:0:0:0:
448,192,72969,1,0,0:0:0:0:
64,192,73169,1,0,0:0:0:0:
192,192,73169,1,0,0:0:0:0:
320,192,73169,1,0,0:0:0:0:
448,192,73169,1,0,0:0:0:0:
64,192,73269,1,0,0:0:0:0:
192,192,73269,1,0,0:0:0:0:
320,192,73269,1,0,0:0:0:0:
448,192,73269,1,0,0:0:0:0:
64,0,73469,128,0,73569:1:0:0:0:
192,0,73469,128,0,73569:1:0:0:0:
320,0,73469,128,0,73569:1:0:0:0:
448,0,73469,128,0,73569:1:0:0:0:
64,192,73669,1,0,0:0:0:0:
448,192,73669,1,0,0:0:0:0:
192,192,73719,1,0,0:0:0:0:
320,192,73769,1,0,0:0:0:0:
64,192,73819,1,0,0:0:0:0:
448,192,73869,1,0,0:0:0:0:
320,192,73919,1,0,0:0:0:0:
192,192,73969,1,0,0:0:0:0:
64,192,74069,1,0,0:0:0:0:
448,192,74069,1,0,0:0:0:0:
320,192,74119,1,0,0:0:0:0:
448,192,74169,1,0,0:0:0:0:
192,192,74269,1,0,0:0:0:0:
64,192,74319,1,0,0:0:0:0:
320,192,74369,1,0,0:0:0:0:
192,192,74469,1,0,0:0:0:0:
448,192,74519,1,0,0:0:0:0:
320,192,74569,1,0,0:0:0:0:
192,192,74669,1,0,0:0:0:0:
64,192,74719,1,0,0:0:0:0:
448,192,74769,1,0,0:0:0:0:
64,192,74869,1,0,0:0:0:0:
192,192,74869,1,0,0:0:0:0:
320,192,74919,1,0,0:0:0:0:
64,192,74969,1,0,0:0:0:0:
448,192,75069,1,0,0:0:0:0:
320,192,75119,1,0,0:0:0:0:
192,192,75169,1,0,0:0:0:0:
320,192,75269,1,0,0:0:0:0:
448,192,75269,1,0,0:0:0:0:
64,192,75319,1,0,0:0:0:0:
192,192,75369,1,0,0:0:0:0:
320,192,75469,1,0,0:0:0:0:
448,192,75519,1,0,0:0:0:0:
64,192,75569,1,0,0:0:0:0:
192,192,75669,1,0,0:0:0:0:
448,192,75669,1,0,0:0:0:0:
64,192,75719,1,0,0:0:0:0:
320,192,75769,1,0,0:0:0:0:
192,192,75869,1,0,0:0:0:0:
448,192,75919,1,0,0:0:0:0:
320,192,75969,1,0,0:0:0:0:
64,192,76069,1,0,0:0:0:0:
320,192,76119,1,0,0:0:0:0:
448,192,76169,1,0,0:0:0:0:
192,192,76269,1,0,0:0:0:0:
64,192,76319,1,0,0:0:0:0:
320,192,76369,1,0,0:0:0:0:
64,192,76469,1,0,0:0:0:0:
448,192,76469,1,0,0:0:0:0:
320,192,76519,1,0,0:0:0:0:
192,192,76569,1,0,0:0:0:0:
64,192,76669,1,0,0:0:0:0:
448,192,76719,1,0,0:0:0:0:
320,192,76769,1,0,0:0:0:0:
192,192,76869,1,0,0:0:0:0:
320,192,76869,1,0,0:0:0:0:
64,192,76919,1,0,0:0:0:0:
448,192,76969,1,0,0:0:0:0:
192,192,77069,1,0,0:0:0:0:
320,192,77119,1,0,0:0:0:0:
448,192,77169,1,0,0:0:0:0:
64,192,77269,1,0,0:0:0:0:
320,192,77269,1,0,0:0:0:0:
192,192,77319,1,0,0:0:0:0:
448,192,77369,1,0,0:0:0:0:
320,192,77469,1,0,0:0:0:0:
192,192,77519,1,0,0:0:0:0:
64,192,77569,1,0,0:0:0:0:
448,192,77669,1,0,0:0:0:0:
320,192,77719,1,0,0:0:0:0:
192,192,77769,1,0,0:0:0:0:
448,192,77869,1,0,0:0:0:0:
64,192,77919,1,0,0:0:0:0:
192,192,77969,1,0,0:0:0:0:
64,192,78069,1,0,0:0:0:0:
320,192,78069,1,0,0:0:0:0:
448,192,78119,1,0,0:0:0:0:
192,192,78169,1,0,0:0:0:0:
64,192,78269,1,0,0:0:0:0:
320,192,78319,1,0,0:0:0:0:
192,192,78369,1,0,0:0:0:0:
64,192,78469,1,0,0:0:0:0:
448,192,78469,1,0,0:0:0:0:
320,192,78519,1,0,0:0:0:0:
64,192,78569,1,0,0:0:0:0:
192,192,78669,1,0,0:0:0:0:
320,192,78719,1,0,0:0:0:0:
448,192,78769,1,0,0:0:0:0:
64,192,78869,1,0,0:0:0:0:
192,192,78869,1,0,0:0:0:0:
64,192,78919,1,0,0:0:0:0:
320,192,78969,1,0,0:0:0:0:
448,192,79069,1,0,0:0:0:0:
320,192,79119,1,0,0:0:0:0:
192,192,79169,1,0,0:0:0:0:
64,192,79269,1,0,0:0:0:0:
320,192,79319,1,0,0:0:0:0:
448,192,79369,1,0,0:0:0:0:
192,192,79469,1,0,0:0:0:0:
64,192,79519,1,0,0:0:0:0:
320,192,79569,1,0,0:0:0:0:
64,192,79669,1,0,0:0:0:0:
192,192,79669,1,0,0:0:0:0:
448,192,79719,1,0,0:0:0:0:
320,192,79769,1,0,0:0:0:0:
448,192,79869,1,0,0:0:0:0:
64,192,79919,1,0,0:0:0:0:
192,192,79969,1,0,0:0:0:0:
192,192,80069,1,0,0:0:0:0:
320,192,80069,1,0,0:0:0:0:
448,192,80119,1,0,0:0:0:0:
64,192,80169,1,0,0:0:0:0:
320,192,80269,1,0,0:0:0:0:
192,192,80319,1,0,0:0:0:0:
64,192,80369,1,0,0:0:0:0:
64,192,80469,1,0,0:0:0:0:
448,192,80469,1,0,0:0:0:0:
192,192,80519,1,0,0:0:0:0:
320,192,80569,1,0,0:0:0:0:
448,192,80669,1,0,0:0:0:0:
320,192,80719,1,0,0:0:0:0:
64,192,80769,1,0,0:0:0:0:
192,192,80869,1,0,0:0:0:0:
448,192,80919,1,0,0:0:0:0:
320,192,80969,1,0,0:0:0:0:
64,192,81069,1,0,0:0:0:0:
192,192,81119,1,0,0:0:0:0:
448,192,81169,1,0,0:0:0:0:
320,192,81269,1,0,0:0:0:0:
448,192,81269,1,0,0:0:0:0:
192,192,81319,1,0,0:0:0:0:
64,192,81369,1,0,0:0:0:0:
192,192,81469,1,0,0:0:0:0:
320,192,81519,1,0,0:0:0:0:
448,192,81569,1,0,0:0:0:0:
64,192,81669,1,0,0:0:0:0:
320,192,81669,1,0,0:0:0:0:
192,192,81719,1,0,0:0:0:0:
448,192,81769,1,0,0:0:0:0:
448,192,81869,1,0,0:0:0:0:
320,192,81919,1,0,0:0:0:0:
64,192,81969,1,0,0:0:0:0:
192,192,82069,1,0,0:0:0:0:
320,192,82069,1,0,0:0:0:0:
64,192,82119,1,0,0:0:0:0:
320,192,82169,1,0,0:0:0:0:
448,192,82269,1,0,0:0:0:0:
192,192,82319,1,0,0:0:0:0:
64,192,82369,1,0,0:0:0:0:
192,192,82469,1,0,0:0:0:0:
320,192,82519,1,0,0:0:0:0:
448,192,82569,1,0,0:0:0:0:
64,192,82669,1,0,0:0:0:0:
320,192,82719,1,0,0:0:0:0:
192,192,82769,1,0,0:0:0:0:
64,192,82869,1,0,0:0:0:0:
448,192,82869,1,0,0:0:0:0:
320,192,82919,1,0,0:0:0:0:
192,192,82969,1,0,0:0:0:0:
64,192,83069,1,0,0:0:0:0:
192,192,83119,1,0,0:0:0:0:
448,192,83169,1,0,0:0:0:0:
64,192,83219,1,0,0:0:0:0:
64,192,83269,1,0,0:0:0:0:
192,192,83269,1,0,0:0:0:0:
320,192,83269,1,0,0:0:0:0:
448,192,83269,1,0,0:0:0:0:
64,192,83369,1,0,0:0:0:0:
192,192,83369,1,0,0:0:0:0:
320,192,83369,1,0,0:0:0:0:
448,192,83369,1,0,0:0:0:0:
64,192,83569,1,0,0:0:0:0:
192,192,83569,1,0,0:0:0:0:
320,192,83569,1,0,0:0:0:0:
448,192,83569,1,0,0:0:0:0:
64,192,83669,1,0,0:0:0:0:
192,192,83669,1,0,0:0:0:0:
320,192,83669,1,0,0:0:0:0:
448,192,83669,1,0,0:0:0:0:
64,192,83869,1,0,0:0:0:0:
192,192,83869,1,0,0:0:0:0:
320,192,83869,1,0,0:0:0:0:
448,192,83869,1,0,0:0:0:0:
64,192,84069,1,0,0:0:0:0:
192,192,84069,1,0,0:0:0:0:
320,192,84069,1,0,0:0:0:0:
448,192,84069,1,0,0:0:0:0:
64,192,84169,1,0,0:0:0:0:
192,192,84169,1,0,0:0:0:0:
320,192,84169,1,0,0:0:0:0:
448,192,84169,1,0,0:0:0:0:
64,192,84369,1,0,0:0:0:0:
192,192,84369,1,0,0:0:0:0:
320,192,84369,1,0,0:0:0:0:
448,192,84369,1,0,0:0:0:0:
64,192,84469,1,0,0:0:0:0:
192,192,84469,1,0,0:0:0:0:
320,192,84469,1,0,0:0:0:0:
448,192,84469,1,0,0:0:0:0:
64,0,84669,128,0,84869:1:0:0:0:
192,0,84669,128,0,84869:1:0:0:0:
320,0,84669,128,0,84869:1:0:0:0:
448,0,84669,128,0,84869:1:0:0:0:
64,192,85069,1,0,0:0:0:0:
192,192,85069,1,0,0:0:0:0:
320,192,85069,1,0,0:0:0:0:
448,192,85069,1,0,0:0:0:0:
64,192,85169,1,0,0:0:0:0:
192,192,85169,1,0,0:0:0:0:
320,192,85169,1,0,0:0:0:0:
448,192,85169,1,0,0:0:0:0:
64,192,85269,1,0,0:0:0:0:
192,192,85269,1,0,0:0:0:0:
320,192,85269,1,0,0:0:0:0:
448,192,85269,1,0,0:0:0:0:
64,192,85469,1,0,0:0:0:0:
192,192,85469,1,0,0:0:0:0:
320,192,85469,1,0,0:0:0:0:
448,192,85469,1,0,0:0:0:0:
64,192,85669,1,0,0:0:0:0:
192,192,85669,1,0,0:0:0:0:
320,192,85669,1,0,0:0:0:0:
448,192,85669,1,0,0:0:0:0:
64,192,85769,1,0,0:0:0:0:
192,192,85769,1,0,0:0:0:0:
320,192,85769,1,0,0:0:0:0:
448,192,85769,1,0,0:0:0:0:
64,192,85969,1,0,0:0:0:0:
192,192,85969,1,0,0:0:0:0:
320,192,85969,1,0,0:0:0:0:
448,192,85969,1,0,0:0:0:0:
64,192,86069,1,0,0:0:0:0:
192,192,86069,1,0,0:0:0:0:
320,192,86069,1,0,0:0:0:0:
448,192,86069,1,0,0:0:0:0:
64,0,86269,128,0,86369:1:0:0:0:
192,0,86269,128,0,86369:1:0:0:0:
320,0,86269,128,0,86369:1:0:0:0:
448,0,86269,128,0,86369:1:0:0:0:
64,192,86469,1,0,0:0:0:0:
192,192,86469,1,0,0:0:0:0:
320,192,86469,1,0,0:0:0:0:
448,192,86469,1,0,0:0:0:0:
192,192,86569,1,0,0:0:0:0:
320,192,86569,1,0,0:0:0:0:
64,192,86669,1,0,0:0:0:0:
448,192,86669,1,0,0:0:0:0:
192,192,86769,1,0,0:0:0:0:
320,192,86769,1,0,0:0:0:0:
64,192,86869,1,0,0:0:0:0:
192,192,86869,1,0,0:0:0:0:
320,192,86969,1,0,0:0:0:0:
448,192,86969,1,0,0:0:0:0:
64,192,87069,1,0,0:0:0:0:
192,192,87069,1,0,0:0:0:0:
320,192,87169,1,0,0:0:0:0:
448,192,87169,1,0,0:0:0:0:
192,192,87269,1,0,0:0:0:0:
448,192,87269,1,0,0:0:0:0:
64,192,87369,1,0,0:0:0:0:
320,192,87369,1,0,0:0:0:0:
192,192,87469,1,0,0:0:0:0:
448,192,87469,1,0,0:0:0:0:
64,192,87569,1,0,0:0:0:0:
320,192,87569,1,0,0:0:0:0:
192,192,87669,1,0,0:0:0:0:
320,192,87669,1,0,0:0:0:0:
64,192,87769,1,0,0:0:0:0:
448,192,87769,1,0,0:0:0:0:
192,192,87869,1,0,0:0:0:0:
320,0,87869,128,0,88269:1:0:0:0:
64,192,87969,1,0,0:0:0:0:
448,0,87969,128,0,88269:1:0:0:0:
64,192,88069,1,0,0:0:0:0:
192,192,88069,1,0,0:0:0:0:
64,192,88169,1,0,0:0:0:0:
192,192,88169,1,0,0:0:0:0:
64,192,88269,1,0,0:0:0:0:
192,192,88269,1,0,0:0:0:0:
64,0,88369,128,0,88769:1:0:0:0:
192,0,88369,128,0,88769:1:0:0:0:
320,192,88469,1,0,0:0:0:0:
448,192,88469,1,0,0:0:0:0:
320,192,88569,1,0,0:0:0:0:
448,192,88569,1,0,0:0:0:0:
320,192,88669,1,0,0:0:0:0:
448,192,88669,1,0,0:0:0:0:
448,192,88769,1,0,0:0:0:0:
320,0,88769,128,0,89169:1:0:0:0:
64,192,88869,1,0,0:0:0:0:
448,192,88869,1,0,0:0:0:0:
64,192,88969,1,0,0:0:0:0:
448,192,88969,1,0,0:0:0:0:
64,192,89069,1,0,0:0:0:0:
448,192,89069,1,0,0:0:0:0:
64,0,89169,128,0,89569:1:0:0:0:
448,0,89169,128,0,89569:1:0:0:0:
192,192,89269,1,0,0:0:0:0:
320,192,89269,1,0,0:0:0:0:
192,192,89369,1,0,0:0:0:0:
320,192,89369,1,0,0:0:0:0:
192,192,89469,1,0,0:0:0:0:
320,192,89469,1,0,0:0:0:0:
192,192,89569,1,0,0:0:0:0:
320,192,89569,1,0,0:0:0:0:
64,192,89669,1,0,0:0:0:0:
448,192,89669,1,0,0:0:0:0:
192,192,89769,1,0,0:0:0:0:
320,192,89769,1,0,0:0:0:0:
64,192,89869,1,0,0:0:0:0:
448,192,89869,1,0,0:0:0:0:
192,192,89969,1,0,0:0:0:0:
320,192,89969,1,0,0:0:0:0:
64,192,90069,1,0,0:0:0:0:
192,192,90069,1,0,0:0:0:0:
320,192,90169,1,0,0:0:0:0:
448,192,90169,1,0,0:0:0:0:
64,192,90269,1,0,0:0:0:0:
192,192,90269,1,0,0:0:0:0:
320,192,90369,1,0,0:0:0:0:
448,192,90369,1,0,0:0:0:0:
320,192,90469,1,0,0:0:0:0:
448,192,90469,1,0,0:0:0:0:
192,192,90569,1,0,0:0:0:0:
320,192,90569,1,0,0:0:0:0:
64,192,90669,1,0,0:0:0:0:
192,192,90669,1,0,0:0:0:0:
320,192,90769,1,0,0:0:0:0:
448,192,90769,1,0,0:0:0:0:
192,192,90869,1,0,0:0:0:0:
320,192,90869,1,0,0:0:0:0:
64,192,90969,1,0,0:0:0:0:
192,192,90969,1,0,0:0:0:0:
320,192,91069,1,0,0:0:0:0:
448,192,91069,1,0,0:0:0:0:
64,192,91169,1,0,0:0:0:0:
192,192,91169,1,0,0:0:0:0:
64,192,91269,1,0,0:0:0:0:
320,192,91269,1,0,0:0:0:0:
320,192,91369,1,0,0:0:0:0:
448,192,91369,1,0,0:0:0:0:
192,192,91469,1,0,0:0:0:0:
320,192,91469,1,0,0:0:0:0:
64,192,91569,1,0,0:0:0:0:
192,192,91569,1,0,0:0:0:0:
64,192,91669,1,0,0:0:0:0:
448,192,91669,1,0,0:0:0:0:
192,192,91769,1,0,0:0:0:0:
320,192,91769,1,0,0:0:0:0:
320,192,91869,1,0,0:0:0:0:
448,192,91869,1,0,0:0:0:0:
64,192,91969,1,0,0:0:0:0:
448,192,91969,1,0,0:0:0:0:
64,192,92069,1,0,0:0:0:0:
192,192,92069,1,0,0:0:0:0:
192,192,92169,1,0,0:0:0:0:
320,192,92169,1,0,0:0:0:0:
64,192,92269,1,0,0:0:0:0:
320,192,92269,1,0,0:0:0:0:
64,192,92369,1,0,0:0:0:0:
192,192,92369,1,0,0:0:0:0:
192,192,92469,1,0,0:0:0:0:
448,192,92469,1,0,0:0:0:0:
320,192,92569,1,0,0:0:0:0:
448,192,92569,1,0,0:0:0:0:
192,192,92669,1,0,0:0:0:0:
320,192,92669,1,0,0:0:0:0:
64,192,92769,1,0,0:0:0:0:
192,192,92769,1,0,0:0:0:0:
64,192,92869,1,0,0:0:0:0:
448,192,92869,1,0,0:0:0:0:
192,192,92969,1,0,0:0:0:0:
320,192,92969,1,0,0:0:0:0:
320,192,93069,1,0,0:0:0:0:
448,192,93069,1,0,0:0:0:0:
64,192,93169,1,0,0:0:0:0:
192,192,93169,1,0,0:0:0:0:
64,192,93269,1,0,0:0:0:0:
320,192,93269,1,0,0:0:0:0:
192,192,93369,1,0,0:0:0:0:
448,192,93369,1,0,0:0:0:0:
64,192,93469,1,0,0:0:0:0:
448,192,93469,1,0,0:0:0:0:
64,192,93569,1,0,0:0:0:0:
192,192,93569,1,0,0:0:0:0:
192,192,93669,1,0,0:0:0:0:
320,192,93669,1,0,0:0:0:0:
64,192,93769,1,0,0:0:0:0:
320,192,93769,1,0,0:0:0:0:
64,192,93869,1,0,0:0:0:0:
192,192,93869,1,0,0:0:0:0:
320,192,93969,1,0,0:0:0:0:
448,192,93969,1,0,0:0:0:0:
192,192,94069,1,0,0:0:0:0:
320,192,94069,1,0,0:0:0:0:
64,192,94169,1,0,0:0:0:0:
192,192,94169,1,0,0:0:0:0:
64,192,94269,1,0,0:0:0:0:
448,192,94269,1,0,0:0:0:0:
192,192,94369,1,0,0:0:0:0:
320,192,94369,1,0,0:0:0:0:
64,192,94469,1,0,0:0:0:0:
192,192,94469,1,0,0:0:0:0:
64,192,94569,1,0,0:0:0:0:
320,192,94569,1,0,0:0:0:0:
192,192,94669,1,0,0:0:0:0:
320,192,94669,1,0,0:0:0:0:
192,192,94769,1,0,0:0:0:0:
448,192,94769,1,0,0:0:0:0:
64,192,94869,1,0,0:0:0:0:
448,192,94869,1,0,0:0:0:0:
64,192,94969,1,0,0:0:0:0:
192,192,94969,1,0,0:0:0:0:
192,192,95069,1,0,0:0:0:0:
320,192,95069,1,0,0:0:0:0:
64,192,95169,1,0,0:0:0:0:
448,192,95169,1,0,0:0:0:0:
192,192,95269,1,0,0:0:0:0:
320,192,95269,1,0,0:0:0:0:
64,192,95369,1,0,0:0:0:0:
448,192,95369,1,0,0:0:0:0:
64,192,95469,1,0,0:0:0:0:
192,192,95469,1,0,0:0:0:0:
192,192,95569,1,0,0:0:0:0:
320,192,95569,1,0,0:0:0:0:
64,192,95669,1,0,0:0:0:0:
192,192,95669,1,0,0:0:0:0:
320,192,95769,1,0,0:0:0:0:
448,192,95769,1,0,0:0:0:0:
192,192,95869,1,0,0:0:0:0:
320,192,95869,1,0,0:0:0:0:
64,192,95969,1,0,0:0:0:0:
192,192,95969,1,0,0:0:0:0:
320,192,96069,1,0,0:0:0:0:
448,192,96069,1,0,0:0:0:0:
64,192,96169,1,0,0:0:0:0:
192,192,96169,1,0,0:0:0:0:
64,192,96269,1,0,0:0:0:0:
320,192,96269,1,0,0:0:0:0:
192,192,96369,1,0,0:0:0:0:
448,192,96369,1,0,0:0:0:0:
64,192,96469,1,0,0:0:0:0:
320,192,96469,1,0,0:0:0:0:
64,192,96569,1,0,0:0:0:0:
192,192,96569,1,0,0:0:0:0:
320,192,96669,1,0,0:0:0:0:
448,192,96669,1,0,0:0:0:0:
192,192,96769,1,0,0:0:0:0:
320,192,96769,1,0,0:0:0:0:
192,192,96869,1,0,0:0:0:0:
448,192,96869,1,0,0:0:0:0:
64,192,96969,1,0,0:0:0:0:
448,192,96969,1,0,0:0:0:0:
64,192,97069,1,0,0:0:0:0:
192,192,97069,1,0,0:0:0:0:
192,192,97169,1,0,0:0:0:0:
320,192,97169,1,0,0:0:0:0:
192,192,97269,1,0,0:0:0:0:
320,192,97269,1,0,0:0:0:0:
320,192,97369,1,0,0:0:0:0:
448,192,97369,1,0,0:0:0:0:
64,192,97469,1,0,0:0:0:0:
448,192,97469,1,0,0:0:0:0:
192,192,97569,1,0,0:0:0:0:
320,192,97569,1,0,0:0:0:0:
64,192,97669,1,0,0:0:0:0:
192,192,97669,1,0,0:0:0:0:
448,192,97719,1,0,0:0:0:0:
64,192,97769,1,0,0:0:0:0:
192,192,97769,1,0,0:0:0:0:
320,192,97869,1,0,0:0:0:0:
448,192,97869,1,0,0:0:0:0:
64,192,97919,1,0,0:0:0:0:
320,192,97969,1,0,0:0:0:0:
448,192,97969,1,0,0:0:0:0:
192,192,98069,1,0,0:0:0:0:
320,192,98069,1,0,0:0:0:0:
64,192,98119,1,0,0:0:0:0:
192,192,98169,1,0,0:0:0:0:
320,192,98169,1,0,0:0:0:0:
64,192,98269,1,0,0:0:0:0:
192,192,98269,1,0,0:0:0:0:
448,192,98319,1,0,0:0:0:0:
64,192,98369,1,0,0:0:0:0:
192,192,98369,1,0,0:0:0:0:
64,192,98469,1,0,0:0:0:0:
448,192,98469,1,0,0:0:0:0:
320,192,98519,1,0,0:0:0:0:
64,192,98569,1,0,0:0:0:0:
448,192,98569,1,0,0:0:0:0:
64,192,98669,1,0,0:0:0:0:
320,192,98669,1,0,0:0:0:0:
192,192,98719,1,0,0:0:0:0:
64,192,98769,1,0,0:0:0:0:
320,192,98769,1,0,0:0:0:0:
192,192,98869,1,0,0:0:0:0:
448,192,98869,1,0,0:0:0:0:
64,192,98919,1,0,0:0:0:0:
192,192,98969,1,0,0:0:0:0:
448,192,98969,1,0,0:0:0:0:
64,192,99069,1,0,0:0:0:0:
448,192,99069,1,0,0:0:0:0:
320,192,99119,1,0,0:0:0:0:
64,192,99169,1,0,0:0:0:0:
448,192,99169,1,0,0:0:0:0:
64,192,99269,1,0,0:0:0:0:
192,192,99269,1,0,0:0:0:0:
320,192,99269,1,0,0:0:0:0:
448,192,99269,1,0,0:0:0:0:
320,192,99369,1,0,0:0:0:0:
448,192,99469,1,0,0:0:0:0:
64,192,99569,1,0,0:0:0:0:
192,192,99569,1,0,0:0:0:0:
320,192,99594,1,0,0:0:0:0:
192,192,99669,1,0,0:0:0:0:
448,192,99669,1,0,0:0:0:0:
448,192,99769,1,0,0:0:0:0:
64,192,99869,1,0,0:0:0:0:
320,192,99869,1,0,0:0:0:0:
192,192,99969,1,0,0:0:0:0:
64,192,100069,1,0,0:0:0:0:
448,192,100069,1,0,0:0:0:0:
320,192,100119,1,0,0:0:0:0:
192,192,100169,1,0,0:0:0:0:
320,192,100269,1,0,0:0:0:0:
64,192,100369,1,0,0:0:0:0:
448,192,100369,1,0,0:0:0:0:
192,192,100469,1,0,0:0:0:0:
448,192,100469,1,0,0:0:0:0:
320,192,100569,1,0,0:0:0:0:
64,192,100669,1,0,0:0:0:0:
192,192,100669,1,0,0:0:0:0:
320,192,100769,1,0,0:0:0:0:
64,192,100869,1,0,0:0:0:0:
448,192,100869,1,0,0:0:0:0:
192,192,100969,1,0,0:0:0:0:
320,192,101069,1,0,0:0:0:0:
192,192,101169,1,0,0:0:0:0:
448,192,101169,1,0,0:0:0:0:
64,192,101269,1,0,0:0:0:0:
192,192,101269,1,0,0:0:0:0:
320,192,101369,1,0,0:0:0:0:
192,192,101469,1,0,0:0:0:0:
448,192,101469,1,0,0:0:0:0:
64,192,101519,1,0,0:0:0:0:
320,192,101569,1,0,0:0:0:0:
320,192,101669,1,0,0:0:0:0:
448,192,101669,1,0,0:0:0:0:
64,192,101769,1,0,0:0:0:0:
192,192,101869,1,0,0:0:0:0:
320,192,101969,1,0,0:0:0:0:
448,192,101969,1,0,0:0:0:0:
64,192,102069,1,0,0:0:0:0:
192,192,102069,1,0,0:0:0:0:
64,192,102169,1,0,0:0:0:0:
320,192,102269,1,0,0:0:0:0:
448,192,102269,1,0,0:0:0:0:
192,192,102369,1,0,0:0:0:0:
64,192,102469,1,0,0:0:0:0:
320,192,102469,1,0,0:0:0:0:
448,192,102569,1,0,0:0:0:0:
192,192,102594,1,0,0:0:0:0:
64,192,102669,1,0,0:0:0:0:
320,192,102769,1,0,0:0:0:0:
448,192,102769,1,0,0:0:0:0:
192,192,102869,1,0,0:0:0:0:
448,192,102869,1,0,0:0:0:0:
64,192,102969,1,0,0:0:0:0:
320,192,103069,1,0,0:0:0:0:
448,192,103069,1,0,0:0:0:0:
192,192,103169,1,0,0:0:0:0:
64,192,103269,1,0,0:0:0:0:
320,192,103269,1,0,0:0:0:0:
448,192,103369,1,0,0:0:0:0:
192,192,103469,1,0,0:0:0:0:
320,192,103569,1,0,0:0:0:0:
448,192,103569,1,0,0:0:0:0:
64,192,103669,1,0,0:0:0:0:
448,192,103669,1,0,0:0:0:0:
192,192,103769,1,0,0:0:0:0:
320,192,103869,1,0,0:0:0:0:
448,192,103869,1,0,0:0:0:0:
64,192,103919,1,0,0:0:0:0:
448,192,103969,1,0,0:0:0:0:
192,192,104069,1,0,0:0:0:0:
320,192,104069,1,0,0:0:0:0:
64,192,104169,1,0,0:0:0:0:
448,192,104269,1,0,0:0:0:0:
192,192,104369,1,0,0:0:0:0:
320,192,104369,1,0,0:0:0:0:
64,192,104469,1,0,0:0:0:0:
320,192,104469,1,0,0:0:0:0:
448,192,104569,1,0,0:0:0:0:
192,192,104669,1,0,0:0:0:0:
448,192,104669,1,0,0:0:0:0:
64,192,104719,1,0,0:0:0:0:
320,192,104769,1,0,0:0:0:0:
192,192,104869,1,0,0:0:0:0:
448,192,104869,1,0,0:0:0:0:
64,192,104969,1,0,0:0:0:0:
320,192,105069,1,0,0:0:0:0:
192,192,105169,1,0,0:0:0:0:
448,192,105169,1,0,0:0:0:0:
64,192,105269,1,0,0:0:0:0:
448,192,105269,1,0,0:0:0:0:
320,192,105369,1,0,0:0:0:0:
64,192,105469,1,0,0:0:0:0:
192,192,105469,1,0,0:0:0:0:
448,192,105569,1,0,0:0:0:0:
64,192,105669,1,0,0:0:0:0:
320,192,105669,1,0,0:0:0:0:
192,192,105769,1,0,0:0:0:0:
320,192,105794,1,0,0:0:0:0:
448,192,105869,1,0,0:0:0:0:
64,192,105969,1,0,0:0:0:0:
192,192,105969,1,0,0:0:0:0:
192,192,106069,1,0,0:0:0:0:
320,192,106069,1,0,0:0:0:0:
448,192,106169,1,0,0:0:0:0:
320,192,106194,1,0,0:0:0:0:
64,192,106269,1,0,0:0:0:0:
448,192,106269,1,0,0:0:0:0:
192,192,106369,1,0,0:0:0:0:
64,192,106469,1,0,0:0:0:0:
320,192,106469,1,0,0:0:0:0:
448,192,106519,1,0,0:0:0:0:
192,192,106569,1,0,0:0:0:0:
320,192,106594,1,0,0:0:0:0:
448,192,106669,1,0,0:0:0:0:
64,192,106769,1,0,0:0:0:0:
448,192,106769,1,0,0:0:0:0:
192,192,106869,1,0,0:0:0:0:
320,192,106869,1,0,0:0:0:0:
192,192,106969,1,0,0:0:0:0:
320,192,106994,1,0,0:0:0:0:
64,192,107069,1,0,0:0:0:0:
448,192,107069,1,0,0:0:0:0:
192,192,107169,1,0,0:0:0:0:
192,192,107269,1,0,0:0:0:0:
320,192,107269,1,0,0:0:0:0:
64,192,107319,1,0,0:0:0:0:
448,192,107369,1,0,0:0:0:0:
64,192,107469,1,0,0:0:0:0:
192,192,107569,1,0,0:0:0:0:
320,192,107569,1,0,0:0:0:0:
64,192,107669,1,0,0:0:0:0:
448,192,107669,1,0,0:0:0:0:
64,192,107769,1,0,0:0:0:0:
192,192,107869,1,0,0:0:0:0:
320,192,107869,1,0,0:0:0:0:
448,192,107969,1,0,0:0:0:0:
64,192,107994,1,0,0:0:0:0:
320,192,108069,1,0,0:0:0:0:
448,192,108069,1,0,0:0:0:0:
192,192,108169,1,0,0:0:0:0:
64,192,108269,1,0,0:0:0:0:
320,192,108369,1,0,0:0:0:0:
448,192,108369,1,0,0:0:0:0:
64,192,108469,1,0,0:0:0:0:
192,192,108469,1,0,0:0:0:0:
448,192,108569,1,0,0:0:0:0:
192,192,108594,1,0,0:0:0:0:
320,192,108669,1,0,0:0:0:0:
448,192,108669,1,0,0:0:0:0:
64,192,108769,1,0,0:0:0:0:
64,192,108869,1,0,0:0:0:0:
192,192,108869,1,0,0:0:0:0:
320,192,108869,1,0,0:0:0:0:
448,192,108869,1,0,0:0:0:0:
64,192,108969,1,0,0:0:0:0:
192,192,108969,1,0,0:0:0:0:
320,192,108969,1,0,0:0:0:0:
448,192,108969,1,0,0:0:0:0:
64,192,109169,1,0,0:0:0:0:
192,192,109169,1,0,0:0:0:0:
320,192,109169,1,0,0:0:0:0:
448,192,109169,1,0,0:0:0:0:
64,192,109269,1,0,0:0:0:0:
192,192,109269,1,0,0:0:0:0:
320,192,109269,1,0,0:0:0:0:
448,192,109269,1,0,0:0:0:0:
64,192,109469,1,0,0:0:0:0:
192,192,109469,1,0,0:0:0:0:
320,192,109469,1,0,0:0:0:0:
448,192,109469,1,0,0:0:0:0:
64,192,109669,1,0,0:0:0:0:
192,192,109669,1,0,0:0:0:0:
320,192,109669,1,0,0:0:0:0:
448,192,109669,1,0,0:0:0:0:
64,192,109769,1,0,0:0:0:0:
192,192,109769,1,0,0:0:0:0:
320,192,109769,1,0,0:0:0:0:
448,192,109769,1,0,0:0:0:0:
64,192,109969,1,0,0:0:0:0:
192,192,109969,1,0,0:0:0:0:
320,192,109969,1,0,0:0:0:0:
448,192,109969,1,0,0:0:0:0:
64,192,110069,1,0,0:0:0:0:
192,192,110069,1,0,0:0:0:0:
320,192,110069,1,0,0:0:0:0:
448,192,110069,1,0,0:0:0:0:
64,0,110269,128,0,110469:1:0:0:0:
192,0,110269,128,0,110469:1:0:0:0:
320,0,110269,128,0,110469:1:0:0:0:
448,0,110269,128,0,110469:1:0:0:0:
64,192,110669,1,0,0:0:0:0:
192,192,110669,1,0,0:0:0:0:
320,192,110669,1,0,0:0:0:0:
448,192,110669,1,0,0:0:0:0:
64,192,110769,1,0,0:0:0:0:
192,192,110769,1,0,0:0:0:0:
320,192,110769,1,0,0:0:0:0:
448,192,110769,1,0,0:0:0:0:
64,192,110869,1,0,0:0:0:0:
192,192,110869,1,0,0:0:0:0:
320,192,110869,1,0,0:0:0:0:
448,192,110869,1,0,0:0:0:0:
64,192,111069,1,0,0:0:0:0:
192,192,111069,1,0,0:0:0:0:
320,192,111069,1,0,0:0:0:0:
448,192,111069,1,0,0:0:0:0:
64,192,111269,1,0,0:0:0:0:
192,192,111269,1,0,0:0:0:0:
320,192,111269,1,0,0:0:0:0:
448,192,111269,1,0,0:0:0:0:
64,192,111369,1,0,0:0:0:0:
192,192,111369,1,0,0:0:0:0:
320,192,111369,1,0,0:0:0:0:
448,192,111369,1,0,0:0:0:0:
64,192,111569,1,0,0:0:0:0:
192,192,111569,1,0,0:0:0:0:
320,192,111569,1,0,0:0:0:0:
448,192,111569,1,0,0:0:0:0:
64,192,111669,1,0,0:0:0:0:
192,192,111669,1,0,0:0:0:0:
320,192,111669,1,0,0:0:0:0:
448,192,111669,1,0,0:0:0:0:
64,192,111869,1,0,0:0:0:0:
192,192,111869,1,0,0:0:0:0:
320,192,111869,1,0,0:0:0:0:
448,192,111869,1,0,0:0:0:0:
64,192,111969,1,0,0:0:0:0:
192,192,111969,1,0,0:0:0:0:
320,192,111969,1,0,0:0:0:0:
448,192,111969,1,0,0:0:0:0:
64,0,112069,128,0,112269:1:0:0:0:
192,0,112069,128,0,112269:1:0:0:0:
320,0,112069,128,0,112269:1:0:0:0:
448,0,112069,128,0,112269:1:0:0:0:
64,0,112469,128,0,112669:1:0:0:0:
192,0,112469,128,0,112669:1:0:0:0:
320,0,112469,128,0,112669:1:0:0:0:
448,0,112469,128,0,112669:1:0:0:0:
64,0,112869,128,0,112969:1:0:0:0:
192,0,112869,128,0,112969:1:0:0:0:
320,0,112869,128,0,112969:1:0:0:0:
448,0,112869,128,0,112969:1:0:0:0:
64,0,113069,128,0,113169:1:0:0:0:
192,0,113069,128,0,113169:1:0:0:0:
320,0,113069,128,0,113169:1:0:0:0:
448,0,113069,128,0,113169:1:0:0:0:
64,0,113269,128,0,113369:1:0:0:0:
192,0,113269,128,0,113369:1:0:0:0:
320,0,113269,128,0,113369:1:0:0:0:
448,0,113269,128,0,113369:1:0:0:0:
64,0,113469,128,0,113569:1:0:0:0:
192,0,113469,128,0,113569:1:0:0:0:
320,0,113469,128,0,113569:1:0:0:0:
448,0,113469,128,0,113569:1:0:0:0:
64,192,113669,1,0,0:0:0:0:
192,192,113669,1,0,0:0:0:0:
320,192,113669,1,0,0:0:0:0:
448,0,113669,128,0,114919:1:0:0:0:
192,192,113819,1,0,0:0:0:0:
320,192,113919,1,0,0:0:0:0:
64,192,114019,1,0,0:0:0:0:
192,192,114119,1,0,0:0:0:0:
320,192,114219,1,0,0:0:0:0:
64,192,114319,1,0,0:0:0:0:
320,192,114419,1,0,0:0:0:0:
64,192,114519,1,0,0:0:0:0:
192,192,114519,1,0,0:0:0:0:
64,192,114619,1,0,0:0:0:0:
320,192,114719,1,0,0:0:0:0:
192,192,114819,1,0,0:0:0:0:
64,192,114919,1,0,0:0:0:0:
320,192,115019,1,0,0:0:0:0:
64,192,115119,1,0,0:0:0:0:
192,192,115219,1,0,0:0:0:0:
64,192,115319,1,0,0:0:0:0:
320,192,115319,1,0,0:0:0:0:
448,192,115319,1,0,0:0:0:0:
192,0,115319,128,0,116519:1:0:0:0:
320,192,115419,1,0,0:0:0:0:
64,192,115519,1,0,0:0:0:0:
448,192,115619,1,0,0:0:0:0:
320,192,115719,1,0,0:0:0:0:
64,192,115819,1,0,0:0:0:0:
448,192,115919,1,0,0:0:0:0:
320,192,116019,1,0,0:0:0:0:
64,192,116119,1,0,0:0:0:0:
448,192,116119,1,0,0:0:0:0:
448,192,116219,1,0,0:0:0:0:
320,192,116319,1,0,0:0:0:0:
448,192,116419,1,0,0:0:0:0:
64,192,116519,1,0,0:0:0:0:
320,192,116619,1,0,0:0:0:0:
448,192,116719,1,0,0:0:0:0:
192,192,116819,1,0,0:0:0:0:
64,192,116919,1,0,0:0:0:0:
192,192,116919,1,0,0:0:0:0:
448,192,116919,1,0,0:0:0:0:
320,0,116919,128,0,118119:1:0:0:0:
64,192,117019,1,0,0:0:0:0:
448,192,117119,1,0,0:0:0:0:
192,192,117219,1,0,0:0:0:0:
64,192,117319,1,0,0:0:0:0:
448,192,117419,1,0,0:0:0:0:
448,192,117519,1,0,0:0:0:0:
192,192,117619,1,0,0:0:0:0:
64,192,117719,1,0,0:0:0:0:
448,192,117719,1,0,0:0:0:0:
64,192,117819,1,0,0:0:0:0:
192,192,117919,1,0,0:0:0:0:
448,192,118019,1,0,0:0:0:0:
64,192,118119,1,0,0:0:0:0:
192,192,118219,1,0,0:0:0:0:
320,192,118319,1,0,0:0:0:0:
64,192,118419,1,0,0:0:0:0:
64,192,118519,1,0,0:0:0:0:
192,192,118519,1,0,0:0:0:0:
320,192,118519,1,0,0:0:0:0:
448,0,118519,128,0,119719:1:0:0:0:
320,192,118619,1,0,0:0:0:0:
192,192,118719,1,0,0:0:0:0:
64,192,118819,1,0,0:0:0:0:
64,192,118919,1,0,0:0:0:0:
320,192,119019,1,0,0:0:0:0:
192,192,119119,1,0,0:0:0:0:
64,192,119219,1,0,0:0:0:0:
64,192,119319,1,0,0:0:0:0:
320,192,119319,1,0,0:0:0:0:
320,192,119419,1,0,0:0:0:0:
192,192,119519,1,0,0:0:0:0:
320,192,119619,1,0,0:0:0:0:
64,192,119719,1,0,0:0:0:0:
192,192,119819,1,0,0:0:0:0:
320,192,119919,1,0,0:0:0:0:
448,192,120019,1,0,0:0:0:0:
64,192,120119,1,0,0:0:0:0:
320,192,120119,1,0,0:0:0:0:
448,192,120119,1,0,0:0:0:0:
192,0,120119,128,0,121319:1:0:0:0:
64,192,120219,1,0,0:0:0:0:
320,192,120319,1,0,0:0:0:0:
448,192,120419,1,0,0:0:0:0:
448,192,120519,1,0,0:0:0:0:
320,192,120619,1,0,0:0:0:0:
64,192,120719,1,0,0:0:0:0:
448,192,120819,1,0,0:0:0:0:
64,192,120919,1,0,0:0:0:0:
320,192,120919,1,0,0:0:0:0:
64,192,121019,1,0,0:0:0:0:
448,192,121119,1,0,0:0:0:0:
320,192,121219,1,0,0:0:0:0:
448,192,121319,1,0,0:0:0:0:
64,192,121419,1,0,0:0:0:0:
192,192,121519,1,0,0:0:0:0:
448,192,121619,1,0,0:0:0:0:
64,192,121719,1,0,0:0:0:0:
192,192,121719,1,0,0:0:0:0:
448,192,121719,1,0,0:0:0:0:
320,0,121719,128,0,122919:1:0:0:0:
64,192,121819,1,0,0:0:0:0:
448,192,121919,1,0,0:0:0:0:
448,192,122019,1,0,0:0:0:0:
192,192,122119,1,0,0:0:0:0:
448,192,122219,1,0,0:0:0:0:
64,192,122319,1,0,0:0:0:0:
192,192,122419,1,0,0:0:0:0:
64,192,122519,1,0,0:0:0:0:
448,192,122519,1,0,0:0:0:0:
192,192,122619,1,0,0:0:0:0:
64,192,122719,1,0,0:0:0:0:
448,192,122819,1,0,0:0:0:0:
192,192,122919,1,0,0:0:0:0:
320,192,123019,1,0,0:0:0:0:
448,192,123119,1,0,0:0:0:0:
192,192,123219,1,0,0:0:0:0:
192,192,123319,1,0,0:0:0:0:
320,192,123319,1,0,0:0:0:0:
448,192,123319,1,0,0:0:0:0:
64,0,123319,128,0,124519:1:0:0:0:
448,192,123419,1,0,0:0:0:0:
320,192,123519,1,0,0:0:0:0:
192,192,123619,1,0,0:0:0:0:
448,192,123719,1,0,0:0:0:0:
448,192,123819,1,0,0:0:0:0:
192,192,123919,1,0,0:0:0:0:
320,192,124019,1,0,0:0:0:0:
192,192,124119,1,0,0:0:0:0:
448,192,124119,1,0,0:0:0:0:
320,192,124219,1,0,0:0:0:0:
192,192,124319,1,0,0:0:0:0:
448,192,124419,1,0,0:0:0:0:
448,192,124519,1,0,0:0:0:0:
192,192,124619,1,0,0:0:0:0:
320,192,124719,1,0,0:0:0:0:
448,192,124819,1,0,0:0:0:0:
64,192,124919,1,0,0:0:0:0:
192,192,124919,1,0,0:0:0:0:
320,192,124919,1,0,0:0:0:0:
448,0,124919,128,0,126119:1:0:0:0:
192,192,125019,1,0,0:0:0:0:
320,192,125119,1,0,0:0:0:0:
64,192,125219,1,0,0:0:0:0:
64,192,125319,1,0,0:0:0:0:
320,192,125419,1,0,0:0:0:0:
192,192,125519,1,0,0:0:0:0:
64,192,125619,1,0,0:0:0:0:
64,192,125719,1,0,0:0:0:0:
320,192,125719,1,0,0:0:0:0:
320,192,125819,1,0,0:0:0:0:
192,192,125919,1,0,0:0:0:0:
64,192,126019,1,0,0:0:0:0:
320,192,126119,1,0,0:0:0:0:
192,192,126219,1,0,0:0:0:0:
448,192,126319,1,0,0:0:0:0:
64,192,126419,1,0,0:0:0:0:
64,192,126519,1,0,0:0:0:0:
192,192,126519,1,0,0:0:0:0:
448,192,126519,1,0,0:0:0:0:
320,0,126519,128,0,127719:1:0:0:0:
448,192,126619,1,0,0:0:0:0:
448,192,126719,1,0,0:0:0:0:
192,192,126819,1,0,0:0:0:0:
64,192,126919,1,0,0:0:0:0:
448,192,127019,1,0,0:0:0:0:
192,192,127119,1,0,0:0:0:0:
64,192,127219,1,0,0:0:0:0:
64,192,127319,1,0,0:0:0:0:
448,192,127319,1,0,0:0:0:0:
448,192,127419,1,0,0:0:0:0:
192,192,127519,1,0,0:0:0:0:
448,192,127619,1,0,0:0:0:0:
64,192,127719,1,0,0:0:0:0:
192,192,127819,1,0,0:0:0:0:
320,192,127919,1,0,0:0:0:0:
448,192,128019,1,0,0:0:0:0:
64,192,128119,1,0,0:0:0:0:
320,192,128119,1,0,0:0:0:0:
448,192,128119,1,0,0:0:0:0:
192,0,128119,128,0,129319:1:0:0:0:
64,192,128219,1,0,0:0:0:0:
448,192,128319,1,0,0:0:0:0:
320,192,128419,1,0,0:0:0:0:
320,192,128519,1,0,0:0:0:0:
448,192,128619,1,0,0:0:0:0:
64,192,128719,1,0,0:0:0:0:
320,192,128819,1,0,0:0:0:0:
64,192,128919,1,0,0:0:0:0:
448,192,128919,1,0,0:0:0:0:
320,192,129019,1,0,0:0:0:0:
64,192,129119,1,0,0:0:0:0:
448,192,129219,1,0,0:0:0:0:
320,192,129319,1,0,0:0:0:0:
192,192,129419,1,0,0:0:0:0:
448,192,129519,1,0,0:0:0:0:
320,192,129619,1,0,0:0:0:0:
192,192,129719,1,0,0:0:0:0:
320,192,129719,1,0,0:0:0:0:
448,192,129719,1,0,0:0:0:0:
64,0,129719,128,0,130919:1:0:0:0:
448,192,129819,1,0,0:0:0:0:
192,192,129919,1,0,0:0:0:0:
320,192,130019,1,0,0:0:0:0:
448,192,130119,1,0,0:0:0:0:
192,192,130219,1,0,0:0:0:0:
320,192,130319,1,0,0:0:0:0:
192,192,130419,1,0,0:0:0:0:
192,192,130519,1,0,0:0:0:0:
448,192,130519,1,0,0:0:0:0:
320,192,130619,1,0,0:0:0:0:
192,192,130719,1,0,0:0:0:0:
448,192,130819,1,0,0:0:0:0:
192,192,130919,1,0,0:0:0:0:
320,192,131019,1,0,0:0:0:0:
64,192,131119,1,0,0:0:0:0:
64,192,131219,1,0,0:0:0:0:
64,192,131319,1,0,0:0:0:0:
192,192,131319,1,0,0:0:0:0:
448,192,131319,1,0,0:0:0:0:
320,0,131319,128,0,132519:1:0:0:0:
448,192,131419,1,0,0:0:0:0:
64,192,131519,1,0,0:0:0:0:
448,192,131619,1,0,0:0:0:0:
448,192,131719,1,0,0:0:0:0:
192,192,131819,1,0,0:0:0:0:
64,192,131919,1,0,0:0:0:0:
448,192,132019,1,0,0:0:0:0:
64,192,132119,1,0,0:0:0:0:
192,192,132119,1,0,0:0:0:0:
192,192,132219,1,0,0:0:0:0:
448,192,132319,1,0,0:0:0:0:
