osu file format v13

[General]
AudioFilename: Tower Of Saints.mp3
AudioLeadIn: 2
PreviewTime: 91603
Countdown: 0
SampleSet: None
StackLeniency: 0.7
Mode: 3
LetterboxInBreaks: 0
SpecialStyle: 0
WidescreenStoryboard: 0

[Editor]
DistanceSpacing: 0.8
BeatDivisor: 4
GridSize: 8
TimelineZoom: 1

[Metadata]
Title:4K Challenge Pack
TitleUnicode:4K Challenge Pack
Artist:xeona
ArtistUnicode:xeona
Creator:Anoex
Version:Beridzebeth---Tower Of Saints
Source:
Tags:
BeatmapID:470540
BeatmapSetID:198334

[Difficulty]
HPDrainRate:7
CircleSize:4
OverallDifficulty:7
ApproachRate:10
SliderMultiplier:1.4
SliderTickRate:1

[Events]
//Background and Video events
//Break Periods
//Storyboard Layer 0 (Background)
//Storyboard Layer 1 (Fail)
//Storyboard Layer 2 (Pass)
//Storyboard Layer 3 (Foreground)
//Storyboard Sound Samples
//Background Colour Transformations
3,100,163,162,255

[TimingPoints]
2453,309.2752,4,2,0,15,1,0
4077.377,309.2975,4,2,0,15,1,0
4386.675,309.2752,4,2,0,15,1,0
5933.052,309.2975,4,2,0,15,1,0
6242.35,309.2752,4,2,0,15,1,0
7788.727,309.2975,4,2,0,15,1,0
8098.024,309.2752,4,2,0,15,1,0
9335.126,309.2975,4,2,0,15,1,0
9644.423,309.2752,4,2,0,15,1,0
11190.8,309.2975,4,2,0,15,1,0
11500.1,309.2752,4,2,0,15,1,0
13046.47,309.2975,4,2,0,15,1,0
13355.77,309.2752,4,2,0,15,1,0
14592.87,309.2975,4,2,0,15,1,0
14902.17,309.2752,4,2,0,15,1,0
16448.54,309.2975,4,2,0,15,1,0
16757.84,309.2752,4,2,0,15,1,0
18304.21,309.2975,4,2,0,15,1,0
18613.51,309.2752,4,2,0,15,1,0
20159.87,309.2975,4,2,0,15,1,0
20469.17,309.2752,4,2,0,15,1,0
21706.26,309.2975,4,2,0,15,1,0
22015.56,309.2752,4,2,0,15,1,0
23561.93,309.2975,4,2,0,15,1,0
23871.22,309.2752,4,2,0,15,1,0
25108.32,309.2975,4,2,0,15,1,0
25417.62,309.2752,4,2,0,15,1,0
26963.98,309.2975,4,2,0,15,1,0
27273.28,309.2752,4,2,0,15,1,0
28819.65,309.2975,4,2,0,15,1,0
29128.94,309.2752,4,2,0,15,1,0
30675.31,309.2975,4,2,0,15,1,0
30984.61,309.2752,4,2,0,15,1,0
32221.7,309.2975,4,2,0,15,1,0
32531,309.2752,4,2,0,15,1,0
34077.4,309.2975,4,2,0,15,1,0
34386.7,309.2752,4,2,0,15,1,0
35933.1,309.2975,4,2,0,15,1,0
36242.4,309.2752,4,2,0,15,1,0
37788.78,309.2975,4,2,0,15,1,0
38098.08,309.2752,4,2,0,15,1,0
39335.2,309.2975,4,2,0,15,1,0
39644.5,309.2752,4,2,0,15,1,0
41190.91,309.2975,4,2,0,15,1,0
41500.2,309.2752,4,2,0,15,1,0
43046.61,309.2975,4,2,0,15,1,0
43355.91,309.2752,4,2,0,15,1,0
44593.03,309.2975,4,2,0,15,1,0
44902.33,309.2752,4,2,0,15,1,0
46448.73,309.2975,4,2,0,15,1,0
46758.03,309.2752,4,2,0,15,1,0
47995.16,309.2975,4,2,0,15,1,0
48304.45,309.2752,4,2,0,15,1,0
49850.86,309.2975,4,2,0,15,1,0
50160.16,309.2752,4,2,0,15,1,0
51706.56,309.2975,4,2,0,15,1,0
52015.86,309.2752,4,2,0,15,1,0
53562.27,309.2975,4,2,0,15,1,0
53871.56,309.2752,4,2,0,15,1,0
55108.69,309.2975,4,2,0,15,1,0
55417.98,309.2752,4,2,0,15,1,0
56964.36,309.2975,4,2,0,15,1,0
57273.66,309.2752,4,2,0,15,1,0
58820.06,309.2975,4,2,0,15,1,0
59129.36,309.2752,4,2,0,15,1,0
60675.77,309.2975,4,2,0,15,1,0
60985.06,309.2752,4,2,0,15,1,0
62222.18,309.2975,4,2,0,15,1,0
62531.48,309.2752,4,2,0,15,1,0
64077.84,309.2975,4,2,0,15,1,0
64387.14,309.2752,4,2,0,15,1,0
65933.52,309.2975,4,2,0,15,1,0
66242.81,309.2752,4,2,0,15,1,0
67789.22,309.2975,4,2,0,15,1,0
68098.52,309.2752,4,2,0,15,1,0
69335.64,309.2975,4,2,0,15,1,0
69644.94,309.2752,4,2,0,15,1,0
71191.34,309.2975,4,2,0,15,1,0
71500.66,309.2752,4,2,0,15,1,0
73047.06,309.2975,4,2,0,15,1,0
73356.36,309.2752,4,2,0,15,1,0
74593.48,309.2975,4,2,0,15,1,0
74902.78,309.2752,4,2,0,15,1,0
76449.19,309.2975,4,2,0,15,1,0
76758.48,309.2752,4,2,0,15,1,0
78304.89,309.2975,4,2,0,15,1,0
78614.19,309.2752,4,2,0,15,1,0
80160.59,309.2975,4,2,0,15,1,0
80469.89,309.2752,4,2,0,15,1,0
81707.02,309.2975,4,2,0,15,1,0
82016.33,309.2752,4,2,0,15,1,0
83562.73,309.2975,4,2,0,15,1,0
83872.05,309.2752,4,2,0,15,1,0
85418.45,309.2975,4,2,0,15,1,0
85727.77,309.2752,4,2,0,15,1,0
86964.89,309.2975,4,2,0,15,1,0
87274.2,309.2752,4,2,0,15,1,0
88820.61,309.2975,4,2,0,15,1,0
89129.92,309.2752,4,2,0,15,1,0
90676.33,309.2975,4,2,0,15,1,0
90985.64,309.2752,4,2,0,15,1,0
92532.05,309.2975,4,2,0,15,1,0
92841.36,309.2752,4,2,0,15,1,0
94078.48,309.2975,4,2,0,15,1,0
94387.8,309.2752,4,2,0,15,1,0
95624.92,309.2975,4,2,0,15,1,0
95934.23,309.2752,4,2,0,15,1,0
97171.36,309.2975,4,2,0,15,1,0
97480.67,309.2752,4,2,0,15,1,0
99336.36,309.2975,4,2,0,15,1,0
99645.67,309.2752,4,2,0,15,1,0
101192.1,309.2975,4,2,0,15,1,0
101501.4,309.2752,4,2,0,15,1,0
102738.5,309.2975,4,2,0,15,1,0
103047.8,309.2752,4,2,0,15,1,0
104594.2,309.2975,4,2,0,15,1,0
104903.5,309.2752,4,2,0,15,1,0
106450,309.2975,4,2,0,15,1,0
106759.3,309.2752,4,2,0,15,1,0
107996.4,309.2975,4,2,0,15,1,0
108305.7,309.2752,4,2,0,15,1,0
109852.1,309.2975,4,2,0,15,1,0
110161.4,309.2752,4,2,0,15,1,0
111707.8,309.2975,4,2,0,15,1,0
112017.1,309.2752,4,2,0,15,1,0
113563.5,309.2975,4,2,0,15,1,0
113872.8,309.2752,4,2,0,15,1,0
115109.9,309.2975,4,2,0,15,1,0
115419.2,309.2752,4,2,0,15,1,0
116965.6,309.2975,4,2,0,15,1,0
117275,309.2752,4,2,0,15,1,0
118821.4,309.2975,4,2,0,15,1,0
119130.7,309.2752,4,2,0,15,1,0
120367.8,309.2975,4,2,0,15,1,0
120677,309.2752,4,2,0,15,1,0

[HitObjects]
64,192,2453,5,0,0:0:0:0:
192,192,2453,1,0,0:0:0:0:
320,192,2608,1,0,0:0:0:0:
192,192,2762,1,0,0:0:0:0:
448,192,2917,1,0,0:0:0:0:
320,192,3072,1,0,0:0:0:0:
192,192,3226,1,0,0:0:0:0:
320,192,3381,1,0,0:0:0:0:
448,192,3536,1,0,0:0:0:0:
192,192,3690,1,0,0:0:0:0:
64,192,3845,1,0,0:0:0:0:
448,192,4000,1,0,0:0:0:0:
320,192,4154,1,0,0:0:0:0:
192,192,4309,1,0,0:0:0:0:
64,192,4463,1,0,0:0:0:0:
320,192,4618,1,0,0:0:0:0:
64,192,4773,1,0,0:0:0:0:
192,192,4927,1,0,0:0:0:0:
448,192,4927,1,0,0:0:0:0:
320,192,5082,1,0,0:0:0:0:
192,192,5237,1,0,0:0:0:0:
320,192,5391,1,0,0:0:0:0:
448,192,5546,1,0,0:0:0:0:
192,192,5701,1,0,0:0:0:0:
64,192,5855,1,0,0:0:0:0:
448,192,6010,1,0,0:0:0:0:
64,192,6165,1,0,0:0:0:0:
320,192,6319,1,0,0:0:0:0:
192,192,6474,1,0,0:0:0:0:
448,192,6628,1,0,0:0:0:0:
64,192,6783,1,0,0:0:0:0:
448,192,6938,1,0,0:0:0:0:
192,192,7092,1,0,0:0:0:0:
320,192,7247,1,0,0:0:0:0:
64,192,7402,1,0,0:0:0:0:
448,192,7402,1,0,0:0:0:0:
320,192,7556,1,0,0:0:0:0:
192,192,7711,1,0,0:0:0:0:
320,192,7866,1,0,0:0:0:0:
192,192,8020,1,0,0:0:0:0:
64,192,8175,1,0,0:0:0:0:
320,192,8329,1,0,0:0:0:0:
448,192,8484,1,0,0:0:0:0:
64,192,8639,1,0,0:0:0:0:
192,192,8793,1,0,0:0:0:0:
320,192,8948,1,0,0:0:0:0:
192,192,9103,1,0,0:0:0:0:
64,192,9257,1,0,0:0:0:0:
320,192,9412,1,0,0:0:0:0:
192,192,9567,1,0,0:0:0:0:
64,192,9721,1,0,0:0:0:0:
320,192,9876,1,0,0:0:0:0:
448,192,9876,1,0,0:0:0:0:
192,192,10031,1,0,0:0:0:0:
320,192,10185,1,0,0:0:0:0:
448,192,10340,1,0,0:0:0:0:
64,192,10494,1,0,0:0:0:0:
320,192,10649,1,0,0:0:0:0:
192,192,10804,1,0,0:0:0:0:
448,192,10958,1,0,0:0:0:0:
320,192,11113,1,0,0:0:0:0:
192,192,11268,1,0,0:0:0:0:
320,192,11422,1,0,0:0:0:0:
192,192,11577,1,0,0:0:0:0:
64,192,11732,1,0,0:0:0:0:
448,192,11886,1,0,0:0:0:0:
320,192,12041,1,0,0:0:0:0:
192,192,12195,1,0,0:0:0:0:
448,192,12350,1,0,0:0:0:0:
64,0,12350,128,0,12659:1:0:0:0:
320,192,12505,1,0,0:0:0:0:
192,192,12659,1,0,0:0:0:0:
320,192,12814,1,0,0:0:0:0:
448,192,12814,1,0,0:0:0:0:
64,192,12969,1,0,0:0:0:0:
448,192,13123,1,0,0:0:0:0:
320,192,13278,1,0,0:0:0:0:
64,192,13433,1,0,0:0:0:0:
192,192,13433,1,0,0:0:0:0:
320,192,13587,1,0,0:0:0:0:
192,192,13742,1,0,0:0:0:0:
448,192,13742,1,0,0:0:0:0:
320,192,13897,1,0,0:0:0:0:
64,192,14051,1,0,0:0:0:0:
192,192,14051,1,0,0:0:0:0:
320,192,14206,1,0,0:0:0:0:
448,0,14360,128,0,14824:1:0:0:0:
64,192,14515,1,0,0:0:0:0:
192,192,14515,1,0,0:0:0:0:
320,192,14670,1,0,0:0:0:0:
64,192,14824,1,0,0:0:0:0:
192,192,14824,1,0,0:0:0:0:
448,192,14979,1,0,0:0:0:0:
320,192,15134,1,0,0:0:0:0:
64,192,15288,1,0,0:0:0:0:
192,192,15288,1,0,0:0:0:0:
448,192,15443,1,0,0:0:0:0:
320,192,15598,1,0,0:0:0:0:
192,192,15752,1,0,0:0:0:0:
64,192,15907,1,0,0:0:0:0:
320,192,15907,1,0,0:0:0:0:
192,192,16061,1,0,0:0:0:0:
448,192,16216,1,0,0:0:0:0:
64,0,16216,128,0,16525:1:0:0:0:
320,192,16371,1,0,0:0:0:0:
192,192,16525,1,0,0:0:0:0:
448,192,16525,1,0,0:0:0:0:
320,192,16680,1,0,0:0:0:0:
192,0,16835,128,0,17299:1:0:0:0:
64,192,16989,1,0,0:0:0:0:
448,192,16989,1,0,0:0:0:0:
448,192,17144,1,0,0:0:0:0:
64,192,17299,1,0,0:0:0:0:
320,192,17299,1,0,0:0:0:0:
192,192,17453,1,0,0:0:0:0:
320,192,17608,1,0,0:0:0:0:
64,192,17762,1,0,0:0:0:0:
448,192,17762,1,0,0:0:0:0:
320,192,17917,1,0,0:0:0:0:
192,0,18072,128,0,18381:1:0:0:0:
64,192,18226,1,0,0:0:0:0:
320,192,18381,1,0,0:0:0:0:
448,192,18381,1,0,0:0:0:0:
192,192,18536,1,0,0:0:0:0:
64,192,18690,1,0,0:0:0:0:
448,192,18690,1,0,0:0:0:0:
320,192,18845,1,0,0:0:0:0:
192,192,18922,1,0,0:0:0:0:
320,192,19000,1,0,0:0:0:0:
192,192,19077,1,0,0:0:0:0:
448,192,19154,1,0,0:0:0:0:
320,192,19232,1,0,0:0:0:0:
192,192,19309,1,0,0:0:0:0:
64,192,19386,1,0,0:0:0:0:
192,192,19464,1,0,0:0:0:0:
320,192,19541,1,0,0:0:0:0:
448,192,19618,1,0,0:0:0:0:
320,192,19695,1,0,0:0:0:0:
192,192,19773,1,0,0:0:0:0:
64,192,19850,1,0,0:0:0:0:
448,192,19927,1,0,0:0:0:0:
320,192,20005,1,0,0:0:0:0:
192,192,20082,1,0,0:0:0:0:
64,192,20159,1,0,0:0:0:0:
448,192,20237,1,0,0:0:0:0:
192,192,20314,1,0,0:0:0:0:
320,192,20391,1,0,0:0:0:0:
64,192,20469,1,0,0:0:0:0:
192,192,20546,1,0,0:0:0:0:
320,192,20623,1,0,0:0:0:0:
448,192,20701,1,0,0:0:0:0:
320,192,20778,1,0,0:0:0:0:
192,192,20855,1,0,0:0:0:0:
64,192,20933,1,0,0:0:0:0:
448,192,21010,1,0,0:0:0:0:
192,192,21087,1,0,0:0:0:0:
320,192,21165,1,0,0:0:0:0:
64,192,21242,1,0,0:0:0:0:
192,192,21319,1,0,0:0:0:0:
320,192,21396,1,0,0:0:0:0:
448,192,21474,1,0,0:0:0:0:
64,192,21551,1,0,0:0:0:0:
320,192,21628,1,0,0:0:0:0:
192,192,21706,1,0,0:0:0:0:
448,192,21783,1,0,0:0:0:0:
320,192,21860,1,0,0:0:0:0:
192,192,21938,1,0,0:0:0:0:
64,192,22015,1,0,0:0:0:0:
448,192,22092,1,0,0:0:0:0:
192,192,22170,1,0,0:0:0:0:
64,192,22247,1,0,0:0:0:0:
448,192,22247,1,0,0:0:0:0:
320,192,22324,1,0,0:0:0:0:
192,192,22402,1,0,0:0:0:0:
64,192,22479,1,0,0:0:0:0:
320,192,22556,1,0,0:0:0:0:
448,192,22556,1,0,0:0:0:0:
64,192,22634,1,0,0:0:0:0:
192,192,22711,1,0,0:0:0:0:
320,192,22711,1,0,0:0:0:0:
448,192,22788,1,0,0:0:0:0:
320,192,22866,1,0,0:0:0:0:
192,192,22943,1,0,0:0:0:0:
64,192,23020,1,0,0:0:0:0:
448,192,23020,1,0,0:0:0:0:
320,192,23098,1,0,0:0:0:0:
192,192,23175,1,0,0:0:0:0:
320,192,23252,1,0,0:0:0:0:
64,192,23329,1,0,0:0:0:0:
448,192,23329,1,0,0:0:0:0:
192,192,23407,1,0,0:0:0:0:
320,192,23484,1,0,0:0:0:0:
192,192,23561,1,0,0:0:0:0:
320,192,23639,1,0,0:0:0:0:
448,192,23639,1,0,0:0:0:0:
64,192,23716,1,0,0:0:0:0:
192,192,23793,1,0,0:0:0:0:
320,192,23871,1,0,0:0:0:0:
64,192,23948,1,0,0:0:0:0:
448,192,23948,1,0,0:0:0:0:
192,192,24025,1,0,0:0:0:0:
320,192,24103,1,0,0:0:0:0:
192,192,24180,1,0,0:0:0:0:
64,192,24257,1,0,0:0:0:0:
448,192,24257,1,0,0:0:0:0:
320,192,24335,1,0,0:0:0:0:
192,192,24412,1,0,0:0:0:0:
64,192,24489,1,0,0:0:0:0:
320,192,24567,1,0,0:0:0:0:
448,192,24567,1,0,0:0:0:0:
192,192,24644,1,0,0:0:0:0:
448,192,24721,1,0,0:0:0:0:
64,192,24799,1,0,0:0:0:0:
192,192,24876,1,0,0:0:0:0:
320,192,24876,1,0,0:0:0:0:
448,192,24953,1,0,0:0:0:0:
64,192,25031,1,0,0:0:0:0:
192,192,25031,1,0,0:0:0:0:
320,192,25108,1,0,0:0:0:0:
64,192,25185,1,0,0:0:0:0:
448,192,25185,1,0,0:0:0:0:
192,192,25262,1,0,0:0:0:0:
320,192,25340,1,0,0:0:0:0:
192,192,25417,1,0,0:0:0:0:
320,192,25494,1,0,0:0:0:0:
448,192,25494,1,0,0:0:0:0:
64,192,25572,1,0,0:0:0:0:
192,192,25649,1,0,0:0:0:0:
320,192,25726,1,0,0:0:0:0:
64,192,25804,1,0,0:0:0:0:
192,192,25804,1,0,0:0:0:0:
448,192,25881,1,0,0:0:0:0:
320,192,25958,1,0,0:0:0:0:
192,192,26036,1,0,0:0:0:0:
64,192,26113,1,0,0:0:0:0:
448,192,26113,1,0,0:0:0:0:
320,192,26190,1,0,0:0:0:0:
64,192,26268,1,0,0:0:0:0:
192,192,26268,1,0,0:0:0:0:
320,192,26345,1,0,0:0:0:0:
64,192,26422,1,0,0:0:0:0:
448,192,26422,1,0,0:0:0:0:
192,192,26500,1,0,0:0:0:0:
320,192,26577,1,0,0:0:0:0:
448,192,26577,1,0,0:0:0:0:
64,192,26654,1,0,0:0:0:0:
320,192,26732,1,0,0:0:0:0:
448,192,26732,1,0,0:0:0:0:
64,192,26809,1,0,0:0:0:0:
192,192,26809,1,0,0:0:0:0:
320,192,26886,1,0,0:0:0:0:
448,192,26886,1,0,0:0:0:0:
64,192,26963,1,0,0:0:0:0:
192,192,26963,1,0,0:0:0:0:
320,192,27041,1,0,0:0:0:0:
448,192,27041,1,0,0:0:0:0:
64,192,27118,1,0,0:0:0:0:
192,192,27118,1,0,0:0:0:0:
320,192,27195,1,0,0:0:0:0:
448,192,27195,1,0,0:0:0:0:
64,192,27273,1,0,0:0:0:0:
192,192,27350,1,0,0:0:0:0:
320,192,27350,1,0,0:0:0:0:
448,192,27427,1,0,0:0:0:0:
64,192,27505,1,0,0:0:0:0:
192,192,27505,1,0,0:0:0:0:
320,192,27582,1,0,0:0:0:0:
64,192,27659,1,0,0:0:0:0:
448,192,27659,1,0,0:0:0:0:
320,192,27737,1,0,0:0:0:0:
64,192,27814,1,0,0:0:0:0:
192,192,27814,1,0,0:0:0:0:
448,192,27891,1,0,0:0:0:0:
192,192,27969,1,0,0:0:0:0:
320,192,27969,1,0,0:0:0:0:
64,192,28046,1,0,0:0:0:0:
448,192,28123,1,0,0:0:0:0:
192,192,28201,1,0,0:0:0:0:
320,192,28278,1,0,0:0:0:0:
448,192,28278,1,0,0:0:0:0:
64,192,28355,1,0,0:0:0:0:
192,192,28433,1,0,0:0:0:0:
320,192,28510,1,0,0:0:0:0:
64,192,28587,1,0,0:0:0:0:
448,192,28587,1,0,0:0:0:0:
320,192,28665,1,0,0:0:0:0:
64,192,28742,1,0,0:0:0:0:
448,192,28742,1,0,0:0:0:0:
192,192,28819,1,0,0:0:0:0:
320,192,28896,1,0,0:0:0:0:
448,192,28896,1,0,0:0:0:0:
192,192,28974,1,0,0:0:0:0:
64,192,29051,1,0,0:0:0:0:
320,192,29051,1,0,0:0:0:0:
192,192,29128,1,0,0:0:0:0:
320,192,29206,1,0,0:0:0:0:
448,192,29206,1,0,0:0:0:0:
64,192,29283,1,0,0:0:0:0:
448,192,29360,1,0,0:0:0:0:
320,192,29438,1,0,0:0:0:0:
64,192,29515,1,0,0:0:0:0:
192,192,29515,1,0,0:0:0:0:
320,192,29592,1,0,0:0:0:0:
448,192,29670,1,0,0:0:0:0:
192,192,29747,1,0,0:0:0:0:
64,192,29824,1,0,0:0:0:0:
448,192,29824,1,0,0:0:0:0:
320,192,29902,1,0,0:0:0:0:
64,192,29979,1,0,0:0:0:0:
192,192,29979,1,0,0:0:0:0:
448,192,30056,1,0,0:0:0:0:
192,192,30134,1,0,0:0:0:0:
320,192,30134,1,0,0:0:0:0:
448,192,30211,1,0,0:0:0:0:
64,192,30288,1,0,0:0:0:0:
192,192,30288,1,0,0:0:0:0:
320,192,30366,1,0,0:0:0:0:
64,192,30443,1,0,0:0:0:0:
448,192,30443,1,0,0:0:0:0:
192,192,30520,1,0,0:0:0:0:
320,192,30597,1,0,0:0:0:0:
448,192,30675,1,0,0:0:0:0:
64,192,30752,1,0,0:0:0:0:
192,192,30752,1,0,0:0:0:0:
320,192,30829,1,0,0:0:0:0:
448,192,30907,1,0,0:0:0:0:
64,192,30984,1,0,0:0:0:0:
320,192,31061,1,0,0:0:0:0:
448,192,31061,1,0,0:0:0:0:
192,192,31139,1,0,0:0:0:0:
64,192,31216,1,0,0:0:0:0:
448,192,31216,1,0,0:0:0:0:
192,192,31293,1,0,0:0:0:0:
320,192,31371,1,0,0:0:0:0:
448,192,31371,1,0,0:0:0:0:
64,192,31448,1,0,0:0:0:0:
192,192,31448,1,0,0:0:0:0:
320,192,31525,1,0,0:0:0:0:
448,192,31525,1,0,0:0:0:0:
64,192,31603,1,0,0:0:0:0:
192,192,31603,1,0,0:0:0:0:
320,192,31680,1,0,0:0:0:0:
448,192,31680,1,0,0:0:0:0:
64,192,31757,1,0,0:0:0:0:
192,192,31757,1,0,0:0:0:0:
320,192,31835,1,0,0:0:0:0:
448,192,31835,1,0,0:0:0:0:
64,192,31912,1,0,0:0:0:0:
192,192,31912,1,0,0:0:0:0:
320,192,31989,1,0,0:0:0:0:
448,192,31989,1,0,0:0:0:0:
64,192,32067,1,0,0:0:0:0:
192,192,32067,1,0,0:0:0:0:
320,192,32144,1,0,0:0:0:0:
448,0,32144,128,0,32453:1:0:0:0:
192,192,32299,1,0,0:0:0:0:
64,192,32453,1,0,0:0:0:0:
320,192,32453,1,0,0:0:0:0:
192,192,32608,1,0,0:0:0:0:
448,192,32685,1,0,0:0:0:0:
320,192,32762,1,0,0:0:0:0:
192,192,32917,1,0,0:0:0:0:
320,192,32917,1,0,0:0:0:0:
64,192,32994,1,0,0:0:0:0:
320,192,33072,1,0,0:0:0:0:
448,192,33072,1,0,0:0:0:0:
192,192,33149,1,0,0:0:0:0:
64,192,33226,1,0,0:0:0:0:
448,192,33226,1,0,0:0:0:0:
320,192,33304,1,0,0:0:0:0:
64,192,33381,1,0,0:0:0:0:
192,192,33381,1,0,0:0:0:0:
320,192,33536,1,0,0:0:0:0:
448,192,33536,1,0,0:0:0:0:
192,192,33613,1,0,0:0:0:0:
64,192,33690,1,0,0:0:0:0:
448,192,33690,1,0,0:0:0:0:
320,192,33768,1,0,0:0:0:0:
64,192,33845,1,0,0:0:0:0:
192,192,33845,1,0,0:0:0:0:
320,192,33922,1,0,0:0:0:0:
448,192,34000,1,0,0:0:0:0:
64,192,34154,1,0,0:0:0:0:
192,192,34154,1,0,0:0:0:0:
320,192,34232,1,0,0:0:0:0:
64,192,34309,1,0,0:0:0:0:
448,192,34309,1,0,0:0:0:0:
192,192,34386,1,0,0:0:0:0:
320,192,34464,1,0,0:0:0:0:
448,192,34464,1,0,0:0:0:0:
192,192,34541,1,0,0:0:0:0:
64,192,34618,1,0,0:0:0:0:
448,192,34618,1,0,0:0:0:0:
192,192,34773,1,0,0:0:0:0:
320,192,34850,1,0,0:0:0:0:
64,192,34927,1,0,0:0:0:0:
448,192,34927,1,0,0:0:0:0:
192,192,35005,1,0,0:0:0:0:
320,192,35082,1,0,0:0:0:0:
448,192,35082,1,0,0:0:0:0:
192,192,35159,1,0,0:0:0:0:
64,192,35237,1,0,0:0:0:0:
448,192,35314,1,0,0:0:0:0:
64,192,35391,1,0,0:0:0:0:
192,192,35391,1,0,0:0:0:0:
320,192,35469,1,0,0:0:0:0:
64,192,35546,1,0,0:0:0:0:
448,192,35546,1,0,0:0:0:0:
192,192,35623,1,0,0:0:0:0:
64,192,35701,1,0,0:0:0:0:
320,192,35855,1,0,0:0:0:0:
448,192,35855,1,0,0:0:0:0:
192,192,36010,1,0,0:0:0:0:
64,192,36165,1,0,0:0:0:0:
448,192,36165,1,0,0:0:0:0:
192,192,36319,1,0,0:0:0:0:
192,192,36474,1,0,0:0:0:0:
448,192,36474,1,0,0:0:0:0:
320,192,36628,1,0,0:0:0:0:
64,192,36783,1,0,0:0:0:0:
192,192,36783,1,0,0:0:0:0:
320,192,36938,1,0,0:0:0:0:
64,192,37092,1,0,0:0:0:0:
192,192,37092,1,0,0:0:0:0:
448,192,37092,1,0,0:0:0:0:
320,192,37247,1,0,0:0:0:0:
64,192,37324,1,0,0:0:0:0:
320,192,37402,1,0,0:0:0:0:
448,192,37402,1,0,0:0:0:0:
192,192,37479,1,0,0:0:0:0:
64,192,37556,1,0,0:0:0:0:
448,192,37556,1,0,0:0:0:0:
320,192,37711,1,0,0:0:0:0:
192,192,37788,1,0,0:0:0:0:
64,192,37866,1,0,0:0:0:0:
448,192,37866,1,0,0:0:0:0:
192,192,37943,1,0,0:0:0:0:
320,192,38020,1,0,0:0:0:0:
448,192,38020,1,0,0:0:0:0:
192,192,38098,1,0,0:0:0:0:
64,192,38175,1,0,0:0:0:0:
448,192,38175,1,0,0:0:0:0:
320,192,38252,1,0,0:0:0:0:
64,192,38330,1,0,0:0:0:0:
192,192,38330,1,0,0:0:0:0:
320,192,38484,1,0,0:0:0:0:
192,192,38561,1,0,0:0:0:0:
320,192,38639,1,0,0:0:0:0:
448,192,38639,1,0,0:0:0:0:
64,192,38716,1,0,0:0:0:0:
192,192,38793,1,0,0:0:0:0:
320,192,38793,1,0,0:0:0:0:
448,192,38948,1,0,0:0:0:0:
64,192,39025,1,0,0:0:0:0:
192,192,39103,1,0,0:0:0:0:
320,192,39103,1,0,0:0:0:0:
448,192,39180,1,0,0:0:0:0:
64,192,39257,1,0,0:0:0:0:
192,192,39257,1,0,0:0:0:0:
320,192,39335,1,0,0:0:0:0:
64,192,39412,1,0,0:0:0:0:
448,192,39412,1,0,0:0:0:0:
192,192,39489,1,0,0:0:0:0:
320,192,39567,1,0,0:0:0:0:
448,192,39567,1,0,0:0:0:0:
192,192,39721,1,0,0:0:0:0:
320,192,39799,1,0,0:0:0:0:
64,192,39876,1,0,0:0:0:0:
192,192,39876,1,0,0:0:0:0:
448,192,39953,1,0,0:0:0:0:
192,192,40031,1,0,0:0:0:0:
320,192,40031,1,0,0:0:0:0:
64,192,40108,1,0,0:0:0:0:
448,192,40185,1,0,0:0:0:0:
320,192,40263,1,0,0:0:0:0:
64,192,40340,1,0,0:0:0:0:
192,192,40340,1,0,0:0:0:0:
448,192,40417,1,0,0:0:0:0:
192,192,40495,1,0,0:0:0:0:
320,192,40495,1,0,0:0:0:0:
448,192,40572,1,0,0:0:0:0:
64,192,40649,1,0,0:0:0:0:
192,192,40649,1,0,0:0:0:0:
320,192,40726,1,0,0:0:0:0:
448,192,40804,1,0,0:0:0:0:
320,192,40881,1,0,0:0:0:0:
64,192,40958,1,0,0:0:0:0:
192,192,40958,1,0,0:0:0:0:
448,192,41036,1,0,0:0:0:0:
64,192,41113,1,0,0:0:0:0:
192,192,41113,1,0,0:0:0:0:
320,192,41190,1,0,0:0:0:0:
64,192,41268,1,0,0:0:0:0:
448,192,41268,1,0,0:0:0:0:
320,192,41345,1,0,0:0:0:0:
64,192,41422,1,0,0:0:0:0:
448,192,41422,1,0,0:0:0:0:
192,192,41500,1,0,0:0:0:0:
320,192,41577,1,0,0:0:0:0:
448,192,41577,1,0,0:0:0:0:
64,192,41654,1,0,0:0:0:0:
192,192,41654,1,0,0:0:0:0:
320,192,41732,1,0,0:0:0:0:
448,192,41732,1,0,0:0:0:0:
64,192,41809,1,0,0:0:0:0:
192,192,41809,1,0,0:0:0:0:
320,192,41886,1,0,0:0:0:0:
448,192,41886,1,0,0:0:0:0:
64,192,41964,1,0,0:0:0:0:
192,192,41964,1,0,0:0:0:0:
320,192,42041,1,0,0:0:0:0:
448,192,42041,1,0,0:0:0:0:
64,192,42118,1,0,0:0:0:0:
192,192,42196,1,0,0:0:0:0:
320,192,42196,1,0,0:0:0:0:
448,192,42273,1,0,0:0:0:0:
64,192,42350,1,0,0:0:0:0:
192,192,42350,1,0,0:0:0:0:
320,192,42428,1,0,0:0:0:0:
64,192,42505,1,0,0:0:0:0:
448,192,42505,1,0,0:0:0:0:
192,192,42582,1,0,0:0:0:0:
320,192,42659,1,0,0:0:0:0:
192,192,42737,1,0,0:0:0:0:
64,192,42814,1,0,0:0:0:0:
448,192,42814,1,0,0:0:0:0:
320,192,42891,1,0,0:0:0:0:
192,192,42969,1,0,0:0:0:0:
64,192,43046,1,0,0:0:0:0:
320,192,43123,1,0,0:0:0:0:
448,192,43123,1,0,0:0:0:0:
192,192,43201,1,0,0:0:0:0:
448,192,43278,1,0,0:0:0:0:
64,192,43355,1,0,0:0:0:0:
192,192,43433,1,0,0:0:0:0:
320,192,43433,1,0,0:0:0:0:
448,192,43510,1,0,0:0:0:0:
64,192,43587,1,0,0:0:0:0:
192,192,43665,1,0,0:0:0:0:
320,192,43742,1,0,0:0:0:0:
448,192,43742,1,0,0:0:0:0:
192,192,43819,1,0,0:0:0:0:
64,192,43897,1,0,0:0:0:0:
448,192,43974,1,0,0:0:0:0:
64,192,44051,1,0,0:0:0:0:
192,192,44051,1,0,0:0:0:0:
448,192,44129,1,0,0:0:0:0:
64,192,44206,1,0,0:0:0:0:
192,192,44283,1,0,0:0:0:0:
320,192,44361,1,0,0:0:0:0:
448,192,44361,1,0,0:0:0:0:
64,192,44438,1,0,0:0:0:0:
192,192,44515,1,0,0:0:0:0:
320,192,44593,1,0,0:0:0:0:
64,192,44670,1,0,0:0:0:0:
448,192,44670,1,0,0:0:0:0:
192,192,44747,1,0,0:0:0:0:
320,192,44825,1,0,0:0:0:0:
448,192,44825,1,0,0:0:0:0:
192,192,44902,1,0,0:0:0:0:
64,192,44979,1,0,0:0:0:0:
448,192,44979,1,0,0:0:0:0:
320,192,45056,1,0,0:0:0:0:
192,192,45134,1,0,0:0:0:0:
64,192,45211,1,0,0:0:0:0:
320,192,45288,1,0,0:0:0:0:
448,192,45288,1,0,0:0:0:0:
192,192,45366,1,0,0:0:0:0:
320,192,45443,1,0,0:0:0:0:
192,192,45520,1,0,0:0:0:0:
64,192,45598,1,0,0:0:0:0:
448,192,45598,1,0,0:0:0:0:
320,192,45675,1,0,0:0:0:0:
192,192,45752,1,0,0:0:0:0:
64,192,45830,1,0,0:0:0:0:
192,192,45907,1,0,0:0:0:0:
320,192,45907,1,0,0:0:0:0:
448,192,45984,1,0,0:0:0:0:
64,192,46062,1,0,0:0:0:0:
192,192,46062,1,0,0:0:0:0:
320,192,46139,1,0,0:0:0:0:
64,192,46216,1,0,0:0:0:0:
448,192,46216,1,0,0:0:0:0:
192,192,46294,1,0,0:0:0:0:
64,192,46371,1,0,0:0:0:0:
448,192,46371,1,0,0:0:0:0:
320,192,46448,1,0,0:0:0:0:
64,192,46526,1,0,0:0:0:0:
192,192,46526,1,0,0:0:0:0:
320,192,46603,1,0,0:0:0:0:
448,192,46603,1,0,0:0:0:0:
64,192,46680,1,0,0:0:0:0:
192,192,46680,1,0,0:0:0:0:
320,192,46758,1,0,0:0:0:0:
448,192,46758,1,0,0:0:0:0:
64,192,46835,1,0,0:0:0:0:
192,192,46835,1,0,0:0:0:0:
320,192,46912,1,0,0:0:0:0:
448,192,46912,1,0,0:0:0:0:
64,192,46989,1,0,0:0:0:0:
192,192,46989,1,0,0:0:0:0:
320,192,47067,1,0,0:0:0:0:
64,192,47144,1,0,0:0:0:0:
448,192,47144,1,0,0:0:0:0:
192,192,47221,1,0,0:0:0:0:
320,192,47299,1,0,0:0:0:0:
448,192,47299,1,0,0:0:0:0:
192,192,47376,1,0,0:0:0:0:
320,192,47453,1,0,0:0:0:0:
448,192,47453,1,0,0:0:0:0:
64,192,47531,1,0,0:0:0:0:
192,192,47608,1,0,0:0:0:0:
320,192,47685,1,0,0:0:0:0:
64,192,47763,1,0,0:0:0:0:
448,192,47763,1,0,0:0:0:0:
320,192,47840,1,0,0:0:0:0:
192,192,47917,1,0,0:0:0:0:
64,192,47995,1,0,0:0:0:0:
320,192,48072,1,0,0:0:0:0:
448,192,48072,1,0,0:0:0:0:
192,192,48149,1,0,0:0:0:0:
448,192,48227,1,0,0:0:0:0:
64,192,48304,1,0,0:0:0:0:
320,192,48381,1,0,0:0:0:0:
448,192,48381,1,0,0:0:0:0:
192,192,48459,1,0,0:0:0:0:
64,192,48536,1,0,0:0:0:0:
448,192,48536,1,0,0:0:0:0:
320,192,48613,1,0,0:0:0:0:
64,192,48691,1,0,0:0:0:0:
192,192,48691,1,0,0:0:0:0:
448,192,48768,1,0,0:0:0:0:
64,192,48845,1,0,0:0:0:0:
192,192,48923,1,0,0:0:0:0:
320,192,49000,1,0,0:0:0:0:
448,192,49000,1,0,0:0:0:0:
192,192,49077,1,0,0:0:0:0:
64,192,49154,1,0,0:0:0:0:
448,192,49232,1,0,0:0:0:0:
192,192,49309,1,0,0:0:0:0:
320,192,49309,1,0,0:0:0:0:
64,192,49386,1,0,0:0:0:0:
192,192,49464,1,0,0:0:0:0:
320,192,49541,1,0,0:0:0:0:
64,192,49618,1,0,0:0:0:0:
448,192,49618,1,0,0:0:0:0:
192,192,49696,1,0,0:0:0:0:
320,192,49773,1,0,0:0:0:0:
448,192,49773,1,0,0:0:0:0:
64,192,49850,1,0,0:0:0:0:
192,192,49928,1,0,0:0:0:0:
320,192,49928,1,0,0:0:0:0:
448,192,50005,1,0,0:0:0:0:
320,192,50082,1,0,0:0:0:0:
192,192,50160,1,0,0:0:0:0:
64,192,50237,1,0,0:0:0:0:
448,192,50237,1,0,0:0:0:0:
320,192,50314,1,0,0:0:0:0:
192,192,50392,1,0,0:0:0:0:
64,192,50469,1,0,0:0:0:0:
320,192,50546,1,0,0:0:0:0:
448,192,50546,1,0,0:0:0:0:
192,192,50624,1,0,0:0:0:0:
64,192,50701,1,0,0:0:0:0:
192,192,50778,1,0,0:0:0:0:
320,192,50856,1,0,0:0:0:0:
448,192,50856,1,0,0:0:0:0:
64,192,50933,1,0,0:0:0:0:
192,192,51010,1,0,0:0:0:0:
320,192,51010,1,0,0:0:0:0:
448,192,51087,1,0,0:0:0:0:
64,192,51165,1,0,0:0:0:0:
192,192,51165,1,0,0:0:0:0:
320,192,51242,1,0,0:0:0:0:
64,192,51319,1,0,0:0:0:0:
448,192,51319,1,0,0:0:0:0:
192,192,51397,1,0,0:0:0:0:
64,192,51474,1,0,0:0:0:0:
448,192,51474,1,0,0:0:0:0:
320,192,51551,1,0,0:0:0:0:
64,192,51629,1,0,0:0:0:0:
192,192,51629,1,0,0:0:0:0:
448,192,51706,1,0,0:0:0:0:
64,192,51783,1,0,0:0:0:0:
192,192,51783,1,0,0:0:0:0:
320,192,51861,1,0,0:0:0:0:
64,192,51938,1,0,0:0:0:0:
192,192,51938,1,0,0:0:0:0:
448,0,51938,128,0,52247:1:0:0:0:
320,192,52093,1,0,0:0:0:0:
64,192,52247,1,0,0:0:0:0:
192,192,52247,1,0,0:0:0:0:
320,192,52402,1,0,0:0:0:0:
448,192,52402,1,0,0:0:0:0:
192,192,52479,1,0,0:0:0:0:
64,192,52557,1,0,0:0:0:0:
320,192,52711,1,0,0:0:0:0:
448,192,52711,1,0,0:0:0:0:
192,192,52789,1,0,0:0:0:0:
64,192,52866,1,0,0:0:0:0:
448,192,52866,1,0,0:0:0:0:
320,192,52943,1,0,0:0:0:0:
64,192,53021,1,0,0:0:0:0:
192,192,53021,1,0,0:0:0:0:
320,192,53098,1,0,0:0:0:0:
448,192,53175,1,0,0:0:0:0:
64,192,53330,1,0,0:0:0:0:
192,192,53330,1,0,0:0:0:0:
320,192,53407,1,0,0:0:0:0:
64,192,53484,1,0,0:0:0:0:
448,192,53484,1,0,0:0:0:0:
192,192,53562,1,0,0:0:0:0:
320,192,53639,1,0,0:0:0:0:
448,192,53639,1,0,0:0:0:0:
192,192,53716,1,0,0:0:0:0:
320,192,53794,1,0,0:0:0:0:
64,192,53948,1,0,0:0:0:0:
192,192,53948,1,0,0:0:0:0:
320,192,54026,1,0,0:0:0:0:
64,192,54103,1,0,0:0:0:0:
448,192,54103,1,0,0:0:0:0:
192,192,54180,1,0,0:0:0:0:
320,192,54258,1,0,0:0:0:0:
448,192,54258,1,0,0:0:0:0:
192,192,54335,1,0,0:0:0:0:
64,192,54412,1,0,0:0:0:0:
448,192,54412,1,0,0:0:0:0:
192,192,54567,1,0,0:0:0:0:
448,192,54644,1,0,0:0:0:0:
64,192,54722,1,0,0:0:0:0:
192,192,54722,1,0,0:0:0:0:
320,192,54799,1,0,0:0:0:0:
64,192,54876,1,0,0:0:0:0:
448,192,54876,1,0,0:0:0:0:
192,192,54954,1,0,0:0:0:0:
320,192,55031,1,0,0:0:0:0:
448,192,55108,1,0,0:0:0:0:
64,192,55186,1,0,0:0:0:0:
192,192,55186,1,0,0:0:0:0:
320,192,55263,1,0,0:0:0:0:
64,192,55340,1,0,0:0:0:0:
448,192,55340,1,0,0:0:0:0:
192,192,55417,1,0,0:0:0:0:
320,192,55495,1,0,0:0:0:0:
448,192,55495,1,0,0:0:0:0:
192,192,55572,1,0,0:0:0:0:
64,0,55649,128,0,55804:1:0:0:0:
320,192,55804,1,0,0:0:0:0:
64,192,55959,1,0,0:0:0:0:
192,0,55959,128,0,56113:1:0:0:0:
448,192,56113,1,0,0:0:0:0:
320,0,56268,128,0,56423:1:0:0:0:
64,192,56423,1,0,0:0:0:0:
320,192,56577,1,0,0:0:0:0:
192,0,56577,128,0,56732:1:0:0:0:
448,192,56732,1,0,0:0:0:0:
320,0,56887,128,0,57041:1:0:0:0:
64,192,57041,1,0,0:0:0:0:
192,192,57041,1,0,0:0:0:0:
448,192,57119,1,0,0:0:0:0:
320,192,57196,1,0,0:0:0:0:
192,192,57273,1,0,0:0:0:0:
64,192,57350,1,0,0:0:0:0:
448,192,57350,1,0,0:0:0:0:
320,192,57505,1,0,0:0:0:0:
192,192,57582,1,0,0:0:0:0:
320,192,57660,1,0,0:0:0:0:
448,192,57660,1,0,0:0:0:0:
192,192,57737,1,0,0:0:0:0:
64,192,57814,1,0,0:0:0:0:
448,192,57814,1,0,0:0:0:0:
320,192,57892,1,0,0:0:0:0:
64,192,57969,1,0,0:0:0:0:
192,192,57969,1,0,0:0:0:0:
320,192,58046,1,0,0:0:0:0:
448,192,58124,1,0,0:0:0:0:
64,192,58278,1,0,0:0:0:0:
192,192,58278,1,0,0:0:0:0:
320,192,58356,1,0,0:0:0:0:
192,192,58433,1,0,0:0:0:0:
448,192,58433,1,0,0:0:0:0:
320,192,58510,1,0,0:0:0:0:
64,192,58588,1,0,0:0:0:0:
192,192,58588,1,0,0:0:0:0:
320,192,58742,1,0,0:0:0:0:
192,192,58820,1,0,0:0:0:0:
64,192,58897,1,0,0:0:0:0:
448,192,58897,1,0,0:0:0:0:
192,192,58974,1,0,0:0:0:0:
320,192,59052,1,0,0:0:0:0:
448,192,59052,1,0,0:0:0:0:
64,192,59129,1,0,0:0:0:0:
192,192,59206,1,0,0:0:0:0:
448,192,59206,1,0,0:0:0:0:
320,192,59283,1,0,0:0:0:0:
192,192,59361,1,0,0:0:0:0:
64,192,59515,1,0,0:0:0:0:
448,192,59515,1,0,0:0:0:0:
192,192,59593,1,0,0:0:0:0:
320,192,59670,1,0,0:0:0:0:
448,192,59670,1,0,0:0:0:0:
192,192,59747,1,0,0:0:0:0:
320,192,59825,1,0,0:0:0:0:
64,192,59902,1,0,0:0:0:0:
448,192,59979,1,0,0:0:0:0:
320,192,60057,1,0,0:0:0:0:
64,192,60134,1,0,0:0:0:0:
192,192,60134,1,0,0:0:0:0:
320,192,60211,1,0,0:0:0:0:
64,192,60289,1,0,0:0:0:0:
448,192,60289,1,0,0:0:0:0:
192,192,60366,1,0,0:0:0:0:
320,192,60443,1,0,0:0:0:0:
448,192,60443,1,0,0:0:0:0:
64,192,60521,1,0,0:0:0:0:
192,192,60598,1,0,0:0:0:0:
320,192,60675,1,0,0:0:0:0:
64,192,60753,1,0,0:0:0:0:
192,192,60753,1,0,0:0:0:0:
448,192,60830,1,0,0:0:0:0:
192,192,60907,1,0,0:0:0:0:
320,192,60907,1,0,0:0:0:0:
64,192,60985,1,0,0:0:0:0:
320,192,61062,1,0,0:0:0:0:
448,192,61062,1,0,0:0:0:0:
192,192,61139,1,0,0:0:0:0:
64,192,61217,1,0,0:0:0:0:
448,192,61217,1,0,0:0:0:0:
320,192,61294,1,0,0:0:0:0:
64,192,61371,1,0,0:0:0:0:
192,192,61371,1,0,0:0:0:0:
320,192,61448,1,0,0:0:0:0:
448,192,61448,1,0,0:0:0:0:
64,192,61526,1,0,0:0:0:0:
192,192,61526,1,0,0:0:0:0:
320,192,61603,1,0,0:0:0:0:
448,192,61603,1,0,0:0:0:0:
64,192,61680,1,0,0:0:0:0:
192,192,61680,1,0,0:0:0:0:
320,192,61758,1,0,0:0:0:0:
448,192,61758,1,0,0:0:0:0:
192,192,61835,1,0,0:0:0:0:
64,0,61835,128,0,61990:1:0:0:0:
448,192,61990,1,0,0:0:0:0:
192,192,62144,1,0,0:0:0:0:
64,0,62144,128,0,62299:1:0:0:0:
320,0,62299,128,0,62454:1:0:0:0:
64,192,62454,1,0,0:0:0:0:
192,0,62608,128,0,62763:1:0:0:0:
64,192,62763,1,0,0:0:0:0:
448,0,62763,128,0,62918:1:0:0:0:
320,192,62918,1,0,0:0:0:0:
192,0,63072,128,0,63227:1:0:0:0:
320,0,63227,128,0,63381:1:0:0:0:
64,192,63381,1,0,0:0:0:0:
192,192,63381,1,0,0:0:0:0:
192,0,63536,128,0,63691:1:0:0:0:
448,0,63691,128,0,63845:1:0:0:0:
192,192,63845,1,0,0:0:0:0:
320,192,64000,1,0,0:0:0:0:
64,0,64000,128,0,64155:1:0:0:0:
192,192,64155,1,0,0:0:0:0:
448,0,64155,128,0,64619:1:0:0:0:
320,192,64309,1,0,0:0:0:0:
192,0,64464,128,0,64619:1:0:0:0:
64,192,64619,1,0,0:0:0:0:
320,0,64619,128,0,64773:1:0:0:0:
192,192,64773,1,0,0:0:0:0:
320,0,64928,128,0,65083:1:0:0:0:
192,0,65083,128,0,65237:1:0:0:0:
64,192,65237,1,0,0:0:0:0:
448,192,65237,1,0,0:0:0:0:
320,0,65392,128,0,65546:1:0:0:0:
192,0,65546,128,0,65701:1:0:0:0:
448,192,65701,1,0,0:0:0:0:
192,192,65856,1,0,0:0:0:0:
64,0,65856,128,0,66010:1:0:0:0:
320,0,66010,128,0,66165:1:0:0:0:
192,192,66165,1,0,0:0:0:0:
448,0,66320,128,0,66474:1:0:0:0:
320,192,66474,1,0,0:0:0:0:
64,0,66474,128,0,66629:1:0:0:0:
192,192,66629,1,0,0:0:0:0:
320,0,66784,128,0,66938:1:0:0:0:
64,192,66938,1,0,0:0:0:0:
320,192,67093,1,0,0:0:0:0:
192,0,67093,128,0,67247:1:0:0:0:
448,0,67247,128,0,67402:1:0:0:0:
320,192,67402,1,0,0:0:0:0:
192,0,67557,128,0,67711:1:0:0:0:
448,192,67711,1,0,0:0:0:0:
320,0,67711,128,0,67866:1:0:0:0:
64,192,67866,1,0,0:0:0:0:
192,0,68021,128,0,68175:1:0:0:0:
448,0,68175,128,0,68330:1:0:0:0:
192,192,68330,1,0,0:0:0:0:
320,192,68330,1,0,0:0:0:0:
64,0,68485,128,0,68639:1:0:0:0:
320,0,68639,128,0,68794:1:0:0:0:
448,192,68794,1,0,0:0:0:0:
192,192,68949,1,0,0:0:0:0:
64,0,68949,128,0,69103:1:0:0:0:
320,192,69103,1,0,0:0:0:0:
448,0,69103,128,0,69567:1:0:0:0:
64,192,69258,1,0,0:0:0:0:
192,0,69412,128,0,69567:1:0:0:0:
320,192,69567,1,0,0:0:0:0:
64,0,69567,128,0,69722:1:0:0:0:
192,192,69722,1,0,0:0:0:0:
448,0,69876,128,0,70031:1:0:0:0:
192,0,70031,128,0,70186:1:0:0:0:
64,192,70186,1,0,0:0:0:0:
448,192,70186,1,0,0:0:0:0:
320,0,70340,128,0,70495:1:0:0:0:
192,0,70495,128,0,70650:1:0:0:0:
448,192,70650,1,0,0:0:0:0:
192,192,70804,1,0,0:0:0:0:
64,0,70804,128,0,70959:1:0:0:0:
320,0,70959,128,0,71113:1:0:0:0:
192,192,71113,1,0,0:0:0:0:
320,192,71268,1,0,0:0:0:0:
448,192,71268,1,0,0:0:0:0:
64,192,71345,1,0,0:0:0:0:
192,192,71345,1,0,0:0:0:0:
320,192,71423,1,0,0:0:0:0:
448,192,71423,1,0,0:0:0:0:
64,192,71500,1,0,0:0:0:0:
192,192,71500,1,0,0:0:0:0:
320,192,71577,1,0,0:0:0:0:
448,192,71577,1,0,0:0:0:0:
64,192,71655,1,0,0:0:0:0:
192,192,71655,1,0,0:0:0:0:
320,192,71732,1,0,0:0:0:0:
448,192,71732,1,0,0:0:0:0:
192,192,71887,1,0,0:0:0:0:
64,192,72041,1,0,0:0:0:0:
448,192,72041,1,0,0:0:0:0:
192,192,72196,1,0,0:0:0:0:
320,192,72196,1,0,0:0:0:0:
448,192,72351,1,0,0:0:0:0:
64,192,72505,1,0,0:0:0:0:
192,192,72505,1,0,0:0:0:0:
320,192,72660,1,0,0:0:0:0:
448,192,72660,1,0,0:0:0:0:
192,192,72815,1,0,0:0:0:0:
64,192,72969,1,0,0:0:0:0:
448,192,72969,1,0,0:0:0:0:
192,192,73124,1,0,0:0:0:0:
320,192,73124,1,0,0:0:0:0:
448,192,73279,1,0,0:0:0:0:
64,192,73433,1,0,0:0:0:0:
192,192,73433,1,0,0:0:0:0:
64,192,73588,1,0,0:0:0:0:
448,192,73588,1,0,0:0:0:0:
192,192,73742,1,0,0:0:0:0:
320,192,73897,1,0,0:0:0:0:
448,192,73897,1,0,0:0:0:0:
64,192,74052,1,0,0:0:0:0:
448,0,74052,128,0,74206:1:0:0:0:
320,192,74206,1,0,0:0:0:0:
64,192,74361,1,0,0:0:0:0:
192,192,74361,1,0,0:0:0:0:
448,192,74516,1,0,0:0:0:0:
320,0,74516,128,0,74670:1:0:0:0:
192,192,74670,1,0,0:0:0:0:
64,192,74825,1,0,0:0:0:0:
448,192,74825,1,0,0:0:0:0:
64,192,74980,1,0,0:0:0:0:
192,0,74980,128,0,75134:1:0:0:0:
448,192,75134,1,0,0:0:0:0:
192,192,75289,1,0,0:0:0:0:
320,192,75289,1,0,0:0:0:0:
448,192,75444,1,0,0:0:0:0:
64,0,75444,128,0,75598:1:0:0:0:
192,192,75598,1,0,0:0:0:0:
320,192,75753,1,0,0:0:0:0:
448,192,75753,1,0,0:0:0:0:
64,192,75907,1,0,0:0:0:0:
448,192,75907,1,0,0:0:0:0:
192,192,76062,1,0,0:0:0:0:
64,192,76217,1,0,0:0:0:0:
320,192,76217,1,0,0:0:0:0:
192,192,76371,1,0,0:0:0:0:
320,192,76371,1,0,0:0:0:0:
448,192,76526,1,0,0:0:0:0:
64,192,76681,1,0,0:0:0:0:
192,192,76681,1,0,0:0:0:0:
320,192,76835,1,0,0:0:0:0:
64,192,76990,1,0,0:0:0:0:
448,192,76990,1,0,0:0:0:0:
192,192,77145,1,0,0:0:0:0:
320,192,77145,1,0,0:0:0:0:
448,192,77299,1,0,0:0:0:0:
192,192,77454,1,0,0:0:0:0:
320,192,77454,1,0,0:0:0:0:
64,192,77608,1,0,0:0:0:0:
192,192,77608,1,0,0:0:0:0:
448,192,77763,1,0,0:0:0:0:
192,192,77918,1,0,0:0:0:0:
320,192,77918,1,0,0:0:0:0:
64,192,78072,1,0,0:0:0:0:
448,192,78072,1,0,0:0:0:0:
192,192,78227,1,0,0:0:0:0:
64,192,78382,1,0,0:0:0:0:
320,192,78382,1,0,0:0:0:0:
320,192,78536,1,0,0:0:0:0:
448,192,78536,1,0,0:0:0:0:
64,192,78691,1,0,0:0:0:0:
192,192,78846,1,0,0:0:0:0:
320,192,78846,1,0,0:0:0:0:
64,192,79000,1,0,0:0:0:0:
448,192,79000,1,0,0:0:0:0:
320,192,79155,1,0,0:0:0:0:
192,192,79310,1,0,0:0:0:0:
448,192,79310,1,0,0:0:0:0:
64,192,79464,1,0,0:0:0:0:
320,192,79464,1,0,0:0:0:0:
192,192,79619,1,0,0:0:0:0:
320,192,79773,1,0,0:0:0:0:
448,192,79773,1,0,0:0:0:0:
64,192,79928,1,0,0:0:0:0:
192,192,79928,1,0,0:0:0:0:
320,192,80083,1,0,0:0:0:0:
64,192,80237,1,0,0:0:0:0:
448,192,80237,1,0,0:0:0:0:
448,192,80392,1,0,0:0:0:0:
64,0,80392,128,0,80547:1:0:0:0:
192,192,80547,1,0,0:0:0:0:
320,0,80701,128,0,80856:1:0:0:0:
448,0,80856,128,0,81011:1:0:0:0:
64,192,81011,1,0,0:0:0:0:
192,192,81011,1,0,0:0:0:0:
320,192,81165,1,0,0:0:0:0:
448,192,81165,1,0,0:0:0:0:
192,192,81243,1,0,0:0:0:0:
64,192,81320,1,0,0:0:0:0:
448,192,81320,1,0,0:0:0:0:
320,192,81397,1,0,0:0:0:0:
192,192,81475,1,0,0:0:0:0:
320,192,81552,1,0,0:0:0:0:
64,192,81629,1,0,0:0:0:0:
192,192,81629,1,0,0:0:0:0:
448,192,81707,1,0,0:0:0:0:
320,192,81784,1,0,0:0:0:0:
192,192,81861,1,0,0:0:0:0:
64,192,81938,1,0,0:0:0:0:
448,192,82016,1,0,0:0:0:0:
192,192,82093,1,0,0:0:0:0:
320,192,82093,1,0,0:0:0:0:
64,192,82170,1,0,0:0:0:0:
320,192,82248,1,0,0:0:0:0:
448,192,82248,1,0,0:0:0:0:
192,192,82325,1,0,0:0:0:0:
448,192,82402,1,0,0:0:0:0:
64,192,82480,1,0,0:0:0:0:
192,192,82557,1,0,0:0:0:0:
320,192,82557,1,0,0:0:0:0:
448,192,82634,1,0,0:0:0:0:
64,192,82712,1,0,0:0:0:0:
192,192,82712,1,0,0:0:0:0:
320,192,82789,1,0,0:0:0:0:
448,192,82866,1,0,0:0:0:0:
64,192,82944,1,0,0:0:0:0:
320,192,83021,1,0,0:0:0:0:
448,192,83021,1,0,0:0:0:0:
64,192,83098,1,0,0:0:0:0:
192,192,83176,1,0,0:0:0:0:
320,192,83253,1,0,0:0:0:0:
192,192,83330,1,0,0:0:0:0:
320,192,83408,1,0,0:0:0:0:
64,192,83485,1,0,0:0:0:0:
448,192,83485,1,0,0:0:0:0:
192,192,83562,1,0,0:0:0:0:
320,192,83640,1,0,0:0:0:0:
192,192,83717,1,0,0:0:0:0:
64,192,83794,1,0,0:0:0:0:
448,192,83794,1,0,0:0:0:0:
320,192,83872,1,0,0:0:0:0:
192,192,83949,1,0,0:0:0:0:
320,192,84026,1,0,0:0:0:0:
64,192,84104,1,0,0:0:0:0:
192,192,84104,1,0,0:0:0:0:
448,192,84181,1,0,0:0:0:0:
64,192,84258,1,0,0:0:0:0:
192,192,84335,1,0,0:0:0:0:
320,192,84413,1,0,0:0:0:0:
448,192,84490,1,0,0:0:0:0:
64,192,84567,1,0,0:0:0:0:
192,192,84567,1,0,0:0:0:0:
320,192,84645,1,0,0:0:0:0:
64,192,84722,1,0,0:0:0:0:
448,192,84722,1,0,0:0:0:0:
320,192,84799,1,0,0:0:0:0:
192,192,84877,1,0,0:0:0:0:
64,192,84954,1,0,0:0:0:0:
320,192,85031,1,0,0:0:0:0:
448,192,85031,1,0,0:0:0:0:
192,192,85109,1,0,0:0:0:0:
448,192,85186,1,0,0:0:0:0:
64,192,85263,1,0,0:0:0:0:
192,192,85341,1,0,0:0:0:0:
320,192,85418,1,0,0:0:0:0:
64,192,85495,1,0,0:0:0:0:
448,192,85495,1,0,0:0:0:0:
192,192,85573,1,0,0:0:0:0:
320,192,85650,1,0,0:0:0:0:
192,192,85727,1,0,0:0:0:0:
64,192,85805,1,0,0:0:0:0:
448,192,85882,1,0,0:0:0:0:
64,192,85959,1,0,0:0:0:0:
192,192,85959,1,0,0:0:0:0:
320,192,86037,1,0,0:0:0:0:
448,192,86114,1,0,0:0:0:0:
320,192,86191,1,0,0:0:0:0:
64,192,86269,1,0,0:0:0:0:
192,192,86269,1,0,0:0:0:0:
448,192,86346,1,0,0:0:0:0:
192,192,86423,1,0,0:0:0:0:
320,192,86423,1,0,0:0:0:0:
64,192,86500,1,0,0:0:0:0:
320,192,86578,1,0,0:0:0:0:
448,192,86578,1,0,0:0:0:0:
192,192,86655,1,0,0:0:0:0:
448,192,86732,1,0,0:0:0:0:
64,192,86810,1,0,0:0:0:0:
320,192,86887,1,0,0:0:0:0:
192,192,86964,1,0,0:0:0:0:
64,192,87042,1,0,0:0:0:0:
448,192,87042,1,0,0:0:0:0:
320,192,87119,1,0,0:0:0:0:
64,192,87196,1,0,0:0:0:0:
192,192,87196,1,0,0:0:0:0:
320,192,87274,1,0,0:0:0:0:
448,192,87351,1,0,0:0:0:0:
64,192,87428,1,0,0:0:0:0:
192,192,87506,1,0,0:0:0:0:
320,192,87583,1,0,0:0:0:0:
192,192,87660,1,0,0:0:0:0:
320,192,87738,1,0,0:0:0:0:
64,192,87815,1,0,0:0:0:0:
448,192,87815,1,0,0:0:0:0:
192,192,87892,1,0,0:0:0:0:
320,192,87970,1,0,0:0:0:0:
448,192,88047,1,0,0:0:0:0:
320,192,88124,1,0,0:0:0:0:
192,192,88202,1,0,0:0:0:0:
64,192,88279,1,0,0:0:0:0:
448,192,88279,1,0,0:0:0:0:
192,192,88356,1,0,0:0:0:0:
320,192,88433,1,0,0:0:0:0:
448,192,88433,1,0,0:0:0:0:
64,192,88511,1,0,0:0:0:0:
448,192,88588,1,0,0:0:0:0:
320,192,88665,1,0,0:0:0:0:
64,192,88743,1,0,0:0:0:0:
192,192,88743,1,0,0:0:0:0:
320,192,88820,1,0,0:0:0:0:
448,192,88897,1,0,0:0:0:0:
64,192,88975,1,0,0:0:0:0:
320,192,89052,1,0,0:0:0:0:
448,192,89052,1,0,0:0:0:0:
192,192,89129,1,0,0:0:0:0:
64,192,89207,1,0,0:0:0:0:
448,192,89284,1,0,0:0:0:0:
320,192,89361,1,0,0:0:0:0:
192,192,89439,1,0,0:0:0:0:
64,192,89516,1,0,0:0:0:0:
448,192,89516,1,0,0:0:0:0:
320,192,89593,1,0,0:0:0:0:
64,192,89671,1,0,0:0:0:0:
192,192,89671,1,0,0:0:0:0:
320,192,89748,1,0,0:0:0:0:
448,192,89825,1,0,0:0:0:0:
192,192,89903,1,0,0:0:0:0:
320,192,89980,1,0,0:0:0:0:
448,192,89980,1,0,0:0:0:0:
64,192,90057,1,0,0:0:0:0:
192,192,90135,1,0,0:0:0:0:
320,192,90212,1,0,0:0:0:0:
64,192,90289,1,0,0:0:0:0:
448,192,90289,1,0,0:0:0:0:
192,192,90367,1,0,0:0:0:0:
320,192,90444,1,0,0:0:0:0:
192,192,90521,1,0,0:0:0:0:
64,192,90598,1,0,0:0:0:0:
448,192,90676,1,0,0:0:0:0:
192,192,90753,1,0,0:0:0:0:
320,192,90830,1,0,0:0:0:0:
64,192,90908,1,0,0:0:0:0:
448,192,90908,1,0,0:0:0:0:
192,192,90985,1,0,0:0:0:0:
320,192,91062,1,0,0:0:0:0:
448,192,91062,1,0,0:0:0:0:
64,192,91140,1,0,0:0:0:0:
192,192,91217,1,0,0:0:0:0:
320,192,91217,1,0,0:0:0:0:
448,192,91294,1,0,0:0:0:0:
64,192,91372,1,0,0:0:0:0:
192,192,91372,1,0,0:0:0:0:
320,192,91449,1,0,0:0:0:0:
64,192,91526,1,0,0:0:0:0:
448,192,91526,1,0,0:0:0:0:
320,192,91604,1,0,0:0:0:0:
192,192,91681,1,0,0:0:0:0:
448,192,91758,1,0,0:0:0:0:
64,192,91836,1,0,0:0:0:0:
192,192,91836,1,0,0:0:0:0:
320,192,91913,1,0,0:0:0:0:
64,192,91990,1,0,0:0:0:0:
448,192,91990,1,0,0:0:0:0:
192,192,92068,1,0,0:0:0:0:
320,192,92145,1,0,0:0:0:0:
192,192,92222,1,0,0:0:0:0:
64,192,92300,1,0,0:0:0:0:
448,192,92300,1,0,0:0:0:0:
320,192,92377,1,0,0:0:0:0:
64,192,92454,1,0,0:0:0:0:
192,192,92454,1,0,0:0:0:0:
448,192,92532,1,0,0:0:0:0:
64,192,92609,1,0,0:0:0:0:
192,192,92609,1,0,0:0:0:0:
320,192,92686,1,0,0:0:0:0:
64,192,92764,1,0,0:0:0:0:
448,192,92764,1,0,0:0:0:0:
192,192,92841,1,0,0:0:0:0:
320,192,92918,1,0,0:0:0:0:
448,192,92918,1,0,0:0:0:0:
64,192,92995,1,0,0:0:0:0:
192,192,93073,1,0,0:0:0:0:
448,192,93073,1,0,0:0:0:0:
320,192,93150,1,0,0:0:0:0:
64,192,93227,1,0,0:0:0:0:
448,192,93227,1,0,0:0:0:0:
192,192,93305,1,0,0:0:0:0:
320,192,93382,1,0,0:0:0:0:
64,192,93459,1,0,0:0:0:0:
192,192,93537,1,0,0:0:0:0:
448,192,93537,1,0,0:0:0:0:
320,192,93614,1,0,0:0:0:0:
64,192,93691,1,0,0:0:0:0:
192,192,93691,1,0,0:0:0:0:
448,192,93769,1,0,0:0:0:0:
64,192,93846,1,0,0:0:0:0:
320,192,93846,1,0,0:0:0:0:
192,192,93923,1,0,0:0:0:0:
320,192,94001,1,0,0:0:0:0:
448,192,94001,1,0,0:0:0:0:
64,192,94078,1,0,0:0:0:0:
192,192,94155,1,0,0:0:0:0:
320,192,94233,1,0,0:0:0:0:
64,192,94310,1,0,0:0:0:0:
448,192,94310,1,0,0:0:0:0:
192,192,94387,1,0,0:0:0:0:
320,192,94465,1,0,0:0:0:0:
448,192,94465,1,0,0:0:0:0:
192,192,94542,1,0,0:0:0:0:
320,192,94619,1,0,0:0:0:0:
448,192,94697,1,0,0:0:0:0:
64,192,94774,1,0,0:0:0:0:
192,192,94774,1,0,0:0:0:0:
448,192,94851,1,0,0:0:0:0:
192,192,94929,1,0,0:0:0:0:
320,192,94929,1,0,0:0:0:0:
64,192,95006,1,0,0:0:0:0:
320,192,95083,1,0,0:0:0:0:
448,192,95083,1,0,0:0:0:0:
192,192,95160,1,0,0:0:0:0:
448,192,95238,1,0,0:0:0:0:
64,192,95315,1,0,0:0:0:0:
192,192,95392,1,0,0:0:0:0:
320,192,95392,1,0,0:0:0:0:
448,192,95470,1,0,0:0:0:0:
64,192,95547,1,0,0:0:0:0:
192,192,95547,1,0,0:0:0:0:
320,192,95624,1,0,0:0:0:0:
64,192,95702,1,0,0:0:0:0:
448,192,95702,1,0,0:0:0:0:
320,192,95779,1,0,0:0:0:0:
192,192,95856,1,0,0:0:0:0:
320,192,95934,1,0,0:0:0:0:
64,192,96011,1,0,0:0:0:0:
448,192,96011,1,0,0:0:0:0:
192,192,96088,1,0,0:0:0:0:
320,192,96166,1,0,0:0:0:0:
448,192,96166,1,0,0:0:0:0:
192,192,96243,1,0,0:0:0:0:
64,192,96320,1,0,0:0:0:0:
448,192,96320,1,0,0:0:0:0:
320,192,96398,1,0,0:0:0:0:
64,192,96475,1,0,0:0:0:0:
192,192,96475,1,0,0:0:0:0:
448,192,96552,1,0,0:0:0:0:
64,192,96630,1,0,0:0:0:0:
192,192,96707,1,0,0:0:0:0:
320,192,96784,1,0,0:0:0:0:
448,192,96784,1,0,0:0:0:0:
192,192,96862,1,0,0:0:0:0:
64,192,96939,1,0,0:0:0:0:
448,192,96939,1,0,0:0:0:0:
320,192,97016,1,0,0:0:0:0:
192,192,97094,1,0,0:0:0:0:
64,192,97171,1,0,0:0:0:0:
320,192,97248,1,0,0:0:0:0:
448,192,97248,1,0,0:0:0:0:
192,192,97326,1,0,0:0:0:0:
320,192,97403,1,0,0:0:0:0:
448,192,97403,1,0,0:0:0:0:
64,192,97480,1,0,0:0:0:0:
192,192,97557,1,0,0:0:0:0:
320,192,97557,1,0,0:0:0:0:
448,192,97635,1,0,0:0:0:0:
64,192,97712,1,0,0:0:0:0:
192,192,97712,1,0,0:0:0:0:
320,192,97789,1,0,0:0:0:0:
64,192,97867,1,0,0:0:0:0:
192,192,97867,1,0,0:0:0:0:
320,192,97944,1,0,0:0:0:0:
64,192,98021,1,0,0:0:0:0:
448,192,98021,1,0,0:0:0:0:
192,192,98099,1,0,0:0:0:0:
320,192,98176,1,0,0:0:0:0:
448,192,98176,1,0,0:0:0:0:
192,192,98253,1,0,0:0:0:0:
64,192,98331,1,0,0:0:0:0:
448,192,98408,1,0,0:0:0:0:
192,192,98485,1,0,0:0:0:0:
320,192,98485,1,0,0:0:0:0:
64,192,98563,1,0,0:0:0:0:
320,192,98640,1,0,0:0:0:0:
448,192,98640,1,0,0:0:0:0:
192,192,98717,1,0,0:0:0:0:
64,192,98795,1,0,0:0:0:0:
448,192,98795,1,0,0:0:0:0:
192,192,98872,1,0,0:0:0:0:
320,192,98949,1,0,0:0:0:0:
448,192,98949,1,0,0:0:0:0:
64,192,99027,1,0,0:0:0:0:
320,192,99104,1,0,0:0:0:0:
192,192,99181,1,0,0:0:0:0:
64,192,99259,1,0,0:0:0:0:
448,192,99259,1,0,0:0:0:0:
320,192,99336,1,0,0:0:0:0:
64,192,99413,1,0,0:0:0:0:
192,192,99413,1,0,0:0:0:0:
448,192,99491,1,0,0:0:0:0:
320,192,99568,1,0,0:0:0:0:
192,192,99645,1,0,0:0:0:0:
64,192,99722,1,0,0:0:0:0:
320,192,99722,1,0,0:0:0:0:
448,192,99800,1,0,0:0:0:0:
64,192,99877,1,0,0:0:0:0:
192,192,99877,1,0,0:0:0:0:
320,192,99954,1,0,0:0:0:0:
64,192,100032,1,0,0:0:0:0:
448,192,100032,1,0,0:0:0:0:
320,192,100109,1,0,0:0:0:0:
64,192,100186,1,0,0:0:0:0:
192,192,100186,1,0,0:0:0:0:
320,192,100264,1,0,0:0:0:0:
192,192,100341,1,0,0:0:0:0:
448,192,100341,1,0,0:0:0:0:
64,192,100418,1,0,0:0:0:0:
320,192,100496,1,0,0:0:0:0:
448,192,100496,1,0,0:0:0:0:
192,192,100573,1,0,0:0:0:0:
64,192,100650,1,0,0:0:0:0:
448,192,100650,1,0,0:0:0:0:
192,192,100728,1,0,0:0:0:0:
320,192,100805,1,0,0:0:0:0:
448,192,100805,1,0,0:0:0:0:
64,192,100882,1,0,0:0:0:0:
192,192,100960,1,0,0:0:0:0:
320,192,100960,1,0,0:0:0:0:
448,192,101037,1,0,0:0:0:0:
64,192,101114,1,0,0:0:0:0:
320,192,101114,1,0,0:0:0:0:
192,192,101192,1,0,0:0:0:0:
320,192,101269,1,0,0:0:0:0:
448,192,101269,1,0,0:0:0:0:
192,192,101346,1,0,0:0:0:0:
64,192,101424,1,0,0:0:0:0:
448,192,101424,1,0,0:0:0:0:
320,192,101501,1,0,0:0:0:0:
192,192,101578,1,0,0:0:0:0:
64,192,101656,1,0,0:0:0:0:
448,192,101733,1,0,0:0:0:0:
320,192,101887,1,0,0:0:0:0:
448,192,101887,1,0,0:0:0:0:
192,192,101965,1,0,0:0:0:0:
64,192,102042,1,0,0:0:0:0:
448,192,102119,1,0,0:0:0:0:
320,192,102197,1,0,0:0:0:0:
192,192,102351,1,0,0:0:0:0:
320,192,102351,1,0,0:0:0:0:
64,192,102429,1,0,0:0:0:0:
448,192,102506,1,0,0:0:0:0:
320,192,102583,1,0,0:0:0:0:
192,192,102661,1,0,0:0:0:0:
64,192,102815,1,0,0:0:0:0:
192,192,102815,1,0,0:0:0:0:
448,192,102893,1,0,0:0:0:0:
320,192,102970,1,0,0:0:0:0:
192,192,103047,1,0,0:0:0:0:
64,192,103125,1,0,0:0:0:0:
320,192,103279,1,0,0:0:0:0:
448,192,103279,1,0,0:0:0:0:
192,192,103357,1,0,0:0:0:0:
64,192,103434,1,0,0:0:0:0:
448,192,103511,1,0,0:0:0:0:
320,192,103589,1,0,0:0:0:0:
64,192,103743,1,0,0:0:0:0:
192,192,103743,1,0,0:0:0:0:
448,192,103820,1,0,0:0:0:0:
320,192,103898,1,0,0:0:0:0:
192,192,103975,1,0,0:0:0:0:
64,192,104052,1,0,0:0:0:0:
320,192,104207,1,0,0:0:0:0:
448,192,104207,1,0,0:0:0:0:
192,192,104284,1,0,0:0:0:0:
64,192,104362,1,0,0:0:0:0:
448,192,104439,1,0,0:0:0:0:
320,192,104516,1,0,0:0:0:0:
64,192,104671,1,0,0:0:0:0:
192,192,104671,1,0,0:0:0:0:
448,192,104748,1,0,0:0:0:0:
320,192,104826,1,0,0:0:0:0:
192,192,104903,1,0,0:0:0:0:
64,192,104980,1,0,0:0:0:0:
320,192,105135,1,0,0:0:0:0:
448,192,105135,1,0,0:0:0:0:
192,192,105212,1,0,0:0:0:0:
64,192,105290,1,0,0:0:0:0:
448,192,105367,1,0,0:0:0:0:
320,192,105444,1,0,0:0:0:0:
64,192,105599,1,0,0:0:0:0:
192,192,105599,1,0,0:0:0:0:
448,192,105676,1,0,0:0:0:0:
320,192,105754,1,0,0:0:0:0:
192,192,105831,1,0,0:0:0:0:
64,192,105908,1,0,0:0:0:0:
320,192,106063,1,0,0:0:0:0:
448,192,106063,1,0,0:0:0:0:
64,192,106140,1,0,0:0:0:0:
192,192,106140,1,0,0:0:0:0:
320,192,106217,1,0,0:0:0:0:
448,192,106217,1,0,0:0:0:0:
192,192,106295,1,0,0:0:0:0:
64,192,106372,1,0,0:0:0:0:
448,192,106372,1,0,0:0:0:0:
192,192,106527,1,0,0:0:0:0:
320,192,106527,1,0,0:0:0:0:
64,192,106681,1,0,0:0:0:0:
192,192,106681,1,0,0:0:0:0:
448,192,106836,1,0,0:0:0:0:
192,192,106991,1,0,0:0:0:0:
320,192,106991,1,0,0:0:0:0:
64,192,107145,1,0,0:0:0:0:
320,192,107145,1,0,0:0:0:0:
192,192,107300,1,0,0:0:0:0:
320,192,107455,1,0,0:0:0:0:
448,192,107455,1,0,0:0:0:0:
64,192,107609,1,0,0:0:0:0:
448,192,107609,1,0,0:0:0:0:
192,192,107764,1,0,0:0:0:0:
64,192,107919,1,0,0:0:0:0:
320,192,107919,1,0,0:0:0:0:
64,192,108073,1,0,0:0:0:0:
448,192,108073,1,0,0:0:0:0:
192,192,108228,1,0,0:0:0:0:
320,192,108383,1,0,0:0:0:0:
448,192,108383,1,0,0:0:0:0:
64,192,108537,1,0,0:0:0:0:
320,192,108537,1,0,0:0:0:0:
192,192,108692,1,0,0:0:0:0:
64,192,108846,1,0,0:0:0:0:
448,192,108846,1,0,0:0:0:0:
192,192,109001,1,0,0:0:0:0:
448,192,109001,1,0,0:0:0:0:
320,192,109156,1,0,0:0:0:0:
64,192,109310,1,0,0:0:0:0:
192,192,109310,1,0,0:0:0:0:
192,192,109465,1,0,0:0:0:0:
448,192,109465,1,0,0:0:0:0:
320,192,109620,1,0,0:0:0:0:
64,192,109774,1,0,0:0:0:0:
448,192,109774,1,0,0:0:0:0:
320,192,109852,1,0,0:0:0:0:
64,192,109929,1,0,0:0:0:0:
448,192,109929,1,0,0:0:0:0:
192,192,110006,1,0,0:0:0:0:
320,192,110084,1,0,0:0:0:0:
448,192,110161,1,0,0:0:0:0:
64,192,110238,1,0,0:0:0:0:
192,192,110238,1,0,0:0:0:0:
320,192,110316,1,0,0:0:0:0:
64,192,110393,1,0,0:0:0:0:
192,192,110393,1,0,0:0:0:0:
448,192,110470,1,0,0:0:0:0:
320,192,110547,1,0,0:0:0:0:
192,192,110625,1,0,0:0:0:0:
64,192,110702,1,0,0:0:0:0:
448,192,110702,1,0,0:0:0:0:
320,192,110779,1,0,0:0:0:0:
64,192,110857,1,0,0:0:0:0:
192,192,110857,1,0,0:0:0:0:
320,192,110934,1,0,0:0:0:0:
192,192,111011,1,0,0:0:0:0:
64,192,111089,1,0,0:0:0:0:
320,192,111166,1,0,0:0:0:0:
448,192,111166,1,0,0:0:0:0:
192,192,111243,1,0,0:0:0:0:
64,192,111321,1,0,0:0:0:0:
448,192,111321,1,0,0:0:0:0:
320,192,111398,1,0,0:0:0:0:
192,192,111475,1,0,0:0:0:0:
64,192,111553,1,0,0:0:0:0:
448,192,111630,1,0,0:0:0:0:
192,192,111707,1,0,0:0:0:0:
320,192,111785,1,0,0:0:0:0:
192,192,111862,1,0,0:0:0:0:
320,192,111939,1,0,0:0:0:0:
448,192,111939,1,0,0:0:0:0:
192,192,112094,1,0,0:0:0:0:
448,192,112249,1,0,0:0:0:0:
192,192,112403,1,0,0:0:0:0:
320,192,112558,1,0,0:0:0:0:
64,192,112712,1,0,0:0:0:0:
448,192,112867,1,0,0:0:0:0:
320,192,113022,1,0,0:0:0:0:
64,192,113176,1,0,0:0:0:0:
320,192,113176,1,0,0:0:0:0:
192,192,113331,1,0,0:0:0:0:
320,192,113486,1,0,0:0:0:0:
192,192,113640,1,0,0:0:0:0:
64,192,113795,1,0,0:0:0:0:
448,192,113795,1,0,0:0:0:0:
320,192,113950,1,0,0:0:0:0:
192,192,114104,1,0,0:0:0:0:
320,192,114259,1,0,0:0:0:0:
320,192,114414,1,0,0:0:0:0:
448,192,114414,1,0,0:0:0:0:
64,192,114568,1,0,0:0:0:0:
320,192,114723,1,0,0:0:0:0:
192,192,114877,1,0,0:0:0:0:
448,192,115032,1,0,0:0:0:0:
192,192,115187,1,0,0:0:0:0:
320,192,115341,1,0,0:0:0:0:
192,192,115496,1,0,0:0:0:0:
192,192,115651,1,0,0:0:0:0:
448,192,115651,1,0,0:0:0:0:
320,192,115805,1,0,0:0:0:0:
192,192,115960,1,0,0:0:0:0:
64,192,116115,1,0,0:0:0:0:
448,192,116269,1,0,0:0:0:0:
320,192,116347,1,0,0:0:0:0:
192,192,116424,1,0,0:0:0:0:
64,192,116501,1,0,0:0:0:0:
448,192,116578,1,0,0:0:0:0:
320,192,116656,1,0,0:0:0:0:
192,192,116733,1,0,0:0:0:0:
64,192,116810,1,0,0:0:0:0:
320,192,116888,1,0,0:0:0:0:
320,192,117042,1,0,0:0:0:0:
320,192,117197,1,0,0:0:0:0:
320,192,117352,1,0,0:0:0:0:
320,192,117506,1,0,0:0:0:0:
320,192,117661,1,0,0:0:0:0:
320,192,117816,1,0,0:0:0:0:
320,192,117970,1,0,0:0:0:0:
320,0,118125,128,0,120290:1:0:0:0:
