osu file format v13

[General]
AudioFilename: Identity part 2.mp3
AudioLeadIn: 2
PreviewTime: 14010
Countdown: 0
SampleSet: None
StackLeniency: 0.7
Mode: 3
LetterboxInBreaks: 0
SpecialStyle: 0
WidescreenStoryboard: 0

[Editor]
DistanceSpacing: 0.8
BeatDivisor: 4
GridSize: 8
TimelineZoom: 1

[Metadata]
Title:4K Challenge Pack
TitleUnicode:4K Challenge Pack
Artist:xeona
ArtistUnicode:xeona
Creator:Anoex
Version:SHK.o2SE---Identity part 2
Source:
Tags:
BeatmapID:470549
BeatmapSetID:198334

[Difficulty]
HPDrainRate:5
CircleSize:4
OverallDifficulty:7
ApproachRate:10
SliderMultiplier:1.4
SliderTickRate:1

[Events]
//Background and Video events
0,0,"Identity part 2.jpg",0,0
//Break Periods
//Storyboard Layer 0 (Background)
//Storyboard Layer 1 (Fail)
//Storyboard Layer 2 (Pass)
//Storyboard Layer 3 (Foreground)
//Storyboard Sound Samples
//Background Colour Transformations
3,100,163,162,255

[TimingPoints]
6440,400,4,2,0,15,1,0
12840,200,4,2,0,15,1,0
13240,60000000000000,4,2,0,15,1,0
13240,60000000000000,4,2,0,15,1,0
13240,60000000000000,4,2,0,15,1,0
13240,60000000000000,4,2,0,15,1,0
13660,200,4,2,0,15,1,0
13660,200,4,2,0,15,1,0
13660,200,4,2,0,15,1,0
13660,200,4,2,0,15,1,0
14060,400,4,2,0,15,1,0
26860,200,4,2,0,15,1,0
30060,400,4,2,0,15,1,0

[HitObjects]
64,192,6440,5,0,0:0:0:0:
192,192,6440,1,0,0:0:0:0:
320,192,6440,1,0,0:0:0:0:
448,192,6440,1,0,0:0:0:0:
64,192,6540,1,0,0:0:0:0:
320,192,6540,1,0,0:0:0:0:
192,192,6640,1,0,0:0:0:0:
448,192,6640,1,0,0:0:0:0:
64,192,6740,1,0,0:0:0:0:
320,192,6740,1,0,0:0:0:0:
192,0,6840,128,0,7040:1:0:0:0:
448,0,6840,128,0,7040:1:0:0:0:
64,192,6940,1,0,0:0:0:0:
320,192,6940,1,0,0:0:0:0:
64,192,7040,1,0,0:0:0:0:
320,192,7040,1,0,0:0:0:0:
64,192,7240,1,0,0:0:0:0:
448,192,7240,1,0,0:0:0:0:
192,0,7240,128,0,7440:1:0:0:0:
320,0,7240,128,0,7440:1:0:0:0:
64,0,7340,128,0,7540:1:0:0:0:
448,0,7340,128,0,7540:1:0:0:0:
192,192,7540,1,0,0:0:0:0:
320,192,7540,1,0,0:0:0:0:
192,0,7640,128,0,7740:1:0:0:0:
320,0,7640,128,0,7740:1:0:0:0:
64,192,7840,1,0,0:0:0:0:
192,192,7840,1,0,0:0:0:0:
192,192,7940,1,0,0:0:0:0:
320,192,7940,1,0,0:0:0:0:
64,192,8040,1,0,0:0:0:0:
448,192,8040,1,0,0:0:0:0:
64,192,8190,1,0,0:0:0:0:
448,192,8190,1,0,0:0:0:0:
192,192,8340,1,0,0:0:0:0:
448,192,8340,1,0,0:0:0:0:
64,0,8440,128,0,8640:1:0:0:0:
192,192,8490,1,0,0:0:0:0:
320,192,8490,1,0,0:0:0:0:
192,192,8640,1,0,0:0:0:0:
320,192,8640,1,0,0:0:0:0:
64,192,8790,1,0,0:0:0:0:
320,192,8790,1,0,0:0:0:0:
448,0,8840,128,0,9040:1:0:0:0:
64,192,8940,1,0,0:0:0:0:
320,192,8940,1,0,0:0:0:0:
64,192,9090,1,0,0:0:0:0:
192,192,9090,1,0,0:0:0:0:
64,192,9240,1,0,0:0:0:0:
192,192,9240,1,0,0:0:0:0:
320,192,9340,1,0,0:0:0:0:
448,192,9340,1,0,0:0:0:0:
192,192,9440,1,0,0:0:0:0:
448,192,9440,1,0,0:0:0:0:
64,192,9540,1,0,0:0:0:0:
320,192,9540,1,0,0:0:0:0:
64,192,9640,1,0,0:0:0:0:
448,192,9640,1,0,0:0:0:0:
192,192,9740,1,0,0:0:0:0:
320,192,9740,1,0,0:0:0:0:
64,192,9840,1,0,0:0:0:0:
192,192,9840,1,0,0:0:0:0:
320,192,9940,1,0,0:0:0:0:
448,192,9940,1,0,0:0:0:0:
64,192,10040,1,0,0:0:0:0:
192,192,10040,1,0,0:0:0:0:
320,192,10140,1,0,0:0:0:0:
448,192,10140,1,0,0:0:0:0:
64,0,10240,128,0,10440:1:0:0:0:
320,0,10240,128,0,10440:1:0:0:0:
192,192,10440,1,0,0:0:0:0:
448,192,10440,1,0,0:0:0:0:
192,192,10540,1,0,0:0:0:0:
448,192,10540,1,0,0:0:0:0:
64,192,10640,1,0,0:0:0:0:
448,192,10640,1,0,0:0:0:0:
192,192,10740,1,0,0:0:0:0:
320,192,10740,1,0,0:0:0:0:
192,192,10840,1,0,0:0:0:0:
320,0,10840,128,0,11040:1:0:0:0:
448,0,10840,128,0,11040:1:0:0:0:
64,192,11040,1,0,0:0:0:0:
192,192,11040,1,0,0:0:0:0:
192,192,11140,1,0,0:0:0:0:
320,192,11140,1,0,0:0:0:0:
64,192,11240,1,0,0:0:0:0:
448,192,11240,1,0,0:0:0:0:
64,192,11340,1,0,0:0:0:0:
448,192,11340,1,0,0:0:0:0:
192,192,11440,1,0,0:0:0:0:
320,192,11540,1,0,0:0:0:0:
448,192,11540,1,0,0:0:0:0:
320,192,11640,1,0,0:0:0:0:
448,192,11640,1,0,0:0:0:0:
64,192,11740,1,0,0:0:0:0:
448,192,11740,1,0,0:0:0:0:
192,192,11840,1,0,0:0:0:0:
320,0,11840,128,0,12040:1:0:0:0:
64,192,12040,1,0,0:0:0:0:
192,192,12040,1,0,0:0:0:0:
64,192,12140,1,0,0:0:0:0:
192,192,12140,1,0,0:0:0:0:
64,0,12240,128,0,12440:1:0:0:0:
448,0,12240,128,0,12440:1:0:0:0:
192,192,12340,1,0,0:0:0:0:
320,192,12340,1,0,0:0:0:0:
192,192,12440,1,0,0:0:0:0:
320,192,12440,1,0,0:0:0:0:
64,192,12640,1,0,0:0:0:0:
192,192,12640,1,0,0:0:0:0:
320,192,12640,1,0,0:0:0:0:
448,192,12640,1,0,0:0:0:0:
64,192,12740,1,0,0:0:0:0:
192,192,12740,1,0,0:0:0:0:
320,192,12740,1,0,0:0:0:0:
448,192,12740,1,0,0:0:0:0:
64,0,12840,128,0,13747:1:0:0:0:
192,0,12840,128,0,13747:1:0:0:0:
320,0,12840,128,0,13747:1:0:0:0:
448,0,12840,128,0,13747:1:0:0:0:
192,0,13947,128,0,13997:1:0:0:0:
448,0,13947,128,0,13997:1:0:0:0:
192,192,14047,1,0,0:0:0:0:
320,192,14047,1,0,0:0:0:0:
448,192,14047,1,0,0:0:0:0:
64,0,14047,128,0,14260:1:0:0:0:
320,192,14160,1,0,0:0:0:0:
448,192,14160,1,0,0:0:0:0:
192,192,14260,1,0,0:0:0:0:
320,0,14260,128,0,14460:1:0:0:0:
64,192,14360,1,0,0:0:0:0:
192,192,14360,1,0,0:0:0:0:
448,192,14460,1,0,0:0:0:0:
64,0,14460,128,0,14660:1:0:0:0:
192,192,14560,1,0,0:0:0:0:
320,192,14560,1,0,0:0:0:0:
320,192,14660,1,0,0:0:0:0:
448,0,14660,128,0,14860:1:0:0:0:
192,192,14760,1,0,0:0:0:0:
320,192,14760,1,0,0:0:0:0:
64,192,14860,1,0,0:0:0:0:
192,192,14860,1,0,0:0:0:0:
64,192,14960,1,0,0:0:0:0:
320,192,14960,1,0,0:0:0:0:
192,192,15060,1,0,0:0:0:0:
320,0,15060,128,0,15260:1:0:0:0:
192,192,15160,1,0,0:0:0:0:
448,192,15160,1,0,0:0:0:0:
64,192,15260,1,0,0:0:0:0:
448,0,15260,128,0,15460:1:0:0:0:
64,192,15360,1,0,0:0:0:0:
192,192,15360,1,0,0:0:0:0:
192,192,15460,1,0,0:0:0:0:
320,192,15460,1,0,0:0:0:0:
64,192,15560,1,0,0:0:0:0:
320,192,15560,1,0,0:0:0:0:
64,192,15660,1,0,0:0:0:0:
192,192,15660,1,0,0:0:0:0:
192,192,15760,1,0,0:0:0:0:
448,192,15760,1,0,0:0:0:0:
64,192,15860,1,0,0:0:0:0:
448,0,15860,128,0,16060:1:0:0:0:
64,192,15960,1,0,0:0:0:0:
192,192,15960,1,0,0:0:0:0:
192,192,16060,1,0,0:0:0:0:
320,192,16060,1,0,0:0:0:0:
64,192,16160,1,0,0:0:0:0:
320,192,16160,1,0,0:0:0:0:
192,192,16260,1,0,0:0:0:0:
64,0,16260,128,0,16460:1:0:0:0:
192,192,16360,1,0,0:0:0:0:
448,192,16360,1,0,0:0:0:0:
320,192,16460,1,0,0:0:0:0:
448,0,16460,128,0,16660:1:0:0:0:
192,192,16560,1,0,0:0:0:0:
320,192,16560,1,0,0:0:0:0:
64,192,16660,1,0,0:0:0:0:
192,0,16660,128,0,16860:1:0:0:0:
64,192,16760,1,0,0:0:0:0:
320,192,16760,1,0,0:0:0:0:
320,192,16860,1,0,0:0:0:0:
448,192,16860,1,0,0:0:0:0:
192,192,16960,1,0,0:0:0:0:
448,192,16960,1,0,0:0:0:0:
320,192,17060,1,0,0:0:0:0:
192,0,17060,128,0,17260:1:0:0:0:
320,192,17160,1,0,0:0:0:0:
448,192,17160,1,0,0:0:0:0:
64,192,17260,1,0,0:0:0:0:
448,0,17260,128,0,17460:1:0:0:0:
64,192,17360,1,0,0:0:0:0:
192,192,17360,1,0,0:0:0:0:
192,192,17460,1,0,0:0:0:0:
320,192,17460,1,0,0:0:0:0:
64,192,17560,1,0,0:0:0:0:
320,192,17560,1,0,0:0:0:0:
64,192,17660,1,0,0:0:0:0:
192,192,17660,1,0,0:0:0:0:
448,0,17660,128,0,17860:1:0:0:0:
192,192,17760,1,0,0:0:0:0:
320,192,17760,1,0,0:0:0:0:
64,192,17860,1,0,0:0:0:0:
320,0,17860,128,0,18060:1:0:0:0:
64,192,17960,1,0,0:0:0:0:
192,192,17960,1,0,0:0:0:0:
192,192,18060,1,0,0:0:0:0:
448,192,18060,1,0,0:0:0:0:
320,192,18160,1,0,0:0:0:0:
448,192,18160,1,0,0:0:0:0:
192,192,18260,1,0,0:0:0:0:
320,192,18260,1,0,0:0:0:0:
192,192,18360,1,0,0:0:0:0:
64,0,18360,128,0,18560:1:0:0:0:
320,192,18460,1,0,0:0:0:0:
448,0,18460,128,0,18660:1:0:0:0:
192,192,18560,1,0,0:0:0:0:
320,192,18560,1,0,0:0:0:0:
64,192,18660,1,0,0:0:0:0:
192,192,18660,1,0,0:0:0:0:
64,192,18760,1,0,0:0:0:0:
320,192,18760,1,0,0:0:0:0:
192,192,18860,1,0,0:0:0:0:
320,192,18860,1,0,0:0:0:0:
192,192,18960,1,0,0:0:0:0:
448,192,18960,1,0,0:0:0:0:
320,192,19060,1,0,0:0:0:0:
64,0,19060,128,0,19260:1:0:0:0:
192,192,19160,1,0,0:0:0:0:
448,192,19160,1,0,0:0:0:0:
320,192,19260,1,0,0:0:0:0:
448,0,19260,128,0,19460:1:0:0:0:
64,192,19360,1,0,0:0:0:0:
192,192,19360,1,0,0:0:0:0:
192,192,19460,1,0,0:0:0:0:
320,0,19460,128,0,19660:1:0:0:0:
64,192,19560,1,0,0:0:0:0:
448,192,19560,1,0,0:0:0:0:
192,192,19660,1,0,0:0:0:0:
64,0,19660,128,0,19860:1:0:0:0:
192,192,19760,1,0,0:0:0:0:
320,192,19760,1,0,0:0:0:0:
320,192,19860,1,0,0:0:0:0:
448,192,19860,1,0,0:0:0:0:
192,192,19960,1,0,0:0:0:0:
320,0,19960,128,0,20160:1:0:0:0:
64,192,20060,1,0,0:0:0:0:
448,0,20060,128,0,20260:1:0:0:0:
64,192,20160,1,0,0:0:0:0:
192,192,20160,1,0,0:0:0:0:
320,192,20260,1,0,0:0:0:0:
192,0,20260,128,0,20460:1:0:0:0:
320,192,20360,1,0,0:0:0:0:
448,192,20360,1,0,0:0:0:0:
64,192,20460,1,0,0:0:0:0:
448,0,20460,128,0,20660:1:0:0:0:
64,192,20560,1,0,0:0:0:0:
192,192,20560,1,0,0:0:0:0:
192,192,20660,1,0,0:0:0:0:
320,192,20660,1,0,0:0:0:0:
64,192,20760,1,0,0:0:0:0:
192,192,20760,1,0,0:0:0:0:
64,192,20860,1,0,0:0:0:0:
448,192,20860,1,0,0:0:0:0:
320,0,20860,128,0,21060:1:0:0:0:
192,192,20960,1,0,0:0:0:0:
448,192,20960,1,0,0:0:0:0:
64,192,21060,1,0,0:0:0:0:
192,192,21060,1,0,0:0:0:0:
64,192,21160,1,0,0:0:0:0:
448,192,21160,1,0,0:0:0:0:
320,192,21260,1,0,0:0:0:0:
448,192,21260,1,0,0:0:0:0:
192,0,21260,128,0,21460:1:0:0:0:
64,192,21360,1,0,0:0:0:0:
320,192,21360,1,0,0:0:0:0:
64,192,21460,1,0,0:0:0:0:
448,192,21460,1,0,0:0:0:0:
320,192,21560,1,0,0:0:0:0:
448,192,21560,1,0,0:0:0:0:
192,192,21660,1,0,0:0:0:0:
320,192,21660,1,0,0:0:0:0:
64,0,21660,128,0,21860:1:0:0:0:
192,192,21760,1,0,0:0:0:0:
448,192,21760,1,0,0:0:0:0:
320,192,21860,1,0,0:0:0:0:
448,192,21860,1,0,0:0:0:0:
192,192,21960,1,0,0:0:0:0:
320,192,21960,1,0,0:0:0:0:
64,192,22060,1,0,0:0:0:0:
192,192,22060,1,0,0:0:0:0:
320,0,22060,128,0,22260:1:0:0:0:
64,192,22160,1,0,0:0:0:0:
448,192,22160,1,0,0:0:0:0:
192,192,22260,1,0,0:0:0:0:
448,192,22260,1,0,0:0:0:0:
64,192,22360,1,0,0:0:0:0:
192,192,22360,1,0,0:0:0:0:
64,192,22460,1,0,0:0:0:0:
320,192,22460,1,0,0:0:0:0:
192,0,22460,128,0,22660:1:0:0:0:
320,192,22560,1,0,0:0:0:0:
448,192,22560,1,0,0:0:0:0:
64,192,22660,1,0,0:0:0:0:
448,192,22660,1,0,0:0:0:0:
64,192,22760,1,0,0:0:0:0:
320,192,22760,1,0,0:0:0:0:
192,192,22860,1,0,0:0:0:0:
320,192,22860,1,0,0:0:0:0:
448,0,22860,128,0,23060:1:0:0:0:
64,192,22960,1,0,0:0:0:0:
192,192,22960,1,0,0:0:0:0:
64,192,23060,1,0,0:0:0:0:
320,192,23060,1,0,0:0:0:0:
192,192,23160,1,0,0:0:0:0:
320,192,23160,1,0,0:0:0:0:
192,192,23260,1,0,0:0:0:0:
448,192,23260,1,0,0:0:0:0:
64,0,23260,128,0,23460:1:0:0:0:
320,192,23360,1,0,0:0:0:0:
448,192,23360,1,0,0:0:0:0:
192,192,23460,1,0,0:0:0:0:
320,192,23460,1,0,0:0:0:0:
192,192,23560,1,0,0:0:0:0:
448,192,23560,1,0,0:0:0:0:
64,192,23660,1,0,0:0:0:0:
448,192,23660,1,0,0:0:0:0:
192,0,23660,128,0,23860:1:0:0:0:
64,192,23760,1,0,0:0:0:0:
320,192,23760,1,0,0:0:0:0:
320,192,23860,1,0,0:0:0:0:
448,192,23860,1,0,0:0:0:0:
192,192,23960,1,0,0:0:0:0:
448,192,23960,1,0,0:0:0:0:
64,192,24060,1,0,0:0:0:0:
192,192,24060,1,0,0:0:0:0:
320,0,24060,128,0,24260:1:0:0:0:
64,192,24160,1,0,0:0:0:0:
448,192,24160,1,0,0:0:0:0:
192,192,24260,1,0,0:0:0:0:
448,192,24260,1,0,0:0:0:0:
64,192,24360,1,0,0:0:0:0:
192,192,24360,1,0,0:0:0:0:
64,192,24460,1,0,0:0:0:0:
320,192,24460,1,0,0:0:0:0:
448,0,24460,128,0,24660:1:0:0:0:
192,192,24560,1,0,0:0:0:0:
320,192,24560,1,0,0:0:0:0:
64,192,24660,1,0,0:0:0:0:
192,192,24660,1,0,0:0:0:0:
64,192,24760,1,0,0:0:0:0:
320,192,24760,1,0,0:0:0:0:
320,192,24860,1,0,0:0:0:0:
448,192,24860,1,0,0:0:0:0:
192,0,24860,128,0,25060:1:0:0:0:
64,192,24960,1,0,0:0:0:0:
448,192,24960,1,0,0:0:0:0:
64,192,25060,1,0,0:0:0:0:
320,192,25060,1,0,0:0:0:0:
192,192,25160,1,0,0:0:0:0:
320,192,25160,1,0,0:0:0:0:
192,192,25260,1,0,0:0:0:0:
448,192,25260,1,0,0:0:0:0:
320,0,25260,128,0,25460:1:0:0:0:
64,192,25360,1,0,0:0:0:0:
448,192,25360,1,0,0:0:0:0:
64,192,25460,1,0,0:0:0:0:
192,192,25460,1,0,0:0:0:0:
192,192,25560,1,0,0:0:0:0:
320,192,25560,1,0,0:0:0:0:
320,192,25660,1,0,0:0:0:0:
448,192,25660,1,0,0:0:0:0:
64,0,25660,128,0,25860:1:0:0:0:
192,192,25760,1,0,0:0:0:0:
320,192,25760,1,0,0:0:0:0:
192,192,25860,1,0,0:0:0:0:
448,192,25860,1,0,0:0:0:0:
64,192,25960,1,0,0:0:0:0:
192,192,25960,1,0,0:0:0:0:
64,192,26060,1,0,0:0:0:0:
320,192,26060,1,0,0:0:0:0:
448,0,26060,128,0,26260:1:0:0:0:
192,192,26160,1,0,0:0:0:0:
320,192,26160,1,0,0:0:0:0:
64,192,26260,1,0,0:0:0:0:
192,192,26260,1,0,0:0:0:0:
64,192,26360,1,0,0:0:0:0:
320,192,26360,1,0,0:0:0:0:
192,192,26460,1,0,0:0:0:0:
448,192,26460,1,0,0:0:0:0:
320,0,26460,128,0,26660:1:0:0:0:
64,192,26560,1,0,0:0:0:0:
448,192,26560,1,0,0:0:0:0:
64,192,26660,1,0,0:0:0:0:
192,192,26660,1,0,0:0:0:0:
192,192,26760,1,0,0:0:0:0:
320,192,26760,1,0,0:0:0:0:
64,192,26860,1,0,0:0:0:0:
192,192,26860,1,0,0:0:0:0:
320,192,26860,1,0,0:0:0:0:
448,192,26860,1,0,0:0:0:0:
320,192,26897,1,0,0:0:0:0:
448,192,26897,1,0,0:0:0:0:
64,192,26947,1,0,0:0:0:0:
192,192,26947,1,0,0:0:0:0:
320,192,26997,1,0,0:0:0:0:
448,192,26997,1,0,0:0:0:0:
64,192,27047,1,0,0:0:0:0:
192,192,27047,1,0,0:0:0:0:
320,192,27097,1,0,0:0:0:0:
448,192,27097,1,0,0:0:0:0:
64,192,27147,1,0,0:0:0:0:
192,192,27147,1,0,0:0:0:0:
320,192,27197,1,0,0:0:0:0:
448,192,27197,1,0,0:0:0:0:
64,192,27247,1,0,0:0:0:0:
192,192,27247,1,0,0:0:0:0:
320,192,27297,1,0,0:0:0:0:
448,192,27297,1,0,0:0:0:0:
64,192,27347,1,0,0:0:0:0:
192,192,27347,1,0,0:0:0:0:
320,192,27397,1,0,0:0:0:0:
448,192,27397,1,0,0:0:0:0:
64,192,27447,1,0,0:0:0:0:
192,192,27447,1,0,0:0:0:0:
320,192,27497,1,0,0:0:0:0:
448,192,27497,1,0,0:0:0:0:
64,192,27547,1,0,0:0:0:0:
192,192,27547,1,0,0:0:0:0:
320,192,27597,1,0,0:0:0:0:
448,192,27597,1,0,0:0:0:0:
64,192,27647,1,0,0:0:0:0:
320,192,27647,1,0,0:0:0:0:
192,192,27697,1,0,0:0:0:0:
448,192,27697,1,0,0:0:0:0:
64,192,27747,1,0,0:0:0:0:
320,192,27747,1,0,0:0:0:0:
192,192,27797,1,0,0:0:0:0:
448,192,27797,1,0,0:0:0:0:
64,192,27847,1,0,0:0:0:0:
320,192,27847,1,0,0:0:0:0:
192,192,27897,1,0,0:0:0:0:
448,192,27897,1,0,0:0:0:0:
64,192,27947,1,0,0:0:0:0:
320,192,27947,1,0,0:0:0:0:
192,192,27997,1,0,0:0:0:0:
448,192,27997,1,0,0:0:0:0:
64,192,28047,1,0,0:0:0:0:
320,192,28047,1,0,0:0:0:0:
192,192,28097,1,0,0:0:0:0:
448,192,28097,1,0,0:0:0:0:
64,192,28147,1,0,0:0:0:0:
320,192,28147,1,0,0:0:0:0:
192,192,28197,1,0,0:0:0:0:
448,192,28197,1,0,0:0:0:0:
64,192,28247,1,0,0:0:0:0:
320,192,28247,1,0,0:0:0:0:
192,192,28297,1,0,0:0:0:0:
448,192,28297,1,0,0:0:0:0:
64,192,28347,1,0,0:0:0:0:
320,192,28347,1,0,0:0:0:0:
192,192,28397,1,0,0:0:0:0:
448,192,28397,1,0,0:0:0:0:
64,192,28447,1,0,0:0:0:0:
448,192,28447,1,0,0:0:0:0:
192,192,28497,1,0,0:0:0:0:
320,192,28497,1,0,0:0:0:0:
64,192,28547,1,0,0:0:0:0:
448,192,28547,1,0,0:0:0:0:
192,192,28597,1,0,0:0:0:0:
320,192,28597,1,0,0:0:0:0:
64,192,28647,1,0,0:0:0:0:
448,192,28647,1,0,0:0:0:0:
192,192,28697,1,0,0:0:0:0:
320,192,28697,1,0,0:0:0:0:
64,192,28747,1,0,0:0:0:0:
448,192,28747,1,0,0:0:0:0:
192,192,28797,1,0,0:0:0:0:
320,192,28797,1,0,0:0:0:0:
64,192,28847,1,0,0:0:0:0:
448,192,28847,1,0,0:0:0:0:
192,192,28897,1,0,0:0:0:0:
320,192,28897,1,0,0:0:0:0:
64,192,28947,1,0,0:0:0:0:
448,192,28947,1,0,0:0:0:0:
192,192,28997,1,0,0:0:0:0:
320,192,28997,1,0,0:0:0:0:
64,192,29047,1,0,0:0:0:0:
448,192,29047,1,0,0:0:0:0:
192,192,29097,1,0,0:0:0:0:
320,192,29097,1,0,0:0:0:0:
64,192,29147,1,0,0:0:0:0:
448,192,29147,1,0,0:0:0:0:
192,192,29197,1,0,0:0:0:0:
320,192,29197,1,0,0:0:0:0:
320,192,29247,1,0,0:0:0:0:
448,192,29247,1,0,0:0:0:0:
64,192,29297,1,0,0:0:0:0:
192,192,29297,1,0,0:0:0:0:
320,192,29347,1,0,0:0:0:0:
448,192,29347,1,0,0:0:0:0:
64,192,29397,1,0,0:0:0:0:
192,192,29397,1,0,0:0:0:0:
320,192,29447,1,0,0:0:0:0:
448,192,29447,1,0,0:0:0:0:
64,192,29497,1,0,0:0:0:0:
192,192,29497,1,0,0:0:0:0:
320,192,29547,1,0,0:0:0:0:
448,192,29547,1,0,0:0:0:0:
64,192,29597,1,0,0:0:0:0:
192,192,29597,1,0,0:0:0:0:
64,0,29647,128,0,29847:1:0:0:0:
192,0,29647,128,0,29847:1:0:0:0:
320,0,29647,128,0,29847:1:0:0:0:
448,0,29647,128,0,29847:1:0:0:0:
64,192,30047,1,0,0:0:0:0:
192,192,30047,1,0,0:0:0:0:
320,192,30047,1,0,0:0:0:0:
448,192,30047,1,0,0:0:0:0:
192,192,30160,1,0,0:0:0:0:
64,192,30260,1,0,0:0:0:0:
320,192,30260,1,0,0:0:0:0:
448,192,30360,1,0,0:0:0:0:
192,192,30385,1,0,0:0:0:0:
64,192,30460,1,0,0:0:0:0:
448,192,30460,1,0,0:0:0:0:
320,192,30560,1,0,0:0:0:0:
64,192,30660,1,0,0:0:0:0:
192,192,30660,1,0,0:0:0:0:
320,192,30710,1,0,0:0:0:0:
448,192,30760,1,0,0:0:0:0:
64,192,30860,1,0,0:0:0:0:
192,192,30860,1,0,0:0:0:0:
448,192,30910,1,0,0:0:0:0:
320,192,30960,1,0,0:0:0:0:
64,192,31060,1,0,0:0:0:0:
448,192,31060,1,0,0:0:0:0:
192,192,31160,1,0,0:0:0:0:
64,192,31260,1,0,0:0:0:0:
320,192,31260,1,0,0:0:0:0:
448,192,31310,1,0,0:0:0:0:
192,192,31360,1,0,0:0:0:0:
64,192,31460,1,0,0:0:0:0:
448,192,31460,1,0,0:0:0:0:
192,192,31560,1,0,0:0:0:0:
320,192,31560,1,0,0:0:0:0:
64,192,31660,1,0,0:0:0:0:
192,192,31660,1,0,0:0:0:0:
320,192,31660,1,0,0:0:0:0:
448,192,31660,1,0,0:0:0:0:
64,192,31710,1,0,0:0:0:0:
320,192,31760,1,0,0:0:0:0:
64,192,31860,1,0,0:0:0:0:
448,192,31860,1,0,0:0:0:0:
320,192,31910,1,0,0:0:0:0:
192,192,31960,1,0,0:0:0:0:
320,192,32060,1,0,0:0:0:0:
448,192,32060,1,0,0:0:0:0:
64,192,32110,1,0,0:0:0:0:
320,192,32160,1,0,0:0:0:0:
192,192,32260,1,0,0:0:0:0:
448,192,32260,1,0,0:0:0:0:
64,192,32360,1,0,0:0:0:0:
320,192,32460,1,0,0:0:0:0:
448,192,32460,1,0,0:0:0:0:
192,192,32560,1,0,0:0:0:0:
320,192,32585,1,0,0:0:0:0:
64,192,32660,1,0,0:0:0:0:
448,192,32660,1,0,0:0:0:0:
320,192,32760,1,0,0:0:0:0:
192,192,32860,1,0,0:0:0:0:
448,192,32860,1,0,0:0:0:0:
64,192,32910,1,0,0:0:0:0:
320,192,32960,1,0,0:0:0:0:
64,192,33060,1,0,0:0:0:0:
448,192,33060,1,0,0:0:0:0:
192,192,33160,1,0,0:0:0:0:
448,192,33160,1,0,0:0:0:0:
64,192,33260,1,0,0:0:0:0:
192,192,33260,1,0,0:0:0:0:
320,192,33260,1,0,0:0:0:0:
448,192,33260,1,0,0:0:0:0:
192,192,33360,1,0,0:0:0:0:
64,192,33460,1,0,0:0:0:0:
320,192,33460,1,0,0:0:0:0:
192,192,33510,1,0,0:0:0:0:
448,192,33560,1,0,0:0:0:0:
320,192,33660,1,0,0:0:0:0:
448,192,33660,1,0,0:0:0:0:
64,192,33710,1,0,0:0:0:0:
192,192,33760,1,0,0:0:0:0:
320,192,33860,1,0,0:0:0:0:
448,192,33860,1,0,0:0:0:0:
64,192,33960,1,0,0:0:0:0:
192,192,34060,1,0,0:0:0:0:
320,192,34060,1,0,0:0:0:0:
64,192,34110,1,0,0:0:0:0:
448,192,34160,1,0,0:0:0:0:
64,192,34260,1,0,0:0:0:0:
320,192,34260,1,0,0:0:0:0:
448,192,34310,1,0,0:0:0:0:
192,192,34360,1,0,0:0:0:0:
320,192,34460,1,0,0:0:0:0:
448,192,34460,1,0,0:0:0:0:
64,192,34560,1,0,0:0:0:0:
192,192,34660,1,0,0:0:0:0:
320,192,34660,1,0,0:0:0:0:
448,192,34710,1,0,0:0:0:0:
64,192,34760,1,0,0:0:0:0:
320,192,34760,1,0,0:0:0:0:
64,192,34860,1,0,0:0:0:0:
192,192,34860,1,0,0:0:0:0:
320,192,34860,1,0,0:0:0:0:
448,192,34860,1,0,0:0:0:0:
448,192,34960,1,0,0:0:0:0:
192,192,35060,1,0,0:0:0:0:
320,192,35060,1,0,0:0:0:0:
64,192,35160,1,0,0:0:0:0:
192,192,35260,1,0,0:0:0:0:
448,192,35260,1,0,0:0:0:0:
64,192,35310,1,0,0:0:0:0:
320,192,35310,1,0,0:0:0:0:
448,192,35360,1,0,0:0:0:0:
192,192,35460,1,0,0:0:0:0:
320,192,35460,1,0,0:0:0:0:
64,192,35560,1,0,0:0:0:0:
448,192,35585,1,0,0:0:0:0:
192,192,35660,1,0,0:0:0:0:
320,192,35660,1,0,0:0:0:0:
448,192,35760,1,0,0:0:0:0:
64,192,35860,1,0,0:0:0:0:
192,192,35860,1,0,0:0:0:0:
64,192,35960,1,0,0:0:0:0:
448,192,35985,1,0,0:0:0:0:
192,192,36060,1,0,0:0:0:0:
320,192,36060,1,0,0:0:0:0:
64,192,36160,1,0,0:0:0:0:
192,192,36260,1,0,0:0:0:0:
448,192,36260,1,0,0:0:0:0:
192,192,36360,1,0,0:0:0:0:
320,192,36360,1,0,0:0:0:0:
64,192,36460,1,0,0:0:0:0:
192,192,36460,1,0,0:0:0:0:
320,192,36460,1,0,0:0:0:0:
448,192,36460,1,0,0:0:0:0:
192,192,36510,1,0,0:0:0:0:
448,192,36560,1,0,0:0:0:0:
64,192,36660,1,0,0:0:0:0:
192,192,36660,1,0,0:0:0:0:
320,192,36760,1,0,0:0:0:0:
64,192,36860,1,0,0:0:0:0:
448,192,36860,1,0,0:0:0:0:
192,192,36910,1,0,0:0:0:0:
320,192,36910,1,0,0:0:0:0:
448,192,36960,1,0,0:0:0:0:
64,192,37060,1,0,0:0:0:0:
320,192,37060,1,0,0:0:0:0:
192,192,37160,1,0,0:0:0:0:
64,192,37260,1,0,0:0:0:0:
448,192,37260,1,0,0:0:0:0:
320,192,37310,1,0,0:0:0:0:
192,192,37360,1,0,0:0:0:0:
64,192,37460,1,0,0:0:0:0:
320,192,37460,1,0,0:0:0:0:
448,192,37560,1,0,0:0:0:0:
192,192,37585,1,0,0:0:0:0:
64,192,37660,1,0,0:0:0:0:
448,192,37660,1,0,0:0:0:0:
320,192,37760,1,0,0:0:0:0:
64,192,37860,1,0,0:0:0:0:
192,192,37860,1,0,0:0:0:0:
64,192,37960,1,0,0:0:0:0:
448,192,37960,1,0,0:0:0:0:
64,192,38060,1,0,0:0:0:0:
192,192,38060,1,0,0:0:0:0:
320,192,38060,1,0,0:0:0:0:
448,192,38060,1,0,0:0:0:0:
64,192,38110,1,0,0:0:0:0:
320,192,38160,1,0,0:0:0:0:
192,192,38260,1,0,0:0:0:0:
448,192,38260,1,0,0:0:0:0:
64,192,38360,1,0,0:0:0:0:
320,192,38460,1,0,0:0:0:0:
448,192,38460,1,0,0:0:0:0:
64,192,38510,1,0,0:0:0:0:
192,192,38560,1,0,0:0:0:0:
64,192,38660,1,0,0:0:0:0:
448,192,38660,1,0,0:0:0:0:
320,192,38760,1,0,0:0:0:0:
192,192,38785,1,0,0:0:0:0:
320,192,38860,1,0,0:0:0:0:
448,192,38860,1,0,0:0:0:0:
64,192,38910,1,0,0:0:0:0:
192,192,38960,1,0,0:0:0:0:
320,192,39060,1,0,0:0:0:0:
448,192,39060,1,0,0:0:0:0:
64,192,39160,1,0,0:0:0:0:
320,192,39185,1,0,0:0:0:0:
192,192,39260,1,0,0:0:0:0:
448,192,39260,1,0,0:0:0:0:
320,192,39360,1,0,0:0:0:0:
64,192,39460,1,0,0:0:0:0:
448,192,39460,1,0,0:0:0:0:
192,192,39560,1,0,0:0:0:0:
448,192,39560,1,0,0:0:0:0:
64,192,39660,1,0,0:0:0:0:
192,192,39660,1,0,0:0:0:0:
320,192,39660,1,0,0:0:0:0:
448,192,39660,1,0,0:0:0:0:
64,192,39710,1,0,0:0:0:0:
448,192,39760,1,0,0:0:0:0:
192,192,39860,1,0,0:0:0:0:
320,192,39860,1,0,0:0:0:0:
64,192,39960,1,0,0:0:0:0:
320,192,40060,1,0,0:0:0:0:
448,192,40060,1,0,0:0:0:0:
192,192,40110,1,0,0:0:0:0:
448,192,40160,1,0,0:0:0:0:
64,192,40185,1,0,0:0:0:0:
192,192,40260,1,0,0:0:0:0:
320,192,40260,1,0,0:0:0:0:
64,192,40360,1,0,0:0:0:0:
320,192,40460,1,0,0:0:0:0:
448,192,40460,1,0,0:0:0:0:
64,192,40510,1,0,0:0:0:0:
192,192,40510,1,0,0:0:0:0:
448,192,40560,1,0,0:0:0:0:
64,192,40660,1,0,0:0:0:0:
320,192,40660,1,0,0:0:0:0:
192,192,40760,1,0,0:0:0:0:
320,192,40860,1,0,0:0:0:0:
448,192,40860,1,0,0:0:0:0:
64,192,40960,1,0,0:0:0:0:
448,192,40985,1,0,0:0:0:0:
192,192,41060,1,0,0:0:0:0:
320,192,41060,1,0,0:0:0:0:
320,192,41160,1,0,0:0:0:0:
448,192,41160,1,0,0:0:0:0:
64,192,41260,1,0,0:0:0:0:
192,192,41260,1,0,0:0:0:0:
320,192,41260,1,0,0:0:0:0:
448,192,41260,1,0,0:0:0:0:
320,192,41360,1,0,0:0:0:0:
64,192,41385,1,0,0:0:0:0:
192,192,41460,1,0,0:0:0:0:
448,192,41460,1,0,0:0:0:0:
64,192,41560,1,0,0:0:0:0:
320,192,41585,1,0,0:0:0:0:
192,192,41660,1,0,0:0:0:0:
448,192,41660,1,0,0:0:0:0:
448,192,41760,1,0,0:0:0:0:
64,192,41785,1,0,0:0:0:0:
192,192,41860,1,0,0:0:0:0:
320,192,41860,1,0,0:0:0:0:
64,192,41960,1,0,0:0:0:0:
192,192,42060,1,0,0:0:0:0:
448,192,42060,1,0,0:0:0:0:
64,192,42110,1,0,0:0:0:0:
320,192,42110,1,0,0:0:0:0:
448,192,42160,1,0,0:0:0:0:
192,192,42260,1,0,0:0:0:0:
320,192,42260,1,0,0:0:0:0:
64,192,42360,1,0,0:0:0:0:
192,192,42460,1,0,0:0:0:0:
448,192,42460,1,0,0:0:0:0:
320,192,42510,1,0,0:0:0:0:
64,192,42560,1,0,0:0:0:0:
192,192,42660,1,0,0:0:0:0:
320,192,42660,1,0,0:0:0:0:
192,192,42760,1,0,0:0:0:0:
448,192,42760,1,0,0:0:0:0:
64,192,42860,1,0,0:0:0:0:
192,192,42860,1,0,0:0:0:0:
320,192,42860,1,0,0:0:0:0:
448,192,42860,1,0,0:0:0:0:
64,192,42960,1,0,0:0:0:0:
192,192,42960,1,0,0:0:0:0:
320,192,42960,1,0,0:0:0:0:
448,192,42960,1,0,0:0:0:0:
320,192,43060,1,0,0:0:0:0:
448,192,43060,1,0,0:0:0:0:
64,0,43060,128,0,43260:1:0:0:0:
192,0,43060,128,0,43260:1:0:0:0:
320,192,43260,1,0,0:0:0:0:
448,192,43260,1,0,0:0:0:0:
192,192,43460,1,0,0:0:0:0:
320,192,43460,1,0,0:0:0:0:
64,192,43660,1,0,0:0:0:0:
192,192,43660,1,0,0:0:0:0:
320,192,43710,1,0,0:0:0:0:
448,192,43710,1,0,0:0:0:0:
64,192,43760,1,0,0:0:0:0:
192,192,43760,1,0,0:0:0:0:
320,192,43810,1,0,0:0:0:0:
448,192,43810,1,0,0:0:0:0:
64,192,43860,1,0,0:0:0:0:
192,192,43860,1,0,0:0:0:0:
64,192,44060,1,0,0:0:0:0:
448,192,44060,1,0,0:0:0:0:
64,192,44260,1,0,0:0:0:0:
192,192,44260,1,0,0:0:0:0:
320,192,44260,1,0,0:0:0:0:
64,192,44460,1,0,0:0:0:0:
192,192,44460,1,0,0:0:0:0:
320,192,44460,1,0,0:0:0:0:
448,192,44460,1,0,0:0:0:0:
64,192,44560,1,0,0:0:0:0:
192,192,44560,1,0,0:0:0:0:
320,192,44560,1,0,0:0:0:0:
448,192,44560,1,0,0:0:0:0:
64,192,44660,1,0,0:0:0:0:
320,192,44660,1,0,0:0:0:0:
192,0,44660,128,0,44860:1:0:0:0:
448,0,44660,128,0,44860:1:0:0:0:
64,192,44860,1,0,0:0:0:0:
320,192,44860,1,0,0:0:0:0:
192,192,45060,1,0,0:0:0:0:
320,192,45060,1,0,0:0:0:0:
320,192,45260,1,0,0:0:0:0:
448,192,45260,1,0,0:0:0:0:
64,192,45310,1,0,0:0:0:0:
192,192,45310,1,0,0:0:0:0:
320,192,45360,1,0,0:0:0:0:
448,192,45360,1,0,0:0:0:0:
64,192,45410,1,0,0:0:0:0:
192,192,45410,1,0,0:0:0:0:
320,192,45460,1,0,0:0:0:0:
448,192,45460,1,0,0:0:0:0:
64,192,45510,1,0,0:0:0:0:
192,192,45510,1,0,0:0:0:0:
320,192,45560,1,0,0:0:0:0:
448,192,45560,1,0,0:0:0:0:
64,192,45610,1,0,0:0:0:0:
192,192,45610,1,0,0:0:0:0:
64,0,45660,128,0,45860:1:0:0:0:
192,0,45660,128,0,45860:1:0:0:0:
320,0,45660,128,0,45860:1:0:0:0:
448,0,45660,128,0,45860:1:0:0:0:
64,192,46060,1,0,0:0:0:0:
192,192,46060,1,0,0:0:0:0:
320,192,46110,1,0,0:0:0:0:
448,192,46110,1,0,0:0:0:0:
64,192,46160,1,0,0:0:0:0:
192,192,46160,1,0,0:0:0:0:
320,192,46210,1,0,0:0:0:0:
448,192,46210,1,0,0:0:0:0:
64,192,46260,1,0,0:0:0:0:
192,192,46260,1,0,0:0:0:0:
320,192,46310,1,0,0:0:0:0:
448,192,46310,1,0,0:0:0:0:
64,192,46360,1,0,0:0:0:0:
192,192,46360,1,0,0:0:0:0:
192,192,46460,1,0,0:0:0:0:
448,192,46460,1,0,0:0:0:0:
64,192,46510,1,0,0:0:0:0:
320,192,46510,1,0,0:0:0:0:
192,192,46560,1,0,0:0:0:0:
448,192,46560,1,0,0:0:0:0:
64,192,46610,1,0,0:0:0:0:
320,192,46610,1,0,0:0:0:0:
192,192,46660,1,0,0:0:0:0:
448,192,46660,1,0,0:0:0:0:
64,192,46710,1,0,0:0:0:0:
320,192,46710,1,0,0:0:0:0:
192,192,46760,1,0,0:0:0:0:
448,192,46760,1,0,0:0:0:0:
192,192,46860,1,0,0:0:0:0:
320,192,46860,1,0,0:0:0:0:
64,192,46910,1,0,0:0:0:0:
448,192,46910,1,0,0:0:0:0:
192,192,46960,1,0,0:0:0:0:
320,192,46960,1,0,0:0:0:0:
64,192,47010,1,0,0:0:0:0:
448,192,47010,1,0,0:0:0:0:
192,192,47060,1,0,0:0:0:0:
320,192,47060,1,0,0:0:0:0:
64,192,47110,1,0,0:0:0:0:
448,192,47110,1,0,0:0:0:0:
192,192,47160,1,0,0:0:0:0:
320,192,47160,1,0,0:0:0:0:
320,192,47260,1,0,0:0:0:0:
448,192,47260,1,0,0:0:0:0:
64,192,47310,1,0,0:0:0:0:
192,192,47310,1,0,0:0:0:0:
320,192,47360,1,0,0:0:0:0:
448,192,47360,1,0,0:0:0:0:
64,192,47410,1,0,0:0:0:0:
192,192,47410,1,0,0:0:0:0:
320,192,47460,1,0,0:0:0:0:
448,192,47460,1,0,0:0:0:0:
64,192,47510,1,0,0:0:0:0:
192,192,47510,1,0,0:0:0:0:
320,192,47560,1,0,0:0:0:0:
448,192,47560,1,0,0:0:0:0:
64,192,47660,1,0,0:0:0:0:
320,192,47660,1,0,0:0:0:0:
192,192,47710,1,0,0:0:0:0:
448,192,47710,1,0,0:0:0:0:
64,192,47760,1,0,0:0:0:0:
320,192,47760,1,0,0:0:0:0:
192,192,47810,1,0,0:0:0:0:
448,192,47810,1,0,0:0:0:0:
64,192,47860,1,0,0:0:0:0:
320,192,47860,1,0,0:0:0:0:
192,192,47910,1,0,0:0:0:0:
448,192,47910,1,0,0:0:0:0:
64,192,47960,1,0,0:0:0:0:
320,192,47960,1,0,0:0:0:0:
64,192,48060,1,0,0:0:0:0:
448,192,48060,1,0,0:0:0:0:
192,192,48110,1,0,0:0:0:0:
320,192,48110,1,0,0:0:0:0:
64,192,48160,1,0,0:0:0:0:
448,192,48160,1,0,0:0:0:0:
192,192,48210,1,0,0:0:0:0:
320,192,48210,1,0,0:0:0:0:
64,192,48260,1,0,0:0:0:0:
448,192,48260,1,0,0:0:0:0:
192,192,48310,1,0,0:0:0:0:
320,192,48310,1,0,0:0:0:0:
64,192,48360,1,0,0:0:0:0:
448,192,48360,1,0,0:0:0:0:
64,192,48460,1,0,0:0:0:0:
192,192,48460,1,0,0:0:0:0:
320,192,48510,1,0,0:0:0:0:
448,192,48510,1,0,0:0:0:0:
64,192,48560,1,0,0:0:0:0:
192,192,48560,1,0,0:0:0:0:
320,192,48610,1,0,0:0:0:0:
448,192,48610,1,0,0:0:0:0:
64,192,48660,1,0,0:0:0:0:
192,192,48660,1,0,0:0:0:0:
320,192,48710,1,0,0:0:0:0:
448,192,48710,1,0,0:0:0:0:
64,192,48760,1,0,0:0:0:0:
192,192,48760,1,0,0:0:0:0:
64,192,48860,1,0,0:0:0:0:
192,192,48860,1,0,0:0:0:0:
320,192,48860,1,0,0:0:0:0:
448,192,48860,1,0,0:0:0:0:
64,192,48960,1,0,0:0:0:0:
192,192,48960,1,0,0:0:0:0:
320,192,48960,1,0,0:0:0:0:
448,192,48960,1,0,0:0:0:0:
64,192,49060,1,0,0:0:0:0:
192,192,49060,1,0,0:0:0:0:
320,192,49060,1,0,0:0:0:0:
448,192,49060,1,0,0:0:0:0:
64,192,49160,1,0,0:0:0:0:
192,192,49160,1,0,0:0:0:0:
320,192,49160,1,0,0:0:0:0:
448,192,49160,1,0,0:0:0:0:
192,192,49260,1,0,0:0:0:0:
448,192,49260,1,0,0:0:0:0:
64,0,49260,128,0,49385:1:0:0:0:
320,0,49260,128,0,49385:1:0:0:0:
192,192,49385,1,0,0:0:0:0:
448,0,49385,128,0,49510:1:0:0:0:
192,192,49510,1,0,0:0:0:0:
320,192,49510,1,0,0:0:0:0:
64,0,49660,128,0,49785:1:0:0:0:
320,0,49660,128,0,49785:1:0:0:0:
192,192,49785,1,0,0:0:0:0:
448,0,49785,128,0,49910:1:0:0:0:
192,0,49910,128,0,50060:1:0:0:0:
448,192,50060,1,0,0:0:0:0:
320,0,50060,128,0,50185:1:0:0:0:
448,192,50185,1,0,0:0:0:0:
64,0,50185,128,0,50310:1:0:0:0:
320,192,50310,1,0,0:0:0:0:
192,0,50310,128,0,50460:1:0:0:0:
320,192,50460,1,0,0:0:0:0:
448,0,50460,128,0,50585:1:0:0:0:
192,192,50585,1,0,0:0:0:0:
64,0,50585,128,0,50710:1:0:0:0:
192,192,50710,1,0,0:0:0:0:
320,192,50710,1,0,0:0:0:0:
64,192,50860,1,0,0:0:0:0:
192,192,50860,1,0,0:0:0:0:
320,0,50860,128,0,50985:1:0:0:0:
448,0,50860,128,0,50985:1:0:0:0:
192,192,50985,1,0,0:0:0:0:
64,0,50985,128,0,51110:1:0:0:0:
192,0,51110,128,0,51260:1:0:0:0:
448,0,51110,128,0,51260:1:0:0:0:
320,192,51260,1,0,0:0:0:0:
64,0,51260,128,0,51385:1:0:0:0:
448,192,51385,1,0,0:0:0:0:
320,0,51385,128,0,51510:1:0:0:0:
192,192,51510,1,0,0:0:0:0:
448,0,51510,128,0,51660:1:0:0:0:
192,0,51660,128,0,51785:1:0:0:0:
320,0,51660,128,0,51910:1:0:0:0:
64,192,51785,1,0,0:0:0:0:
448,0,51785,128,0,51910:1:0:0:0:
192,192,51910,1,0,0:0:0:0:
64,0,51910,128,0,52060:1:0:0:0:
192,0,52060,128,0,52185:1:0:0:0:
448,0,52060,128,0,52185:1:0:0:0:
64,192,52185,1,0,0:0:0:0:
320,0,52185,128,0,52310:1:0:0:0:
448,192,52310,1,0,0:0:0:0:
64,0,52310,128,0,52460:1:0:0:0:
320,192,52460,1,0,0:0:0:0:
448,192,52460,1,0,0:0:0:0:
192,0,52460,128,0,52585:1:0:0:0:
448,192,52585,1,0,0:0:0:0:
320,0,52585,128,0,52860:1:0:0:0:
192,192,52710,1,0,0:0:0:0:
448,0,52710,128,0,52860:1:0:0:0:
64,192,52860,1,0,0:0:0:0:
192,0,52860,128,0,52985:1:0:0:0:
448,192,52985,1,0,0:0:0:0:
64,0,52985,128,0,53110:1:0:0:0:
320,0,53110,128,0,53260:1:0:0:0:
448,0,53110,128,0,53260:1:0:0:0:
64,192,53260,1,0,0:0:0:0:
192,0,53260,128,0,53385:1:0:0:0:
64,0,53385,128,0,53510:1:0:0:0:
448,0,53385,128,0,53510:1:0:0:0:
192,192,53510,1,0,0:0:0:0:
320,0,53510,128,0,53660:1:0:0:0:
192,0,53660,128,0,53785:1:0:0:0:
448,0,53660,128,0,53785:1:0:0:0:
320,192,53785,1,0,0:0:0:0:
64,0,53785,128,0,53910:1:0:0:0:
320,0,53910,128,0,54060:1:0:0:0:
448,0,53910,128,0,54060:1:0:0:0:
64,192,54060,1,0,0:0:0:0:
192,0,54060,128,0,54185:1:0:0:0:
64,0,54185,128,0,54310:1:0:0:0:
320,0,54185,128,0,54310:1:0:0:0:
192,192,54310,1,0,0:0:0:0:
448,0,54310,128,0,54460:1:0:0:0:
320,192,54460,1,0,0:0:0:0:
192,0,54460,128,0,54585:1:0:0:0:
320,0,54585,128,0,54710:1:0:0:0:
448,0,54585,128,0,54710:1:0:0:0:
192,192,54710,1,0,0:0:0:0:
64,0,54710,128,0,54860:1:0:0:0:
320,192,54860,1,0,0:0:0:0:
192,0,54860,128,0,54985:1:0:0:0:
320,0,54985,128,0,55110:1:0:0:0:
448,0,54985,128,0,55110:1:0:0:0:
192,192,55110,1,0,0:0:0:0:
64,0,55110,128,0,55260:1:0:0:0:
192,0,55260,128,0,55385:1:0:0:0:
448,0,55260,128,0,55385:1:0:0:0:
320,192,55385,1,0,0:0:0:0:
64,0,55385,128,0,55510:1:0:0:0:
192,192,55510,1,0,0:0:0:0:
320,192,55510,1,0,0:0:0:0:
64,192,55660,1,0,0:0:0:0:
192,192,55660,1,0,0:0:0:0:
320,192,55660,1,0,0:0:0:0:
448,192,55660,1,0,0:0:0:0:
192,192,55760,1,0,0:0:0:0:
448,192,55760,1,0,0:0:0:0:
64,192,55860,1,0,0:0:0:0:
448,192,55860,1,0,0:0:0:0:
320,192,55960,1,0,0:0:0:0:
192,192,55985,1,0,0:0:0:0:
320,192,56060,1,0,0:0:0:0:
448,192,56060,1,0,0:0:0:0:
64,192,56160,1,0,0:0:0:0:
192,192,56160,1,0,0:0:0:0:
448,192,56160,1,0,0:0:0:0:
320,192,56260,1,0,0:0:0:0:
448,192,56260,1,0,0:0:0:0:
64,192,56360,1,0,0:0:0:0:
192,192,56460,1,0,0:0:0:0:
448,192,56460,1,0,0:0:0:0:
320,192,56560,1,0,0:0:0:0:
448,192,56585,1,0,0:0:0:0:
64,192,56660,1,0,0:0:0:0:
448,192,56710,1,0,0:0:0:0:
320,192,56760,1,0,0:0:0:0:
192,192,56860,1,0,0:0:0:0:
448,192,56860,1,0,0:0:0:0:
64,192,56960,1,0,0:0:0:0:
448,192,56985,1,0,0:0:0:0:
320,192,57060,1,0,0:0:0:0:
448,192,57110,1,0,0:0:0:0:
192,192,57160,1,0,0:0:0:0:
64,192,57260,1,0,0:0:0:0:
192,192,57260,1,0,0:0:0:0:
320,192,57260,1,0,0:0:0:0:
448,192,57260,1,0,0:0:0:0:
320,192,57360,1,0,0:0:0:0:
448,192,57360,1,0,0:0:0:0:
192,192,57460,1,0,0:0:0:0:
320,192,57460,1,0,0:0:0:0:
448,192,57560,1,0,0:0:0:0:
64,192,57660,1,0,0:0:0:0:
320,192,57660,1,0,0:0:0:0:
192,192,57760,1,0,0:0:0:0:
320,192,57760,1,0,0:0:0:0:
320,192,57860,1,0,0:0:0:0:
448,192,57860,1,0,0:0:0:0:
64,192,57960,1,0,0:0:0:0:
192,192,58060,1,0,0:0:0:0:
320,192,58060,1,0,0:0:0:0:
64,192,58110,1,0,0:0:0:0:
192,192,58160,1,0,0:0:0:0:
448,192,58160,1,0,0:0:0:0:
320,192,58185,1,0,0:0:0:0:
448,192,58260,1,0,0:0:0:0:
320,192,58310,1,0,0:0:0:0:
64,192,58360,1,0,0:0:0:0:
192,192,58460,1,0,0:0:0:0:
320,192,58460,1,0,0:0:0:0:
448,192,58560,1,0,0:0:0:0:
320,192,58585,1,0,0:0:0:0:
64,192,58660,1,0,0:0:0:0:
320,192,58710,1,0,0:0:0:0:
448,192,58760,1,0,0:0:0:0:
64,192,58860,1,0,0:0:0:0:
192,192,58860,1,0,0:0:0:0:
320,192,58860,1,0,0:0:0:0:
448,192,58860,1,0,0:0:0:0:
192,192,58960,1,0,0:0:0:0:
448,192,58960,1,0,0:0:0:0:
192,192,59060,1,0,0:0:0:0:
320,192,59060,1,0,0:0:0:0:
64,192,59160,1,0,0:0:0:0:
192,192,59260,1,0,0:0:0:0:
448,192,59260,1,0,0:0:0:0:
320,192,59310,1,0,0:0:0:0:
64,192,59360,1,0,0:0:0:0:
192,192,59360,1,0,0:0:0:0:
448,192,59360,1,0,0:0:0:0:
192,192,59460,1,0,0:0:0:0:
320,192,59460,1,0,0:0:0:0:
64,192,59560,1,0,0:0:0:0:
192,192,59660,1,0,0:0:0:0:
448,192,59660,1,0,0:0:0:0:
64,192,59760,1,0,0:0:0:0:
320,192,59760,1,0,0:0:0:0:
192,192,59785,1,0,0:0:0:0:
448,192,59860,1,0,0:0:0:0:
192,192,59910,1,0,0:0:0:0:
64,192,59960,1,0,0:0:0:0:
192,192,60060,1,0,0:0:0:0:
320,192,60060,1,0,0:0:0:0:
448,192,60160,1,0,0:0:0:0:
192,192,60185,1,0,0:0:0:0:
64,192,60260,1,0,0:0:0:0:
192,192,60310,1,0,0:0:0:0:
320,192,60360,1,0,0:0:0:0:
64,192,60460,1,0,0:0:0:0:
448,192,60460,1,0,0:0:0:0:
64,192,60560,1,0,0:0:0:0:
320,192,60560,1,0,0:0:0:0:
64,192,60660,1,0,0:0:0:0:
192,192,60660,1,0,0:0:0:0:
448,192,60760,1,0,0:0:0:0:
64,192,60860,1,0,0:0:0:0:
320,192,60860,1,0,0:0:0:0:
64,192,60960,1,0,0:0:0:0:
192,192,60960,1,0,0:0:0:0:
448,192,60960,1,0,0:0:0:0:
64,192,61060,1,0,0:0:0:0:
192,192,61060,1,0,0:0:0:0:
320,192,61160,1,0,0:0:0:0:
64,192,61260,1,0,0:0:0:0:
448,192,61260,1,0,0:0:0:0:
192,192,61360,1,0,0:0:0:0:
64,192,61385,1,0,0:0:0:0:
320,192,61460,1,0,0:0:0:0:
64,192,61510,1,0,0:0:0:0:
448,192,61510,1,0,0:0:0:0:
192,192,61560,1,0,0:0:0:0:
64,192,61660,1,0,0:0:0:0:
448,192,61660,1,0,0:0:0:0:
320,192,61760,1,0,0:0:0:0:
64,192,61785,1,0,0:0:0:0:
192,192,61860,1,0,0:0:0:0:
64,192,61910,1,0,0:0:0:0:
320,192,61960,1,0,0:0:0:0:
64,192,62060,1,0,0:0:0:0:
192,192,62060,1,0,0:0:0:0:
320,192,62060,1,0,0:0:0:0:
448,192,62060,1,0,0:0:0:0:
192,192,62110,1,0,0:0:0:0:
64,192,62185,1,0,0:0:0:0:
320,192,62260,1,0,0:0:0:0:
448,192,62260,1,0,0:0:0:0:
192,192,62310,1,0,0:0:0:0:
448,192,62360,1,0,0:0:0:0:
320,192,62385,1,0,0:0:0:0:
64,192,62460,1,0,0:0:0:0:
192,192,62510,1,0,0:0:0:0:
448,192,62560,1,0,0:0:0:0:
320,192,62585,1,0,0:0:0:0:
64,192,62660,1,0,0:0:0:0:
448,192,62660,1,0,0:0:0:0:
192,192,62760,1,0,0:0:0:0:
64,192,62860,1,0,0:0:0:0:
320,192,62860,1,0,0:0:0:0:
448,192,62910,1,0,0:0:0:0:
192,192,62985,1,0,0:0:0:0:
64,192,63060,1,0,0:0:0:0:
320,192,63060,1,0,0:0:0:0:
192,192,63110,1,0,0:0:0:0:
64,192,63160,1,0,0:0:0:0:
448,192,63185,1,0,0:0:0:0:
320,192,63260,1,0,0:0:0:0:
192,192,63310,1,0,0:0:0:0:
64,192,63360,1,0,0:0:0:0:
448,192,63385,1,0,0:0:0:0:
64,192,63460,1,0,0:0:0:0:
320,192,63460,1,0,0:0:0:0:
192,192,63560,1,0,0:0:0:0:
64,192,63660,1,0,0:0:0:0:
320,192,63660,1,0,0:0:0:0:
192,192,63710,1,0,0:0:0:0:
448,192,63785,1,0,0:0:0:0:
64,192,63860,1,0,0:0:0:0:
320,192,63860,1,0,0:0:0:0:
192,192,63910,1,0,0:0:0:0:
320,192,63960,1,0,0:0:0:0:
448,192,63985,1,0,0:0:0:0:
64,192,64060,1,0,0:0:0:0:
192,192,64110,1,0,0:0:0:0:
320,192,64160,1,0,0:0:0:0:
448,192,64185,1,0,0:0:0:0:
64,192,64260,1,0,0:0:0:0:
320,192,64260,1,0,0:0:0:0:
448,192,64360,1,0,0:0:0:0:
192,192,64460,1,0,0:0:0:0:
320,192,64460,1,0,0:0:0:0:
64,192,64510,1,0,0:0:0:0:
448,192,64585,1,0,0:0:0:0:
192,192,64660,1,0,0:0:0:0:
320,192,64660,1,0,0:0:0:0:
64,192,64710,1,0,0:0:0:0:
192,192,64760,1,0,0:0:0:0:
448,192,64785,1,0,0:0:0:0:
320,192,64860,1,0,0:0:0:0:
64,192,64910,1,0,0:0:0:0:
192,192,64960,1,0,0:0:0:0:
448,192,64985,1,0,0:0:0:0:
192,192,65060,1,0,0:0:0:0:
320,192,65060,1,0,0:0:0:0:
64,192,65160,1,0,0:0:0:0:
64,192,65260,1,0,0:0:0:0:
192,192,65260,1,0,0:0:0:0:
320,192,65260,1,0,0:0:0:0:
448,192,65260,1,0,0:0:0:0:
320,192,65360,1,0,0:0:0:0:
64,192,65385,1,0,0:0:0:0:
448,192,65460,1,0,0:0:0:0:
192,192,65510,1,0,0:0:0:0:
320,192,65560,1,0,0:0:0:0:
64,192,65660,1,0,0:0:0:0:
448,192,65660,1,0,0:0:0:0:
320,192,65760,1,0,0:0:0:0:
192,192,65785,1,0,0:0:0:0:
64,192,65860,1,0,0:0:0:0:
448,192,65860,1,0,0:0:0:0:
192,192,65910,1,0,0:0:0:0:
320,192,65960,1,0,0:0:0:0:
64,192,66060,1,0,0:0:0:0:
448,192,66060,1,0,0:0:0:0:
320,192,66160,1,0,0:0:0:0:
192,192,66185,1,0,0:0:0:0:
448,192,66260,1,0,0:0:0:0:
64,192,66310,1,0,0:0:0:0:
320,192,66360,1,0,0:0:0:0:
192,192,66460,1,0,0:0:0:0:
448,192,66460,1,0,0:0:0:0:
320,192,66560,1,0,0:0:0:0:
192,192,66585,1,0,0:0:0:0:
448,192,66660,1,0,0:0:0:0:
64,192,66710,1,0,0:0:0:0:
320,192,66760,1,0,0:0:0:0:
64,192,66860,1,0,0:0:0:0:
192,192,66860,1,0,0:0:0:0:
320,192,66860,1,0,0:0:0:0:
448,192,66860,1,0,0:0:0:0:
192,192,66960,1,0,0:0:0:0:
448,192,66985,1,0,0:0:0:0:
64,192,67060,1,0,0:0:0:0:
320,192,67110,1,0,0:0:0:0:
192,192,67160,1,0,0:0:0:0:
64,192,67260,1,0,0:0:0:0:
448,192,67260,1,0,0:0:0:0:
192,192,67360,1,0,0:0:0:0:
320,192,67360,1,0,0:0:0:0:
448,192,67385,1,0,0:0:0:0:
64,192,67460,1,0,0:0:0:0:
320,192,67510,1,0,0:0:0:0:
192,192,67560,1,0,0:0:0:0:
64,192,67660,1,0,0:0:0:0:
448,192,67660,1,0,0:0:0:0:
192,192,67760,1,0,0:0:0:0:
320,192,67785,1,0,0:0:0:0:
64,192,67860,1,0,0:0:0:0:
448,192,67860,1,0,0:0:0:0:
320,192,67910,1,0,0:0:0:0:
192,192,67960,1,0,0:0:0:0:
64,192,68060,1,0,0:0:0:0:
448,192,68060,1,0,0:0:0:0:
192,192,68160,1,0,0:0:0:0:
320,192,68185,1,0,0:0:0:0:
64,192,68260,1,0,0:0:0:0:
448,192,68310,1,0,0:0:0:0:
192,192,68360,1,0,0:0:0:0:
64,192,68460,1,0,0:0:0:0:
192,192,68460,1,0,0:0:0:0:
320,192,68460,1,0,0:0:0:0:
448,192,68460,1,0,0:0:0:0:
320,192,68560,1,0,0:0:0:0:
64,192,68585,1,0,0:0:0:0:
192,192,68660,1,0,0:0:0:0:
448,192,68710,1,0,0:0:0:0:
320,192,68760,1,0,0:0:0:0:
64,192,68860,1,0,0:0:0:0:
192,192,68860,1,0,0:0:0:0:
320,192,68960,1,0,0:0:0:0:
448,192,68985,1,0,0:0:0:0:
192,192,69060,1,0,0:0:0:0:
64,192,69110,1,0,0:0:0:0:
320,192,69160,1,0,0:0:0:0:
192,192,69260,1,0,0:0:0:0:
448,192,69260,1,0,0:0:0:0:
64,192,69360,1,0,0:0:0:0:
320,192,69360,1,0,0:0:0:0:
448,192,69385,1,0,0:0:0:0:
192,192,69460,1,0,0:0:0:0:
64,192,69510,1,0,0:0:0:0:
320,192,69560,1,0,0:0:0:0:
192,192,69660,1,0,0:0:0:0:
448,192,69660,1,0,0:0:0:0:
320,192,69760,1,0,0:0:0:0:
64,192,69785,1,0,0:0:0:0:
192,192,69860,1,0,0:0:0:0:
448,192,69910,1,0,0:0:0:0:
320,192,69960,1,0,0:0:0:0:
64,192,70060,1,0,0:0:0:0:
192,192,70060,1,0,0:0:0:0:
320,192,70060,1,0,0:0:0:0:
448,192,70060,1,0,0:0:0:0:
192,192,70160,1,0,0:0:0:0:
320,192,70185,1,0,0:0:0:0:
448,192,70260,1,0,0:0:0:0:
64,192,70310,1,0,0:0:0:0:
192,192,70360,1,0,0:0:0:0:
320,192,70460,1,0,0:0:0:0:
448,192,70460,1,0,0:0:0:0:
64,192,70560,1,0,0:0:0:0:
192,192,70560,1,0,0:0:0:0:
320,192,70585,1,0,0:0:0:0:
448,192,70660,1,0,0:0:0:0:
64,192,70710,1,0,0:0:0:0:
192,192,70760,1,0,0:0:0:0:
320,192,70860,1,0,0:0:0:0:
448,192,70860,1,0,0:0:0:0:
192,192,70960,1,0,0:0:0:0:
64,192,70985,1,0,0:0:0:0:
320,192,71060,1,0,0:0:0:0:
448,192,71060,1,0,0:0:0:0:
64,192,71110,1,0,0:0:0:0:
192,192,71160,1,0,0:0:0:0:
320,192,71260,1,0,0:0:0:0:
448,192,71260,1,0,0:0:0:0:
192,192,71360,1,0,0:0:0:0:
64,192,71385,1,0,0:0:0:0:
448,192,71460,1,0,0:0:0:0:
320,192,71510,1,0,0:0:0:0:
192,192,71560,1,0,0:0:0:0:
64,192,71660,1,0,0:0:0:0:
192,192,71660,1,0,0:0:0:0:
320,192,71660,1,0,0:0:0:0:
448,192,71660,1,0,0:0:0:0:
64,0,71760,128,0,71860:1:0:0:0:
192,0,71760,128,0,71860:1:0:0:0:
320,192,71860,1,0,0:0:0:0:
448,192,71860,1,0,0:0:0:0:
320,0,71960,128,0,72060:1:0:0:0:
448,0,71960,128,0,72060:1:0:0:0:
64,192,72060,1,0,0:0:0:0:
192,192,72060,1,0,0:0:0:0:
64,0,72160,128,0,72260:1:0:0:0:
192,0,72160,128,0,72260:1:0:0:0:
320,192,72260,1,0,0:0:0:0:
448,192,72260,1,0,0:0:0:0:
320,192,72360,1,0,0:0:0:0:
448,192,72360,1,0,0:0:0:0:
64,192,72460,1,0,0:0:0:0:
192,192,72460,1,0,0:0:0:0:
320,192,72460,1,0,0:0:0:0:
192,0,72560,128,0,72660:1:0:0:0:
320,0,72560,128,0,72660:1:0:0:0:
64,192,72660,1,0,0:0:0:0:
448,192,72660,1,0,0:0:0:0:
64,0,72760,128,0,72860:1:0:0:0:
448,0,72760,128,0,72860:1:0:0:0:
192,192,72860,1,0,0:0:0:0:
320,192,72860,1,0,0:0:0:0:
192,0,72960,128,0,73060:1:0:0:0:
320,0,72960,128,0,73060:1:0:0:0:
64,192,73060,1,0,0:0:0:0:
448,192,73060,1,0,0:0:0:0:
64,192,73160,1,0,0:0:0:0:
448,192,73160,1,0,0:0:0:0:
192,192,73260,1,0,0:0:0:0:
320,192,73260,1,0,0:0:0:0:
448,192,73260,1,0,0:0:0:0:
64,0,73260,128,0,73360:1:0:0:0:
192,192,73360,1,0,0:0:0:0:
320,192,73360,1,0,0:0:0:0:
448,0,73360,128,0,73460:1:0:0:0:
192,192,73460,1,0,0:0:0:0:
320,192,73460,1,0,0:0:0:0:
64,0,73460,128,0,73560:1:0:0:0:
192,192,73560,1,0,0:0:0:0:
320,192,73560,1,0,0:0:0:0:
448,0,73560,128,0,73660:1:0:0:0:
192,192,73660,1,0,0:0:0:0:
320,192,73660,1,0,0:0:0:0:
64,0,73660,128,0,73760:1:0:0:0:
192,192,73760,1,0,0:0:0:0:
320,192,73760,1,0,0:0:0:0:
448,0,73760,128,0,73860:1:0:0:0:
192,192,73860,1,0,0:0:0:0:
320,192,73860,1,0,0:0:0:0:
64,0,73860,128,0,73960:1:0:0:0:
192,192,73960,1,0,0:0:0:0:
320,192,73960,1,0,0:0:0:0:
448,0,73960,128,0,74060:1:0:0:0:
192,192,74060,1,0,0:0:0:0:
320,192,74060,1,0,0:0:0:0:
64,0,74060,128,0,74160:1:0:0:0:
192,192,74160,1,0,0:0:0:0:
320,192,74160,1,0,0:0:0:0:
448,0,74160,128,0,74260:1:0:0:0:
192,192,74260,1,0,0:0:0:0:
320,192,74260,1,0,0:0:0:0:
64,0,74260,128,0,74360:1:0:0:0:
192,192,74360,1,0,0:0:0:0:
320,192,74360,1,0,0:0:0:0:
448,0,74360,128,0,74460:1:0:0:0:
192,192,74460,1,0,0:0:0:0:
320,192,74460,1,0,0:0:0:0:
64,0,74460,128,0,74560:1:0:0:0:
192,192,74560,1,0,0:0:0:0:
320,192,74560,1,0,0:0:0:0:
448,0,74560,128,0,74660:1:0:0:0:
64,192,74660,1,0,0:0:0:0:
192,192,74660,1,0,0:0:0:0:
320,192,74660,1,0,0:0:0:0:
64,192,74760,1,0,0:0:0:0:
192,192,74760,1,0,0:0:0:0:
320,192,74760,1,0,0:0:0:0:
448,192,74760,1,0,0:0:0:0:
64,0,74860,128,0,78485:1:0:0:0:
192,0,74860,128,0,78485:1:0:0:0:
320,0,74860,128,0,78485:1:0:0:0:
448,0,74860,128,0,78485:1:0:0:0:
64,192,78685,1,0,0:0:0:0:
192,192,78685,1,0,0:0:0:0:
320,192,78685,1,0,0:0:0:0:
448,192,78685,1,0,0:0:0:0:
320,192,78735,1,0,0:0:0:0:
448,192,78735,1,0,0:0:0:0:
64,192,78785,1,0,0:0:0:0:
192,192,78785,1,0,0:0:0:0:
320,192,78835,1,0,0:0:0:0:
448,192,78835,1,0,0:0:0:0:
64,192,78885,1,0,0:0:0:0:
192,192,78885,1,0,0:0:0:0:
320,192,78935,1,0,0:0:0:0:
448,192,78935,1,0,0:0:0:0:
64,192,78985,1,0,0:0:0:0:
192,192,78985,1,0,0:0:0:0:
320,192,79035,1,0,0:0:0:0:
448,192,79035,1,0,0:0:0:0:
64,192,79085,1,0,0:0:0:0:
192,192,79085,1,0,0:0:0:0:
320,192,79135,1,0,0:0:0:0:
448,192,79135,1,0,0:0:0:0:
64,192,79185,1,0,0:0:0:0:
192,192,79185,1,0,0:0:0:0:
320,192,79235,1,0,0:0:0:0:
448,192,79235,1,0,0:0:0:0:
64,192,79285,1,0,0:0:0:0:
192,192,79285,1,0,0:0:0:0:
320,192,79335,1,0,0:0:0:0:
448,192,79335,1,0,0:0:0:0:
64,192,79385,1,0,0:0:0:0:
192,192,79385,1,0,0:0:0:0:
320,192,79435,1,0,0:0:0:0:
448,192,79435,1,0,0:0:0:0:
64,192,79485,1,0,0:0:0:0:
192,192,79485,1,0,0:0:0:0:
320,192,79535,1,0,0:0:0:0:
448,192,79535,1,0,0:0:0:0:
64,192,79585,1,0,0:0:0:0:
192,192,79585,1,0,0:0:0:0:
320,192,79635,1,0,0:0:0:0:
448,192,79635,1,0,0:0:0:0:
64,192,79685,1,0,0:0:0:0:
192,192,79685,1,0,0:0:0:0:
320,192,79735,1,0,0:0:0:0:
448,192,79735,1,0,0:0:0:0:
64,192,79785,1,0,0:0:0:0:
192,192,79785,1,0,0:0:0:0:
320,192,79835,1,0,0:0:0:0:
448,192,79835,1,0,0:0:0:0:
64,0,79885,128,0,80085:1:0:0:0:
192,0,79885,128,0,80085:1:0:0:0:
320,0,79885,128,0,80085:1:0:0:0:
448,0,79885,128,0,80085:1:0:0:0:
64,192,80285,1,0,0:0:0:0:
192,192,80285,1,0,0:0:0:0:
320,192,80285,1,0,0:0:0:0:
448,192,80285,1,0,0:0:0:0:
64,192,80385,1,0,0:0:0:0:
192,192,80385,1,0,0:0:0:0:
448,192,80485,1,0,0:0:0:0:
64,192,80585,1,0,0:0:0:0:
320,192,80585,1,0,0:0:0:0:
320,192,80685,1,0,0:0:0:0:
448,192,80685,1,0,0:0:0:0:
64,192,80785,1,0,0:0:0:0:
64,192,80885,1,0,0:0:0:0:
192,192,80885,1,0,0:0:0:0:
192,192,80985,1,0,0:0:0:0:
320,192,80985,1,0,0:0:0:0:
64,192,81085,1,0,0:0:0:0:
448,192,81085,1,0,0:0:0:0:
320,192,81185,1,0,0:0:0:0:
448,192,81185,1,0,0:0:0:0:
192,192,81285,1,0,0:0:0:0:
320,192,81285,1,0,0:0:0:0:
64,192,81385,1,0,0:0:0:0:
192,192,81385,1,0,0:0:0:0:
64,192,81485,1,0,0:0:0:0:
192,192,81485,1,0,0:0:0:0:
64,192,81585,1,0,0:0:0:0:
320,192,81585,1,0,0:0:0:0:
192,192,81685,1,0,0:0:0:0:
448,192,81685,1,0,0:0:0:0:
64,192,81785,1,0,0:0:0:0:
448,192,81785,1,0,0:0:0:0:
64,192,81885,1,0,0:0:0:0:
320,192,81885,1,0,0:0:0:0:
192,192,81985,1,0,0:0:0:0:
448,192,81985,1,0,0:0:0:0:
192,192,82185,1,0,0:0:0:0:
320,192,82185,1,0,0:0:0:0:
64,192,82285,1,0,0:0:0:0:
448,192,82285,1,0,0:0:0:0:
320,192,82385,1,0,0:0:0:0:
64,192,82485,1,0,0:0:0:0:
192,192,82485,1,0,0:0:0:0:
320,192,82585,1,0,0:0:0:0:
448,192,82585,1,0,0:0:0:0:
64,192,82685,1,0,0:0:0:0:
448,192,82685,1,0,0:0:0:0:
64,192,82785,1,0,0:0:0:0:
192,192,82785,1,0,0:0:0:0:
192,192,82885,1,0,0:0:0:0:
320,192,82885,1,0,0:0:0:0:
320,192,82985,1,0,0:0:0:0:
448,192,82985,1,0,0:0:0:0:
64,192,83085,1,0,0:0:0:0:
448,192,83085,1,0,0:0:0:0:
192,192,83185,1,0,0:0:0:0:
320,192,83185,1,0,0:0:0:0:
64,192,83285,1,0,0:0:0:0:
64,192,83385,1,0,0:0:0:0:
192,192,83385,1,0,0:0:0:0:
192,192,83485,1,0,0:0:0:0:
320,192,83485,1,0,0:0:0:0:
64,192,83585,1,0,0:0:0:0:
448,192,83585,1,0,0:0:0:0:
64,192,83685,1,0,0:0:0:0:
320,192,83785,1,0,0:0:0:0:
448,192,83785,1,0,0:0:0:0:
192,192,83885,1,0,0:0:0:0:
320,192,83885,1,0,0:0:0:0:
64,192,83985,1,0,0:0:0:0:
192,192,84085,1,0,0:0:0:0:
448,192,84085,1,0,0:0:0:0:
64,192,84185,1,0,0:0:0:0:
320,192,84185,1,0,0:0:0:0:
192,192,84285,1,0,0:0:0:0:
448,192,84285,1,0,0:0:0:0:
64,192,84385,1,0,0:0:0:0:
320,192,84385,1,0,0:0:0:0:
64,192,84485,1,0,0:0:0:0:
192,192,84485,1,0,0:0:0:0:
64,192,84585,1,0,0:0:0:0:
192,192,84585,1,0,0:0:0:0:
320,192,84685,1,0,0:0:0:0:
448,192,84685,1,0,0:0:0:0:
64,192,84785,1,0,0:0:0:0:
192,192,84785,1,0,0:0:0:0:
64,192,84885,1,0,0:0:0:0:
320,192,84885,1,0,0:0:0:0:
192,192,84985,1,0,0:0:0:0:
448,192,84985,1,0,0:0:0:0:
192,192,85085,1,0,0:0:0:0:
448,192,85085,1,0,0:0:0:0:
64,192,85185,1,0,0:0:0:0:
192,192,85185,1,0,0:0:0:0:
448,192,85285,1,0,0:0:0:0:
192,192,85385,1,0,0:0:0:0:
320,192,85385,1,0,0:0:0:0:
320,192,85485,1,0,0:0:0:0:
448,192,85485,1,0,0:0:0:0:
192,192,85585,1,0,0:0:0:0:
64,192,85685,1,0,0:0:0:0:
320,192,85685,1,0,0:0:0:0:
192,192,85785,1,0,0:0:0:0:
448,192,85785,1,0,0:0:0:0:
64,192,85885,1,0,0:0:0:0:
320,192,85885,1,0,0:0:0:0:
64,192,85985,1,0,0:0:0:0:
448,192,85985,1,0,0:0:0:0:
320,192,86085,1,0,0:0:0:0:
448,192,86085,1,0,0:0:0:0:
192,192,86185,1,0,0:0:0:0:
320,192,86185,1,0,0:0:0:0:
64,192,86285,1,0,0:0:0:0:
192,192,86285,1,0,0:0:0:0:
64,192,86385,1,0,0:0:0:0:
320,192,86385,1,0,0:0:0:0:
192,192,86485,1,0,0:0:0:0:
320,192,86485,1,0,0:0:0:0:
192,192,86585,1,0,0:0:0:0:
448,192,86585,1,0,0:0:0:0:
64,192,86685,1,0,0:0:0:0:
192,192,86685,1,0,0:0:0:0:
64,192,86785,1,0,0:0:0:0:
192,192,86785,1,0,0:0:0:0:
448,192,86885,1,0,0:0:0:0:
192,192,86985,1,0,0:0:0:0:
320,192,86985,1,0,0:0:0:0:
192,192,87085,1,0,0:0:0:0:
320,192,87085,1,0,0:0:0:0:
64,0,87285,128,0,87385:1:0:0:0:
448,0,87285,128,0,87385:1:0:0:0:
64,192,87485,1,0,0:0:0:0:
192,192,87485,1,0,0:0:0:0:
320,192,87485,1,0,0:0:0:0:
448,192,87485,1,0,0:0:0:0:
64,192,87585,1,0,0:0:0:0:
192,192,87585,1,0,0:0:0:0:
320,192,87585,1,0,0:0:0:0:
448,192,87585,1,0,0:0:0:0:
64,192,87685,1,0,0:0:0:0:
192,192,87685,1,0,0:0:0:0:
320,192,87685,1,0,0:0:0:0:
448,192,87685,1,0,0:0:0:0:
64,192,87785,1,0,0:0:0:0:
192,192,87785,1,0,0:0:0:0:
320,192,87785,1,0,0:0:0:0:
448,192,87785,1,0,0:0:0:0:
64,192,87885,1,0,0:0:0:0:
192,192,87885,1,0,0:0:0:0:
320,192,87885,1,0,0:0:0:0:
448,192,87885,1,0,0:0:0:0:
64,192,87985,1,0,0:0:0:0:
192,192,87985,1,0,0:0:0:0:
320,192,87985,1,0,0:0:0:0:
448,192,87985,1,0,0:0:0:0:
64,0,88085,128,0,88185:1:0:0:0:
192,0,88085,128,0,88185:1:0:0:0:
320,0,88085,128,0,88185:1:0:0:0:
448,0,88085,128,0,88185:1:0:0:0:
320,192,88285,1,0,0:0:0:0:
448,192,88285,1,0,0:0:0:0:
320,192,88385,1,0,0:0:0:0:
448,192,88385,1,0,0:0:0:0:
192,192,88485,1,0,0:0:0:0:
64,192,88585,1,0,0:0:0:0:
448,192,88585,1,0,0:0:0:0:
64,192,88685,1,0,0:0:0:0:
448,192,88685,1,0,0:0:0:0:
192,0,88885,128,0,88985:1:0:0:0:
320,0,88885,128,0,88985:1:0:0:0:
64,192,89085,1,0,0:0:0:0:
192,192,89085,1,0,0:0:0:0:
320,192,89085,1,0,0:0:0:0:
448,192,89085,1,0,0:0:0:0:
64,192,89185,1,0,0:0:0:0:
192,192,89185,1,0,0:0:0:0:
320,192,89185,1,0,0:0:0:0:
448,192,89185,1,0,0:0:0:0:
64,192,89285,1,0,0:0:0:0:
192,192,89285,1,0,0:0:0:0:
320,192,89285,1,0,0:0:0:0:
448,192,89285,1,0,0:0:0:0:
64,192,89385,1,0,0:0:0:0:
192,192,89385,1,0,0:0:0:0:
320,192,89385,1,0,0:0:0:0:
448,192,89385,1,0,0:0:0:0:
64,192,89485,1,0,0:0:0:0:
192,192,89485,1,0,0:0:0:0:
320,192,89485,1,0,0:0:0:0:
448,192,89485,1,0,0:0:0:0:
64,192,89585,1,0,0:0:0:0:
192,192,89585,1,0,0:0:0:0:
320,192,89585,1,0,0:0:0:0:
448,192,89585,1,0,0:0:0:0:
64,0,89685,128,0,89785:1:0:0:0:
192,0,89685,128,0,89785:1:0:0:0:
320,0,89685,128,0,89785:1:0:0:0:
448,0,89685,128,0,89785:1:0:0:0:
64,192,89885,1,0,0:0:0:0:
320,192,89885,1,0,0:0:0:0:
64,192,89985,1,0,0:0:0:0:
320,192,89985,1,0,0:0:0:0:
192,192,90085,1,0,0:0:0:0:
320,192,90185,1,0,0:0:0:0:
448,192,90185,1,0,0:0:0:0:
320,192,90285,1,0,0:0:0:0:
448,192,90285,1,0,0:0:0:0:
64,0,90485,128,0,90585:1:0:0:0:
448,0,90485,128,0,90585:1:0:0:0:
64,192,90685,1,0,0:0:0:0:
192,192,90685,1,0,0:0:0:0:
320,192,90685,1,0,0:0:0:0:
448,192,90685,1,0,0:0:0:0:
64,192,90785,1,0,0:0:0:0:
192,192,90785,1,0,0:0:0:0:
320,192,90785,1,0,0:0:0:0:
448,192,90785,1,0,0:0:0:0:
64,192,90885,1,0,0:0:0:0:
192,192,90885,1,0,0:0:0:0:
320,192,90885,1,0,0:0:0:0:
448,192,90885,1,0,0:0:0:0:
64,192,90985,1,0,0:0:0:0:
192,192,90985,1,0,0:0:0:0:
320,192,90985,1,0,0:0:0:0:
448,192,90985,1,0,0:0:0:0:
64,192,91085,1,0,0:0:0:0:
192,192,91085,1,0,0:0:0:0:
320,192,91085,1,0,0:0:0:0:
448,192,91085,1,0,0:0:0:0:
64,192,91185,1,0,0:0:0:0:
192,192,91185,1,0,0:0:0:0:
320,192,91185,1,0,0:0:0:0:
448,192,91185,1,0,0:0:0:0:
64,0,91285,128,0,91385:1:0:0:0:
192,0,91285,128,0,91385:1:0:0:0:
320,0,91285,128,0,91385:1:0:0:0:
448,0,91285,128,0,91385:1:0:0:0:
64,192,91485,1,0,0:0:0:0:
192,192,91485,1,0,0:0:0:0:
320,192,91485,1,0,0:0:0:0:
448,192,91485,1,0,0:0:0:0:
192,192,91535,1,0,0:0:0:0:
320,192,91585,1,0,0:0:0:0:
448,192,91635,1,0,0:0:0:0:
64,192,91685,1,0,0:0:0:0:
448,192,91685,1,0,0:0:0:0:
192,192,91735,1,0,0:0:0:0:
320,192,91785,1,0,0:0:0:0:
448,192,91835,1,0,0:0:0:0:
64,192,91885,1,0,0:0:0:0:
448,192,91885,1,0,0:0:0:0:
192,192,91935,1,0,0:0:0:0:
320,192,91985,1,0,0:0:0:0:
448,192,92035,1,0,0:0:0:0:
64,192,92085,1,0,0:0:0:0:
448,192,92085,1,0,0:0:0:0:
192,192,92135,1,0,0:0:0:0:
320,192,92185,1,0,0:0:0:0:
448,192,92235,1,0,0:0:0:0:
64,192,92285,1,0,0:0:0:0:
448,192,92285,1,0,0:0:0:0:
192,192,92335,1,0,0:0:0:0:
320,192,92385,1,0,0:0:0:0:
448,192,92435,1,0,0:0:0:0:
64,192,92485,1,0,0:0:0:0:
448,192,92485,1,0,0:0:0:0:
192,192,92535,1,0,0:0:0:0:
320,192,92585,1,0,0:0:0:0:
448,192,92635,1,0,0:0:0:0:
64,192,92685,1,0,0:0:0:0:
448,192,92685,1,0,0:0:0:0:
192,192,92735,1,0,0:0:0:0:
320,192,92785,1,0,0:0:0:0:
448,192,92835,1,0,0:0:0:0:
64,192,92885,1,0,0:0:0:0:
448,192,92885,1,0,0:0:0:0:
192,192,92935,1,0,0:0:0:0:
320,192,92985,1,0,0:0:0:0:
448,192,93035,1,0,0:0:0:0:
64,192,93085,1,0,0:0:0:0:
192,192,93085,1,0,0:0:0:0:
320,192,93085,1,0,0:0:0:0:
448,192,93085,1,0,0:0:0:0:
192,192,93185,1,0,0:0:0:0:
320,0,93185,128,0,93285:1:0:0:0:
448,0,93185,128,0,93285:1:0:0:0:
64,192,93285,1,0,0:0:0:0:
192,192,93385,1,0,0:0:0:0:
320,192,93385,1,0,0:0:0:0:
448,192,93385,1,0,0:0:0:0:
64,192,93485,1,0,0:0:0:0:
320,0,93485,128,0,93585:1:0:0:0:
448,0,93485,128,0,93585:1:0:0:0:
192,192,93585,1,0,0:0:0:0:
64,192,93685,1,0,0:0:0:0:
320,192,93685,1,0,0:0:0:0:
448,192,93685,1,0,0:0:0:0:
192,192,93785,1,0,0:0:0:0:
320,0,93785,128,0,93885:1:0:0:0:
448,0,93785,128,0,93885:1:0:0:0:
64,192,93885,1,0,0:0:0:0:
192,192,93985,1,0,0:0:0:0:
64,192,94085,1,0,0:0:0:0:
320,192,94085,1,0,0:0:0:0:
448,192,94085,1,0,0:0:0:0:
192,192,94185,1,0,0:0:0:0:
320,0,94185,128,0,94285:1:0:0:0:
448,0,94185,128,0,94285:1:0:0:0:
64,192,94285,1,0,0:0:0:0:
192,192,94385,1,0,0:0:0:0:
64,192,94485,1,0,0:0:0:0:
320,192,94485,1,0,0:0:0:0:
448,192,94485,1,0,0:0:0:0:
192,192,94585,1,0,0:0:0:0:
320,192,94585,1,0,0:0:0:0:
448,192,94585,1,0,0:0:0:0:
64,192,94685,1,0,0:0:0:0:
192,192,94685,1,0,0:0:0:0:
320,192,94685,1,0,0:0:0:0:
448,192,94685,1,0,0:0:0:0:
448,192,94785,1,0,0:0:0:0:
64,0,94785,128,0,94885:1:0:0:0:
192,0,94785,128,0,94885:1:0:0:0:
320,192,94885,1,0,0:0:0:0:
64,192,94985,1,0,0:0:0:0:
192,192,94985,1,0,0:0:0:0:
448,192,94985,1,0,0:0:0:0:
320,192,95085,1,0,0:0:0:0:
64,0,95085,128,0,95185:1:0:0:0:
192,0,95085,128,0,95185:1:0:0:0:
448,192,95185,1,0,0:0:0:0:
64,192,95285,1,0,0:0:0:0:
192,192,95285,1,0,0:0:0:0:
320,192,95285,1,0,0:0:0:0:
448,192,95385,1,0,0:0:0:0:
64,0,95385,128,0,95485:1:0:0:0:
192,0,95385,128,0,95485:1:0:0:0:
320,192,95485,1,0,0:0:0:0:
448,192,95585,1,0,0:0:0:0:
64,192,95685,1,0,0:0:0:0:
192,192,95685,1,0,0:0:0:0:
320,192,95685,1,0,0:0:0:0:
448,192,95785,1,0,0:0:0:0:
64,0,95785,128,0,95885:1:0:0:0:
192,0,95785,128,0,95885:1:0:0:0:
320,192,95885,1,0,0:0:0:0:
448,192,95985,1,0,0:0:0:0:
64,192,96085,1,0,0:0:0:0:
192,192,96085,1,0,0:0:0:0:
320,192,96085,1,0,0:0:0:0:
64,192,96185,1,0,0:0:0:0:
192,192,96185,1,0,0:0:0:0:
448,192,96185,1,0,0:0:0:0:
64,192,96285,1,0,0:0:0:0:
192,192,96285,1,0,0:0:0:0:
320,192,96285,1,0,0:0:0:0:
448,192,96285,1,0,0:0:0:0:
320,192,96385,1,0,0:0:0:0:
64,0,96385,128,0,96485:1:0:0:0:
448,0,96385,128,0,96485:1:0:0:0:
192,192,96485,1,0,0:0:0:0:
64,192,96585,1,0,0:0:0:0:
320,192,96585,1,0,0:0:0:0:
448,192,96585,1,0,0:0:0:0:
192,192,96685,1,0,0:0:0:0:
64,0,96685,128,0,96785:1:0:0:0:
448,0,96685,128,0,96785:1:0:0:0:
320,192,96785,1,0,0:0:0:0:
64,192,96885,1,0,0:0:0:0:
192,192,96885,1,0,0:0:0:0:
448,192,96885,1,0,0:0:0:0:
320,192,97010,1,0,0:0:0:0:
64,0,97010,128,0,97110:1:0:0:0:
448,0,97010,128,0,97110:1:0:0:0:
192,192,97110,1,0,0:0:0:0:
320,192,97210,1,0,0:0:0:0:
64,192,97310,1,0,0:0:0:0:
192,192,97310,1,0,0:0:0:0:
448,192,97310,1,0,0:0:0:0:
320,192,97410,1,0,0:0:0:0:
64,0,97410,128,0,97510:1:0:0:0:
448,0,97410,128,0,97510:1:0:0:0:
192,192,97510,1,0,0:0:0:0:
320,192,97610,1,0,0:0:0:0:
64,192,97710,1,0,0:0:0:0:
192,192,97710,1,0,0:0:0:0:
448,192,97710,1,0,0:0:0:0:
64,192,97810,1,0,0:0:0:0:
320,192,97810,1,0,0:0:0:0:
448,192,97810,1,0,0:0:0:0:
64,192,97910,1,0,0:0:0:0:
192,192,97910,1,0,0:0:0:0:
320,192,97910,1,0,0:0:0:0:
448,192,97910,1,0,0:0:0:0:
448,192,98010,1,0,0:0:0:0:
192,0,98010,128,0,98110:1:0:0:0:
320,0,98010,128,0,98110:1:0:0:0:
64,192,98110,1,0,0:0:0:0:
192,192,98210,1,0,0:0:0:0:
320,192,98210,1,0,0:0:0:0:
448,192,98210,1,0,0:0:0:0:
64,192,98310,1,0,0:0:0:0:
192,0,98310,128,0,98410:1:0:0:0:
320,0,98310,128,0,98410:1:0:0:0:
448,192,98410,1,0,0:0:0:0:
64,192,98510,1,0,0:0:0:0:
192,192,98510,1,0,0:0:0:0:
320,192,98510,1,0,0:0:0:0:
448,192,98610,1,0,0:0:0:0:
192,0,98610,128,0,98710:1:0:0:0:
320,0,98610,128,0,98710:1:0:0:0:
64,192,98710,1,0,0:0:0:0:
448,192,98810,1,0,0:0:0:0:
64,192,98910,1,0,0:0:0:0:
192,192,98910,1,0,0:0:0:0:
320,192,98910,1,0,0:0:0:0:
448,192,99010,1,0,0:0:0:0:
192,0,99010,128,0,99110:1:0:0:0:
320,0,99010,128,0,99110:1:0:0:0:
64,192,99110,1,0,0:0:0:0:
448,192,99210,1,0,0:0:0:0:
64,192,99310,1,0,0:0:0:0:
192,192,99310,1,0,0:0:0:0:
320,192,99310,1,0,0:0:0:0:
192,192,99410,1,0,0:0:0:0:
320,192,99410,1,0,0:0:0:0:
448,192,99410,1,0,0:0:0:0:
64,192,99510,1,0,0:0:0:0:
192,192,99510,1,0,0:0:0:0:
320,192,99510,1,0,0:0:0:0:
448,192,99510,1,0,0:0:0:0:
320,192,99610,1,0,0:0:0:0:
192,192,99710,1,0,0:0:0:0:
448,192,99710,1,0,0:0:0:0:
64,192,99810,1,0,0:0:0:0:
320,192,99910,1,0,0:0:0:0:
448,192,99910,1,0,0:0:0:0:
192,192,100010,1,0,0:0:0:0:
448,192,100010,1,0,0:0:0:0:
320,192,100110,1,0,0:0:0:0:
448,192,100110,1,0,0:0:0:0:
64,192,100210,1,0,0:0:0:0:
192,192,100310,1,0,0:0:0:0:
448,192,100310,1,0,0:0:0:0:
320,192,100410,1,0,0:0:0:0:
64,192,100510,1,0,0:0:0:0:
448,192,100510,1,0,0:0:0:0:
192,192,100610,1,0,0:0:0:0:
320,192,100710,1,0,0:0:0:0:
448,192,100710,1,0,0:0:0:0:
320,192,100810,1,0,0:0:0:0:
448,192,100810,1,0,0:0:0:0:
192,192,100910,1,0,0:0:0:0:
448,192,100910,1,0,0:0:0:0:
64,192,101010,1,0,0:0:0:0:
64,192,101110,1,0,0:0:0:0:
192,192,101110,1,0,0:0:0:0:
320,192,101110,1,0,0:0:0:0:
448,192,101110,1,0,0:0:0:0:
192,192,101210,1,0,0:0:0:0:
320,192,101310,1,0,0:0:0:0:
448,192,101310,1,0,0:0:0:0:
64,192,101410,1,0,0:0:0:0:
192,192,101510,1,0,0:0:0:0:
320,192,101510,1,0,0:0:0:0:
320,192,101610,1,0,0:0:0:0:
448,192,101610,1,0,0:0:0:0:
320,192,101710,1,0,0:0:0:0:
448,192,101710,1,0,0:0:0:0:
192,192,101810,1,0,0:0:0:0:
64,192,101910,1,0,0:0:0:0:
320,192,101910,1,0,0:0:0:0:
448,192,102010,1,0,0:0:0:0:
192,192,102110,1,0,0:0:0:0:
320,192,102110,1,0,0:0:0:0:
64,192,102210,1,0,0:0:0:0:
320,192,102310,1,0,0:0:0:0:
448,192,102310,1,0,0:0:0:0:
192,192,102410,1,0,0:0:0:0:
320,192,102410,1,0,0:0:0:0:
64,192,102510,1,0,0:0:0:0:
320,192,102510,1,0,0:0:0:0:
448,192,102610,1,0,0:0:0:0:
64,192,102710,1,0,0:0:0:0:
192,192,102710,1,0,0:0:0:0:
320,192,102710,1,0,0:0:0:0:
448,192,102710,1,0,0:0:0:0:
448,192,102810,1,0,0:0:0:0:
64,192,102910,1,0,0:0:0:0:
192,192,102910,1,0,0:0:0:0:
320,192,103010,1,0,0:0:0:0:
192,192,103110,1,0,0:0:0:0:
448,192,103110,1,0,0:0:0:0:
64,192,103210,1,0,0:0:0:0:
192,192,103210,1,0,0:0:0:0:
192,192,103310,1,0,0:0:0:0:
320,192,103310,1,0,0:0:0:0:
448,192,103410,1,0,0:0:0:0:
64,192,103510,1,0,0:0:0:0:
192,192,103510,1,0,0:0:0:0:
320,192,103610,1,0,0:0:0:0:
192,192,103710,1,0,0:0:0:0:
448,192,103710,1,0,0:0:0:0:
64,192,103810,1,0,0:0:0:0:
192,192,103910,1,0,0:0:0:0:
320,192,103910,1,0,0:0:0:0:
192,192,104010,1,0,0:0:0:0:
448,192,104010,1,0,0:0:0:0:
64,192,104110,1,0,0:0:0:0:
192,192,104110,1,0,0:0:0:0:
320,192,104210,1,0,0:0:0:0:
64,192,104310,1,0,0:0:0:0:
192,192,104310,1,0,0:0:0:0:
320,192,104310,1,0,0:0:0:0:
448,192,104310,1,0,0:0:0:0:
320,192,104360,1,0,0:0:0:0:
192,192,104410,1,0,0:0:0:0:
64,192,104460,1,0,0:0:0:0:
64,192,104510,1,0,0:0:0:0:
448,192,104510,1,0,0:0:0:0:
320,192,104560,1,0,0:0:0:0:
192,192,104610,1,0,0:0:0:0:
64,192,104660,1,0,0:0:0:0:
64,192,104710,1,0,0:0:0:0:
448,192,104710,1,0,0:0:0:0:
320,192,104760,1,0,0:0:0:0:
192,192,104810,1,0,0:0:0:0:
64,192,104860,1,0,0:0:0:0:
64,192,104910,1,0,0:0:0:0:
448,192,104910,1,0,0:0:0:0:
320,192,104960,1,0,0:0:0:0:
192,192,105010,1,0,0:0:0:0:
64,192,105060,1,0,0:0:0:0:
64,192,105110,1,0,0:0:0:0:
448,192,105110,1,0,0:0:0:0:
320,192,105160,1,0,0:0:0:0:
192,192,105210,1,0,0:0:0:0:
64,192,105260,1,0,0:0:0:0:
64,192,105310,1,0,0:0:0:0:
448,192,105310,1,0,0:0:0:0:
320,192,105360,1,0,0:0:0:0:
192,192,105410,1,0,0:0:0:0:
64,192,105460,1,0,0:0:0:0:
64,192,105510,1,0,0:0:0:0:
448,192,105510,1,0,0:0:0:0:
320,192,105560,1,0,0:0:0:0:
192,192,105610,1,0,0:0:0:0:
64,192,105660,1,0,0:0:0:0:
64,192,105710,1,0,0:0:0:0:
448,192,105710,1,0,0:0:0:0:
320,192,105760,1,0,0:0:0:0:
192,192,105810,1,0,0:0:0:0:
64,192,105860,1,0,0:0:0:0:
64,192,105910,1,0,0:0:0:0:
192,192,105910,1,0,0:0:0:0:
320,192,105910,1,0,0:0:0:0:
448,192,105910,1,0,0:0:0:0:
64,192,106010,1,0,0:0:0:0:
320,0,106010,128,0,106110:1:0:0:0:
448,0,106010,128,0,106110:1:0:0:0:
64,192,106110,1,0,0:0:0:0:
64,192,106210,1,0,0:0:0:0:
192,192,106210,1,0,0:0:0:0:
320,192,106210,1,0,0:0:0:0:
64,192,106310,1,0,0:0:0:0:
192,0,106310,128,0,106410:1:0:0:0:
320,0,106310,128,0,106410:1:0:0:0:
64,192,106410,1,0,0:0:0:0:
64,192,106510,1,0,0:0:0:0:
192,192,106510,1,0,0:0:0:0:
448,192,106510,1,0,0:0:0:0:
64,192,106610,1,0,0:0:0:0:
192,0,106610,128,0,106710:1:0:0:0:
448,0,106610,128,0,106710:1:0:0:0:
64,192,106710,1,0,0:0:0:0:
64,192,106810,1,0,0:0:0:0:
64,192,106910,1,0,0:0:0:0:
320,192,106910,1,0,0:0:0:0:
448,192,106910,1,0,0:0:0:0:
64,192,107010,1,0,0:0:0:0:
320,0,107010,128,0,107110:1:0:0:0:
448,0,107010,128,0,107110:1:0:0:0:
64,192,107110,1,0,0:0:0:0:
64,192,107210,1,0,0:0:0:0:
64,192,107310,1,0,0:0:0:0:
192,192,107310,1,0,0:0:0:0:
448,192,107310,1,0,0:0:0:0:
64,192,107410,1,0,0:0:0:0:
192,192,107410,1,0,0:0:0:0:
448,192,107410,1,0,0:0:0:0:
64,192,107510,1,0,0:0:0:0:
192,192,107510,1,0,0:0:0:0:
320,192,107510,1,0,0:0:0:0:
448,192,107510,1,0,0:0:0:0:
448,192,107610,1,0,0:0:0:0:
192,0,107610,128,0,107710:1:0:0:0:
320,0,107610,128,0,107710:1:0:0:0:
448,192,107710,1,0,0:0:0:0:
64,192,107810,1,0,0:0:0:0:
192,192,107810,1,0,0:0:0:0:
448,192,107810,1,0,0:0:0:0:
448,192,107910,1,0,0:0:0:0:
64,0,107910,128,0,108010:1:0:0:0:
192,0,107910,128,0,108010:1:0:0:0:
448,192,108010,1,0,0:0:0:0:
64,192,108110,1,0,0:0:0:0:
320,192,108110,1,0,0:0:0:0:
448,192,108110,1,0,0:0:0:0:
448,192,108210,1,0,0:0:0:0:
64,0,108210,128,0,108310:1:0:0:0:
320,0,108210,128,0,108310:1:0:0:0:
448,192,108310,1,0,0:0:0:0:
448,192,108410,1,0,0:0:0:0:
192,192,108510,1,0,0:0:0:0:
320,192,108510,1,0,0:0:0:0:
448,192,108510,1,0,0:0:0:0:
448,192,108610,1,0,0:0:0:0:
192,0,108610,128,0,108710:1:0:0:0:
320,0,108610,128,0,108710:1:0:0:0:
448,192,108710,1,0,0:0:0:0:
448,192,108810,1,0,0:0:0:0:
64,192,108910,1,0,0:0:0:0:
192,192,108910,1,0,0:0:0:0:
448,192,108910,1,0,0:0:0:0:
64,192,109010,1,0,0:0:0:0:
192,192,109010,1,0,0:0:0:0:
448,192,109010,1,0,0:0:0:0:
64,192,109110,1,0,0:0:0:0:
192,192,109110,1,0,0:0:0:0:
320,192,109110,1,0,0:0:0:0:
448,192,109110,1,0,0:0:0:0:
320,192,109210,1,0,0:0:0:0:
64,0,109210,128,0,109310:1:0:0:0:
448,0,109210,128,0,109310:1:0:0:0:
320,192,109310,1,0,0:0:0:0:
64,192,109410,1,0,0:0:0:0:
192,192,109410,1,0,0:0:0:0:
320,192,109410,1,0,0:0:0:0:
320,192,109510,1,0,0:0:0:0:
64,0,109510,128,0,109610:1:0:0:0:
192,0,109510,128,0,109610:1:0:0:0:
320,192,109610,1,0,0:0:0:0:
192,192,109710,1,0,0:0:0:0:
320,192,109710,1,0,0:0:0:0:
448,192,109710,1,0,0:0:0:0:
320,192,109810,1,0,0:0:0:0:
192,0,109810,128,0,109910:1:0:0:0:
448,0,109810,128,0,109910:1:0:0:0:
320,192,109910,1,0,0:0:0:0:
320,192,110010,1,0,0:0:0:0:
64,192,110110,1,0,0:0:0:0:
320,192,110110,1,0,0:0:0:0:
448,192,110110,1,0,0:0:0:0:
320,192,110210,1,0,0:0:0:0:
64,0,110210,128,0,110310:1:0:0:0:
448,0,110210,128,0,110310:1:0:0:0:
320,192,110310,1,0,0:0:0:0:
320,192,110410,1,0,0:0:0:0:
64,192,110510,1,0,0:0:0:0:
192,192,110510,1,0,0:0:0:0:
320,192,110510,1,0,0:0:0:0:
64,192,110610,1,0,0:0:0:0:
192,192,110610,1,0,0:0:0:0:
320,192,110610,1,0,0:0:0:0:
64,192,110710,1,0,0:0:0:0:
192,192,110710,1,0,0:0:0:0:
320,192,110710,1,0,0:0:0:0:
448,192,110710,1,0,0:0:0:0:
192,192,110810,1,0,0:0:0:0:
64,0,110810,128,0,110910:1:0:0:0:
448,0,110810,128,0,110910:1:0:0:0:
192,192,110910,1,0,0:0:0:0:
192,192,111010,1,0,0:0:0:0:
320,192,111010,1,0,0:0:0:0:
448,192,111010,1,0,0:0:0:0:
192,192,111110,1,0,0:0:0:0:
320,0,111110,128,0,111210:1:0:0:0:
448,0,111110,128,0,111210:1:0:0:0:
192,192,111210,1,0,0:0:0:0:
64,192,111310,1,0,0:0:0:0:
192,192,111310,1,0,0:0:0:0:
320,192,111310,1,0,0:0:0:0:
192,192,111410,1,0,0:0:0:0:
64,0,111410,128,0,111510:1:0:0:0:
320,0,111410,128,0,111510:1:0:0:0:
192,192,111510,1,0,0:0:0:0:
192,192,111610,1,0,0:0:0:0:
64,192,111710,1,0,0:0:0:0:
192,192,111710,1,0,0:0:0:0:
448,192,111710,1,0,0:0:0:0:
192,192,111810,1,0,0:0:0:0:
64,0,111810,128,0,111910:1:0:0:0:
448,0,111810,128,0,111910:1:0:0:0:
192,192,111910,1,0,0:0:0:0:
192,192,112010,1,0,0:0:0:0:
192,192,112110,1,0,0:0:0:0:
320,192,112110,1,0,0:0:0:0:
448,192,112110,1,0,0:0:0:0:
192,192,112210,1,0,0:0:0:0:
320,192,112210,1,0,0:0:0:0:
448,192,112210,1,0,0:0:0:0:
64,192,112310,1,0,0:0:0:0:
192,192,112310,1,0,0:0:0:0:
320,192,112310,1,0,0:0:0:0:
448,192,112310,1,0,0:0:0:0:
320,192,112410,1,0,0:0:0:0:
192,192,112510,1,0,0:0:0:0:
64,192,112610,1,0,0:0:0:0:
448,192,112610,1,0,0:0:0:0:
192,192,112710,1,0,0:0:0:0:
320,192,112810,1,0,0:0:0:0:
64,192,112910,1,0,0:0:0:0:
448,192,112910,1,0,0:0:0:0:
192,192,113010,1,0,0:0:0:0:
64,192,113110,1,0,0:0:0:0:
192,192,113110,1,0,0:0:0:0:
320,192,113110,1,0,0:0:0:0:
448,192,113110,1,0,0:0:0:0:
64,192,113210,1,0,0:0:0:0:
192,192,113210,1,0,0:0:0:0:
320,192,113210,1,0,0:0:0:0:
448,192,113210,1,0,0:0:0:0:
64,192,113310,1,0,0:0:0:0:
192,192,113310,1,0,0:0:0:0:
320,192,113310,1,0,0:0:0:0:
448,192,113310,1,0,0:0:0:0:
64,192,113410,1,0,0:0:0:0:
192,192,113410,1,0,0:0:0:0:
320,192,113410,1,0,0:0:0:0:
448,192,113410,1,0,0:0:0:0:
64,192,113510,1,0,0:0:0:0:
192,192,113510,1,0,0:0:0:0:
320,192,113510,1,0,0:0:0:0:
448,192,113510,1,0,0:0:0:0:
64,192,113610,1,0,0:0:0:0:
192,192,113610,1,0,0:0:0:0:
320,192,113610,1,0,0:0:0:0:
448,192,113610,1,0,0:0:0:0:
64,192,113710,1,0,0:0:0:0:
192,192,113710,1,0,0:0:0:0:
320,192,113710,1,0,0:0:0:0:
448,192,113710,1,0,0:0:0:0:
64,192,113810,1,0,0:0:0:0:
192,192,113810,1,0,0:0:0:0:
320,192,113810,1,0,0:0:0:0:
448,192,113810,1,0,0:0:0:0:
64,192,113910,1,0,0:0:0:0:
448,192,113910,1,0,0:0:0:0:
320,192,114010,1,0,0:0:0:0:
192,192,114110,1,0,0:0:0:0:
64,192,114210,1,0,0:0:0:0:
448,192,114210,1,0,0:0:0:0:
192,192,114310,1,0,0:0:0:0:
320,192,114410,1,0,0:0:0:0:
64,192,114510,1,0,0:0:0:0:
448,192,114510,1,0,0:0:0:0:
192,192,114610,1,0,0:0:0:0:
64,192,114710,1,0,0:0:0:0:
192,192,114710,1,0,0:0:0:0:
320,192,114710,1,0,0:0:0:0:
448,192,114710,1,0,0:0:0:0:
64,192,114810,1,0,0:0:0:0:
192,192,114810,1,0,0:0:0:0:
320,192,114810,1,0,0:0:0:0:
448,192,114810,1,0,0:0:0:0:
64,192,114910,1,0,0:0:0:0:
192,192,114910,1,0,0:0:0:0:
320,192,114910,1,0,0:0:0:0:
448,192,114910,1,0,0:0:0:0:
64,192,115010,1,0,0:0:0:0:
192,192,115010,1,0,0:0:0:0:
320,192,115010,1,0,0:0:0:0:
448,192,115010,1,0,0:0:0:0:
64,192,115110,1,0,0:0:0:0:
192,192,115110,1,0,0:0:0:0:
320,192,115110,1,0,0:0:0:0:
448,192,115110,1,0,0:0:0:0:
64,192,115210,1,0,0:0:0:0:
192,192,115210,1,0,0:0:0:0:
320,192,115210,1,0,0:0:0:0:
448,192,115210,1,0,0:0:0:0:
64,192,115310,1,0,0:0:0:0:
192,192,115310,1,0,0:0:0:0:
320,192,115310,1,0,0:0:0:0:
448,192,115310,1,0,0:0:0:0:
64,192,115410,1,0,0:0:0:0:
192,192,115410,1,0,0:0:0:0:
320,192,115410,1,0,0:0:0:0:
448,192,115410,1,0,0:0:0:0:
64,192,115510,1,0,0:0:0:0:
448,192,115510,1,0,0:0:0:0:
320,192,115610,1,0,0:0:0:0:
192,192,115735,1,0,0:0:0:0:
448,192,115835,1,0,0:0:0:0:
64,192,115935,1,0,0:0:0:0:
192,192,115935,1,0,0:0:0:0:
192,192,116035,1,0,0:0:0:0:
320,192,116035,1,0,0:0:0:0:
64,192,116135,1,0,0:0:0:0:
448,192,116235,1,0,0:0:0:0:
64,192,116335,1,0,0:0:0:0:
192,192,116335,1,0,0:0:0:0:
320,192,116335,1,0,0:0:0:0:
448,192,116335,1,0,0:0:0:0:
64,192,116435,1,0,0:0:0:0:
192,192,116435,1,0,0:0:0:0:
320,192,116435,1,0,0:0:0:0:
448,192,116435,1,0,0:0:0:0:
64,192,116535,1,0,0:0:0:0:
192,192,116535,1,0,0:0:0:0:
320,192,116535,1,0,0:0:0:0:
448,192,116535,1,0,0:0:0:0:
64,192,116635,1,0,0:0:0:0:
192,192,116635,1,0,0:0:0:0:
320,192,116635,1,0,0:0:0:0:
448,192,116635,1,0,0:0:0:0:
64,192,116735,1,0,0:0:0:0:
192,192,116735,1,0,0:0:0:0:
320,192,116735,1,0,0:0:0:0:
448,192,116735,1,0,0:0:0:0:
64,192,116835,1,0,0:0:0:0:
192,192,116835,1,0,0:0:0:0:
320,192,116835,1,0,0:0:0:0:
448,192,116835,1,0,0:0:0:0:
64,192,116935,1,0,0:0:0:0:
192,192,116935,1,0,0:0:0:0:
320,192,116935,1,0,0:0:0:0:
448,192,116935,1,0,0:0:0:0:
64,192,117035,1,0,0:0:0:0:
192,192,117035,1,0,0:0:0:0:
320,192,117035,1,0,0:0:0:0:
448,192,117035,1,0,0:0:0:0:
64,192,117135,1,0,0:0:0:0:
192,192,117135,1,0,0:0:0:0:
320,192,117135,1,0,0:0:0:0:
448,192,117135,1,0,0:0:0:0:
448,192,117185,1,0,0:0:0:0:
192,192,117235,1,0,0:0:0:0:
320,192,117235,1,0,0:0:0:0:
64,192,117285,1,0,0:0:0:0:
192,192,117335,1,0,0:0:0:0:
320,192,117335,1,0,0:0:0:0:
448,192,117385,1,0,0:0:0:0:
192,192,117435,1,0,0:0:0:0:
320,192,117435,1,0,0:0:0:0:
64,192,117485,1,0,0:0:0:0:
192,192,117535,1,0,0:0:0:0:
320,192,117535,1,0,0:0:0:0:
448,192,117585,1,0,0:0:0:0:
192,192,117635,1,0,0:0:0:0:
320,192,117635,1,0,0:0:0:0:
64,192,117685,1,0,0:0:0:0:
192,192,117735,1,0,0:0:0:0:
320,192,117735,1,0,0:0:0:0:
448,192,117785,1,0,0:0:0:0:
192,192,117835,1,0,0:0:0:0:
320,192,117835,1,0,0:0:0:0:
64,192,117885,1,0,0:0:0:0:
64,192,117935,1,0,0:0:0:0:
192,192,117935,1,0,0:0:0:0:
320,192,117985,1,0,0:0:0:0:
448,192,117985,1,0,0:0:0:0:
64,192,118035,1,0,0:0:0:0:
192,192,118035,1,0,0:0:0:0:
320,192,118085,1,0,0:0:0:0:
448,192,118085,1,0,0:0:0:0:
64,192,118135,1,0,0:0:0:0:
192,192,118135,1,0,0:0:0:0:
320,192,118185,1,0,0:0:0:0:
448,192,118185,1,0,0:0:0:0:
64,192,118235,1,0,0:0:0:0:
192,192,118235,1,0,0:0:0:0:
320,192,118285,1,0,0:0:0:0:
448,192,118285,1,0,0:0:0:0:
64,192,118335,1,0,0:0:0:0:
192,192,118335,1,0,0:0:0:0:
320,192,118385,1,0,0:0:0:0:
448,192,118385,1,0,0:0:0:0:
64,192,118435,1,0,0:0:0:0:
192,192,118435,1,0,0:0:0:0:
320,192,118485,1,0,0:0:0:0:
448,192,118485,1,0,0:0:0:0:
64,192,118535,1,0,0:0:0:0:
192,192,118535,1,0,0:0:0:0:
320,192,118585,1,0,0:0:0:0:
448,192,118585,1,0,0:0:0:0:
64,192,118635,1,0,0:0:0:0:
192,192,118635,1,0,0:0:0:0:
320,192,118685,1,0,0:0:0:0:
448,192,118685,1,0,0:0:0:0:
64,0,118735,128,0,120535:1:0:0:0:
192,0,118735,128,0,120535:1:0:0:0:
320,0,118735,128,0,120535:1:0:0:0:
448,0,118735,128,0,120535:1:0:0:0:
192,192,120735,1,0,0:0:0:0:
320,192,120735,1,0,0:0:0:0:
448,0,120735,128,0,120885:1:0:0:0:
64,0,120735,128,0,120985:1:0:0:0:
192,192,120885,1,0,0:0:0:0:
320,192,120885,1,0,0:0:0:0:
192,192,120985,1,0,0:0:0:0:
320,192,120985,1,0,0:0:0:0:
448,192,120985,1,0,0:0:0:0:
64,192,121085,1,0,0:0:0:0:
192,192,121085,1,0,0:0:0:0:
448,192,121085,1,0,0:0:0:0:
64,192,121185,1,0,0:0:0:0:
448,192,121185,1,0,0:0:0:0:
320,0,121185,128,0,121385:1:0:0:0:
64,192,121285,1,0,0:0:0:0:
448,192,121285,1,0,0:0:0:0:
64,192,121385,1,0,0:0:0:0:
192,192,121385,1,0,0:0:0:0:
448,0,121385,128,0,121585:1:0:0:0:
64,192,121485,1,0,0:0:0:0:
192,192,121485,1,0,0:0:0:0:
192,192,121585,1,0,0:0:0:0:
320,192,121585,1,0,0:0:0:0:
64,0,121585,128,0,121785:1:0:0:0:
192,192,121685,1,0,0:0:0:0:
320,192,121685,1,0,0:0:0:0:
320,192,121785,1,0,0:0:0:0:
448,0,121785,128,0,121985:1:0:0:0:
192,192,121885,1,0,0:0:0:0:
320,192,121885,1,0,0:0:0:0:
64,192,121985,1,0,0:0:0:0:
192,192,121985,1,0,0:0:0:0:
64,192,122085,1,0,0:0:0:0:
320,192,122085,1,0,0:0:0:0:
192,192,122185,1,0,0:0:0:0:
320,0,122185,128,0,122385:1:0:0:0:
192,192,122285,1,0,0:0:0:0:
448,192,122285,1,0,0:0:0:0:
64,192,122385,1,0,0:0:0:0:
448,0,122385,128,0,122585:1:0:0:0:
64,192,122485,1,0,0:0:0:0:
192,192,122485,1,0,0:0:0:0:
320,192,122585,1,0,0:0:0:0:
192,0,122585,128,0,122785:1:0:0:0:
320,192,122685,1,0,0:0:0:0:
448,192,122685,1,0,0:0:0:0:
64,192,122785,1,0,0:0:0:0:
448,0,122785,128,0,122985:1:0:0:0:
64,192,122885,1,0,0:0:0:0:
320,192,122885,1,0,0:0:0:0:
64,192,122985,1,0,0:0:0:0:
192,192,122985,1,0,0:0:0:0:
192,192,123085,1,0,0:0:0:0:
320,192,123085,1,0,0:0:0:0:
320,192,123185,1,0,0:0:0:0:
448,192,123185,1,0,0:0:0:0:
64,192,123285,1,0,0:0:0:0:
448,192,123285,1,0,0:0:0:0:
64,192,123385,1,0,0:0:0:0:
320,192,123385,1,0,0:0:0:0:
192,192,123485,1,0,0:0:0:0:
320,192,123485,1,0,0:0:0:0:
64,192,123585,1,0,0:0:0:0:
192,192,123585,1,0,0:0:0:0:
448,0,123585,128,0,123785:1:0:0:0:
64,192,123685,1,0,0:0:0:0:
320,192,123685,1,0,0:0:0:0:
192,192,123785,1,0,0:0:0:0:
320,192,123785,1,0,0:0:0:0:
64,0,123785,128,0,123985:1:0:0:0:
192,192,123885,1,0,0:0:0:0:
448,192,123885,1,0,0:0:0:0:
320,192,123985,1,0,0:0:0:0:
448,0,123985,128,0,124185:1:0:0:0:
192,192,124085,1,0,0:0:0:0:
320,192,124085,1,0,0:0:0:0:
64,192,124185,1,0,0:0:0:0:
192,192,124185,1,0,0:0:0:0:
64,192,124285,1,0,0:0:0:0:
320,192,124285,1,0,0:0:0:0:
192,192,124385,1,0,0:0:0:0:
320,0,124385,128,0,124585:1:0:0:0:
192,192,124485,1,0,0:0:0:0:
448,192,124485,1,0,0:0:0:0:
64,192,124585,1,0,0:0:0:0:
448,0,124585,128,0,124785:1:0:0:0:
64,192,124685,1,0,0:0:0:0:
192,192,124685,1,0,0:0:0:0:
192,192,124785,1,0,0:0:0:0:
320,192,124785,1,0,0:0:0:0:
64,0,124785,128,0,124985:1:0:0:0:
320,192,124885,1,0,0:0:0:0:
448,192,124885,1,0,0:0:0:0:
192,192,124985,1,0,0:0:0:0:
448,0,124985,128,0,125185:1:0:0:0:
192,192,125085,1,0,0:0:0:0:
320,192,125085,1,0,0:0:0:0:
64,192,125185,1,0,0:0:0:0:
320,0,125185,128,0,125385:1:0:0:0:
64,192,125285,1,0,0:0:0:0:
192,192,125285,1,0,0:0:0:0:
192,192,125385,1,0,0:0:0:0:
448,192,125385,1,0,0:0:0:0:
320,192,125485,1,0,0:0:0:0:
448,192,125485,1,0,0:0:0:0:
192,192,125585,1,0,0:0:0:0:
320,192,125585,1,0,0:0:0:0:
448,0,125585,128,0,125785:1:0:0:0:
64,192,125685,1,0,0:0:0:0:
192,192,125685,1,0,0:0:0:0:
320,192,125785,1,0,0:0:0:0:
64,0,125785,128,0,125985:1:0:0:0:
192,192,125885,1,0,0:0:0:0:
320,192,125885,1,0,0:0:0:0:
192,192,125985,1,0,0:0:0:0:
448,192,125985,1,0,0:0:0:0:
320,192,126085,1,0,0:0:0:0:
448,192,126085,1,0,0:0:0:0:
64,192,126185,1,0,0:0:0:0:
192,192,126185,1,0,0:0:0:0:
320,192,126185,1,0,0:0:0:0:
64,192,126285,1,0,0:0:0:0:
448,192,126285,1,0,0:0:0:0:
64,192,126385,1,0,0:0:0:0:
192,192,126385,1,0,0:0:0:0:
320,192,126385,1,0,0:0:0:0:
448,192,126385,1,0,0:0:0:0:
320,192,126435,1,0,0:0:0:0:
448,192,126435,1,0,0:0:0:0:
64,192,126485,1,0,0:0:0:0:
192,192,126485,1,0,0:0:0:0:
320,192,126535,1,0,0:0:0:0:
448,192,126535,1,0,0:0:0:0:
64,192,126585,1,0,0:0:0:0:
192,192,126585,1,0,0:0:0:0:
320,192,126635,1,0,0:0:0:0:
448,192,126635,1,0,0:0:0:0:
64,192,126685,1,0,0:0:0:0:
192,192,126685,1,0,0:0:0:0:
320,192,126735,1,0,0:0:0:0:
448,192,126735,1,0,0:0:0:0:
64,192,126785,1,0,0:0:0:0:
192,192,126785,1,0,0:0:0:0:
320,192,126835,1,0,0:0:0:0:
448,192,126835,1,0,0:0:0:0:
64,192,126885,1,0,0:0:0:0:
192,192,126885,1,0,0:0:0:0:
320,192,126935,1,0,0:0:0:0:
448,192,126935,1,0,0:0:0:0:
64,192,126985,1,0,0:0:0:0:
192,192,126985,1,0,0:0:0:0:
320,192,127035,1,0,0:0:0:0:
448,192,127035,1,0,0:0:0:0:
64,192,127085,1,0,0:0:0:0:
192,192,127085,1,0,0:0:0:0:
320,192,127135,1,0,0:0:0:0:
448,192,127135,1,0,0:0:0:0:
64,192,127185,1,0,0:0:0:0:
192,192,127185,1,0,0:0:0:0:
320,192,127185,1,0,0:0:0:0:
448,192,127185,1,0,0:0:0:0:
64,192,127285,1,0,0:0:0:0:
192,192,127285,1,0,0:0:0:0:
320,192,127385,1,0,0:0:0:0:
448,192,127385,1,0,0:0:0:0:
64,0,127385,128,0,127585:1:0:0:0:
320,192,127485,1,0,0:0:0:0:
448,192,127485,1,0,0:0:0:0:
192,192,127585,1,0,0:0:0:0:
320,192,127585,1,0,0:0:0:0:
448,0,127585,128,0,127785:1:0:0:0:
192,192,127685,1,0,0:0:0:0:
320,192,127685,1,0,0:0:0:0:
64,192,127785,1,0,0:0:0:0:
192,192,127785,1,0,0:0:0:0:
64,192,127885,1,0,0:0:0:0:
192,192,127885,1,0,0:0:0:0:
64,192,127985,1,0,0:0:0:0:
320,192,127985,1,0,0:0:0:0:
448,0,127985,128,0,128185:1:0:0:0:
64,192,128085,1,0,0:0:0:0:
320,192,128085,1,0,0:0:0:0:
192,192,128185,1,0,0:0:0:0:
320,192,128185,1,0,0:0:0:0:
64,0,128185,128,0,128385:1:0:0:0:
192,192,128285,1,0,0:0:0:0:
320,192,128285,1,0,0:0:0:0:
192,192,128385,1,0,0:0:0:0:
448,192,128385,1,0,0:0:0:0:
320,0,128385,128,0,128585:1:0:0:0:
192,192,128485,1,0,0:0:0:0:
448,192,128485,1,0,0:0:0:0:
64,192,128585,1,0,0:0:0:0:
448,192,128585,1,0,0:0:0:0:
64,192,128685,1,0,0:0:0:0:
448,192,128685,1,0,0:0:0:0:
64,192,128785,1,0,0:0:0:0:
192,192,128785,1,0,0:0:0:0:
320,192,128785,1,0,0:0:0:0:
448,192,128785,1,0,0:0:0:0:
320,192,128885,1,0,0:0:0:0:
448,192,128885,1,0,0:0:0:0:
64,192,128985,1,0,0:0:0:0:
192,192,128985,1,0,0:0:0:0:
320,192,129085,1,0,0:0:0:0:
448,192,129085,1,0,0:0:0:0:
320,192,129185,1,0,0:0:0:0:
448,192,129185,1,0,0:0:0:0:
64,0,129185,128,0,129385:1:0:0:0:
192,192,129285,1,0,0:0:0:0:
320,192,129285,1,0,0:0:0:0:
320,192,129385,1,0,0:0:0:0:
448,192,129385,1,0,0:0:0:0:
192,192,129485,1,0,0:0:0:0:
320,192,129485,1,0,0:0:0:0:
64,192,129585,1,0,0:0:0:0:
448,192,129585,1,0,0:0:0:0:
192,192,129685,1,0,0:0:0:0:
320,192,129685,1,0,0:0:0:0:
64,192,129785,1,0,0:0:0:0:
448,192,129785,1,0,0:0:0:0:
192,192,129885,1,0,0:0:0:0:
320,192,129885,1,0,0:0:0:0:
64,192,129985,1,0,0:0:0:0:
320,192,129985,1,0,0:0:0:0:
448,192,129985,1,0,0:0:0:0:
192,192,130085,1,0,0:0:0:0:
448,192,130085,1,0,0:0:0:0:
64,192,130185,1,0,0:0:0:0:
320,192,130185,1,0,0:0:0:0:
192,192,130285,1,0,0:0:0:0:
448,192,130285,1,0,0:0:0:0:
192,192,130385,1,0,0:0:0:0:
320,192,130385,1,0,0:0:0:0:
448,192,130385,1,0,0:0:0:0:
64,0,130385,128,0,130585:1:0:0:0:
320,192,130485,1,0,0:0:0:0:
448,192,130485,1,0,0:0:0:0:
192,192,130585,1,0,0:0:0:0:
448,192,130585,1,0,0:0:0:0:
320,192,130685,1,0,0:0:0:0:
448,192,130685,1,0,0:0:0:0:
64,192,130785,1,0,0:0:0:0:
192,192,130785,1,0,0:0:0:0:
448,0,130785,128,0,130985:1:0:0:0:
64,192,130885,1,0,0:0:0:0:
320,192,130885,1,0,0:0:0:0:
64,192,130985,1,0,0:0:0:0:
192,192,130985,1,0,0:0:0:0:
64,192,131085,1,0,0:0:0:0:
320,192,131085,1,0,0:0:0:0:
64,192,131185,1,0,0:0:0:0:
448,192,131185,1,0,0:0:0:0:
192,192,131285,1,0,0:0:0:0:
320,192,131285,1,0,0:0:0:0:
64,192,131385,1,0,0:0:0:0:
448,192,131385,1,0,0:0:0:0:
192,192,131485,1,0,0:0:0:0:
320,192,131485,1,0,0:0:0:0:
64,192,131585,1,0,0:0:0:0:
192,192,131585,1,0,0:0:0:0:
448,192,131585,1,0,0:0:0:0:
320,192,131685,1,0,0:0:0:0:
448,192,131685,1,0,0:0:0:0:
64,192,131785,1,0,0:0:0:0:
192,192,131785,1,0,0:0:0:0:
320,192,131885,1,0,0:0:0:0:
448,192,131885,1,0,0:0:0:0:
64,192,131985,1,0,0:0:0:0:
192,192,131985,1,0,0:0:0:0:
320,192,131985,1,0,0:0:0:0:
448,192,131985,1,0,0:0:0:0:
192,192,132085,1,0,0:0:0:0:
320,192,132085,1,0,0:0:0:0:
64,192,132185,1,0,0:0:0:0:
192,192,132185,1,0,0:0:0:0:
320,192,132285,1,0,0:0:0:0:
448,192,132285,1,0,0:0:0:0:
